<?xml version="1.0" standalone="no"?>
<!DOCTYPE svg PUBLIC "-//W3C//DTD SVG 1.1//EN" "http://www.w3.org/Graphics/SVG/1.1/DTD/svg11.dtd" >
<svg xmlns="http://www.w3.org/2000/svg" xmlns:xlink="http://www.w3.org/1999/xlink" version="1.1">
<metadata></metadata>
<defs>
<font id="gloucester_mt_extra_condensRg" horiz-adv-x="916" >
<font-face units-per-em="2048" ascent="1638" descent="-410" />
<missing-glyph horiz-adv-x="356" />
<glyph horiz-adv-x="0" />
<glyph unicode="&#xd;" horiz-adv-x="356" />
<glyph unicode=" "  horiz-adv-x="356" />
<glyph unicode="&#x09;" horiz-adv-x="356" />
<glyph unicode="&#xa0;" horiz-adv-x="356" />
<glyph unicode="!" horiz-adv-x="384" d="M71 108q0 53 37.5 90.5t90.5 37.5q54 0 91.5 -37.5t37.5 -90.5t-38 -91t-91 -38t-90.5 38t-37.5 91zM77 1397q0 169 126 169q127 0 127 -164q0 -62 -21 -227q-45 -356 -51 -578l-5 -184q-1 -23 -20 -23h-61q-20 0 -20 23q-4 362 -57 797q-18 141 -18 187z" />
<glyph unicode="&#x22;" horiz-adv-x="787" d="M122 1377q0 123 98 123q44 0 73 -30.5t29 -78.5q0 -40 -26 -181l-54 -295h-43l-55 297q-22 121 -22 165zM463 1377q0 123 102 123q45 0 72.5 -30t27.5 -78q0 -85 -19 -184l-57 -293h-48l-54 292q-24 128 -24 170z" />
<glyph unicode="#" d="M41 978v106h223l57 436h106l-57 -436h264l55 436h107l-55 -436h135v-106h-149l-56 -436h210v-106h-224l-56 -436h-106l56 436h-264l-56 -436h-107l57 436h-135v106h148l56 436h-209zM302 542h263l55 436h-263z" />
<glyph unicode="$" horiz-adv-x="789" d="M41 258q0 59 34 99.5t91 40.5q51 0 81 -33.5t30 -81.5q0 -49 -40 -86q-20 -19 -20 -32q0 -59 118 -75v629q-262 191 -262 412q0 129 69 229t193 129v66h107v-55q100 0 188 -58.5t88 -161.5q0 -60 -29 -97t-80 -37q-39 0 -67.5 24.5t-28.5 66.5q0 36 30 75q16 20 16 31 q0 21 -37 41t-80 21v-504q307 -210 307 -489q0 -149 -76.5 -271t-230.5 -157v-249h-107v249q-135 10 -214.5 92.5t-79.5 181.5zM219 1210q0 -117 116 -221v405q-116 -48 -116 -184zM442 101q63 16 104 79t41 153q0 177 -145 297v-529z" />
<glyph unicode="%" horiz-adv-x="1238" d="M45 1175q0 187 59 294t181 107q118 0 177 -107.5t59 -296.5q0 -203 -66 -301t-165 -98q-125 0 -185 109t-60 293zM216 1087q0 -124 12.5 -187.5t57.5 -63.5q32 0 46.5 47t14.5 204v201q0 139 -14.5 181t-50.5 42q-35 0 -50.5 -44t-15.5 -167v-213zM235 -36l656 1608h112 l-654 -1608h-114zM716 393q0 198 63 299t177 101q118 0 177.5 -107.5t59.5 -295.5q0 -204 -66.5 -302t-165.5 -98q-125 0 -185 109.5t-60 293.5zM888 305q0 -124 12.5 -187.5t56.5 -63.5q37 0 49 55t12 196v200q0 131 -13.5 177.5t-50.5 46.5q-36 0 -51 -44t-15 -167v-213z " />
<glyph unicode="&#x26;" horiz-adv-x="1002" d="M60 360q0 116 46 214t188 260q-64 234 -64 367q0 149 73.5 247.5t201.5 98.5q113 0 188 -80t75 -193q0 -103 -62.5 -189t-202.5 -201q79 -265 178 -472q62 135 62 246q0 38 -23 59.5t-50 24.5q-23 3 -23 22v56q0 20 19 20h295q23 0 23 -24v-52q0 -23 -35 -35 q-42 -15 -56.5 -41t-34.5 -105q-46 -179 -109 -301q85 -150 187 -150q17 0 42 3v-78q-73 -78 -151 -78q-104 0 -208 128q-132 -122 -257 -122q-134 0 -218 106t-84 269zM251 494q0 -116 59.5 -226.5t141.5 -110.5q53 0 98 52q-99 141 -217 493q-82 -103 -82 -208zM423 1306 q0 -108 49 -296q126 140 126 291q0 142 -90 142q-85 0 -85 -137z" />
<glyph unicode="'" horiz-adv-x="345" d="M72 1370q0 130 97 130q44 0 74 -29.5t30 -78.5q0 -38 -26 -182l-54 -295h-44l-54 296q-23 124 -23 159z" />
<glyph unicode="(" horiz-adv-x="582" d="M60 631q0 215 65 405.5t161.5 313t227.5 234.5l52 -53q-170 -153 -229 -377t-59 -522q0 -321 63.5 -541t222.5 -363l-50 -48q-454 367 -454 951z" />
<glyph unicode=")" horiz-adv-x="580" d="M13 -268q171 154 229.5 377.5t58.5 521.5q0 247 -34 422.5t-94.5 282t-157.5 199.5l50 49q454 -368 454 -952q0 -585 -454 -952z" />
<glyph unicode="*" horiz-adv-x="841" d="M51 1082q0 8 21 12q132 24 294 100q-159 75 -291 105q-24 5 -24 14q0 4 3 9l72 123q5 8 15 8q12 0 27 -16q103 -115 227 -194q-12 173 -56 301q-3 10 -3 16q0 10 15 10h136q19 0 19 -12q0 -5 -6 -24q-42 -138 -50 -291q121 80 218 182q26 28 33 28q5 0 10 -8l73 -129 q4 -6 4 -9q0 -9 -51 -21q-134 -31 -262 -92q136 -70 285 -102q30 -6 30 -16q0 -3 -6 -13l-73 -127q-3 -6 -9 -6t-16 11q-115 122 -236 202q6 -140 51 -288q8 -25 8 -28q0 -11 -15 -11h-148q-16 0 -16 13q0 5 8 34q46 153 57 286q-145 -95 -218 -177q-31 -36 -40 -36 q-7 0 -11 7l-72 131q-3 4 -3 8z" />
<glyph unicode="+" d="M75 684v112h327v327h112v-327h327v-112h-327v-327h-112v327h-327z" />
<glyph unicode="," horiz-adv-x="354" d="M13 -212q120 113 144 190q-112 27 -112 130q0 55 38 92t92 37q62 0 98 -43.5t36 -99.5q0 -190 -244 -385z" />
<glyph unicode="-" horiz-adv-x="476" d="M45 374v185h386v-185h-386z" />
<glyph unicode="." horiz-adv-x="347" d="M45 108q0 53 37.5 90.5t90.5 37.5q54 0 91.5 -37.5t37.5 -90.5t-38 -91t-91 -38t-90.5 38t-37.5 91z" />
<glyph unicode="/" horiz-adv-x="605" d="M16 -21l471 1597h118l-475 -1597h-114z" />
<glyph unicode="0" horiz-adv-x="790" d="M57 714q0 401 93.5 593.5t238.5 192.5q168 0 256 -194t88 -568q0 -380 -89.5 -569.5t-244.5 -189.5q-150 0 -246 187t-96 548zM281 415q0 -337 115 -337q61 0 88.5 88.5t27.5 349.5v516q0 365 -116 365q-69 0 -92 -112.5t-23 -281.5v-588z" />
<glyph unicode="1" horiz-adv-x="789" d="M157 1315v55q0 18 16 26l202 90q30 14 50 14h73q21 0 21 -21v-1258q0 -62 18 -88t68 -30q27 -3 27 -26v-57q0 -20 -20 -20h-400q-24 0 -24 21v51q0 27 36 34q45 8 65.5 32t20.5 84v1076h-135q-18 0 -18 17z" />
<glyph unicode="2" horiz-adv-x="789" d="M36 36q0 117 52 209l214 377q92 162 144.5 292t52.5 255q0 101 -40 164.5t-106 63.5q-51 0 -86.5 -29t-35.5 -48q0 -8 20 -23q57 -41 57 -101q0 -46 -31.5 -80.5t-83.5 -34.5q-60 0 -93.5 39.5t-33.5 102.5q0 114 87 195.5t228 81.5q156 0 248.5 -93.5t92.5 -257.5 q0 -141 -69 -273t-259 -377q-162 -210 -199 -317h338q42 0 61.5 16t29.5 59q10 40 37 40h44q25 0 25 -23v-274h-657q-37 0 -37 36z" />
<glyph unicode="3" horiz-adv-x="789" d="M32 213q0 55 33 91.5t87 36.5q47 0 77.5 -31.5t30.5 -80.5q0 -53 -34 -88q-10 -10 -10 -17q0 -15 28 -30.5t69 -15.5q186 0 186 338q0 121 -26 195.5t-61 102t-99 39.5q-38 6 -38 25v63q0 25 34 27q170 10 170 294q0 238 -142 238q-37 0 -64.5 -13.5t-27.5 -31.5 q0 -12 14 -32q21 -29 21 -62q0 -41 -30 -71.5t-72 -30.5q-48 0 -77 34.5t-29 84.5q0 89 85.5 155.5t200.5 66.5q144 0 237.5 -95.5t93.5 -235.5q0 -224 -242 -359q275 -116 275 -405q0 -192 -118 -309t-283 -117q-125 0 -207 66.5t-82 167.5z" />
<glyph unicode="4" horiz-adv-x="789" d="M35 371v34q0 40 21 89l419 981q7 17 29 17h110q16 0 16 -12v-1027h105q20 0 20 -15v-82q0 -16 -14 -16h-111v-174q0 -56 55 -71q21 -6 21 -23v-54q0 -18 -18 -18h-332q-16 0 -16 14v61q0 15 19 22q61 20 61 90v153h-352q-33 0 -33 31zM153 453h267v619z" />
<glyph unicode="5" horiz-adv-x="789" d="M41 218q0 59 37 104t91 45q46 0 77 -32t31 -82q0 -62 -58 -94q-19 -11 -19 -20q0 -18 39.5 -44t91.5 -26q95 0 132.5 84t37.5 270q0 354 -202 354q-77 0 -152 -51l-42 37l36 705h350q60 0 80 46q9 21 30 21h40q12 0 12 -11v-236h-411l-22 -409q81 34 147 34 q117 0 195 -57t120.5 -155.5t42.5 -237.5q0 -243 -102.5 -367t-276.5 -124q-140 0 -222.5 70t-82.5 176z" />
<glyph unicode="6" horiz-adv-x="789" d="M60 652q0 409 121 625.5t310 216.5q93 0 160.5 -53.5t67.5 -125.5q0 -48 -31.5 -85t-83.5 -37t-81 33.5t-29 82.5q0 23 10 48q5 13 5 20q0 15 -21 15q-101 0 -149.5 -141t-53.5 -442q91 112 202 112q114 0 184 -106.5t70 -321.5q0 -245 -89.5 -379.5t-243.5 -134.5 q-348 0 -348 673zM285 504q0 -256 27 -343.5t88 -87.5q65 0 88 87t23 376q0 127 -23.5 177t-71.5 50q-73 0 -131 -88v-171z" />
<glyph unicode="7" horiz-adv-x="789" d="M67 1192l11 275q1 27 30 27q12 0 49 -9q43 -9 74 -9h468q24 0 24 -19v-112q-242 -536 -242 -944q0 -47 5 -125q5 -75 5 -108q0 -189 -129 -189q-63 0 -93 51t-30 121q0 179 110 532t244 616h-337q-73 0 -89 -90q-4 -22 -7.5 -29t-20.5 -7h-54q-18 0 -18 19z" />
<glyph unicode="8" horiz-adv-x="789" d="M45 338q0 208 225 402q-107 116 -147 208t-40 194q0 153 83 255.5t219 102.5q132 0 217 -93t85 -213q0 -168 -196 -350q253 -206 253 -466q0 -175 -94 -287t-255 -112q-154 0 -252 106.5t-98 252.5zM202 340q0 -116 56 -188t143 -72q77 0 125.5 59.5t48.5 147.5 q0 192 -243 399q-130 -174 -130 -346zM240 1230q0 -167 194 -329q114 147 114 278q0 95 -47.5 158.5t-114.5 63.5q-64 0 -105 -48t-41 -123z" />
<glyph unicode="9" horiz-adv-x="789" d="M48 976q0 236 94 380t241 144q152 0 248.5 -160t96.5 -538q0 -406 -114.5 -614.5t-308.5 -208.5q-98 0 -163 51.5t-65 128.5q0 48 33 84t83 36q102 0 102 -110q0 -27 -12 -53q-7 -13 -7 -19q0 -19 35 -19q87 0 140.5 120.5t53.5 335.5v123q-85 -114 -195 -114 q-114 0 -188 115.5t-74 317.5zM272 905q0 -194 112 -194q63 0 121 65v160q0 277 -30 370.5t-90 93.5q-59 0 -86 -75.5t-27 -256.5v-163z" />
<glyph unicode=":" horiz-adv-x="384" d="M81 108q0 53 37.5 90.5t90.5 37.5q54 0 91.5 -37.5t37.5 -90.5t-38 -91t-91 -38t-90.5 38t-37.5 91zM81 830q0 54 37.5 91.5t90.5 37.5t91 -38t38 -91q0 -52 -38 -90t-91 -38q-52 0 -90 38t-38 90z" />
<glyph unicode=";" horiz-adv-x="390" d="M49 -212q120 113 144 190q-112 27 -112 130q0 55 38 92t92 37q62 0 98 -43.5t36 -99.5q0 -190 -244 -385zM84 830q0 53 38 91t91 38t90.5 -37.5t37.5 -91.5q0 -52 -37.5 -90t-90.5 -38t-91 37.5t-38 90.5z" />
<glyph unicode="&#x3c;" d="M75 697v96l766 322v-121l-604 -249l604 -248v-122z" />
<glyph unicode="=" d="M75 526v112h766v-112h-766zM75 841v112h766v-112h-766z" />
<glyph unicode="&#x3e;" d="M75 375v122l604 248l-604 249v121l766 -322v-96z" />
<glyph unicode="?" horiz-adv-x="661" d="M44 1329q0 97 75 168.5t199 71.5q143 0 221 -89t78 -229q0 -145 -123 -358q-142 -245 -142 -431v-50q0 -20 -19 -20h-66q-18 0 -18 21v117q0 201 85 483q59 199 59 296q0 145 -92 145q-27 0 -48.5 -12t-21.5 -25q0 -10 15 -27q32 -35 32 -76q0 -44 -32.5 -78t-82.5 -34 q-52 0 -85.5 36t-33.5 91zM170 108q0 53 38 90.5t91 37.5t90.5 -37.5t37.5 -90.5t-37.5 -91t-90.5 -38q-54 0 -91.5 38t-37.5 91z" />
<glyph unicode="@" horiz-adv-x="1232" d="M60 596q0 419 165.5 661.5t513.5 242.5q433 0 433 -525q0 -279 -95 -427t-243 -148q-127 0 -143 121q-72 -119 -188 -119q-169 0 -169 229q0 201 105 341t328 140q82 0 101.5 -9.5t19.5 -41.5q0 -16 -2 -52l-27 -378q-3 -43 -3 -55q0 -55 38 -55q73 0 99.5 156t26.5 291 q0 217 -68.5 315.5t-215.5 98.5q-171 0 -281 -82.5t-169 -285t-59 -458.5q0 -460 318 -460q145 0 306 111q23 16 35 16q21 0 41 -31.5t20 -46.5q0 -25 -35 -46.5t-143.5 -70.5t-248.5 -49q-460 0 -460 617zM538 658q0 -115 55 -115q27 0 50.5 29t32.5 148l18 267q-8 2 -14 2 q-69 0 -105.5 -96.5t-36.5 -234.5z" />
<glyph unicode="A" horiz-adv-x="894" d="M18 24v52q0 21 22 34q41 25 54 85l233 1163l-10 68q-5 33 -5 37q0 10 15 17l169 79q4 2 9 2q14 0 18 -18l272 -1356q7 -37 17.5 -53t40.5 -34q23 -14 23 -32v-44q0 -24 -19 -24h-334q-27 0 -27 24v44q0 23 32 39q39 21 39 57q0 10 -2 23l-42 209h-261l-42 -201 q-3 -13 -3 -19q0 -30 45 -66q29 -24 29 -42v-44q0 -24 -29 -24h-209q-35 0 -35 24zM291 524h205l-101 513z" />
<glyph unicode="B" horiz-adv-x="846" d="M32 19v49q0 21 26 40q39 27 39 78v1184q0 53 -39 78q-26 16 -26 40v46q0 21 25 21h319q178 0 286.5 -105.5t108.5 -272.5q0 -118 -61.5 -221.5t-212.5 -160.5q303 -96 303 -384q0 -125 -59.5 -223t-167.5 -143t-216 -45h-307q-18 0 -18 19zM328 118q84 3 133.5 30 t75.5 92.5t26 176.5q0 160 -54.5 239.5t-180.5 80.5v-619zM328 852q213 0 213 290q0 108 -29 177.5t-71 91t-113 21.5v-580z" />
<glyph unicode="C" horiz-adv-x="802" d="M60 774q0 385 109.5 593.5t281.5 208.5q71 0 157 -48q12 -6 18 -6q7 0 20 12q7 10 17 11h57q19 0 20 -29v-328q0 -28 -20 -28h-44q-21 0 -28.5 11t-20.5 60q-61 231 -161 231q-59 0 -91 -60t-49 -227t-17 -338q0 -374 42 -549t147 -175q126 0 165 279l111 -12 q-10 -186 -91.5 -293.5t-211.5 -107.5q-186 0 -298.5 202.5t-112.5 592.5z" />
<glyph unicode="D" horiz-adv-x="900" d="M35 17v51q0 22 25 40q37 28 37 78v1184q0 51 -33 74q-29 21 -29 44v52q0 15 23 15h260q220 0 371 -179.5t151 -582.5q0 -208 -45.5 -397.5t-146 -292.5t-338.5 -103h-257q-18 0 -18 17zM328 116q100 0 155 48t80 210t25 372q0 227 -19 360t-47.5 200.5t-70.5 95.5 t-123 34v-1320z" />
<glyph unicode="E" horiz-adv-x="763" d="M34 24v44q0 21 33 46q29 23 29 72v1184q0 52 -37 78q-25 17 -25 40v48q0 19 24 19h514q14 0 53 3q35 3 44 3q33 0 33 -18v-294q0 -23 -4.5 -27.5t-25.5 -4.5h-37q-24 0 -27 28q-11 78 -39.5 133.5t-114.5 55.5h-126v-566h46q43 0 59 16.5t40 103.5q8 28 11 31t18 3h44 q26 0 26 -25v-377q0 -24 -24 -24h-46q-15 0 -21 7.5t-16 46.5q-18 71 -39 86.5t-58 15.5h-40v-633h135q75 0 104 35.5t72 194.5q10 36 36 36h43q25 0 25 -25v-360h-685q-24 0 -24 24z" />
<glyph unicode="F" horiz-adv-x="732" d="M29 1488v45q0 22 22 22h518q23 0 73 4q27 3 32 3q24 0 29 -6t5 -26v-298q0 -26 -29 -26h-39q-18 0 -23.5 7.5t-12.5 49.5q-16 101 -55.5 136t-115.5 35h-105v-587h66q39 0 54.5 17.5t31.5 70.5q12 39 16.5 44.5t23.5 5.5h44q26 0 26 -24v-345q0 -25 -21 -25h-49 q-17 0 -22.5 6.5t-14.5 35.5q-19 67 -41 81.5t-48 14.5h-66v-543q0 -52 38 -78q26 -17 26 -40v-45q0 -23 -26 -23h-312q-22 0 -22 21v47q0 22 26 40q38 27 38 78v1184q0 51 -40 78q-27 17 -27 40z" />
<glyph unicode="G" horiz-adv-x="861" d="M60 718q0 211 44 403.5t151.5 323.5t229.5 131q61 0 133 -34q21 -10 33 -10q6 0 23 8q13 6 22 6h39q28 0 28 -27v-330q0 -29 -25 -29h-42q-20 0 -23.5 4.5t-16.5 63.5q-50 233 -175 233q-60 0 -99 -55t-55.5 -254.5t-16.5 -397.5q0 -208 16 -342.5t38 -203t52.5 -93.5 t71.5 -25q88 0 88 126v216q0 56 -14 80.5t-59 43.5q-22 9 -22 27v42q0 23 25 23h252q25 0 31.5 -5.5t6.5 -23.5q0 -8 -3 -35q-5 -65 -5 -108v-280q0 -28 15 -42q12 -10 12 -27v-36q0 -21 -25 -38.5t-103 -45.5t-174 -28q-453 0 -453 739z" />
<glyph unicode="H" horiz-adv-x="887" d="M32 21v47q0 22 26 40q38 27 38 78v1184q0 51 -38 77q-26 17 -26 41v44q0 23 26 23h312q22 0 22 -21v-46q0 -23 -26 -41q-38 -27 -38 -77v-471h231v471q0 51 -39 77q-26 17 -26 41v44q0 23 26 23h312q22 0 22 -21v-46q0 -23 -25 -41q-39 -27 -39 -77v-1184q0 -52 39 -78 q26 -17 26 -40v-45q0 -23 -26 -23h-312q-22 0 -22 21v47q0 22 25 40q39 27 39 78v573h-231v-573q0 -52 38 -78q26 -17 26 -40v-45q0 -23 -26 -23h-312q-22 0 -22 21z" />
<glyph unicode="I" horiz-adv-x="425" d="M32 21v47q0 22 26 40q38 27 38 78v1184q0 51 -38 77q-26 17 -26 41v44q0 23 26 23h312q22 0 22 -21v-46q0 -23 -26 -41q-38 -27 -38 -77v-1184q0 -52 38 -78q26 -17 26 -40v-45q0 -23 -26 -23h-312q-22 0 -22 21z" />
<glyph unicode="J" horiz-adv-x="651" d="M12 166q0 48 33 81.5t86 33.5q43 0 70.5 -24t27.5 -62q0 -16 -6 -43q-3 -14 -3 -23q0 -39 42 -39q70 0 70 184v1096q0 51 -39 77q-25 17 -25 41v44q0 23 25 23h313q21 0 21 -21v-46q0 -23 -25 -41q-39 -27 -39 -77v-975q0 -188 -93.5 -299t-231.5 -111q-104 0 -165 54 t-61 127z" />
<glyph unicode="K" horiz-adv-x="886" d="M32 21v47q0 23 26 40q38 26 38 78v1184q0 51 -38 77q-26 18 -26 41v44q0 23 26 23h312q22 0 22 -21v-46q0 -23 -26 -41q-38 -26 -38 -77v-426l206 426q12 24 12 46q0 15 -25 33q-26 18 -26 39v40q0 27 26 27h295q31 0 31 -27v-40q0 -19 -7.5 -26.5t-35.5 -21.5 q-104 -49 -153 -149l-156 -315l250 -730q28 -83 97 -133q34 -25 34 -51v-33q0 -29 -31 -29h-332q-32 0 -32 30v31q0 26 21 43q38 29 38 50q0 14 -6 31l-206 596v-595q0 -51 38 -78q26 -18 26 -40v-45q0 -23 -26 -23h-312q-22 0 -22 21z" />
<glyph unicode="L" horiz-adv-x="714" d="M24 30v38q0 23 29 40q43 26 43 78v1184q0 51 -38 77q-26 17 -26 41v44q0 23 26 23h312q22 0 22 -21v-46q0 -23 -26 -41q-38 -27 -38 -77v-1251h85q75 0 116.5 46.5t61.5 158.5q8 43 11.5 49.5t17.5 6.5h47q27 0 27 -22v-358h-637q-33 0 -33 30z" />
<glyph unicode="M" horiz-adv-x="1065" d="M32 21v47q0 22 26 40q38 27 38 78v1184q0 51 -38 77q-26 17 -26 41v44q0 23 26 23h361l113 -729l113 729h365q22 0 22 -21v-46q0 -23 -26 -41q-38 -27 -38 -77v-1184q0 -52 39 -78q25 -17 25 -40v-45q0 -23 -26 -23h-301q-21 0 -21 21v47q0 22 25 40q39 27 39 78v1212 l-216 -1398h-80l-213 1398v-1212q0 -52 38 -78q26 -17 26 -40v-45q0 -23 -26 -23h-223q-22 0 -22 21z" />
<glyph unicode="N" horiz-adv-x="866" d="M32 21v47q0 22 26 40q38 27 38 78v1184q0 51 -38 77q-26 17 -26 41v44q0 23 26 23h212q23 0 31 -5.5t16 -26.5l306 -808v655q0 51 -38 77q-26 17 -26 41v44q0 23 26 23h226q22 0 22 -21v-46q0 -23 -25 -41q-39 -27 -39 -77v-1345q0 -32 -29 -32h-44q-30 0 -42 32 l-414 1090v-929q0 -52 39 -78q26 -17 26 -40v-45q0 -23 -26 -23h-225q-22 0 -22 21z" />
<glyph unicode="O" horiz-adv-x="927" d="M60 770q0 371 103.5 588.5t300.5 217.5q185 0 293.5 -200.5t108.5 -593.5q0 -401 -107.5 -602t-284.5 -201q-209 0 -311.5 210t-102.5 581zM313 612q0 -283 37 -404t113 -121q45 0 82.5 58t53.5 318t16 477q0 196 -24 322.5t-52 163t-72 36.5q-37 0 -66.5 -28t-46 -100.5 t-29 -283.5t-12.5 -438z" />
<glyph unicode="P" horiz-adv-x="829" d="M32 21v47q0 22 26 40q38 27 38 78v1184q0 51 -38 77q-26 17 -26 41v44q0 23 26 23h270q220 0 340.5 -114.5t120.5 -304.5q0 -421 -461 -421v-529q0 -52 38 -78q26 -17 26 -40v-45q0 -23 -26 -23h-312q-22 0 -22 21zM328 833q90 0 131.5 20.5t66.5 82t25 190.5 q0 128 -23 191.5t-69 89.5t-131 29v-603z" />
<glyph unicode="Q" horiz-adv-x="927" d="M60 769q0 382 103.5 594.5t297.5 212.5q196 0 300.5 -210.5t104.5 -584.5q0 -201 -28.5 -351t-76 -245.5t-105.5 -140.5t-137 -64q89 -30 175 -87q59 -39 104 -39q9 0 27 2q10 1 12 1q12 0 12 -11v-44q0 -27 -47 -52t-102 -25q-95 0 -193 115q-100 117 -139 149 q-308 117 -308 780zM313 612q0 -283 37 -404t113 -121q45 0 82.5 58t53.5 318t16 477q0 196 -24 322.5t-52 163t-72 36.5q-37 0 -66.5 -28t-46 -100.5t-29 -283.5t-12.5 -438z" />
<glyph unicode="R" horiz-adv-x="852" d="M32 21v47q0 22 26 40q38 27 38 78v1184q0 51 -38 77q-26 17 -26 41v44q0 23 26 23h262q222 0 338 -100t116 -289q0 -301 -279 -389q82 -40 124.5 -90.5t65.5 -148.5l73 -317q14 -61 27.5 -82.5t44.5 -40.5q9 -6 9 -19v-57q0 -22 -22 -22h-200q-29 0 -37 32l-136 550 q-22 91 -48.5 118t-67.5 28v-542q0 -52 38 -78q26 -17 26 -40v-45q0 -23 -26 -23h-312q-22 0 -22 21zM328 847q108 0 159 68t51 242q0 170 -51.5 223.5t-158.5 53.5v-587z" />
<glyph unicode="S" horiz-adv-x="731" d="M48 1186q0 166 83.5 273t203.5 107q55 0 118 -31q28 -14 38 -14t22 8q12 7 30 7h37q29 0 30 -27v-331q0 -25 -23 -25h-46q-18 0 -23.5 9.5t-19.5 72.5q-47 217 -153 217q-57 0 -91.5 -48t-34.5 -111q0 -73 40.5 -149.5t161.5 -200.5q155 -159 214.5 -279.5t59.5 -261.5 q0 -190 -99.5 -309t-236.5 -119q-61 0 -143 32q-26 11 -37 11q-10 0 -26 -10q-12 -7 -19 -7h-50q-25 0 -25 27v377q0 38 27 38h43q17 0 22 -11.5t16 -79.5q41 -262 187 -262q76 0 119.5 66t43.5 160q0 97 -46.5 180t-179.5 224q-103 108 -146.5 167.5t-70 134.5t-26.5 165z " />
<glyph unicode="T" horiz-adv-x="788" d="M24 1251v291q0 34 32 34q20 0 71 -8q82 -13 124 -13h354q27 4 66 11q60 9 66 9q27 0 27 -25v-299q0 -29 -26 -29h-38q-23 0 -27.5 13t-14.5 65q-18 86 -37 112.5t-67 26.5h-45v-1253q0 -52 38 -78q26 -17 26 -40v-45q0 -23 -26 -23h-312q-22 0 -22 21v47q0 22 26 40 q38 27 38 78v1253h-44q-49 0 -72.5 -37t-42.5 -163q-2 -17 -21 -17h-39q-34 0 -34 29z" />
<glyph unicode="U" horiz-adv-x="856" d="M32 1488v44q0 23 26 23h312q22 0 22 -21v-46q0 -23 -26 -41q-38 -26 -38 -77v-1040q0 -208 138 -208q151 0 151 244v1004q0 51 -38 77q-26 18 -26 41v44q0 23 26 23h223q22 0 22 -21v-46q0 -23 -26 -41q-38 -26 -38 -77v-1010q0 -179 -91 -280t-238 -101t-241 100 t-94 262v1029q0 51 -38 77q-26 18 -26 41z" />
<glyph unicode="V" horiz-adv-x="849" d="M24 1486v46q0 23 26 23h309q24 0 24 -25v-50q0 -19 -25 -34q-34 -22 -34 -56q0 -13 3 -31l141 -711l138 695q4 17 4 29q0 42 -45 66q-34 19 -34 42v50q0 25 28 25h236q30 0 30 -25v-50q0 -25 -28 -39q-48 -25 -61 -90l-261 -1341q-6 -31 -29 -31h-41q-23 0 -29 31 l-263 1333q-15 72 -63 103q-26 17 -26 40z" />
<glyph unicode="W" horiz-adv-x="1223" d="M24 1482v47q0 26 29 26h292q19 0 19 -16v-61q0 -16 -19 -24q-36 -16 -36 -56q0 -12 3 -30l133 -713l106 592l-26 139q-8 43 -53 60q-20 8 -20 25v64q0 20 18 20h310q22 0 22 -20v-36q0 -25 -4.5 -34t-26.5 -21q-37 -19 -37 -54q0 -10 2 -22l132 -713l121 687q3 16 3 32 q0 48 -46 68q-35 16 -35 42v44q0 27 31 27h223q34 0 34 -32v-39q0 -19 -26 -36q-46 -31 -57 -91l-242 -1346q-5 -32 -28 -32h-44q-17 0 -23 32l-165 893l-162 -893q-6 -32 -27 -32h-43q-20 0 -26 32l-256 1375q-8 48 -52 63q-24 8 -24 33z" />
<glyph unicode="X" horiz-adv-x="893" d="M24 25v43q0 24 21 37q47 29 70 87l227 569l-227 624q-14 38 -47 59q-23 15 -23 34v49q0 28 27 28h290q30 0 30 -31v-46q0 -20 -28 -36q-24 -14 -24 -31q0 -4 2 -9l120 -342l127 313q6 16 6 29q0 20 -27 35q-32 19 -32 48v44q0 26 30 26h233q31 0 31 -28v-47 q0 -25 -29 -34q-56 -17 -78 -73l-196 -491l248 -690q19 -54 65 -82q28 -17 28 -40v-50q0 -20 -18 -20h-326q-28 0 -28 26v37q0 27 26 47q31 24 31 46t-10 49l-136 379l-153 -379q-9 -21 -9 -39q0 -32 43 -52q33 -16 33 -42v-46q0 -26 -27 -26h-241q-29 0 -29 25z" />
<glyph unicode="Y" horiz-adv-x="841" d="M12 1483v50q0 22 19 22h323q28 0 28 -26v-48q0 -18 -28 -28q-44 -16 -44 -46q0 -10 4 -22l146 -486l131 445q7 25 7 48q0 38 -45 58q-26 11 -26 29v53q0 23 23 23h250q29 0 29 -22v-52q0 -22 -29 -35q-57 -28 -74 -84l-199 -669v-507q0 -52 39 -78q25 -17 25 -40v-45 q0 -23 -26 -23h-312q-22 0 -22 21v47q0 22 26 40q38 27 38 78v507l-200 677q-19 60 -60 79q-23 10 -23 34z" />
<glyph unicode="Z" horiz-adv-x="717" d="M17 29v44l424 1364h-125q-73 0 -102 -34t-44 -134q-7 -45 -11.5 -49.5t-22.5 -4.5h-46q-21 0 -21 20v320h589q33 0 33 -27q0 -42 -21 -110l-402 -1300h120q154 0 185 205q7 47 13.5 56t22.5 9h48q21 0 21 -22v-366h-633q-28 0 -28 29z" />
<glyph unicode="[" horiz-adv-x="499" d="M113 -288v1843h344q17 0 17 -15v-47q0 -12 -17 -12h-67q-43 0 -61 -13.5t-18 -52.5v-1539q0 -46 19.5 -65t70.5 -19h53q20 0 20 -17v-46q0 -17 -19 -17h-342z" />
<glyph unicode="\" horiz-adv-x="605" d="M0 1576h118l471 -1597h-114z" />
<glyph unicode="]" horiz-adv-x="478" d="M24 -227q0 13 17 13h67q43 0 61 13.5t18 52.5v1539q0 46 -19.5 65t-69.5 19h-53q-21 0 -21 16v47q0 17 20 17h341v-1843h-344q-17 0 -17 15v46z" />
<glyph unicode="^" horiz-adv-x="704" d="M6 1043l308 512h80l304 -512h-112l-233 390l-233 -390h-114z" />
<glyph unicode="_" horiz-adv-x="512" d="M-12 -154h536v-102h-536v102z" />
<glyph unicode="`" horiz-adv-x="683" d="M108 1425h225l146 -310h-102z" />
<glyph unicode="a" horiz-adv-x="648" d="M30 230q0 282 346 371v140q0 124 -96 124q-34 0 -34 -21q0 -8 6 -24q12 -29 12 -50q0 -38 -25 -64.5t-69 -26.5q-48 0 -77 29.5t-29 77.5q0 79 70.5 128.5t163.5 49.5q131 0 203.5 -70.5t72.5 -199.5v-498q0 -41 8.5 -62.5t37.5 -27.5q24 -5 24 -26v-43q0 -53 -82 -53 q-110 0 -152 106q-96 -111 -185 -111q-85 0 -140 70.5t-55 180.5zM235 270q0 -139 73 -139q32 0 50 31.5t18 69.5v267q-141 -52 -141 -229z" />
<glyph unicode="b" horiz-adv-x="698" d="M27 1492v44q0 16 20 16l223 3v-660q77 63 147 63q236 0 236 -453q0 -247 -70.5 -386.5t-201.5 -139.5q-58 0 -136 40q-40 21 -56 21q-31 0 -90 -56h-27v1413q0 48 -31 74q-14 12 -14 21zM270 107q34 -14 59 -14q65 0 87 74t22 366q0 176 -24 234.5t-80 58.5 q-38 0 -64 -22v-697z" />
<glyph unicode="c" horiz-adv-x="624" d="M45 462q0 257 92.5 379.5t232.5 122.5q95 0 159.5 -56.5t64.5 -140.5q0 -53 -30 -84.5t-75 -31.5q-40 0 -65.5 26t-25.5 64q0 34 25 71q11 16 11 24q0 33 -53 33q-115 0 -115 -231v-231q0 -292 121 -292q92 0 106 190l108 -11q-18 -315 -247 -315q-135 0 -222 119 t-87 364z" />
<glyph unicode="d" horiz-adv-x="703" d="M45 419q0 545 235 545q69 0 149 -60v486q0 55 -42 76q-19 9 -19 26v37q0 18 23 18l236 8v-1402q0 -45 25 -65q12 -10 12 -33v-43q0 -18 -18 -18h-217v95q-81 -102 -167 -102q-217 0 -217 432zM258 345q0 -231 84 -231q47 0 87 62v629q-42 32 -76 32q-66 0 -80.5 -97 t-14.5 -217v-178z" />
<glyph unicode="e" horiz-adv-x="644" d="M45 462q0 234 79.5 368t213.5 134q119 0 192 -104t73 -275v-84q0 -24 -25 -24h-312v-82q0 -135 26 -207t91 -72q76 0 105 146l107 -18q-23 -265 -239 -265q-143 0 -227 121t-84 362zM266 587h145v138q0 144 -74 144q-71 0 -71 -184v-98z" />
<glyph unicode="f" horiz-adv-x="394" d="M16 851v48q0 16 22 28q28 15 37 40t13 109q11 238 99 369t205 131q50 0 85.5 -31.5t35.5 -78.5q0 -38 -25 -68t-71 -30q-53 0 -74 55q-9 25 -20 25q-40 0 -40 -184v-321h75q24 0 24 -21v-67q0 -18 -22 -18h-77v-678q0 -53 42 -74q19 -9 19 -29v-37q0 -19 -22 -19h-276 q-22 0 -22 19v37q0 19 18 29q43 22 43 74v678h-53q-16 0 -16 14z" />
<glyph unicode="g" horiz-adv-x="677" d="M29 24q0 14 15 53l111 277q-112 97 -112 280q0 143 65.5 236.5t200.5 93.5q80 0 142 -40q69 70 124 70q35 0 61 -20.5t26 -53.5q0 -59 -59 -59q-19 0 -43 13q-19 10 -27 10q-16 0 -32 -9q74 -103 74 -227q0 -156 -68 -248t-190 -92q-32 0 -79 8l-51 -127h92 q343 0 343 -237q0 -122 -91.5 -191.5t-239.5 -69.5q-118 0 -185.5 41t-67.5 111q0 40 26 66.5t68 26.5q39 0 65.5 -23t26.5 -58q0 -21 -14 -48q48 -23 99 -23q65 0 111.5 34t46.5 84q0 108 -238 108q-48 0 -116 -3q-35 -2 -52 -2q-32 0 -32 19zM236 586q0 -102 16 -145.5 t56 -43.5q42 0 58 47t16 181q0 153 -16 201.5t-54 48.5q-50 0 -63 -72t-13 -217z" />
<glyph unicode="h" horiz-adv-x="699" d="M21 1480v49q0 18 22 18l237 8v-682q95 83 184 83q164 0 164 -196v-616q0 -31 26 -64q13 -16 13 -22v-42q0 -16 -15 -16h-244q-16 0 -16 16v52q0 8 11 16q27 21 27 50v617q0 72 -59 72q-48 0 -91 -55v-624q0 -34 23 -59q11 -12 11 -17v-55q0 -13 -14 -13h-248 q-16 0 -16 15v53q0 7 13 17q33 26 33 71v1222q0 55 -43 76q-18 9 -18 26z" />
<glyph unicode="i" horiz-adv-x="356" d="M21 19v37q0 20 19 29q42 21 42 74v619q0 54 -43 76q-18 10 -18 26v37q0 18 22 19l237 7v-784q0 -52 43 -74q18 -10 18 -29v-37q0 -19 -22 -19h-276q-22 0 -22 19zM59 1352q0 52 36.5 86t80.5 34q52 0 87 -35t35 -85q0 -49 -35 -84t-84 -35q-50 0 -85 35t-35 84z" />
<glyph unicode="j" horiz-adv-x="349" d="M-148 -223q0 37 27.5 61t65.5 24q36 0 58.5 -21.5t22.5 -49.5q0 -10 -4 -30q57 20 57 183v834q0 55 -43 76q-18 9 -18 26v37q0 18 22 19l237 7v-849q0 -184 -82.5 -299t-213.5 -115q-61 0 -95 26.5t-34 70.5zM49 1352q0 52 36.5 86t80.5 34q53 0 87.5 -35.5t34.5 -84.5 t-35 -84t-84 -35t-84.5 35t-35.5 84z" />
<glyph unicode="k" horiz-adv-x="720" d="M17 19v37q0 19 19 29q42 22 42 71v1234q0 55 -43 76q-18 9 -18 26v37q0 18 22 18l237 8v-1072l150 246q28 47 28 79q0 31 -39 44q-24 8 -24 25v47q0 19 20 19h251q26 0 26 -23v-46q0 -18 -32 -27q-68 -18 -104 -73l-79 -118l169 -490q22 -63 53 -84q13 -9 13 -20v-38 q0 -24 -23 -24h-259q-23 0 -23 24v33q0 21 24 37q25 17 25 36q0 17 -6 36l-94 301l-76 -115v-199q0 -47 43 -68q18 -9 18 -29v-37q0 -19 -22 -19h-276q-22 0 -22 19z" />
<glyph unicode="l" horiz-adv-x="352" d="M17 19v37q0 20 19 29q42 21 42 74v1231q0 54 -43 76q-18 9 -18 26v37q0 18 22 18l237 8v-1396q0 -52 43 -74q18 -10 18 -29v-37q0 -19 -22 -19h-276q-22 0 -22 19z" />
<glyph unicode="m" horiz-adv-x="1047" d="M34 878v43q0 22 31 22l216 5v-78q94 86 188 86q93 0 141 -100q113 100 200 100q80 0 122.5 -57.5t42.5 -152.5v-597q0 -36 27 -61q14 -13 14 -21v-43q0 -24 -22 -24h-234q-21 0 -21 20v47q0 13 13 26q25 23 25 69v575q0 83 -60 83q-33 0 -88 -49v-609q0 -48 32 -77 q12 -11 12 -18v-40q0 -27 -25 -27h-234q-21 0 -21 21v46q0 13 13 26q25 24 25 69v563q0 95 -62 95q-36 0 -88 -49v-609q0 -40 29 -72q13 -15 13 -23v-43q0 -24 -24 -24h-234q-22 0 -22 19v48q0 14 16 28q24 22 24 54v628q0 46 -32 74q-17 15 -17 27z" />
<glyph unicode="n" horiz-adv-x="699" d="M21 880v37q0 18 22 19l237 7v-82q85 91 186 91q75 0 117.5 -58t42.5 -151v-599q0 -31 27 -64q13 -16 13 -22v-42q0 -16 -15 -16h-244q-17 0 -17 16v52q0 8 11 16q27 21 27 50v609q0 73 -52 73q-50 0 -96 -60v-612q0 -34 23 -59q11 -12 11 -17v-55q0 -13 -14 -13h-248 q-16 0 -16 15v53q0 7 13 17q33 26 33 71v622q0 55 -43 76q-18 9 -18 26z" />
<glyph unicode="o" horiz-adv-x="703" d="M45 473q0 256 84 373.5t213 117.5q316 0 316 -497q0 -234 -78 -361t-225 -127q-149 0 -229.5 124.5t-80.5 369.5zM263 397q0 -180 19.5 -249.5t71.5 -69.5q44 0 64.5 53.5t20.5 197.5v238q0 171 -21 234.5t-68 63.5q-87 0 -87 -242v-226z" />
<glyph unicode="p" horiz-adv-x="707" d="M17 882v37q0 18 22 18l231 8v-95q80 102 169 102q108 0 165.5 -125.5t57.5 -330.5q0 -148 -26.5 -274.5t-71 -184.5t-118.5 -58q-95 0 -170 79v-227q0 -46 28 -68q15 -11 15 -23v-54q0 -14 -11 -14h-267q-16 0 -16 14v54q0 11 15 21q38 23 38 81v938q0 55 -43 76 q-18 9 -18 26zM276 157q45 -49 81 -49q50 0 71 76.5t21 305.5q0 206 -23.5 270.5t-70.5 64.5q-37 0 -79 -41v-627z" />
<glyph unicode="q" horiz-adv-x="703" d="M45 451q0 251 74 382t210 131q55 0 118 -33q41 -21 63 -21q43 0 93 54h27v-1137q0 -37 31 -63q18 -15 18 -25v-49q0 -18 -14 -18h-265q-18 0 -18 19v48q0 9 14 17q36 21 36 75v224q-77 -69 -151 -69q-103 0 -169.5 114t-66.5 351zM260 536q0 -251 20.5 -332.5t77.5 -81.5 q37 0 74 28v665q-38 40 -66 40q-63 0 -84.5 -87.5t-21.5 -231.5z" />
<glyph unicode="r" horiz-adv-x="542" d="M36 10v62q0 9 14 15q32 15 32 57v617q0 53 -33 87q-13 14 -13 22v49q0 20 28 21l178 3v-202q66 215 185 215q48 0 75.5 -33t27.5 -78t-26 -76.5t-68 -31.5q-46 0 -84 45q-72 -115 -72 -275v-340q0 -45 38 -81q16 -14 16 -21v-50q0 -15 -13 -15h-273q-12 0 -12 10z" />
<glyph unicode="s" horiz-adv-x="595" d="M23 172q0 46 28 79.5t81 33.5q96 0 96 -91q0 -15 -6 -39q-6 -22 -6 -31q0 -49 70 -49q53 0 88 33.5t35 76.5q0 47 -30.5 86.5t-119.5 107.5q-120 92 -169 158.5t-49 159.5q0 119 84 193t192 74q98 0 161.5 -49t63.5 -124q0 -43 -29.5 -74t-76.5 -31q-38 0 -67.5 22.5 t-29.5 64.5q0 17 9 38q6 14 6 21q0 35 -53 35q-38 0 -67.5 -27.5t-29.5 -76.5q0 -42 27 -79.5t142 -120.5q111 -80 155 -147.5t44 -152.5q0 -135 -87 -209.5t-207 -74.5q-114 0 -184.5 54.5t-70.5 138.5z" />
<glyph unicode="t" horiz-adv-x="419" d="M14 855v50q0 21 22 38q29 21 37 47.5t8 86.5v164q0 24 32 28l122 13q16 2 21 2q14 0 14 -24v-317h102q29 0 29 -23v-61q0 -24 -23 -24h-108v-608q0 -99 61 -99q14 0 30 4q11 3 17 3q18 0 23 -14l15 -48q3 -6 3 -9q0 -22 -66 -53.5t-124 -31.5q-157 0 -157 195v661h-35 q-23 0 -23 20z" />
<glyph unicode="u" horiz-adv-x="693" d="M30 872v49q0 18 20 18l221 4v-747q0 -72 55 -72q48 0 94 60v619q0 23 -27 47q-15 14 -15 22v49q0 18 19 18l221 4v-807q0 -24 27 -48q16 -14 16 -22v-48q0 -18 -20 -19l-221 -4v79q-108 -87 -185 -87t-119.5 50.5t-42.5 132.5v633q0 23 -27 47q-16 14 -16 22z" />
<glyph unicode="v" horiz-adv-x="640" d="M12 890v32q0 21 21 21h249q23 0 23 -20v-38q0 -19 -22 -31q-32 -19 -32 -44q0 -13 3 -26l101 -415l97 398q3 13 3 26q0 44 -49 69q-20 10 -20 17v45q0 19 21 19h202q19 0 19 -19v-45q0 -15 -20 -23q-41 -16 -55 -72l-198 -771q-5 -20 -22 -20h-47q-18 0 -23 20l-187 771 q-14 60 -47 77q-17 9 -17 29z" />
<glyph unicode="w" horiz-adv-x="965" d="M12 888v39q0 16 19 16h250q25 0 25 -22v-38q0 -16 -22 -31q-29 -20 -29 -46q0 -11 4 -26l87 -379l121 542h91l135 -554l80 343q7 27 7 51q0 41 -42 68q-27 18 -27 32v37q0 23 24 23h193q25 0 25 -22v-38q0 -17 -17 -24q-41 -19 -61 -104l-182 -763h-77l-138 567 l-132 -567h-80l-181 776q-14 63 -53 88q-20 13 -20 32z" />
<glyph unicode="x" horiz-adv-x="649" d="M12 22v36q0 19 26 26q44 13 65 58l140 298l-163 355q-20 43 -50 64q-18 12 -18 31v34q0 19 21 19h243q28 0 28 -21v-44q0 -11 -19 -22q-23 -15 -23 -31q0 -12 8 -30l69 -153l64 142q8 17 8 32q0 18 -33 38q-24 14 -24 24v44q0 21 24 21h197q23 0 23 -20v-45 q0 -18 -26 -27q-42 -15 -61 -56l-123 -259l183 -394q12 -26 44 -56q21 -19 21 -34v-32q0 -20 -21 -20h-253q-23 0 -23 22v42q0 12 20 21q29 13 29 33q0 11 -6 24l-89 189l-72 -152q-13 -27 -13 -49t39 -43q29 -16 29 -29v-35q0 -23 -23 -23h-217q-24 0 -24 22z" />
<glyph unicode="y" horiz-adv-x="646" d="M3 -206q0 44 29 66t66 22q39 0 109 -48q40 67 60 172l-184 764q-13 53 -55 84q-16 13 -16 22v49q0 18 21 18h263q18 0 18 -16v-51q0 -13 -18 -20q-36 -13 -36 -53q0 -22 7 -52l90 -381l90 370q6 24 6 38q0 36 -44 70q-24 19 -24 28v50q0 17 16 17h215q18 0 18 -17v-50 q0 -12 -19 -23q-49 -29 -66 -102l-164 -682q-43 -179 -71 -239.5t-78.5 -97.5t-112.5 -37q-55 0 -87.5 27t-32.5 72z" />
<glyph unicode="z" horiz-adv-x="575" d="M19 24v85l333 743h-74q-113 0 -131 -129q-6 -42 -24 -42h-54q-14 0 -14 13v226q0 23 23 23h441q33 0 33 -28v-63l-337 -763h63q126 0 155 59.5t35 104.5q2 17 17 17h45q22 0 22 -19v-251h-508q-25 0 -25 24z" />
<glyph unicode="{" horiz-adv-x="605" d="M37 625v61q98 14 147 76t49 138q0 58 -26 172q-27 117 -27 156q0 133 111 226.5t301 100.5v-46q-195 -37 -195 -191q0 -48 23 -159q25 -119 25 -166q0 -247 -326 -336q187 -55 257.5 -148t70.5 -183q0 -46 -19 -132q-30 -138 -30 -198q0 -157 194 -195v-47 q-116 0 -201.5 32.5t-148.5 114.5t-63 172q0 46 31 187q22 106 22 159q0 87 -52 139t-143 67z" />
<glyph unicode="|" horiz-adv-x="514" d="M201 -309v1885h112v-1885h-112z" />
<glyph unicode="}" horiz-adv-x="605" d="M13 -199q193 38 193 195q0 60 -30 198q-19 86 -19 132q0 69 41 140t106 112.5t182 78.5q-326 89 -326 336q0 47 25 166q23 111 23 159q0 154 -195 191v46q200 -5 305.5 -105.5t105.5 -221.5q0 -39 -26 -156q-26 -114 -26 -172q0 -76 48.5 -138t147.5 -76v-61 q-99 -14 -147.5 -72.5t-48.5 -135.5q0 -53 23 -157q31 -141 31 -187q0 -90 -63 -172t-148.5 -114.5t-201.5 -32.5v47z" />
<glyph unicode="~" d="M73 626q3 125 59.5 180t127.5 55t266 -82q101 -43 145 -43q100 0 112 125h61q0 -111 -55 -173t-137 -62q-39 0 -82.5 13t-180.5 70q-100 41 -142 41q-96 0 -114 -124h-60z" />
<glyph unicode="&#xa1;" horiz-adv-x="384" d="M53 -148q0 62 21 227q44 357 50 578l5 184q1 23 21 23h61q19 0 20 -23q3 -362 57 -797q18 -141 18 -186q0 -169 -126 -169q-127 0 -127 163zM55 1146q0 53 37.5 91t90.5 38q54 0 91.5 -37.5t37.5 -91.5q0 -53 -38 -90.5t-91 -37.5t-90.5 37.5t-37.5 90.5z" />
<glyph unicode="&#xa2;" horiz-adv-x="619" d="M46 463q0 429 267 492v177h70v-175q89 -3 150.5 -56.5t61.5 -137.5q0 -53 -29.5 -84t-74.5 -31q-42 0 -67 26.5t-25 63.5q0 27 21 63q15 24 15 34q0 30 -52 30q-64 0 -90 -61t-26 -222v-139q0 -322 121 -322q98 0 104 190l109 -11q-1 -141 -63 -226.5t-150 -88.5v-161 h-75v164q-267 45 -267 475z" />
<glyph unicode="&#xa3;" horiz-adv-x="960" d="M27 157q0 77 53.5 126t128.5 49q85 0 206 -58q7 54 7 78q0 120 -101 330h-226v115h176q-96 200 -96 341q0 152 99.5 257t249.5 105q126 0 218 -73t92 -178q0 -54 -31 -87t-80 -33q-47 0 -76.5 30.5t-29.5 72.5q0 49 42 83q18 15 18 25q0 20 -32.5 39t-75.5 19 q-82 0 -132 -64.5t-50 -165.5q0 -115 72 -371h226v-115h-195q40 -176 40 -294q0 -82 -20 -158q101 -54 179 -54q148 0 164 205h81q-6 -213 -72.5 -307.5t-170.5 -94.5q-109 0 -250 114q-94 -114 -225 -114q-78 0 -133.5 48.5t-55.5 129.5zM108 153q0 -38 28 -63.5t70 -25.5 q87 0 158 89q-106 76 -170 76q-34 0 -60 -19.5t-26 -56.5z" />
<glyph unicode="&#xa4;" d="M107 468l88 88q-58 84 -58 171q0 107 58 197l-88 88l79 79l89 -88q86 58 171 58q118 0 196 -58l88 88l79 -79l-87 -88q58 -86 58 -174q0 -105 -58 -194l88 -88l-80 -80l-88 88q-89 -58 -172 -58q-112 0 -196 58l-88 -88zM246 740q0 -85 60.5 -149t151.5 -64 q88 0 150.5 62.5t62.5 150.5q0 87 -62.5 149.5t-150.5 62.5q-90 0 -151 -63.5t-61 -148.5z" />
<glyph unicode="&#xa5;" horiz-adv-x="841" d="M12 1483v50q0 22 19 22h323q28 0 28 -26v-48q0 -18 -28 -28q-44 -16 -44 -46q0 -10 4 -22l146 -486l131 445q7 25 7 48q0 38 -45 58q-26 11 -26 29v53q0 23 23 23h250q29 0 29 -22v-52q0 -22 -29 -35q-57 -28 -74 -84l-138 -463h205v-94h-233l-33 -112v-72h266v-94h-266 v-341q0 -52 39 -78q25 -17 25 -40v-45q0 -23 -26 -23h-312q-22 0 -22 21v47q0 22 26 40q38 27 38 78v341h-247v94h247v72l-33 112h-214v94h186l-139 471q-19 60 -60 79q-23 10 -23 34z" />
<glyph unicode="&#xa6;" horiz-adv-x="514" d="M201 -309v724h112v-724h-112zM201 852v724h112v-724h-112z" />
<glyph unicode="&#xa7;" horiz-adv-x="704" d="M66 594q0 78 35.5 149.5t117.5 177.5q-73 82 -111 145.5t-38 153.5q0 142 86.5 235.5t239.5 93.5q107 0 172.5 -55t65.5 -126q0 -46 -27.5 -80t-73.5 -34q-41 0 -69.5 27.5t-28.5 71.5q0 15 6 35q5 18 5 27q0 39 -65 39q-68 0 -108 -48t-40 -112q0 -54 27.5 -95.5 t106.5 -118.5q143 -138 206.5 -233.5t63.5 -190.5q0 -150 -160 -315q78 -87 117 -158.5t39 -160.5q0 -139 -95 -233t-225 -94q-94 0 -170 49.5t-76 135.5q0 50 29.5 82.5t74.5 32.5q42 0 67.5 -28t25.5 -66q0 -14 -7 -36q-6 -18 -6 -28q0 -43 62 -43q67 0 112 44t45 105 q0 50 -28 98t-118 141q-145 149 -201.5 234t-56.5 178zM204 685q0 -42 29 -89t175 -186q81 85 81 154q0 54 -39 108t-163 178q-83 -84 -83 -165z" />
<glyph unicode="&#xa8;" horiz-adv-x="683" d="M48 1268q0 45 31.5 76.5t76.5 31.5t76.5 -31.5t31.5 -76.5t-31.5 -76.5t-76.5 -31.5q-44 0 -76 31.5t-32 76.5zM419 1268q0 44 31.5 76t76.5 32t76.5 -31.5t31.5 -76.5t-32 -76.5t-76 -31.5q-45 0 -76.5 31.5t-31.5 76.5z" />
<glyph unicode="&#xa9;" horiz-adv-x="1530" d="M56 778q0 294 208.5 501.5t500.5 207.5q184 0 350 -92t263 -259.5t97 -357.5q0 -293 -208.5 -501.5t-501.5 -208.5q-294 0 -501.5 208t-207.5 502zM145 778q0 -257 181.5 -439t438.5 -182q256 0 438 182.5t182 438.5q0 257 -182 438.5t-438 181.5q-255 0 -437.5 -181.5 t-182.5 -438.5zM333 768q0 193 127 316t313 123q86 0 197 -41q32 -11 46 -11q39 0 46 50h38v-264h-38q-17 101 -86.5 158.5t-159.5 57.5q-117 0 -187.5 -91t-70.5 -273q0 -213 77.5 -293.5t175.5 -80.5q148 0 261 139v-71q-121 -126 -318 -126q-180 0 -300.5 110t-120.5 297 z" />
<glyph unicode="&#xaa;" horiz-adv-x="460" d="M30 1090q0 182 230 247v87q0 89 -66 89q-22 0 -22 -12q0 -8 5 -21q8 -18 8 -33q0 -22 -18 -41t-44 -19q-29 0 -50.5 21t-21.5 49q0 47 45.5 83t112.5 36q180 0 180 -192v-323q0 -49 32 -52q15 -1 15 -13v-29q0 -39 -55 -39q-71 0 -101 68q-58 -68 -120 -68 q-57 0 -93.5 45t-36.5 117zM165 1117q0 -93 49 -93q20 0 33 21t13 50v176q-95 -41 -95 -154z" />
<glyph unicode="&#xab;" horiz-adv-x="707" d="M42 470l232 457h87l-140 -457l140 -454h-87zM344 470l231 457h88l-140 -457l140 -454h-87z" />
<glyph unicode="&#xac;" d="M75 841v112h766v-427h-112v315h-654z" />
<glyph unicode="&#xad;" horiz-adv-x="476" d="M45 374v185h386v-185h-386z" />
<glyph unicode="&#xae;" horiz-adv-x="1530" d="M56 778q0 294 208.5 501.5t500.5 207.5q184 0 350 -92t263 -259.5t97 -357.5q0 -293 -208.5 -501.5t-501.5 -208.5q-294 0 -501.5 208t-207.5 502zM145 778q0 -257 181.5 -439t438.5 -182q256 0 438 182.5t182 438.5q0 257 -182 438.5t-438 181.5q-255 0 -437.5 -181.5 t-182.5 -438.5zM382 381v33q57 0 81 22t24 114v474q0 81 -17.5 104t-71.5 28v34h362q131 0 197.5 -18.5t112 -74.5t45.5 -127q0 -157 -179 -206l137 -250q52 -96 105 -100v-33h-242l-205 368h-46v-199q0 -84 22.5 -108.5t97.5 -27.5v-33h-423zM685 800q34 -5 57 -5 q63 0 110.5 48t47.5 132q0 171 -177 171h-38v-346z" />
<glyph unicode="&#xaf;" horiz-adv-x="512" d="M-12 1709v102h536v-102h-536z" />
<glyph unicode="&#xb0;" horiz-adv-x="541" d="M49 1278q0 95 66 158.5t155 63.5q90 0 155.5 -63.5t65.5 -158.5q0 -91 -64.5 -156t-156.5 -65q-91 0 -156 64.5t-65 156.5zM129 1279q0 -59 41.5 -100t99.5 -41t99.5 41t41.5 100t-41.5 100t-99.5 41t-99.5 -41t-41.5 -100z" />
<glyph unicode="&#xb1;" d="M75 246v112h766v-112h-766zM75 799v112h327v327h112v-327h327v-112h-327v-327h-112v327h-327z" />
<glyph unicode="&#xb2;" horiz-adv-x="549" d="M40 796v21q0 54 107 198q180 240 180 383q0 42 -20 74.5t-57 32.5q-48 0 -48 -26q0 -8 10 -19q19 -23 19 -48q0 -33 -24.5 -55.5t-60.5 -22.5q-38 0 -63 27.5t-25 63.5q0 63 60 107t144 44q106 0 171 -52t65 -139q0 -56 -29.5 -112t-122.5 -159q-98 -106 -153 -190h176 q40 0 55 40q10 26 28 26h34q17 0 17 -16v-194h-442q-21 0 -21 16z" />
<glyph unicode="&#xb3;" horiz-adv-x="549" d="M37 906q0 34 23.5 58.5t56.5 24.5q30 0 52.5 -20.5t22.5 -52.5q0 -12 -4 -35q-2 -10 -2 -15q0 -24 34 -24q48 0 77.5 47.5t29.5 123.5q0 149 -110 161q-25 3 -25 16v49q0 14 23 16q99 10 99 135q0 54 -19 87.5t-52 33.5q-40 0 -42 -50q-3 -81 -66 -81q-30 0 -51 22.5 t-21 53.5q0 51 57 85.5t139 34.5q96 0 160.5 -49.5t64.5 -128.5q0 -125 -153 -178q169 -68 169 -211q0 -101 -77 -167t-185 -66q-83 0 -142 38t-59 92z" />
<glyph unicode="&#xb4;" horiz-adv-x="683" d="M205 1113l142 308h227l-271 -308h-98z" />
<glyph unicode="&#xb5;" horiz-adv-x="1131" d="M55 -321q0 41 24 135q32 125 40.5 198t8.5 247v676h278v-684q1 -82 19 -112t66 -30q90 0 164 121v705h278v-625q0 -120 13 -153.5t52 -33.5q67 0 80 144h43q-1 -146 -80 -220.5t-177 -74.5q-152 0 -201 157q-136 -157 -290 -157q-76 0 -150 56q0 -92 35 -219 q23 -84 23 -118q0 -60 -32 -96t-86 -36q-108 0 -108 120z" />
<glyph unicode="&#xb6;" horiz-adv-x="1043" d="M24 1163q0 181 119.5 286.5t347.5 105.5h521q18 0 18 -15v-47q0 -12 -17 -12h-68q-79 0 -79 -64v-1726h-98v1771h-163v-1771h-98v1081q-277 10 -380 120t-103 271z" />
<glyph unicode="&#xb8;" horiz-adv-x="683" d="M176 -216h47q55 0 87 21.5t32 51.5q0 49 -64 49h-21l45 121h102l-13 -38q117 -27 117 -125q0 -77 -68.5 -119.5t-164.5 -42.5q-17 0 -82 4z" />
<glyph unicode="&#xb9;" horiz-adv-x="549" d="M112 1479v26q0 16 13 22l109 47h112q19 0 19 -19v-644q0 -52 52 -64q20 -5 20 -21v-24q0 -20 -22 -20h-265q-25 0 -25 21v23q0 16 18 21q55 13 55 72v539h-61q-25 0 -25 21z" />
<glyph unicode="&#xba;" horiz-adv-x="518" d="M56 1250q0 161 53 243.5t144 82.5q209 0 209 -327q0 -155 -51.5 -239t-148.5 -84q-206 0 -206 324zM200 1191q0 -118 14 -160t47 -42q57 0 57 171v151q0 205 -61 205q-57 0 -57 -173v-152z" />
<glyph unicode="&#xbb;" horiz-adv-x="707" d="M45 16l139 454l-139 457h87l232 -457l-232 -454h-87zM347 16l139 454l-139 457h87l232 -457l-232 -454h-87z" />
<glyph unicode="&#xbc;" horiz-adv-x="1196" d="M112 1479v26q0 16 13 22l109 47h112q19 0 19 -19v-644q0 -52 52 -64q20 -5 20 -21v-24q0 -20 -22 -20h-265q-25 0 -25 21v23q0 16 18 21q55 13 55 72v539h-61q-25 0 -25 21zM214 -36l656 1608h112l-654 -1608h-114zM672 188v40q0 28 24 70l263 475q10 18 33 18h77 q22 0 22 -21v-522h55q24 0 24 -20v-42q0 -17 -17 -17h-62v-54q0 -37 29 -50q15 -7 15 -18v-28q0 -20 -19 -20h-202q-23 0 -23 20v28q0 10 15 16q35 15 35 59v47h-245q-24 0 -24 19zM751 248h190v345z" />
<glyph unicode="&#xbd;" horiz-adv-x="1196" d="M112 1479v26q0 16 13 22l109 47h112q19 0 19 -19v-644q0 -52 52 -64q20 -5 20 -21v-24q0 -20 -22 -20h-265q-25 0 -25 21v23q0 16 18 21q55 13 55 72v539h-61q-25 0 -25 21zM214 -36l656 1608h112l-654 -1608h-114zM693 14v21q0 54 107 198q179 240 179 382 q0 43 -20 75.5t-56 32.5q-48 0 -48 -26q0 -8 10 -20q19 -22 19 -47q0 -33 -25 -56t-60 -23q-39 0 -63.5 28t-24.5 63q0 64 60 107.5t144 43.5q104 0 170 -50.5t66 -140.5q0 -55 -29.5 -111t-123.5 -159q-97 -106 -152 -190h176q39 0 54 40q10 26 29 26h34q16 0 16 -17v-193 h-441q-21 0 -21 16z" />
<glyph unicode="&#xbe;" horiz-adv-x="1196" d="M43 906q0 34 23.5 58.5t56.5 24.5q30 0 52.5 -20.5t22.5 -52.5q0 -12 -4 -35q-2 -10 -2 -15q0 -24 34 -24q48 0 77.5 47.5t29.5 123.5q0 149 -110 161q-25 3 -25 16v49q0 14 23 16q99 10 99 135q0 54 -19 87.5t-52 33.5q-40 0 -42 -50q-3 -81 -66 -81q-30 0 -51 22.5 t-21 53.5q0 51 57 85.5t139 34.5q96 0 160.5 -49.5t64.5 -128.5q0 -125 -153 -178q169 -68 169 -211q0 -101 -77 -167t-185 -66q-83 0 -142 38t-59 92zM215 -36l655 1608h112l-654 -1608h-113zM673 188v40q0 28 23 70l264 475q10 18 33 18h77q21 0 21 -21v-522h56 q24 0 24 -20v-42q0 -17 -18 -17h-62v-54q0 -37 29 -50q16 -7 16 -18v-28q0 -20 -19 -20h-203q-23 0 -23 20v28q0 10 16 16q35 15 35 59v47h-246q-23 0 -23 19zM751 248h191v345z" />
<glyph unicode="&#xbf;" horiz-adv-x="662" d="M44 7q0 144 123 358q142 245 142 430v50q0 20 19 20h66q18 0 18 -21v-117q0 -201 -85 -483q-59 -199 -59 -296q0 -144 91 -144q27 0 49 11.5t22 25.5q0 9 -15 26q-32 35 -32 76q0 44 32.5 78t82.5 34q55 0 87 -37t32 -90q0 -96 -75 -167.5t-199 -71.5q-144 0 -221.5 88.5 t-77.5 229.5zM234 1149q0 53 37.5 91t90.5 38t91 -38t38 -91t-38 -90.5t-91 -37.5t-90.5 37.5t-37.5 90.5z" />
<glyph unicode="&#xc0;" horiz-adv-x="894" d="M18 24v52q0 21 22 34q41 25 54 85l233 1163l-10 68q-5 33 -5 37q0 10 15 17l169 79q4 2 9 2q14 0 18 -18l272 -1356q7 -37 17.5 -53t40.5 -34q23 -14 23 -32v-44q0 -24 -19 -24h-334q-27 0 -27 24v44q0 23 32 39q39 21 39 57q0 10 -2 23l-42 209h-261l-42 -201 q-3 -13 -3 -19q0 -30 45 -66q29 -24 29 -42v-44q0 -24 -29 -24h-209q-35 0 -35 24zM213 1927h225l146 -310h-102zM291 524h205l-101 513z" />
<glyph unicode="&#xc1;" horiz-adv-x="894" d="M18 24v52q0 21 22 34q41 25 54 85l233 1163l-10 68q-5 33 -5 37q0 10 15 17l169 79q4 2 9 2q14 0 18 -18l272 -1356q7 -37 17.5 -53t40.5 -34q23 -14 23 -32v-44q0 -24 -19 -24h-334q-27 0 -27 24v44q0 23 32 39q39 21 39 57q0 10 -2 23l-42 209h-261l-42 -201 q-3 -13 -3 -19q0 -30 45 -66q29 -24 29 -42v-44q0 -24 -29 -24h-209q-35 0 -35 24zM291 524h205l-101 513zM311 1615l142 308h227l-271 -308h-98z" />
<glyph unicode="&#xc2;" horiz-adv-x="894" d="M18 24v52q0 21 22 34q41 25 54 85l233 1163l-10 68q-5 33 -5 37q0 10 15 17l169 79q4 2 9 2q14 0 18 -18l272 -1356q7 -37 17.5 -53t40.5 -34q23 -14 23 -32v-44q0 -24 -19 -24h-334q-27 0 -27 24v44q0 23 32 39q39 21 39 57q0 10 -2 23l-42 209h-261l-42 -201 q-3 -13 -3 -19q0 -30 45 -66q29 -24 29 -42v-44q0 -24 -29 -24h-209q-35 0 -35 24zM192 1617l171 283h166l173 -283h-104l-158 148l-143 -148h-105zM291 524h205l-101 513z" />
<glyph unicode="&#xc3;" horiz-adv-x="894" d="M18 24v52q0 21 22 34q41 25 54 85l233 1163l-10 68q-5 33 -5 37q0 10 15 17l169 79q4 2 9 2q14 0 18 -18l272 -1356q7 -37 17.5 -53t40.5 -34q23 -14 23 -32v-44q0 -24 -19 -24h-334q-27 0 -27 24v44q0 23 32 39q39 21 39 57q0 10 -2 23l-42 209h-261l-42 -201 q-3 -13 -3 -19q0 -30 45 -66q29 -24 29 -42v-44q0 -24 -29 -24h-209q-35 0 -35 24zM206 1621v38q0 76 32.5 123.5t92.5 47.5q49 0 134 -51q64 -38 91 -38q47 0 47 61v24h86v-46q0 -71 -33.5 -116t-87.5 -45q-57 0 -144 57q-59 38 -85 38q-48 0 -48 -69v-24h-85zM291 524h205 l-101 513z" />
<glyph unicode="&#xc4;" horiz-adv-x="894" d="M18 24v52q0 21 22 34q41 25 54 85l233 1163l-10 68q-5 33 -5 37q0 10 15 17l169 79q4 2 9 2q14 0 18 -18l272 -1356q7 -37 17.5 -53t40.5 -34q23 -14 23 -32v-44q0 -24 -19 -24h-334q-27 0 -27 24v44q0 23 32 39q39 21 39 57q0 10 -2 23l-42 209h-261l-42 -201 q-3 -13 -3 -19q0 -30 45 -66q29 -24 29 -42v-44q0 -24 -29 -24h-209q-35 0 -35 24zM154 1725q0 45 31.5 76.5t76.5 31.5t76.5 -31.5t31.5 -76.5t-31.5 -76.5t-76.5 -31.5q-44 0 -76 31.5t-32 76.5zM291 524h205l-101 513zM525 1725q0 44 31.5 76t76.5 32t76.5 -31.5 t31.5 -76.5t-32 -76.5t-76 -31.5q-45 0 -76.5 31.5t-31.5 76.5z" />
<glyph unicode="&#xc5;" horiz-adv-x="882" d="M12 24v52q0 21 22 34q39 24 54 85l235 1163l-12 68q-5 26 -5 35q0 21 31 28q-111 67 -111 180q0 79 56.5 138t141.5 59q83 0 141 -57t58 -139q0 -114 -98 -170l264 -1313q7 -37 17.5 -53t40.5 -34q23 -14 23 -32v-44q0 -24 -19 -24h-334q-26 0 -26 24v44q0 21 31 39 q39 23 39 52q0 12 -2 28l-42 209h-261l-42 -201q-3 -14 -3 -17q0 -30 41 -65l28 -26q5 -4 5 -19v-44q0 -24 -29 -24h-209q-35 0 -35 24zM285 524h206l-102 513zM305 1668q0 -50 35 -85.5t85 -35.5t85 35.5t35 85.5q0 51 -36.5 85.5t-80.5 34.5q-53 0 -88 -35t-35 -85z" />
<glyph unicode="&#xc6;" horiz-adv-x="1224" d="M12 26v44q0 19 19 31q50 32 74 130l273 1103q6 23 6 44q0 42 -43 61q-30 13 -30 35v54q0 27 29 27h693q14 0 53 3q35 3 44 3q32 0 32 -18v-294q0 -23 -4 -27.5t-25 -4.5h-37q-24 0 -28 28q-10 78 -38.5 133.5t-114.5 55.5h-126v-566h45q43 0 59.5 16.5t40.5 103.5 q8 28 11 31t18 3h44q26 0 26 -25v-377q0 -24 -24 -24h-46q-15 0 -21 7.5t-16 46.5q-18 71 -39 86.5t-58 15.5h-40v-633h135q75 0 104 35.5t72 194.5q9 36 36 36h43q25 0 25 -25v-360h-685q-24 0 -24 24v44q0 21 33 46q29 23 29 72v274h-266l-54 -218q-7 -29 -7 -47 q0 -59 48 -94q23 -17 23 -35v-38q0 -28 -28 -28h-230q-31 0 -31 26zM323 587h234v844h-26z" />
<glyph unicode="&#xc7;" horiz-adv-x="802" d="M60 769q0 383 108 595t284 212q79 0 148 -46q17 -12 27 -12q5 0 13 8q10 10 23 10h57q19 0 19 -24v-328q0 -28 -19 -28h-44q-30 0 -41 43q-69 259 -169 259q-95 0 -125 -159t-30 -351q0 -172 13 -404t30 -290t52 -98t90 -40q131 0 167 279l111 -12q-28 -377 -287 -399 q115 -28 115 -130q0 -165 -251 -165q-40 0 -78 6l-20 84l44 -2q137 0 137 71q0 51 -62 51h-33l33 85h60q-372 64 -372 785z" />
<glyph unicode="&#xc8;" horiz-adv-x="763" d="M34 24v44q0 21 33 46q29 23 29 72v1184q0 52 -37 78q-25 17 -25 40v48q0 19 24 19h514q14 0 53 3q35 3 44 3q33 0 33 -18v-294q0 -23 -4.5 -27.5t-25.5 -4.5h-37q-24 0 -27 28q-11 78 -39.5 133.5t-114.5 55.5h-126v-566h46q43 0 59 16.5t40 103.5q8 28 11 31t18 3h44 q26 0 26 -25v-377q0 -24 -24 -24h-46q-15 0 -21 7.5t-16 46.5q-18 71 -39 86.5t-58 15.5h-40v-633h135q75 0 104 35.5t72 194.5q10 36 36 36h43q25 0 25 -25v-360h-685q-24 0 -24 24zM108 1927h225l146 -310h-102z" />
<glyph unicode="&#xc9;" horiz-adv-x="763" d="M34 24v44q0 21 33 46q29 23 29 72v1184q0 52 -37 78q-25 17 -25 40v48q0 19 24 19h514q14 0 53 3q35 3 44 3q33 0 33 -18v-294q0 -23 -4.5 -27.5t-25.5 -4.5h-37q-24 0 -27 28q-11 78 -39.5 133.5t-114.5 55.5h-126v-566h46q43 0 59 16.5t40 103.5q8 28 11 31t18 3h44 q26 0 26 -25v-377q0 -24 -24 -24h-46q-15 0 -21 7.5t-16 46.5q-18 71 -39 86.5t-58 15.5h-40v-633h135q75 0 104 35.5t72 194.5q10 36 36 36h43q25 0 25 -25v-360h-685q-24 0 -24 24zM228 1615l142 308h227l-271 -308h-98z" />
<glyph unicode="&#xca;" horiz-adv-x="763" d="M34 24v44q0 21 33 46q29 23 29 72v1184q0 52 -37 78q-25 17 -25 40v48q0 19 24 19h514q14 0 53 3q35 3 44 3q33 0 33 -18v-294q0 -23 -4.5 -27.5t-25.5 -4.5h-37q-24 0 -27 28q-11 78 -39.5 133.5t-114.5 55.5h-126v-566h46q43 0 59 16.5t40 103.5q8 28 11 31t18 3h44 q26 0 26 -25v-377q0 -24 -24 -24h-46q-15 0 -21 7.5t-16 46.5q-18 71 -39 86.5t-58 15.5h-40v-633h135q75 0 104 35.5t72 194.5q10 36 36 36h43q25 0 25 -25v-360h-685q-24 0 -24 24zM124 1617l171 283h166l173 -283h-104l-158 148l-143 -148h-105z" />
<glyph unicode="&#xcb;" horiz-adv-x="763" d="M34 24v44q0 21 33 46q29 23 29 72v1184q0 52 -37 78q-25 17 -25 40v48q0 19 24 19h514q14 0 53 3q35 3 44 3q33 0 33 -18v-294q0 -23 -4.5 -27.5t-25.5 -4.5h-37q-24 0 -27 28q-11 78 -39.5 133.5t-114.5 55.5h-126v-566h46q43 0 59 16.5t40 103.5q8 28 11 31t18 3h44 q26 0 26 -25v-377q0 -24 -24 -24h-46q-15 0 -21 7.5t-16 46.5q-18 71 -39 86.5t-58 15.5h-40v-633h135q75 0 104 35.5t72 194.5q10 36 36 36h43q25 0 25 -25v-360h-685q-24 0 -24 24zM95 1725q0 45 31.5 76.5t76.5 31.5t76.5 -31.5t31.5 -76.5t-31.5 -76.5t-76.5 -31.5 q-44 0 -76 31.5t-32 76.5zM466 1725q0 44 31.5 76t76.5 32t76.5 -31.5t31.5 -76.5t-32 -76.5t-76 -31.5q-45 0 -76.5 31.5t-31.5 76.5z" />
<glyph unicode="&#xcc;" horiz-adv-x="425" d="M-21 1927h225l146 -310h-102zM33 21v47q0 22 26 40q38 27 38 78v1184q0 51 -38 77q-26 17 -26 41v44q0 23 26 23h312q22 0 22 -21v-46q0 -23 -26 -41q-38 -27 -38 -77v-1184q0 -52 38 -78q26 -17 26 -40v-45q0 -23 -26 -23h-312q-22 0 -22 21z" />
<glyph unicode="&#xcd;" horiz-adv-x="425" d="M32 21v47q0 22 26 40q38 27 38 78v1184q0 51 -38 77q-26 17 -26 41v44q0 23 26 23h312q22 0 22 -21v-46q0 -23 -26 -41q-38 -27 -38 -77v-1184q0 -52 38 -78q26 -17 26 -40v-45q0 -23 -26 -23h-312q-22 0 -22 21zM76 1615l142 308h227l-271 -308h-98z" />
<glyph unicode="&#xce;" horiz-adv-x="425" d="M-43 1617l171 283h166l173 -283h-104l-158 148l-143 -148h-105zM32 21v47q0 22 26 40q38 27 38 78v1184q0 51 -38 77q-26 17 -26 41v44q0 23 26 23h312q22 0 22 -21v-46q0 -23 -26 -41q-38 -27 -38 -77v-1184q0 -52 38 -78q26 -17 26 -40v-45q0 -23 -26 -23h-312 q-22 0 -22 21z" />
<glyph unicode="&#xcf;" horiz-adv-x="425" d="M-51 1725q0 45 31.5 76.5t76.5 31.5t76.5 -31.5t31.5 -76.5t-31.5 -76.5t-76.5 -31.5q-44 0 -76 31.5t-32 76.5zM62 21v47q0 22 26 40q38 27 38 78v1184q0 51 -38 77q-26 17 -26 41v44q0 23 26 23h312q22 0 22 -21v-46q0 -23 -26 -41q-38 -27 -38 -77v-1184q0 -52 38 -78 q26 -17 26 -40v-45q0 -23 -26 -23h-312q-22 0 -22 21zM320 1725q0 44 31.5 76t76.5 32t76.5 -31.5t31.5 -76.5t-32 -76.5t-76 -31.5q-45 0 -76.5 31.5t-31.5 76.5z" />
<glyph unicode="&#xd0;" horiz-adv-x="900" d="M35 17v51q0 22 25 40q37 28 37 78v523h-62v130h62v531q0 51 -33 74q-29 21 -29 44v52q0 15 23 15h260q220 0 371 -179.5t151 -582.5q0 -208 -45.5 -397.5t-146 -292.5t-338.5 -103h-257q-18 0 -18 17zM328 116q100 0 155 48t80 210t25 372q0 227 -19 360t-47.5 200.5 t-70.5 95.5t-123 34v-597h142v-130h-142v-593z" />
<glyph unicode="&#xd1;" horiz-adv-x="866" d="M32 21v47q0 22 26 40q38 27 38 78v1184q0 51 -38 77q-26 17 -26 41v44q0 23 26 23h212q23 0 31 -5.5t16 -26.5l306 -808v655q0 51 -38 77q-26 17 -26 41v44q0 23 26 23h226q22 0 22 -21v-46q0 -23 -25 -41q-39 -27 -39 -77v-1345q0 -32 -29 -32h-44q-30 0 -42 32 l-414 1090v-929q0 -52 39 -78q26 -17 26 -40v-45q0 -23 -26 -23h-225q-22 0 -22 21zM191 1621v38q0 76 32.5 123.5t92.5 47.5q49 0 134 -51q64 -38 91 -38q47 0 47 61v24h86v-46q0 -71 -33.5 -116t-87.5 -45q-57 0 -144 57q-59 38 -85 38q-48 0 -48 -69v-24h-85z" />
<glyph unicode="&#xd2;" horiz-adv-x="927" d="M60 770q0 371 103.5 588.5t300.5 217.5q185 0 293.5 -200.5t108.5 -593.5q0 -401 -107.5 -602t-284.5 -201q-209 0 -311.5 210t-102.5 581zM229 1927h225l146 -310h-102zM313 612q0 -283 37 -404t113 -121q45 0 82.5 58t53.5 318t16 477q0 196 -24 322.5t-52 163 t-72 36.5q-37 0 -66.5 -28t-46 -100.5t-29 -283.5t-12.5 -438z" />
<glyph unicode="&#xd3;" horiz-adv-x="927" d="M60 770q0 371 103.5 588.5t300.5 217.5q185 0 293.5 -200.5t108.5 -593.5q0 -401 -107.5 -602t-284.5 -201q-209 0 -311.5 210t-102.5 581zM313 612q0 -283 37 -404t113 -121q45 0 82.5 58t53.5 318t16 477q0 196 -24 322.5t-52 163t-72 36.5q-37 0 -66.5 -28t-46 -100.5 t-29 -283.5t-12.5 -438zM327 1615l142 308h227l-271 -308h-98z" />
<glyph unicode="&#xd4;" horiz-adv-x="927" d="M60 770q0 371 103.5 588.5t300.5 217.5q185 0 293.5 -200.5t108.5 -593.5q0 -401 -107.5 -602t-284.5 -201q-209 0 -311.5 210t-102.5 581zM208 1617l171 283h166l173 -283h-104l-158 148l-143 -148h-105zM313 612q0 -283 37 -404t113 -121q45 0 82.5 58t53.5 318t16 477 q0 196 -24 322.5t-52 163t-72 36.5q-37 0 -66.5 -28t-46 -100.5t-29 -283.5t-12.5 -438z" />
<glyph unicode="&#xd5;" horiz-adv-x="927" d="M60 770q0 371 103.5 588.5t300.5 217.5q185 0 293.5 -200.5t108.5 -593.5q0 -401 -107.5 -602t-284.5 -201q-209 0 -311.5 210t-102.5 581zM222 1621v38q0 76 32.5 123.5t92.5 47.5q49 0 134 -51q64 -38 91 -38q47 0 47 61v24h86v-46q0 -71 -33.5 -116t-87.5 -45 q-57 0 -144 57q-59 38 -85 38q-48 0 -48 -69v-24h-85zM313 612q0 -283 37 -404t113 -121q45 0 82.5 58t53.5 318t16 477q0 196 -24 322.5t-52 163t-72 36.5q-37 0 -66.5 -28t-46 -100.5t-29 -283.5t-12.5 -438z" />
<glyph unicode="&#xd6;" horiz-adv-x="927" d="M60 770q0 371 103.5 588.5t300.5 217.5q185 0 293.5 -200.5t108.5 -593.5q0 -401 -107.5 -602t-284.5 -201q-209 0 -311.5 210t-102.5 581zM170 1725q0 45 31.5 76.5t76.5 31.5t76.5 -31.5t31.5 -76.5t-31.5 -76.5t-76.5 -31.5q-44 0 -76 31.5t-32 76.5zM313 612 q0 -283 37 -404t113 -121q45 0 82.5 58t53.5 318t16 477q0 196 -24 322.5t-52 163t-72 36.5q-37 0 -66.5 -28t-46 -100.5t-29 -283.5t-12.5 -438zM541 1725q0 44 31.5 76t76.5 32t76.5 -31.5t31.5 -76.5t-32 -76.5t-76 -31.5q-45 0 -76.5 31.5t-31.5 76.5z" />
<glyph unicode="&#xd7;" d="M101 466l278 278l-278 278l79 79l278 -278l278 278l79 -79l-278 -278l278 -278l-79 -79l-278 278l-278 -278z" />
<glyph unicode="&#xd8;" horiz-adv-x="917" d="M56 770q0 371 103.5 588.5t300.5 217.5q158 0 262 -148l68 145l84 -44l-96 -206q84 -206 84 -541q0 -395 -106 -599t-281 -204q-167 0 -264 127l-65 -137l-84 43l90 192q-96 204 -96 566zM309 683q0 -64 1 -139l287 615q-15 174 -45 238.5t-89 64.5q-50 0 -81.5 -47.5 t-52 -244.5t-20.5 -487zM323 348q27 -261 135 -261q52 0 85.5 60.5t51.5 244t18 372.5q0 49 -4 197z" />
<glyph unicode="&#xd9;" horiz-adv-x="856" d="M32 1488v44q0 23 26 23h312q22 0 22 -21v-46q0 -23 -26 -41q-38 -26 -38 -77v-1040q0 -208 138 -208q151 0 151 244v1004q0 51 -38 77q-26 18 -26 41v44q0 23 26 23h223q22 0 22 -21v-46q0 -23 -26 -41q-38 -26 -38 -77v-1010q0 -179 -91 -280t-238 -101t-241 100 t-94 262v1029q0 51 -38 77q-26 18 -26 41zM194 1927h225l146 -310h-102z" />
<glyph unicode="&#xda;" horiz-adv-x="856" d="M32 1488v44q0 23 26 23h312q22 0 22 -21v-46q0 -23 -26 -41q-38 -26 -38 -77v-1040q0 -208 138 -208q151 0 151 244v1004q0 51 -38 77q-26 18 -26 41v44q0 23 26 23h223q22 0 22 -21v-46q0 -23 -26 -41q-38 -26 -38 -77v-1010q0 -179 -91 -280t-238 -101t-241 100 t-94 262v1029q0 51 -38 77q-26 18 -26 41zM364 1615l142 308h227l-271 -308h-98z" />
<glyph unicode="&#xdb;" horiz-adv-x="856" d="M32 1488v44q0 23 26 23h312q22 0 22 -21v-46q0 -23 -26 -41q-38 -26 -38 -77v-1040q0 -208 138 -208q151 0 151 244v1004q0 51 -38 77q-26 18 -26 41v44q0 23 26 23h223q22 0 22 -21v-46q0 -23 -26 -41q-38 -26 -38 -77v-1010q0 -179 -91 -280t-238 -101t-241 100 t-94 262v1029q0 51 -38 77q-26 18 -26 41zM173 1617l171 283h166l173 -283h-104l-158 148l-143 -148h-105z" />
<glyph unicode="&#xdc;" horiz-adv-x="856" d="M32 1488v44q0 23 26 23h312q22 0 22 -21v-46q0 -23 -26 -41q-38 -26 -38 -77v-1040q0 -208 138 -208q151 0 151 244v1004q0 51 -38 77q-26 18 -26 41v44q0 23 26 23h223q22 0 22 -21v-46q0 -23 -26 -41q-38 -26 -38 -77v-1010q0 -179 -91 -280t-238 -101t-241 100 t-94 262v1029q0 51 -38 77q-26 18 -26 41zM135 1725q0 45 31.5 76.5t76.5 31.5t76.5 -31.5t31.5 -76.5t-31.5 -76.5t-76.5 -31.5q-44 0 -76 31.5t-32 76.5zM506 1725q0 44 31.5 76t76.5 32t76.5 -31.5t31.5 -76.5t-32 -76.5t-76 -31.5q-45 0 -76.5 31.5t-31.5 76.5z" />
<glyph unicode="&#xdd;" horiz-adv-x="841" d="M12 1483v50q0 22 19 22h323q28 0 28 -26v-48q0 -18 -28 -28q-44 -16 -44 -46q0 -10 4 -22l146 -486l131 445q7 25 7 48q0 38 -45 58q-26 11 -26 29v53q0 23 23 23h250q29 0 29 -22v-52q0 -22 -29 -35q-57 -28 -74 -84l-199 -669v-507q0 -52 39 -78q25 -17 25 -40v-45 q0 -23 -26 -23h-312q-22 0 -22 21v47q0 22 26 40q38 27 38 78v507l-200 677q-19 60 -60 79q-23 10 -23 34zM357 1615l142 308h227l-271 -308h-98z" />
<glyph unicode="&#xde;" horiz-adv-x="829" d="M32 21v47q0 22 26 40q38 27 38 78v1184q0 51 -38 77q-26 17 -26 41v44q0 23 26 23h308q26 0 26 -23v-44q0 -23 -26 -41q-38 -26 -38 -76v-174q216 0 338.5 -113.5t122.5 -304.5q0 -421 -461 -421v-172q0 -52 38 -78q26 -17 26 -40v-45q0 -23 -26 -23h-312q-22 0 -22 21z M328 476q90 0 131.5 20t66.5 81.5t25 190.5q0 128 -23 191.5t-69 89.5t-131 29v-602z" />
<glyph unicode="&#xdf;" horiz-adv-x="705" d="M32 24v41q0 12 10 23q36 36 36 85v1087q0 154 69.5 235t186.5 81q135 0 208.5 -97t73.5 -258q0 -228 -155 -300q120 -38 159 -161t39 -302q0 -465 -226 -465q-59 0 -59 31v34q0 24 19 38q31 23 42 84.5t11 180.5v195q0 295 -101 320v87q64 12 75.5 74t11.5 158 q0 157 -20.5 218t-62.5 61q-73 0 -73 -129v-1192q0 -27 19 -56q11 -18 11 -28v-45q0 -24 -21 -24h-225q-28 0 -28 24z" />
<glyph unicode="&#xe0;" horiz-adv-x="648" d="M30 230q0 282 346 371v140q0 124 -96 124q-34 0 -34 -21q0 -8 6 -24q12 -29 12 -50q0 -38 -25 -64.5t-69 -26.5q-48 0 -77 29.5t-29 77.5q0 79 70.5 128.5t163.5 49.5q131 0 203.5 -70.5t72.5 -199.5v-498q0 -41 8.5 -62.5t37.5 -27.5q24 -5 24 -26v-43q0 -53 -82 -53 q-110 0 -152 106q-96 -111 -185 -111q-85 0 -140 70.5t-55 180.5zM138 1425h225l146 -310h-102zM235 270q0 -139 73 -139q32 0 50 31.5t18 69.5v267q-141 -52 -141 -229z" />
<glyph unicode="&#xe1;" horiz-adv-x="648" d="M30 230q0 282 346 371v140q0 124 -96 124q-34 0 -34 -21q0 -8 6 -24q12 -29 12 -50q0 -38 -25 -64.5t-69 -26.5q-48 0 -77 29.5t-29 77.5q0 79 70.5 128.5t163.5 49.5q131 0 203.5 -70.5t72.5 -199.5v-498q0 -41 8.5 -62.5t37.5 -27.5q24 -5 24 -26v-43q0 -53 -82 -53 q-110 0 -152 106q-96 -111 -185 -111q-85 0 -140 70.5t-55 180.5zM139 1113l142 308h227l-271 -308h-98zM235 270q0 -139 73 -139q32 0 50 31.5t18 69.5v267q-141 -52 -141 -229z" />
<glyph unicode="&#xe2;" horiz-adv-x="648" d="M30 230q0 282 346 371v140q0 124 -96 124q-34 0 -34 -21q0 -8 6 -24q12 -29 12 -50q0 -38 -25 -64.5t-69 -26.5q-48 0 -77 29.5t-29 77.5q0 79 70.5 128.5t163.5 49.5q131 0 203.5 -70.5t72.5 -199.5v-498q0 -41 8.5 -62.5t37.5 -27.5q24 -5 24 -26v-43q0 -53 -82 -53 q-110 0 -152 106q-96 -111 -185 -111q-85 0 -140 70.5t-55 180.5zM69 1115l171 283h166l173 -283h-104l-158 148l-143 -148h-105zM235 270q0 -139 73 -139q32 0 50 31.5t18 69.5v267q-141 -52 -141 -229z" />
<glyph unicode="&#xe3;" horiz-adv-x="648" d="M30 230q0 282 346 371v140q0 124 -96 124q-34 0 -34 -21q0 -8 6 -24q12 -29 12 -50q0 -38 -25 -64.5t-69 -26.5q-48 0 -77 29.5t-29 77.5q0 79 70.5 128.5t163.5 49.5q131 0 203.5 -70.5t72.5 -199.5v-498q0 -41 8.5 -62.5t37.5 -27.5q24 -5 24 -26v-43q0 -53 -82 -53 q-110 0 -152 106q-96 -111 -185 -111q-85 0 -140 70.5t-55 180.5zM82 1134v38q0 76 32.5 123.5t92.5 47.5q49 0 134 -51q64 -38 91 -38q47 0 47 61v24h86v-46q0 -71 -33.5 -116t-87.5 -45q-57 0 -144 57q-59 38 -85 38q-48 0 -48 -69v-24h-85zM235 270q0 -139 73 -139 q32 0 50 31.5t18 69.5v267q-141 -52 -141 -229z" />
<glyph unicode="&#xe4;" horiz-adv-x="648" d="M30 230q0 282 346 371v140q0 124 -96 124q-34 0 -34 -21q0 -8 6 -24q12 -29 12 -50q0 -38 -25 -64.5t-69 -26.5q-48 0 -77 29.5t-29 77.5q0 79 70.5 128.5t163.5 49.5q131 0 203.5 -70.5t72.5 -199.5v-498q0 -41 8.5 -62.5t37.5 -27.5q24 -5 24 -26v-43q0 -53 -82 -53 q-110 0 -152 106q-96 -111 -185 -111q-85 0 -140 70.5t-55 180.5zM30 1268q0 45 31.5 76.5t76.5 31.5t76.5 -31.5t31.5 -76.5t-31.5 -76.5t-76.5 -31.5q-44 0 -76 31.5t-32 76.5zM235 270q0 -139 73 -139q32 0 50 31.5t18 69.5v267q-141 -52 -141 -229zM401 1268 q0 44 31.5 76t76.5 32t76.5 -31.5t31.5 -76.5t-32 -76.5t-76 -31.5q-45 0 -76.5 31.5t-31.5 76.5z" />
<glyph unicode="&#xe5;" horiz-adv-x="648" d="M30 230q0 282 346 371v140q0 124 -96 124q-34 0 -34 -21q0 -8 6 -24q12 -29 12 -50q0 -38 -25 -64.5t-69 -26.5q-48 0 -77 29.5t-29 77.5q0 79 70.5 128.5t163.5 49.5q131 0 203.5 -70.5t72.5 -199.5v-498q0 -41 8.5 -62.5t37.5 -27.5q24 -5 24 -26v-43q0 -53 -82 -53 q-110 0 -152 106q-96 -111 -185 -111q-85 0 -140 70.5t-55 180.5zM129 1268q0 82 58.5 140t139.5 58q83 0 141 -58t58 -140t-58.5 -140.5t-140.5 -58.5t-140 58.5t-58 140.5zM207 1267q0 -49 35.5 -84.5t84.5 -35.5q50 0 85.5 35.5t35.5 84.5q0 50 -35.5 85.5t-85.5 35.5 q-49 0 -84.5 -35.5t-35.5 -85.5zM235 270q0 -139 73 -139q32 0 50 31.5t18 69.5v267q-141 -52 -141 -229z" />
<glyph unicode="&#xe6;" horiz-adv-x="959" d="M30 227q0 294 352 373v137q0 57 -24.5 95t-69.5 38q-36 0 -36 -23q0 -7 6 -22q11 -28 11 -52q0 -39 -29 -65t-70 -26q-46 0 -75.5 31.5t-29.5 72.5q0 74 66.5 126t162.5 52q114 0 196 -80q70 80 168 80q115 0 188 -102.5t73 -270.5v-90q0 -25 -23 -25h-316v-107 q0 -251 120 -251q86 0 110 142l109 -15q-28 -266 -250 -266q-144 0 -238 143q-92 -137 -210 -137q-86 0 -138.5 66t-52.5 176zM234 269q0 -139 76 -139q72 0 72 124v245q-148 -48 -148 -230zM580 591h155v64q0 213 -78 213q-77 0 -77 -188v-89z" />
<glyph unicode="&#xe7;" horiz-adv-x="624" d="M45 460q0 259 93.5 381.5t231.5 122.5q97 0 160.5 -57t63.5 -140q0 -53 -30 -84.5t-75 -31.5q-41 0 -66 26t-25 63q0 33 25 71q11 17 11 26q0 31 -53 31q-52 0 -83 -46t-31 -185v-221q0 -292 120 -292q92 0 106 190l108 -11q-12 -318 -250 -319q122 -28 122 -125 q0 -78 -64.5 -122t-173.5 -44h-47l-19 83h32q42 0 77 19.5t35 52.5q0 50 -59 50q-8 0 -19 -1l32 80l58 7q-280 45 -280 476z" />
<glyph unicode="&#xe8;" horiz-adv-x="644" d="M45 462q0 234 79.5 368t213.5 134q119 0 192 -104t73 -275v-84q0 -24 -25 -24h-312v-82q0 -135 26 -207t91 -72q76 0 105 146l107 -18q-23 -265 -239 -265q-143 0 -227 121t-84 362zM48 1425h225l146 -310h-102zM266 587h145v138q0 144 -74 144q-71 0 -71 -184v-98z" />
<glyph unicode="&#xe9;" horiz-adv-x="644" d="M45 462q0 234 79.5 368t213.5 134q119 0 192 -104t73 -275v-84q0 -24 -25 -24h-312v-82q0 -135 26 -207t91 -72q76 0 105 146l107 -18q-23 -265 -239 -265q-143 0 -227 121t-84 362zM205 1113l142 308h227l-271 -308h-98zM266 587h145v138q0 144 -74 144q-71 0 -71 -184 v-98z" />
<glyph unicode="&#xea;" horiz-adv-x="644" d="M45 462q0 234 79.5 368t213.5 134q119 0 192 -104t73 -275v-84q0 -24 -25 -24h-312v-82q0 -135 26 -207t91 -72q76 0 105 146l107 -18q-23 -265 -239 -265q-143 0 -227 121t-84 362zM69 1115l171 283h166l173 -283h-104l-158 148l-143 -148h-105zM266 587h145v138 q0 144 -74 144q-71 0 -71 -184v-98z" />
<glyph unicode="&#xeb;" horiz-adv-x="644" d="M45 1268q0 45 31.5 76.5t76.5 31.5t76.5 -31.5t31.5 -76.5t-31.5 -76.5t-76.5 -31.5q-44 0 -76 31.5t-32 76.5zM60 462q0 234 79.5 368t213.5 134q119 0 192 -104t73 -275v-84q0 -24 -25 -24h-312v-82q0 -135 26 -207t91 -72q76 0 105 146l107 -18q-23 -265 -239 -265 q-143 0 -227 121t-84 362zM281 587h145v138q0 144 -74 144q-71 0 -71 -184v-98zM416 1268q0 44 31.5 76t76.5 32t76.5 -31.5t31.5 -76.5t-32 -76.5t-76 -31.5q-45 0 -76.5 31.5t-31.5 76.5z" />
<glyph unicode="&#xec;" horiz-adv-x="356" d="M-52 1425h225l146 -310h-102zM22 19v37q0 20 19 29q42 21 42 74v619q0 54 -43 76q-18 10 -18 26v37q0 18 22 19l237 7v-784q0 -52 43 -74q18 -10 18 -29v-37q0 -19 -22 -19h-276q-22 0 -22 19z" />
<glyph unicode="&#xed;" horiz-adv-x="356" d="M21 19v37q0 20 19 29q42 21 42 74v619q0 54 -43 76q-18 10 -18 26v37q0 18 22 19l237 7v-784q0 -52 43 -74q18 -10 18 -29v-37q0 -19 -22 -19h-276q-22 0 -22 19zM45 1113l142 308h227l-271 -308h-98z" />
<glyph unicode="&#xee;" horiz-adv-x="356" d="M-74 1115l171 283h166l173 -283h-104l-158 148l-143 -148h-105zM21 19v37q0 20 19 29q42 21 42 74v619q0 54 -43 76q-18 10 -18 26v37q0 18 22 19l237 7v-784q0 -52 43 -74q18 -10 18 -29v-37q0 -19 -22 -19h-276q-22 0 -22 19z" />
<glyph unicode="&#xef;" horiz-adv-x="356" d="M-70 1268q0 45 31.5 76.5t76.5 31.5t76.5 -31.5t31.5 -76.5t-31.5 -76.5t-76.5 -31.5q-44 0 -76 31.5t-32 76.5zM63 19v37q0 20 19 29q42 21 42 74v619q0 54 -43 76q-18 10 -18 26v37q0 18 22 19l237 7v-784q0 -52 43 -74q18 -10 18 -29v-37q0 -19 -22 -19h-276 q-22 0 -22 19zM301 1268q0 44 31.5 76t76.5 32t76.5 -31.5t31.5 -76.5t-32 -76.5t-76 -31.5q-45 0 -76.5 31.5t-31.5 76.5z" />
<glyph unicode="&#xf0;" horiz-adv-x="703" d="M45 469q0 255 83 375t199 120q49 0 90 -30q-18 166 -56 290l-183 -70l-27 70l185 70q-60 178 -191 267h114q117 -80 204 -219l169 66l26 -66l-157 -62q157 -300 157 -640q0 -661 -317 -661q-130 0 -213 121t-83 369zM264 420q0 -200 18.5 -268.5t63.5 -68.5 q54 0 70.5 91.5t16.5 342.5q0 104 -8.5 202.5t-27 123.5t-50.5 25q-49 0 -66 -83.5t-17 -364.5z" />
<glyph unicode="&#xf1;" horiz-adv-x="699" d="M21 880v37q0 18 22 19l237 7v-82q85 91 186 91q75 0 117.5 -58t42.5 -151v-599q0 -31 27 -64q13 -16 13 -22v-42q0 -16 -15 -16h-244q-17 0 -17 16v52q0 8 11 16q27 21 27 50v609q0 73 -52 73q-50 0 -96 -60v-612q0 -34 23 -59q11 -12 11 -17v-55q0 -13 -14 -13h-248 q-16 0 -16 15v53q0 7 13 17q33 26 33 71v622q0 55 -43 76q-18 9 -18 26zM102 1134v38q0 76 32.5 123.5t92.5 47.5q49 0 134 -51q64 -38 91 -38q47 0 47 61v24h86v-46q0 -71 -33.5 -116t-87.5 -45q-57 0 -144 57q-59 38 -85 38q-48 0 -48 -69v-24h-85z" />
<glyph unicode="&#xf2;" horiz-adv-x="703" d="M45 473q0 256 84 373.5t213 117.5q316 0 316 -497q0 -234 -78 -361t-225 -127q-149 0 -229.5 124.5t-80.5 369.5zM118 1425h225l146 -310h-102zM263 397q0 -180 19.5 -249.5t71.5 -69.5q44 0 64.5 53.5t20.5 197.5v238q0 171 -21 234.5t-68 63.5q-87 0 -87 -242v-226z " />
<glyph unicode="&#xf3;" horiz-adv-x="703" d="M45 473q0 256 84 373.5t213 117.5q316 0 316 -497q0 -234 -78 -361t-225 -127q-149 0 -229.5 124.5t-80.5 369.5zM215 1113l142 308h227l-271 -308h-98zM263 397q0 -180 19.5 -249.5t71.5 -69.5q44 0 64.5 53.5t20.5 197.5v238q0 171 -21 234.5t-68 63.5q-87 0 -87 -242 v-226z" />
<glyph unicode="&#xf4;" horiz-adv-x="703" d="M45 473q0 256 84 373.5t213 117.5q316 0 316 -497q0 -234 -78 -361t-225 -127q-149 0 -229.5 124.5t-80.5 369.5zM97 1115l171 283h166l173 -283h-104l-158 148l-143 -148h-105zM263 397q0 -180 19.5 -249.5t71.5 -69.5q44 0 64.5 53.5t20.5 197.5v238q0 171 -21 234.5 t-68 63.5q-87 0 -87 -242v-226z" />
<glyph unicode="&#xf5;" horiz-adv-x="703" d="M45 473q0 256 84 373.5t213 117.5q316 0 316 -497q0 -234 -78 -361t-225 -127q-149 0 -229.5 124.5t-80.5 369.5zM110 1134v38q0 76 32.5 123.5t92.5 47.5q49 0 134 -51q64 -38 91 -38q47 0 47 61v24h86v-46q0 -71 -33.5 -116t-87.5 -45q-57 0 -144 57q-59 38 -85 38 q-48 0 -48 -69v-24h-85zM263 397q0 -180 19.5 -249.5t71.5 -69.5q44 0 64.5 53.5t20.5 197.5v238q0 171 -21 234.5t-68 63.5q-87 0 -87 -242v-226z" />
<glyph unicode="&#xf6;" horiz-adv-x="703" d="M45 473q0 256 84 373.5t213 117.5q316 0 316 -497q0 -234 -78 -361t-225 -127q-149 0 -229.5 124.5t-80.5 369.5zM58 1268q0 45 31.5 76.5t76.5 31.5t76.5 -31.5t31.5 -76.5t-31.5 -76.5t-76.5 -31.5q-44 0 -76 31.5t-32 76.5zM263 397q0 -180 19.5 -249.5t71.5 -69.5 q44 0 64.5 53.5t20.5 197.5v238q0 171 -21 234.5t-68 63.5q-87 0 -87 -242v-226zM429 1268q0 44 31.5 76t76.5 32t76.5 -31.5t31.5 -76.5t-32 -76.5t-76 -31.5q-45 0 -76.5 31.5t-31.5 76.5z" />
<glyph unicode="&#xf7;" d="M75 684v112h766v-112h-766zM389 425q0 29 20.5 49t48.5 20q27 0 48 -20t21 -49q0 -28 -20.5 -48t-47.5 -20q-29 0 -49.5 21t-20.5 47zM389 1054q0 26 21 47.5t49 21.5q27 0 47.5 -20t20.5 -49q0 -30 -21 -49.5t-48 -19.5q-28 0 -48.5 20t-20.5 49z" />
<glyph unicode="&#xf8;" horiz-adv-x="704" d="M45 473q0 247 81.5 369t225.5 122q119 0 199 -90l70 125l49 -49l-77 -139q65 -127 65 -344q0 -234 -78 -361t-225 -127q-111 0 -185 71l-56 -101l-53 51l61 109q-77 124 -77 364zM263 360l173 308q-7 112 -26.5 154.5t-59.5 42.5q-87 0 -87 -242v-226v-37zM270 231 q13 -153 84 -153q44 0 64.5 53.5t20.5 197.5v206z" />
<glyph unicode="&#xf9;" horiz-adv-x="693" d="M30 872v49q0 18 20 18l221 4v-747q0 -72 55 -72q48 0 94 60v619q0 23 -27 47q-15 14 -15 22v49q0 18 19 18l221 4v-807q0 -24 27 -48q16 -14 16 -22v-48q0 -18 -20 -19l-221 -4v79q-108 -87 -185 -87t-119.5 50.5t-42.5 132.5v633q0 23 -27 47q-16 14 -16 22zM68 1425 h225l146 -310h-102z" />
<glyph unicode="&#xfa;" horiz-adv-x="693" d="M30 872v49q0 18 20 18l221 4v-747q0 -72 55 -72q48 0 94 60v619q0 23 -27 47q-15 14 -15 22v49q0 18 19 18l221 4v-807q0 -24 27 -48q16 -14 16 -22v-48q0 -18 -20 -19l-221 -4v79q-108 -87 -185 -87t-119.5 50.5t-42.5 132.5v633q0 23 -27 47q-16 14 -16 22zM209 1113 l142 308h227l-271 -308h-98z" />
<glyph unicode="&#xfb;" horiz-adv-x="693" d="M30 872v49q0 18 20 18l221 4v-747q0 -72 55 -72q48 0 94 60v619q0 23 -27 47q-15 14 -15 22v49q0 18 19 18l221 4v-807q0 -24 27 -48q16 -14 16 -22v-48q0 -18 -20 -19l-221 -4v79q-108 -87 -185 -87t-119.5 50.5t-42.5 132.5v633q0 23 -27 47q-16 14 -16 22zM91 1115 l171 283h166l173 -283h-104l-158 148l-143 -148h-105z" />
<glyph unicode="&#xfc;" horiz-adv-x="693" d="M30 872v49q0 18 20 18l221 4v-747q0 -72 55 -72q48 0 94 60v619q0 23 -27 47q-15 14 -15 22v49q0 18 19 18l221 4v-807q0 -24 27 -48q16 -14 16 -22v-48q0 -18 -20 -19l-221 -4v79q-108 -87 -185 -87t-119.5 50.5t-42.5 132.5v633q0 23 -27 47q-16 14 -16 22zM52 1268 q0 45 31.5 76.5t76.5 31.5t76.5 -31.5t31.5 -76.5t-31.5 -76.5t-76.5 -31.5q-44 0 -76 31.5t-32 76.5zM423 1268q0 44 31.5 76t76.5 32t76.5 -31.5t31.5 -76.5t-32 -76.5t-76 -31.5q-45 0 -76.5 31.5t-31.5 76.5z" />
<glyph unicode="&#xfd;" horiz-adv-x="646" d="M3 -206q0 44 29 66t66 22q39 0 109 -48q40 67 60 172l-184 764q-13 53 -55 84q-16 13 -16 22v49q0 18 21 18h263q18 0 18 -16v-51q0 -13 -18 -20q-36 -13 -36 -53q0 -22 7 -52l90 -381l90 370q6 24 6 38q0 36 -44 70q-24 19 -24 28v50q0 17 16 17h215q18 0 18 -17v-50 q0 -12 -19 -23q-49 -29 -66 -102l-164 -682q-43 -179 -71 -239.5t-78.5 -97.5t-112.5 -37q-55 0 -87.5 27t-32.5 72zM186 1113l142 308h227l-271 -308h-98z" />
<glyph unicode="&#xfe;" horiz-adv-x="707" d="M17 1480v49q0 18 22 18l237 8v-697q76 94 163 94q103 0 163 -120t60 -336q0 -147 -26.5 -273.5t-70.5 -185t-119 -58.5q-95 0 -170 79v-227q0 -46 28 -68q15 -11 15 -23v-54q0 -14 -11 -14h-267q-16 0 -16 14v54q0 11 15 21q38 23 38 81v1536q0 55 -43 76q-18 9 -18 26z M276 157q45 -49 81 -49q50 0 71 76.5t21 305.5q0 206 -23.5 270.5t-70.5 64.5q-37 0 -79 -41v-627z" />
<glyph unicode="&#xff;" horiz-adv-x="646" d="M3 -206q0 44 29 66t66 22q39 0 109 -48q40 67 60 172l-184 764q-13 53 -55 84q-16 13 -16 22v49q0 18 21 18h263q18 0 18 -16v-51q0 -13 -18 -20q-36 -13 -36 -53q0 -22 7 -52l90 -381l90 370q6 24 6 38q0 36 -44 70q-24 19 -24 28v50q0 17 16 17h215q18 0 18 -17v-50 q0 -12 -19 -23q-49 -29 -66 -102l-164 -682q-43 -179 -71 -239.5t-78.5 -97.5t-112.5 -37q-55 0 -87.5 27t-32.5 72zM25 1268q0 45 31.5 76.5t76.5 31.5t76.5 -31.5t31.5 -76.5t-31.5 -76.5t-76.5 -31.5q-44 0 -76 31.5t-32 76.5zM396 1268q0 44 31.5 76t76.5 32t76.5 -31.5 t31.5 -76.5t-32 -76.5t-76 -31.5q-45 0 -76.5 31.5t-31.5 76.5z" />
<glyph unicode="&#x152;" horiz-adv-x="1260" d="M60 767q0 386 111.5 590t309.5 204q19 0 42 -1q78 -5 113 -5h433q6 0 35 2q53 4 62 4q32 0 32 -18v-294q0 -23 -4 -27.5t-25 -4.5h-37q-24 0 -28 28q-12 84 -41.5 136.5t-112.5 52.5h-125v-566h45q44 0 60.5 17t39.5 103q8 29 12 31.5t17 2.5h44q26 0 26 -25v-377 q0 -24 -24 -24h-46q-14 0 -20 7t-17 47q-16 62 -34.5 82t-62.5 20h-40v-633h134q73 0 103.5 33.5t73.5 196.5q9 36 36 36h43q25 0 25 -25v-360h-531q-17 0 -72 -8q-89 -13 -134 -13q-443 0 -443 788zM318 539q0 -255 37.5 -349t108.5 -94q70 0 99.5 88t29.5 278v662 q0 322 -129 322q-85 0 -115.5 -126.5t-30.5 -432.5v-348z" />
<glyph unicode="&#x153;" horiz-adv-x="1021" d="M45 462q0 248 81.5 375t229.5 127q106 0 187 -77q75 77 172 77q122 0 193.5 -110t71.5 -292v-62q0 -25 -25 -25h-322v-42q0 -312 125 -312q87 0 108 144l109 -17q-21 -264 -251 -264q-111 0 -189 78q-82 -78 -182 -78q-308 0 -308 478zM263 308q0 -229 86 -229 q87 0 87 249v349q0 187 -81 187q-53 0 -72.5 -70.5t-19.5 -213.5v-272zM633 593h161v73q0 202 -81 202q-80 0 -80 -159v-116z" />
<glyph unicode="&#x178;" horiz-adv-x="841" d="M12 1483v50q0 22 19 22h323q28 0 28 -26v-48q0 -18 -28 -28q-44 -16 -44 -46q0 -10 4 -22l146 -486l131 445q7 25 7 48q0 38 -45 58q-26 11 -26 29v53q0 23 23 23h250q29 0 29 -22v-52q0 -22 -29 -35q-57 -28 -74 -84l-199 -669v-507q0 -52 39 -78q25 -17 25 -40v-45 q0 -23 -26 -23h-312q-22 0 -22 21v47q0 22 26 40q38 27 38 78v507l-200 677q-19 60 -60 79q-23 10 -23 34zM127 1725q0 45 31.5 76.5t76.5 31.5t76.5 -31.5t31.5 -76.5t-31.5 -76.5t-76.5 -31.5q-44 0 -76 31.5t-32 76.5zM498 1725q0 44 31.5 76t76.5 32t76.5 -31.5 t31.5 -76.5t-32 -76.5t-76 -31.5q-45 0 -76.5 31.5t-31.5 76.5z" />
<glyph unicode="&#x2c6;" horiz-adv-x="683" d="M86 1115l171 283h166l173 -283h-104l-158 148l-143 -148h-105z" />
<glyph unicode="&#x2dc;" horiz-adv-x="683" d="M100 1134v38q0 76 32.5 123.5t92.5 47.5q49 0 134 -51q64 -38 91 -38q47 0 47 61v24h86v-46q0 -71 -33.5 -116t-87.5 -45q-57 0 -144 57q-59 38 -85 38q-48 0 -48 -69v-24h-85z" />
<glyph unicode="&#x2000;" horiz-adv-x="963" />
<glyph unicode="&#x2001;" horiz-adv-x="1927" />
<glyph unicode="&#x2002;" horiz-adv-x="963" />
<glyph unicode="&#x2003;" horiz-adv-x="1927" />
<glyph unicode="&#x2004;" horiz-adv-x="642" />
<glyph unicode="&#x2005;" horiz-adv-x="481" />
<glyph unicode="&#x2006;" horiz-adv-x="321" />
<glyph unicode="&#x2007;" horiz-adv-x="321" />
<glyph unicode="&#x2008;" horiz-adv-x="240" />
<glyph unicode="&#x2009;" horiz-adv-x="385" />
<glyph unicode="&#x200a;" horiz-adv-x="107" />
<glyph unicode="&#x2010;" horiz-adv-x="476" d="M45 374v185h386v-185h-386z" />
<glyph unicode="&#x2011;" horiz-adv-x="476" d="M45 374v185h386v-185h-386z" />
<glyph unicode="&#x2012;" horiz-adv-x="476" d="M45 374v185h386v-185h-386z" />
<glyph unicode="&#x2013;" horiz-adv-x="1024" d="M-12 428v114h1049v-114h-1049z" />
<glyph unicode="&#x2014;" horiz-adv-x="2048" d="M-12 428v114h2073v-114h-2073z" />
<glyph unicode="&#x2018;" horiz-adv-x="357" d="M45 1194q0 199 241 382l58 -74q-149 -127 -153 -205q115 -27 115 -130q0 -56 -38.5 -92.5t-90.5 -36.5q-57 0 -94.5 44t-37.5 112z" />
<glyph unicode="&#x2019;" horiz-adv-x="357" d="M13 1111q149 127 153 205q-115 27 -115 130q0 57 38.5 93.5t89.5 36.5q61 0 97 -45.5t36 -111.5q0 -199 -241 -381z" />
<glyph unicode="&#x201a;" horiz-adv-x="351" d="M7 -227q149 127 153 205q-115 26 -115 129q0 57 38.5 93.5t89.5 36.5q61 0 97 -45t36 -112q0 -191 -241 -381z" />
<glyph unicode="&#x201c;" horiz-adv-x="680" d="M45 1194q0 199 241 382l58 -74q-149 -127 -153 -205q115 -27 115 -130q0 -56 -38.5 -92.5t-90.5 -36.5q-57 0 -94.5 44t-37.5 112zM368 1194q0 192 240 382l59 -74q-150 -127 -154 -205q115 -27 115 -130q0 -56 -38 -92.5t-90 -36.5q-60 0 -96 45t-36 111z" />
<glyph unicode="&#x201d;" horiz-adv-x="680" d="M13 1111q149 127 153 205q-115 27 -115 130q0 57 38.5 93.5t89.5 36.5q61 0 97 -45.5t36 -111.5q0 -199 -241 -381zM336 1111q149 127 153 205q-115 27 -115 130q0 56 38.5 93t89.5 37q60 0 96.5 -45.5t36.5 -111.5q0 -199 -241 -381z" />
<glyph unicode="&#x201e;" horiz-adv-x="680" d="M13 -227q149 127 153 205q-115 26 -115 129q0 57 38.5 93.5t89.5 36.5q61 0 97 -45t36 -112q0 -191 -241 -381zM336 -227q149 127 153 205q-115 26 -115 129q0 56 38.5 93t89.5 37q60 0 96.5 -45t36.5 -112q0 -198 -241 -381z" />
<glyph unicode="&#x2022;" horiz-adv-x="717" d="M73 778q0 118 84 201.5t202 83.5q117 0 201 -83.5t84 -201.5t-83.5 -202t-201.5 -84q-119 0 -202.5 83.5t-83.5 202.5z" />
<glyph unicode="&#x2026;" horiz-adv-x="1536" d="M128 108q0 53 37.5 90.5t90.5 37.5q54 0 91.5 -37.5t37.5 -90.5t-38 -91t-91 -38t-90.5 38t-37.5 91zM640 108q0 53 38 90.5t90 37.5q54 0 91.5 -37.5t37.5 -90.5t-38 -91t-91 -38t-90.5 38t-37.5 91zM1152 108q0 53 38 90.5t90 37.5q54 0 91.5 -37.5t37.5 -90.5t-38 -91 t-91 -38t-90.5 38t-37.5 91z" />
<glyph unicode="&#x202f;" horiz-adv-x="385" />
<glyph unicode="&#x2039;" horiz-adv-x="406" d="M42 470l232 457h87l-140 -457l140 -454h-87z" />
<glyph unicode="&#x203a;" horiz-adv-x="406" d="M45 16l139 454l-139 457h87l232 -457l-232 -454h-87z" />
<glyph unicode="&#x205f;" horiz-adv-x="481" />
<glyph unicode="&#x20ac;" horiz-adv-x="790" d="M35 572l20 94h49q-1 32 -1 48q0 31 2 82h-70l20 94h55q50 613 342 613q57 0 138 -48q10 -6 18 -6q7 0 20 12q7 10 17 11h57q19 0 19 -29v-328q0 -28 -19 -28h-44q-30 0 -49 71q-63 239 -157 239q-125 0 -125 -394v-113h251l-20 -94h-231v-130h197l-20 -94h-177v-157 q0 -337 125 -337q92 0 157 247q19 71 49 71h44q19 0 19 -28v-328q0 -29 -19 -29h-57q-10 1 -17 11q-13 12 -20 12q-9 0 -18 -6q-76 -49 -138 -49q-164 0 -256 206q-67 151 -87 387h-74z" />
<glyph unicode="&#x2122;" horiz-adv-x="1491" d="M24 1446v109h599v-109h-240v-625h-121v625h-238zM706 821v734h181l184 -586l179 586h178v-734h-115v616l-187 -616h-110l-196 625v-625h-114z" />
<glyph unicode="&#x25fc;" horiz-adv-x="945" d="M0 0v945h945v-945h-945z" />
</font>
</defs>
</svg>
