<?xml version="1.0" standalone="no"?>
<!DOCTYPE svg PUBLIC "-//W3C//DTD SVG 1.1//EN" "http://www.w3.org/Graphics/SVG/1.1/DTD/svg11.dtd" >
<svg xmlns="http://www.w3.org/2000/svg" xmlns:xlink="http://www.w3.org/1999/xlink" version="1.1">
<metadata></metadata>
<defs>
<font id="great_vibesregular" horiz-adv-x="716" >
<font-face units-per-em="2048" ascent="1638" descent="-410" />
<missing-glyph horiz-adv-x="530" />
<glyph horiz-adv-x="0" />
<glyph unicode="&#xd;" horiz-adv-x="681" />
<glyph unicode=" "  horiz-adv-x="530" />
<glyph unicode="&#x09;" horiz-adv-x="530" />
<glyph unicode="&#xa0;" horiz-adv-x="530" />
<glyph unicode="!" d="M246 55q4 35 33.5 59.5t64.5 24.5t55.5 -24.5t14.5 -59.5t-35 -59.5t-63.5 -24.5t-55 24.5t-14.5 59.5zM399 221l2 15l521 991q10 18 32.5 28.5t41 12.5t53 1t43.5 -1l10 -4l4 -13q-10 -27 -159.5 -252t-331 -492t-195.5 -288z" />
<glyph unicode="&#x22;" horiz-adv-x="651" d="M348 1278q-2 27 16.5 47.5t45.5 20.5q39 0 45 -39q12 -59 -68 -367h-20zM571 1280q-2 29 14.5 47.5t45.5 18.5q41 0 47 -41q4 -20 -4 -75.5t-19.5 -104t-28 -114t-18.5 -71.5h-20z" />
<glyph unicode="#" horiz-adv-x="1527" d="M51 469l62 96h319l172 289h-348l59 98h349l282 473h113l-287 -473h287l284 473h111l-285 -473h304l-58 -98h-305l-170 -289h330l-60 -96h-329l-285 -469h-109l281 469h-283l-284 -469h-109l283 469h-324zM541 565h286l172 289h-284z" />
<glyph unicode="$" horiz-adv-x="919" d="M-137 109q2 14 37 49h18q84 -88 221 -115l305 557q-123 152 -122 260q0 104 74.5 179t172 107t197.5 32l57 106l66 12l-68 -125q78 -12 115 -61.5t37 -112.5q0 -55 -32 -95t-81 -40q-39 0 -65.5 28t-24.5 66q2 37 27.5 61.5t64.5 24.5q16 0 38 -11t26 -23 q-14 98 -129 122l-240 -434q137 -180 137 -303t-86 -217t-202.5 -137t-235.5 -43l-57 -109l-70 -12l72 125q-199 37 -252 109zM193 37q141 0 256.5 91t115.5 228q0 88 -84 201zM451 913q0 -25 8 -50t14 -37.5t27.5 -46.5t23.5 -38l221 398q-4 0 -14 1t-14 1 q-98 0 -182 -65.5t-84 -162.5z" />
<glyph unicode="%" horiz-adv-x="1271" d="M-68 -162q160 168 346.5 385t290 344t326.5 402q-307 -264 -446 -119q-92 -72 -179 -70q-113 2 -138.5 120t38.5 255q61 141 174 243.5t215 100.5q176 -4 146 -205q-27 -162 -152 -331q-35 -49 -66 -78q76 -135 359 90q51 41 205.5 211t165.5 176q8 6 28.5 6t24.5 -14 l-1260 -1526h-76zM241.5 940q-8.5 -90 45.5 -111q59 -18 139 50q-35 53 -31 100q0 88 70 88q27 0 44 -17.5t17 -43.5q0 -14 -4 -23q37 51 77 144.5t54.5 189t-51.5 113.5q-63 18 -146 -62t-145 -207q-61 -131 -69.5 -221zM576.5 59.5q-25.5 116.5 37.5 253.5 q61 143 174.5 244.5t215.5 99.5q150 -4 151 -157q0 -154 -127 -338.5t-264 -214.5q-25 -6 -49 -6q-113 2 -138.5 118.5zM686.5 98.5q-8.5 -90.5 44.5 -110.5q43 -12 95.5 19.5t76 58t64.5 77.5q49 64 102 211q72 207 -20 234q-66 18 -149 -60.5t-144 -205.5 q-61 -133 -69.5 -223.5z" />
<glyph unicode="&#x26;" horiz-adv-x="1241" d="M47 430q72 195 289 301q125 61 280 78q-57 80 -57 184q2 137 106.5 243.5t244 156t272.5 47.5q100 -2 172.5 -44t72.5 -136q0 -59 -36.5 -105.5t-87.5 -46.5q-41 0 -70 28.5t-27 69.5t30 67.5t69 24.5q18 0 40.5 -11t26.5 -25q10 63 -31 91.5t-106 30.5q-88 2 -194.5 -41 t-204.5 -126q-86 -76 -139.5 -194t-10.5 -208q10 0 71.5 3t98.5 1q57 -4 83 -36.5t2.5 -62.5t-91.5 -30q-117 0 -207 90q-219 -33 -340 -233q-106 -176 -74 -359q33 -184 191 -235q53 -18 115 -19q201 0 345 132.5t150 267.5q2 66 -53 108.5t-138 53t-169 -2t-151.5 -57.5 t-76.5 -112q-16 -109 136 -189q20 -12 18 -35q-4 -16 -18 -8q-129 70 -182.5 157t-28 159.5t124 122t249.5 49.5h363q41 0 113.5 18t148.5 53t110.5 83t-1.5 110q-6 10 -4 18t11 8t15 -10q55 -96 3 -174t-177 -126t-262 -46q66 -53 76 -133t-35 -161t-122 -151.5 t-195.5 -115.5t-249.5 -45q-317 0 -449 184q-106 152 -39 338zM702 786q49 -61 148 -61q47 0 61.5 13.5t-3 28.5t-54.5 17q-70 6 -152 2z" />
<glyph unicode="'" horiz-adv-x="323" d="M159 806q3 7 15 11q61 23 105.5 68t52.5 110q-31 -20 -60 -20q-35 0 -55 25.5t-14 60.5t34.5 59.5t63.5 24.5q41 0 62.5 -34t21.5 -79q0 -90 -62.5 -150.5t-142.5 -86.5q-12 -4 -18 0t-3 11z" />
<glyph unicode="(" d="M65.5 243.5q-36.5 180.5 18.5 420.5q31 115 115 249t203.5 259.5t282.5 228t331 145.5q47 12 47 -8q2 -20 -47 -35q-133 -35 -254 -110.5t-206 -162.5t-155.5 -191.5t-111.5 -190.5t-66 -166q-45 -141 -52 -282.5t22.5 -252t105.5 -174t186 -49.5q37 4 39 -14 q2 -23 -49 -31h-4q-145 -16 -257 84t-148.5 280.5z" />
<glyph unicode=")" horiz-adv-x="1060" d="M29 -96q0 20 49 35q164 43 307 144t237.5 226t154 236.5t91.5 214.5q45 141 52.5 282.5t-22.5 252t-105.5 173t-184.5 50.5q-37 -4 -41 14q-2 23 49 31h5q145 16 256.5 -84.5t148.5 -280.5t-18 -420q-41 -156 -168 -334t-334 -334.5t-430 -213.5q-47 -12 -47 8z" />
<glyph unicode="*" horiz-adv-x="882" d="M35 773.5q8 23.5 41 23.5h297l-117 256q-18 39 8 45q35 8 62 -43l120 -236l238 240q31 31 41 4q14 -33 -27 -78l-174 -188h279q35 0 31 -23q-2 -31 -50 -41q-10 -2 -20 -2l-270 -10l108 -215q8 -16 -5 -42t-33.5 -32t-39.5 25l-102 229l-223 -244q-14 -14 -40 -7 t-35 25.5t15 47.5l205 207l-270 -10q-18 0 -32.5 22.5t-6.5 46z" />
<glyph unicode="+" horiz-adv-x="937" d="M279 436q6 53 47 60q20 0 66 -1t110.5 -3.5t107.5 -2.5q6 25 20.5 87.5t28 118t23.5 91.5q10 37 39 43q20 4 20 -22q0 -4 -2 -12q-10 -39 -61 -306q41 -2 132 -2h134q23 0 32 -14t-1 -27.5t-37 -13.5q-96 0 -272 -12q-6 -37 -17.5 -99.5t-19.5 -108.5t-11 -73 q-4 -23 -49 -33q-53 -10 -51 25q2 4 2 8q4 23 29.5 122t40.5 155q-49 -4 -154.5 -10.5t-134.5 -8.5q-23 -2 -22 39z" />
<glyph unicode="," horiz-adv-x="313" d="M0 -203q-2 10 16 17q61 20 104.5 66t51.5 112q-27 -20 -57 -21q-35 0 -55.5 24.5t-14.5 59.5q4 35 34 59.5t64 24.5q43 0 66.5 -27.5t23.5 -70.5q0 -92 -66.5 -157.5t-146.5 -92.5q-20 -8 -20 6z" />
<glyph unicode="-" horiz-adv-x="831" d="M303 470q6 26 33 26q133 0 450 -9q35 -2 43 -26q-3 -25 -34 -29q-160 0 -459 -35q-14 -2 -26.5 22.5t-6.5 50.5z" />
<glyph unicode="." horiz-adv-x="425" d="M211 55q4 35 33.5 59.5t64.5 24.5t55.5 -24.5t14.5 -59.5t-35 -59.5t-63.5 -24.5t-55 24.5t-14.5 59.5z" />
<glyph unicode="/" horiz-adv-x="1122" d="M35 -76q-8 16 20 41q43 37 107.5 107.5t158 181.5t180.5 216t218 271t224 282t247 312.5t240 302.5q33 41 86 29q41 -10 24 -41q-2 -6 -8 -12q-106 -123 -444 -545t-612.5 -743.5t-385.5 -393.5q-43 -27 -55 -8z" />
<glyph unicode="0" horiz-adv-x="1028" d="M106 244q0 158 111 379t288 392t339 171q190 -1 190 -228q0 -123 -59.5 -289.5t-152.5 -321t-227 -262.5t-265 -108q-109 0 -166.5 77t-57.5 190zM229 172q0 -154 125 -154q129 0 275.5 195t236.5 425t90 359q0 150 -110 150q-94 0 -208 -120t-202 -280.5t-147.5 -323.5 t-59.5 -251z" />
<glyph unicode="1" horiz-adv-x="774" d="M123 12l553 987q-166 -150 -334 -251h-8l-8 16l4 12q272 207 375 316q57 63 92 67l63 6q4 2 12 -2v-10l-10 -20l-612 -1123q-10 -6 -107 -14q-2 0 -9 2t-9 2z" />
<glyph unicode="2" horiz-adv-x="999" d="M2 0q2 10 96.5 113.5t104.5 107.5q31 4 45 -2q639 569 639 807q0 90 -99 90q-106 0 -199 -99t-138 -218l-9 -8h-24l-4 12q53 150 169.5 263.5t260.5 113.5q82 0 134 -45t52 -125q0 -45 -30.5 -104.5t-92 -131.5t-118 -131t-146.5 -138t-137 -119t-130 -107.5t-87 -71.5 q233 -117 280 -117q51 0 102.5 35t86.5 74t43 41l14 -13v-8q-201 -244 -323 -244q-20 0 -69.5 16.5t-92.5 35t-97.5 43t-60.5 26.5l-143 -112z" />
<glyph unicode="3" horiz-adv-x="937" d="M20 27v10l15 12l10 4q66 -31 143 -30q160 0 325 156.5t165 318.5q0 59 -41 93t-102 34q-39 0 -144 -29l-14 6l-2 19l8 10q70 29 139.5 63.5t150.5 89t131 123t50 137.5q0 74 -80 74q-121 0 -282 -182h-11l-14 12v10q184 225 373 226q68 0 111.5 -30.5t43.5 -96.5 q0 -223 -454 -387q111 0 193.5 -44t82.5 -145q0 -119 -103.5 -239.5t-244.5 -192.5t-258 -72q-123 0 -191 50z" />
<glyph unicode="4" horiz-adv-x="950" d="M162 373v16q6 12 8 14q51 63 167 180t152 160q166 186 277 334q20 27 36.5 42.5t37 23.5t34 11t47 8t56.5 9l14 -6l2 -14q0 -14 -36.5 -57t-100 -106.5t-136.5 -132.5t-156 -143.5t-145.5 -131t-117.5 -105.5t-61 -55l444 8l133 258q4 8 10.5 14.5t15.5 10.5t16 6t19.5 4 t18.5 2t20.5 1t16.5 1l12 -6l2 -12q0 -6 -61.5 -127t-75.5 -146h49l12 -8l-10 -23l-14 -10l-60 -2q-182 -365 -192 -375q-6 -6 -61.5 -18t-69.5 -12l-10 2v8q0 25 204 389z" />
<glyph unicode="5" horiz-adv-x="911" d="M-25 -2v14l13 15l8 4q49 -18 127 -19q172 0 348 174t176 346q0 63 -34.5 97.5t-98.5 34.5q-45 0 -88 -16.5t-102.5 -52.5t-79.5 -46l-13 4v12q14 41 161 297t167 273q76 27 150.5 15.5t171 -9.5t149.5 43l8 -4q-35 -92 -127 -133t-189 -37t-192 6l-225 -391 q137 92 275 92q90 0 147 -45t57 -133q0 -135 -111.5 -269.5t-266 -215.5t-285.5 -81q-111 0 -146 25z" />
<glyph unicode="6" horiz-adv-x="862" d="M76 197q0 131 80 283.5t208 288.5t251.5 242.5t244.5 190.5l12 2l15 -22q-2 -2 -5 -8.5t-5 -8.5q-20 -23 -72.5 -64.5t-67.5 -53.5q-143 -133 -264 -289q-106 -143 -191 -310t-85 -296q0 -55 29.5 -91t82.5 -36q90 0 183.5 94t147.5 216t54 210q0 82 -69 82 q-63 0 -128 -60.5t-104 -129t-65 -136.5l-9 -10l-20 -2l-4 12q33 137 142.5 263t236.5 126q70 0 107.5 -45t37.5 -117q0 -113 -80 -242.5t-203.5 -219t-238.5 -89.5q-102 0 -161.5 58.5t-59.5 161.5z" />
<glyph unicode="7" horiz-adv-x="999" d="M20 4q6 27 145.5 172.5t331 331.5t323.5 313t202 193q-37 0 -150.5 4t-175 4t-105.5 -22.5t-61.5 -49t-38 -50t-38.5 -26.5l-7 5v12q86 170 154 218t244 48q178 0 291 -14q27 20 41 20l8 -12l-4 -14q-63 -72 -402 -426q-217 -227 -459 -535q-4 -4 -37.5 -47t-63.5 -80 t-36 -39q-16 -8 -147 -20l-12 6z" />
<glyph unicode="8" horiz-adv-x="860" d="M29 176q0 68 41 142.5t117.5 147.5t130 118t128.5 100q-35 80 -34 164q0 133 105.5 233.5t238.5 100.5q82 0 135 -40t53 -118q0 -59 -28.5 -122.5t-85 -127t-94.5 -100.5t-101 -92q39 -86 39 -230q0 -150 -130 -262.5t-282 -112.5q-96 0 -164.5 52.5t-68.5 146.5z M123 170q0 -70 37 -110t106 -40q113 0 195 93.5t82 208t-86 323.5q-334 -248 -334 -475zM545 915q0 -88 76 -290q98 82 173.5 190.5t75.5 210.5q0 53 -29.5 84t-82.5 31q-86 0 -149.5 -70t-63.5 -156z" />
<glyph unicode="9" horiz-adv-x="890" d="M119 -27l8 13q496 348 627 864q20 78 20 147q0 141 -112 142q-92 0 -186.5 -82t-151 -194.5t-56.5 -203.5q0 -115 103 -114q162 0 280 284l8 7l23 -2l2 -11q-55 -143 -160.5 -270t-226.5 -127q-68 0 -106.5 45t-38.5 115q0 178 186 387t358 209q98 0 149.5 -73t51.5 -175 q0 -135 -74.5 -283.5t-195.5 -278.5t-242 -233.5t-244 -183.5h-12z" />
<glyph unicode=":" horiz-adv-x="524" d="M127 55q6 35 34.5 59.5t63.5 24.5t55.5 -24.5t14.5 -59.5q-4 -35 -34 -59.5t-64.5 -24.5t-55 24.5t-14.5 59.5zM352 514q4 35 34 59.5t64.5 24.5t55 -24.5t14.5 -59.5t-34.5 -59.5t-63.5 -24.5t-55.5 24.5t-14.5 59.5z" />
<glyph unicode=";" horiz-adv-x="522" d="M82 -203q0 10 16 17q61 20 105.5 66t52.5 112q-31 -20 -59 -21q-35 0 -55.5 24.5t-14.5 59.5t34.5 59.5t63.5 24.5q41 0 62.5 -32.5t21.5 -77.5q0 -92 -62.5 -151.5t-142.5 -86.5q-23 -8 -22 6zM352 514q4 35 34 59.5t64.5 24.5t55 -24.5t14.5 -59.5t-34.5 -59.5 t-63.5 -24.5t-55.5 24.5t-14.5 59.5z" />
<glyph unicode="&#x3c;" horiz-adv-x="673" d="M229 367q8 4 121 75.5t209 129t107 57.5l14 -6l2 -15q-16 -27 -80.5 -79t-156 -114.5t-95.5 -66.5l-2 -278l-10 -21l-14 -6q-10 0 -17 6q-16 43 -29.5 96.5t-26.5 121t-22 100.5z" />
<glyph unicode="=" horiz-adv-x="937" d="M301 457q0 39 35 39h301q201 0 201 -41q0 -23 -35 -23q-145 0 -309 -16q-18 -2 -50 -7.5t-58 -8.5t-50 -3q-16 0 -25.5 20.5t-9.5 39.5zM301 662q0 39 35 38h301q201 0 201 -41q0 -23 -35 -22q-145 0 -309 -16q-18 -2 -50 -7.5t-58 -8.5t-50 -3q-16 0 -25.5 20.5 t-9.5 39.5z" />
<glyph unicode="&#x3e;" horiz-adv-x="673" d="M55 55q0 8 17.5 27.5t47.5 43.5t63.5 50.5t69.5 53t64.5 46t49.5 33.5l20 15l2 278q2 2 5 9t5 10l17 8l18 -8q16 -43 29.5 -95.5t26 -120t18.5 -98.5l-420 -262l-14 -2q-8 0 -17 4z" />
<glyph unicode="?" horiz-adv-x="782" d="M246 55q4 35 33.5 59.5t64.5 24.5t55.5 -24.5t14.5 -59.5t-35 -59.5t-63.5 -24.5t-55 24.5t-14.5 59.5zM371 342q16 72 69.5 164t90 142t137 172t114.5 141q51 66 66.5 122t-4 89.5t-58 51t-96 12.5t-115.5 -34q-49 -25 -84.5 -65.5t-29.5 -75.5q10 39 71 74 q59 27 95.5 7t34 -71t-47.5 -86q-53 -41 -107 -31.5t-73.5 56.5t4.5 118q29 63 150 136q84 47 169 60t144.5 -12.5t88 -75.5t-1.5 -137.5t-120 -189.5q-47 -53 -161.5 -164.5t-182 -201.5t-114.5 -215q-8 -18 -25.5 -12t-13.5 26z" />
<glyph unicode="@" horiz-adv-x="1957" d="M156 293q-16 215 72.5 420t245.5 352t363.5 236.5t417.5 89.5q121 0 232.5 -28t209 -84t160 -152.5t72.5 -221.5q16 -197 -86 -384t-268 -320q-55 -43 -155.5 -76t-176.5 -33q-90 -6 -151.5 66.5t-10.5 251.5q-90 -147 -186 -242q-139 -133 -238 -70q-90 55 -82 221 q12 238 218 482q121 145 301 188t297 -69q25 -29 14.5 -54.5t-41.5 -19.5q-20 72 -86 88t-135 -25q-84 -45 -177.5 -146t-164.5 -220q-90 -147 -107 -262q-18 -125 60 -129q80 0 178 112q104 125 229 361q49 96 84 134t92 34q8 0 47 -8.5t62 -4.5q-47 -45 -133 -208.5 t-107 -272.5q-35 -166 103 -164q111 2 233 90q12 8 23 17q137 111 217 294t65 365q-12 156 -101 259.5t-212 145.5t-274 42q-272 0 -513 -152t-377.5 -402.5t-113.5 -525.5q14 -174 117.5 -297t249 -176t315.5 -53q332 0 633 203q18 18 32.5 -2.5t-10.5 -30.5 q-324 -215 -669 -215q-199 0 -361 58.5t-276.5 196.5t-130.5 341z" />
<glyph unicode="A" horiz-adv-x="1458" d="M193 745q82 147 180 261q-137 66 -205 141q-43 49 -48 128q-1 10 -1 19q0 63 31 84q20 27 36 11q14 -16 0 -50q-10 -23 -10 -47q0 -55 53 -114q66 -76 181 -129q480 534 997 534h2q162 0 257 -72.5t95 -187.5q0 -59 -33.5 -120.5t-104.5 -122t-200 -105.5t-299 -60 q-107 -10 -204 -10q-238 0 -414 58q-207 -293 -297 -517q-66 -165 -66 -271q1 -21 3 -41q16 -114 90 -152q35 -17 81 -17q53 0 120 23q126 43 265 157q156 131 305.5 311.5t231.5 334.5q64 119 120 119q6 0 11 -1q37 -7 37 -59v-10q-4 -55 -51 -107q-90 -100 -166 -251.5 t-103 -297.5q-13 -67 -13 -117q0 -71 26 -104t64 -33q27 0 61 17q80 41 164 143q117 150 178 291q16 33 35 29q14 -4 0 -37q-84 -186 -191 -328q-55 -76 -137 -126t-164 -50q-80 0 -121 64.5t-41 152.5t21.5 174t56.5 133q-41 -49 -84 -95t-105.5 -105.5t-121 -104.5 t-131 -91t-136.5 -65q-62 -20 -134 -27q-14 -1 -27 -1q-56 0 -103 24q-146 61 -146 298q0 241 155 519zM539 1004q153 -49 375 -49q98 0 210 10q254 20 403.5 124.5t149.5 258.5q0 88 -72.5 135t-189.5 47q-137 0 -263 -41t-235.5 -121t-194.5 -164t-183 -200z" />
<glyph unicode="B" horiz-adv-x="2131" d="M35 68q-15 35 -15 68q0 60 48 114q73 83 204 83q37 0 78 -7q51 -8 105 -27q43 -16 145 -71.5t152 -80.5q90 88 186 245t169 307.5t185.5 335t229.5 313.5l116 133q-161 28 -327 28q-224 0 -457 -51q-319 -68 -492 -274q-104 -124 -104 -237q0 -27 6 -54q23 -104 139 -141 q51 -15 96 -15q34 1 65 9q71 20 119 66q47 46 71 92q20 39 21 63q0 4 -1 8q0 12 21 12q23 2 22 -29v-2q-23 -150 -160 -226q-84 -47 -167 -47l-107 19q-184 63 -213 226q-5 29 -5 57q0 141 126 279q199 221 577 278q6 2 13 2q188 27 366 26q230 0 441 -44q57 49 112 69 q51 20 53 4q2 -12 -32 -34q-51 -35 -60 -56q279 -72 401 -205q67 -73 66 -158q0 -70 -45 -147q-59 -102 -192 -154t-269 -59q131 -41 244 -114.5t143 -175.5q15 -53 16 -103q1 -117 -83 -217q-118 -144 -318 -206q-147 -47 -289 -48q-49 0 -98 6q-322 41 -544 142 q-203 -150 -431 -150q-46 0 -92 6q-184 23 -235 142zM158 76q43 -86 164 -92h24q195 0 361 125q-240 115 -304 137q-63 22 -113 22q-75 0 -118 -51q-31 -35 -31 -77q0 -30 17 -64zM838 106q231 -96 497 -122q37 -3 73 -3q227 0 398 136q154 123 164 280q1 11 1 22 q0 156 -165 240q-6 4 -12 7q-66 31 -161 60.5t-153.5 50t-66.5 38.5q0 20 14.5 29.5t45 10t62.5 -1t84 -5.5t91 -4q76 2 157 42t138 104q57 62 83 134q10 28 10 58q0 44 -24 89q-40 75 -145 124q-78 37 -192 63q-109 -150 -389.5 -632t-432.5 -646z" />
<glyph unicode="C" horiz-adv-x="1454" d="M132 302q-8 63 -9 128q-1 83 13 169q24 155 86.5 296t148.5 250q-35 137 -35 262q0 108 26 207q4 16 16.5 25.5t21 0t3.5 -35.5q-10 -59 -10 -130q0 -115 27 -260q164 212 385 308q170 74 355 74q56 0 112 -7q315 -35 426 -241q47 -87 47 -180q0 -91 -45 -189 q-90 -197 -309 -291q-142 -62 -309 -62q-71 0 -146 11q-367 53 -508 348q-20 -29 -52 -103.5t-67 -184t-46 -232.5q-5 -53 -5 -104q0 -67 8 -131q14 -112 86 -204t199 -130q113 -34 236 -34q55 0 113 7q185 22 337 113q121 72 189.5 163t146.5 250q12 27 25 19t-1 -39 q-78 -158 -144.5 -250t-184.5 -176q-111 -76 -234 -117q-117 -39 -259 -39h-13q-150 2 -291 64q-147 61 -234 182t-105 263zM469 1051q127 -324 498 -365q56 -6 108 -6q260 0 426 154q147 137 148 319q-2 186 -160 289q-82 53 -199 69q-46 7 -91 7q-177 0 -353 -102 q-221 -128 -377 -365z" />
<glyph unicode="D" horiz-adv-x="2076" d="M20 68q-15 34 -15 67q0 59 48 113q73 85 206 85q38 0 81 -7q49 -8 100 -27q84 -31 312 -152q102 98 204.5 262t177 317t182 333t214.5 299q-230 138 -488 138q-106 0 -217 -23q-317 -68 -483 -277q-101 -125 -101 -240q0 -30 7 -59q25 -109 141 -145q53 -15 98 -15 q33 -1 61 7q68 18 115.5 64t71 91t25.5 76q2 18 23.5 13t17.5 -32q-19 -150 -157 -226q-84 -47 -168 -47q-54 0 -107 19q-156 53 -205 199q-19 55 -19 109q0 113 82 225q180 242 639 309q90 13 178 13q284 0 543 -136q81 91 153 143q63 45 103 45q6 0 12 -1q12 -2 15.5 -9.5 t-1.5 -12.5t-14 -5q-35 0 -90 -73.5t-90 -137.5q219 -144 334 -372q92 -182 92 -398q0 -54 -6 -111q-18 -186 -121.5 -314t-253.5 -181q-151 -54 -324 -62q-31 -2 -62 -1q-141 0 -276 32q-165 39 -290 111q-191 -153 -424 -153q-43 0 -88 5q-184 23 -236 142zM156 72 q41 -82 151 -88q14 -1 27 0q196 0 364 122q-240 115 -309 140q-58 20 -104 20q-74 0 -115 -53q-31 -36 -31 -78q0 -30 17 -63zM817 111q147 -88 338 -114q76 -10 150 -10q110 0 213 23q172 39 300 163t148 312q5 52 5 102q-1 187 -73 353q-92 211 -272 352 q-59 -92 -228 -371.5t-286 -453.5t-217 -283q-35 -37 -78 -73z" />
<glyph unicode="E" horiz-adv-x="1669" d="M52 372q24 93 81 179t166 159.5t248 114.5q109 31 207 35q-102 38 -177 106q-69 63 -69 138v12q14 166 186 298t387 190q162 43 297 43q45 0 86 -5q170 -20 250 -90q67 -58 67 -124q-1 -13 -3 -26q-16 -81 -111.5 -159t-245.5 -110q-38 -8 -58 -8q-25 0 -24 12 q8 25 76 32q55 6 112.5 48.5t90.5 99.5t40 115q1 7 1 14q0 50 -45 91q-51 46 -158 56q-34 3 -70 3q-128 0 -265 -40q-175 -51 -305 -157.5t-152 -231.5q-4 -23 -3 -44q-1 -60 29 -102q40 -56 109 -79.5t140 -39.5t117 -38q39 -19 39 -50q0 -5 -1 -11q-10 -35 -86 -35t-211 1 h-8q-130 0 -234 -30q-104 -29 -188 -101q-85 -71 -131 -160q-48 -91 -47 -190q0 -94 43 -173q44 -80 158 -131.5t282 -51.5q219 0 434 82t362 197q145 115 166 209q2 10 2 19q0 47 -55 61q-43 10 -45 24q-4 18 41 15q24 -1 47 -13q92 -49 92 -127q0 -15 -4 -33 q-22 -102 -160 -210q-154 -121 -395.5 -195t-492.5 -74q-170 0 -301.5 41t-201 109.5t-101.5 154.5q-18 50 -18 102q0 38 10 78z" />
<glyph unicode="F" horiz-adv-x="2146" d="M134 133q-29 87 -29 185q0 105 34 223q25 78 91.5 137t121.5 76q35 10 33 4q-4 -10 -72 -58q-133 -96 -157 -237q-10 -52 -10 -102q0 -86 30 -163q47 -122 140.5 -199t207 -121t230.5 -48q19 -1 38 -1q144 1 276 55q150 62 271 176t217.5 258.5t172.5 318.5q-6 0 -52.5 1 t-78 1t-85 -5t-91.5 -15.5t-77.5 -34t-62.5 -56.5q-18 -23 -29.5 -11.5t-3.5 30.5q45 98 130 143q78 41 164 41h15q94 -4 199 -18q63 156 160.5 323.5t136.5 212.5q-328 162 -557 195q-65 10 -126 10q-233 0 -404 -143q-139 -117 -160 -258q-3 -20 -3 -38q0 -81 60 -118 q80 -45 152 -45q27 0 52 6q95 22 160.5 75.5t63.5 86.5q2 33 25 47q16 10 16 -10q0 -12 -6 -29q-43 -144 -201 -198q-67 -22 -127 -23q-83 0 -153 43q-132 76 -132 226q0 13 1 26q12 168 164 301q172 152 414 152q44 0 91 -5q74 -8 148 -28q303 -82 549 -238q64 70 132 70 q20 0 40 -6q35 -10 37 -45q2 -23 -15 -21q-10 2 -22 16q-16 6 -32 6q-43 0 -91 -44q61 -31 154 -66q94 -34 202 -62q80 -20 150 -20q25 0 49 2q90 10 117 68q14 31 25.5 38t13.5 -8.5t-2 -40.5q-10 -67 -84 -103q-52 -26 -119 -25q-28 0 -58 4q-82 14 -170 42.5t-143 53 t-108.5 51.5t-57.5 29q-45 -51 -91 -132t-70.5 -133.5t-64.5 -150.5t-46 -113q116 -16 251 -16q65 0 134 4q51 2 52 -13.5t-48 -27.5q-52 -14 -194 -17q-33 -1 -62 -1q-98 0 -158 8q-37 -100 -66.5 -172t-81.5 -172.5t-105.5 -171t-133.5 -147.5t-169 -125t-210 -78.5 t-258 -30.5q-236 0 -410 109.5t-234 289.5z" />
<glyph unicode="G" horiz-adv-x="1431" d="M-84 -545q55 123 291 228q178 80 385 108q188 29 434 33q152 256 207 504l8 34q-43 -41 -102.5 -86t-151.5 -99t-185 -84t-203 -43q-29 -3 -56 -3q-79 0 -150 27q-131 45 -214 181t-87 333v15q0 191 105 419q-125 129 -135 286v20q0 146 126 288q25 27 37 18 q10 -6 -10 -35q-91 -122 -91 -247v-18q7 -134 105 -251q12 27 45 80q160 262 434 403q215 109 416 109q56 0 111 -8q264 -41 356 -217q38 -72 38 -146q0 -87 -52 -178q-115 -199 -401 -278q-143 -41 -314 -43h-15q-139 0 -277 36q-146 38 -246 105q-88 -190 -98 -362 q-1 -22 -1 -44q0 -143 55 -244q64 -116 183 -155q71 -19 143 -19t146 19q147 39 264 117t147 150q76 180 166 188q5 1 10 1q47 0 64 -52q8 -20 4 -45q-20 -160 -88 -316.5t-191 -359.5q246 -2 449 -53q39 -10 43 -27q4 -20 -43 -14l-16 4q-142 37 -408 37h-53 q-125 -180 -333 -318.5t-405 -190.5q-108 -29 -191 -29q-68 0 -120 19q-150 55 -150 144q0 28 15 59zM6 -625q6 -51 98 -69q34 -7 73 -7q145 0 367 102q283 130 449 368q-215 -6 -377 -33q-233 -35 -444 -170q-167 -107 -167 -183q0 -4 1 -8zM350 999q96 -74 244 -109 q105 -26 214 -26q43 0 87 4q350 35 532 228q111 118 111 237q0 28 -6 56q-31 143 -205 198q-39 13 -82 19q-37 6 -75 6q-175 0 -372 -118q-239 -144 -384 -382q-39 -63 -64 -113z" />
<glyph unicode="H" horiz-adv-x="2828" d="M8 379q25 94 110 176t140 84q20 0 24.5 -5t-3 -12.5t-17.5 -11.5q-61 -27 -126.5 -117t-82.5 -206q-5 -36 -5 -70q0 -67 18 -125q28 -88 86.5 -145.5t135.5 -96t164 -55t171 -16.5t157 16q694 156 977 899q-53 0 -123 -32q-31 -14 -47 -14q-14 0 -16 11q-2 8 8 25 q14 25 52 49.5t75 28.5h80q131 328 299 663q-53 -6 -151.5 -14t-160 -14t-151.5 -20.5t-149.5 -34t-132 -54.5t-122 -81t-94.5 -114.5t-71 -154.5q-21 -66 -20 -123q1 -91 51 -157q56 -73 142 -73q44 0 95 19q99 38 153 182q36 96 36 145q0 25 -9 38q-18 27 2 30 q14 4 25 -16q24 -53 24 -107q0 -69 -40 -141q-70 -127 -189 -170q-57 -21 -112 -21q-61 0 -117 25q-110 47 -161 159q-32 69 -32 146q0 47 12 97q27 106 84.5 188t143.5 132t172 83t203.5 49.5t204.5 24.5t210 14t183 13q23 39 68.5 95t88.5 68q22 6 41 5q22 0 41 -7 q35 -14 35 -55q0 -66 -84 -108.5t-158 -42.5q-35 -68 -90 -209.5t-111.5 -293t-62.5 -165.5q154 0 396.5 -17.5t297.5 -17.5q20 59 62.5 159.5t110 251t143.5 264.5t131 132q78 27 109 27q9 0 14 -2q8 -2 -17 -17q-4 -2 -10 -6q-25 -12 -89 -106.5t-162.5 -289 t-172.5 -411.5q125 0 164 14q29 10 36 2t-20 -26q-68 -47 -198 -55q-2 -4 -33 -99.5t-47.5 -157t-36.5 -151.5q-17 -78 -17 -134v-16q3 -60 27 -90q24 -24 52.5 -24.5t62.5 24.5q117 86 256 371q16 35 31.5 29t-0.5 -43q-76 -162 -126 -238t-124 -147q-54 -54 -116 -68 q-22 -5 -43 -5q-38 0 -73 17q-39 20 -58 62q-17 38 -17 92v12q2 62 8 116t29.5 135t37 123t40 113.5t28.5 78.5q-88 0 -694 26q-61 -184 -160.5 -353t-232 -314.5t-306.5 -242.5t-364 -122q-65 -9 -129 -9q-108 0 -210 25q-163 39 -282 128t-169 241q-26 78 -26 165 q0 82 23 171zM2183 1481q131 20 131 69q0 24 -22 29q-2 1 -5 1q-26 0 -104 -99z" />
<glyph unicode="I" horiz-adv-x="1867" d="M-24 38q-14 50 -14 106q0 104 46 229q37 94 131 179t150 89q20 0 24 -5t-3 -11.5t-19 -12.5q-63 -27 -141 -120t-107 -209q-15 -62 -15 -116q0 -44 10 -83q22 -88 79 -151.5t139 -105.5q82 -43 175 -63q89 -20 180 -19h9q96 1 177 22q170 43 325.5 139t266 207.5t205 248 t149.5 245t92 208.5q143 379 307 662q-98 -20 -166.5 -38t-173 -49.5t-178.5 -63.5t-160 -83t-144 -109.5t-106.5 -137t-68.5 -171.5q-12 -49 -11 -91q0 -86 48 -140q45 -51 112 -52q41 0 90 19q76 31 122 88.5t58 112.5q10 47 9 86v14q-2 45 -17 58q-4 6 4.5 18t18.5 14 t20 -14q26 -51 25 -106q0 -66 -37 -138q-69 -131 -201 -180q-65 -25 -124 -25q-92 0 -168 60q-96 75 -95 196q0 38 9 80q117 526 1167 705q18 39 66.5 96t91.5 72q25 9 46 9q17 0 33 -6q34 -13 37 -52q0 -31 -12 -54.5t-37.5 -40t-48 -26.5t-59.5 -23q-12 0 -45 -9t-41 -9 q-80 -147 -146.5 -333.5t-105.5 -326t-119 -310.5t-190 -314q-330 -422 -809 -502q-123 -21 -234 -21q-86 0 -166 12q-184 28 -303 116t-157 230zM2241 1538q133 28 133 74q0 23 -23 28q-2 1 -3 1q-26 0 -107 -103z" />
<glyph unicode="J" horiz-adv-x="1978" d="M-94 -470q-37 76 -37 170q0 115 55 257q39 94 137.5 176t153.5 84q25 2 25 -8q-2 -8 -27 -21q-66 -27 -145.5 -116.5t-112.5 -204.5q-19 -68 -19 -130q0 -37 6 -72q19 -93 74.5 -155.5t137.5 -111.5t176 -67.5t188 -25.5q23 -2 45 -2q69 0 133 17q139 31 269.5 102.5 t230.5 156.5t199.5 210t167 227.5t143.5 247t116 230.5t95 213q29 63 41 92q162 360 328 622q-135 -23 -283 -74t-297.5 -130.5t-257 -202.5t-129.5 -264q-6 -37 -6 -70q0 -95 50 -153q42 -49 106 -49q38 0 85 18q76 27 125.5 83t63.5 111q13 51 13 94v6q-1 46 -13 60 q-25 16 -4 31q23 16 47 -15q19 -46 19 -93q0 -73 -45 -151q-74 -128 -208 -176q-62 -21 -116 -21q-93 0 -166 61q-94 77 -94 208q0 32 6 68q23 135 112.5 250.5t211.5 191.5t274.5 135.5t283.5 89t256 46.5q25 41 74 96t92 67q22 7 42 7t38 -7q35 -14 35 -53q-2 -55 -45 -85 t-121 -54q-12 0 -46 -8t-42 -8q-86 -150 -167 -355t-136 -379t-155.5 -400t-223.5 -419q-166 -258 -441.5 -425t-502.5 -197q-105 -15 -200 -15q-172 0 -313 48q-220 73 -302 242zM2384 1481q139 25 139 74q0 19 -20 24q-4 2 -11.5 0t-16.5 -9t-17.5 -13.5t-19.5 -18.5 t-18 -19.5t-19.5 -20.5t-16.5 -17z" />
<glyph unicode="K" horiz-adv-x="2342" d="M8 379q27 98 106 168.5t130 77.5q27 4 26 -13q0 -10 -12 -16q-49 -23 -118.5 -106.5t-86.5 -202.5q-5 -36 -5 -70q0 -67 18 -127q28 -90 84.5 -148.5t133 -102.5t161.5 -60.5t170 -21.5q16 -1 32 -1q67 0 125 17q168 39 314.5 121.5t246 176t190.5 223.5t143 228.5 t108 225.5q211 475 311 677q-31 -4 -175.5 -16t-238.5 -26.5t-180 -39.5q-281 -78 -399 -299q-58 -107 -58 -206q0 -54 17 -105q43 -127 161 -135q8 -1 17 -1q43 0 92 17q96 37 143 157q33 84 33 161q0 33 -6 65q-2 12 8 13q16 0 29 -27q18 -43 18 -90q0 -67 -38 -145 q-62 -130 -173 -170q-67 -25 -127 -25q-104 0 -186 76q-109 99 -109 257v17q10 211 213 359q135 98 340 143q100 23 212 35t254.5 21t181.5 14q23 39 68.5 95t88.5 68q25 7 45 7q45 0 66 -35q11 -17 10 -35q0 -35 -39 -72q-66 -59 -207 -73q-66 -119 -139.5 -313.5 t-128.5 -364.5t-148.5 -361.5t-200 -335t-281.5 -253t-396 -142.5q-72 -11 -143 -11q-103 0 -204 23q-171 39 -299 128t-186 242q-32 85 -33 179q0 76 21 158zM1821 534q4 36 14 39h5q61 0 224 82q170 86 382 228.5t442.5 364.5t380.5 450q26 40 44 40q7 0 13 -5q9 -8 9 -21 q0 -17 -15 -41q-233 -387 -657.5 -728t-708.5 -413q-5 -6 -5 -29q0 -17 3 -43q6 -62 42 -190.5t83 -236.5q139 -319 366 -320q131 0 251 55.5t173 159.5q12 29 29 29q20 0 -2 -45q-55 -113 -193.5 -200t-267.5 -87q-162 0 -291 105.5t-207 277.5q-33 72 -57.5 154t-37.5 152 t-18 128q-3 32 -3 57q0 21 2 37zM2183 1481q59 8 90 24q56 28 56 61q0 34 -41 17q-12 -6 -25 -16q-23 -18 -80 -86z" />
<glyph unicode="L" horiz-adv-x="1458" d="M-10 -47q-1 8 -1 15q0 119 152 206q63 37 150 64q107 31 255 37q33 1 64 2q109 0 195 -17q92 143 215 395h-23q-128 0 -234 41q-116 45 -181.5 118t-81.5 164q-5 28 -5 55q0 63 26 123q38 87 147.5 163t277.5 115q26 6 42 6q21 0 26 -10q4 -10 -21 -21q-16 -6 -43 -10 q-88 -10 -162.5 -58.5t-117.5 -114.5q-44 -66 -66 -144q-12 -42 -11 -82q1 -35 9 -69q20 -73 66 -129q47 -56 146 -84q61 -17 136 -17q47 0 99 6l174 438q180 463 430 569q65 28 122 27q68 0 123 -39q58 -41 62 -98q2 -23 2 -47q0 -178 -108 -361q-122 -207 -326.5 -351.5 t-421.5 -180.5q-125 -252 -180 -353l-43 -69q406 -100 671 -305q134 -104 182 -255q25 -79 26 -137q0 -53 -21 -88q-23 -41 -51 -55q-28 -16 -42 -16q-12 0 -12 13q0 6 27 64q19 41 21 108v10q0 63 -28 141q-30 84 -93 141q-92 82 -230.5 142.5t-240 86t-271.5 58.5 q-174 -244 -362 -334q-113 -54 -211 -54q-77 0 -144 33q-109 53 -114 158zM39 -20q-8 -21 -8 -40q0 -53 61 -90q53 -32 123 -32q72 0 162 35q25 8 49 20q170 82 315 289q-100 22 -198 22q-115 0 -228 -30q-236 -61 -276 -174zM1135 719q285 63 514 313q227 248 227 522 q0 73 -61 78h-9q-104 0 -256 -182q-117 -143 -235 -375z" />
<glyph unicode="M" horiz-adv-x="2721" d="M60 516q-23 66 -24 144q0 121 56 272q127 297 428 514q279 201 535 215q19 1 38 1q228 0 306 -183q34 -81 34 -195q0 -35 -3 -74q-20 -178 -107 -407q-14 -38 -14 -54q0 -11 6 -12q10 -2 35 43q152 276 333 496q59 72 143 117t160 49q5 0 10 1q68 -1 114 -59 q38 -48 38 -135q0 -23 -2 -49q-6 -63 -18 -133t-24.5 -121t-37 -134t-36 -120t-44 -134t-40.5 -124q166 260 405 557q262 328 457 385q35 10 63 10q76 0 99 -77q8 -27 7 -60q0 -106 -81 -270q-39 -78 -75 -154.5t-81 -181t-74.5 -199t-56 -194.5t-26.5 -180t18 -144 q19 -63 73 -97q49 -30 122 -30h18q41 2 45 -10q2 -8 -14 -16q-18 -7 -43 -7q-10 0 -21 1q-324 32 -324 331q0 28 3 58q8 86 47 206.5t69.5 194.5t108.5 247t98 218q56 129 56 196q0 51 -33 64q-11 4 -24 4q-81 0 -249 -164q-86 -86 -182 -204q-104 -129 -301 -439.5 t-250 -437.5q-49 -111 -125 -111h-8q-49 4 -57 39q-6 16 4 31q2 4 34.5 63.5t67.5 125t83 178t88 229.5t78 275.5t56 318.5q4 35 4 63q-1 76 -31 111q-24 27 -59 27q-27 0 -60 -16q-77 -36 -157 -136q-164 -203 -284.5 -398.5t-185 -328.5t-224.5 -487q-31 -63 -45 -99 q-23 -53 -100 -59h-12q-54 0 -58 33q0 6 2 14q135 209 300 633t200 667q9 66 9 121q0 238 -171 279q-34 8 -72 8q-157 0 -375 -137q-254 -162 -409 -395q-61 -92 -92 -179q-52 -159 -53 -277q0 -62 15 -114q41 -148 159 -206q62 -30 131 -31q61 0 127 24q135 51 231 215 q71 119 71 210q0 31 -8 59q-24 84 -123 84q-19 0 -40 -3q-33 -4 -45 15q-10 14 22 22q14 4 33 6q26 4 48 4q120 0 163 -102q18 -43 17 -90q0 -85 -56 -186q-100 -182 -315 -273q-72 -30 -144 -30q-80 0 -162 38q-152 72 -212 240z" />
<glyph unicode="N" horiz-adv-x="2127" d="M1 568q-8 40 -8 83q0 123 62 279q70 170 222.5 319.5t338.5 251.5q130 73 276 103q91 19 174 18q51 0 99 -6q127 -18 200 -122q56 -78 56 -201q0 -39 -6 -81q-4 -33 -10 -65.5t-19.5 -73.5t-21.5 -64.5t-29.5 -72.5t-28 -63.5t-33 -73t-28.5 -64.5q-55 -123 -53 -125 l29 47q25 39 34 56q125 193 271 368q270 328 485 426q99 47 195 55l28 2q78 0 134 -42q65 -47 65 -148v-6q-2 -109 -68.5 -259.5t-196.5 -388t-202 -390.5q-107 -235 -107 -387q0 -54 13 -97q29 -95 111 -94q30 0 67 12q16 6 35 15q40 18 62 18.5t26 -18.5q1 -4 1 -8 q0 -27 -44 -52q-35 -18 -81 -18h-9q-206 7 -270 145q-27 59 -28 139q0 105 48 246q25 72 244 533t237 582q3 19 3 35q0 71 -64 83q-17 3 -35 3q-68 0 -154 -46q-238 -113 -454 -372q-82 -100 -159 -215t-155.5 -262.5t-116.5 -220t-118 -245t-84 -180.5q-25 -53 -103 -57 h-12q-51 0 -55 31q-2 6 0 14q98 145 275.5 537.5t242.5 683.5q22 96 22 171.5t-22 128.5q-44 107 -146 123q-31 5 -64 5q-77 0 -167 -26q-129 -38 -266 -124q-309 -193 -449 -502q-76 -169 -77 -309q0 -71 20 -135q68 -170 238 -178q211 0 368 176q123 137 127 270v8 q0 115 -108 129q-14 2 -31 2t-35 -2t-23 5.5t2 16.5t17 11q53 13 96 13q112 0 146 -91q13 -35 13 -76q0 -88 -64 -198q-111 -184 -306 -262q-100 -41 -208 -41q-135 0 -234.5 83t-129.5 235z" />
<glyph unicode="O" horiz-adv-x="1486" d="M104 936q-3 31 -3 61q0 247 214 414q209 164 506 174q17 1 34 0q294 0 488 -162q212 -179 212 -498q0 -20 -1 -40q205 135 267 258q10 23 30 18q23 -4 0 -41q-121 -190 -305 -307q-8 -96 -47 -219q-49 -147 -153.5 -291.5t-244.5 -252.5t-302 -154q-76 -21 -152 -22 q-87 0 -174 28q-117 37 -189.5 155.5t-80.5 278.5q-1 17 -1 34q0 145 60 308q-143 96 -158 258zM217 918q12 -96 82 -156q37 78 95.5 165t140 179t171.5 152q89 60 188 82q29 7 57 6q68 0 132 -39q14 -8 15.5 -16.5t-9 -12.5t-22.5 0q-30 10 -62 10q-63 0 -135 -40 q-108 -58 -200 -162.5t-161 -208t-106 -185.5q129 -60 310 -59q79 0 169 11q294 38 548 175q5 56 5 109q0 345 -223 512q-147 109 -342 109q-57 0 -118 -9q-250 -37 -408 -207q-133 -146 -133 -333q0 -40 6 -82zM312 360q-2 -26 -3 -51q0 -101 34 -187q42 -108 136 -155 q93 -43 185 -43q88 0 176 40q180 81 323.5 255t216.5 383q29 83 37 146q-254 -135 -548 -171q-91 -11 -174 -11q-183 0 -322 55q-51 -133 -61 -261z" />
<glyph unicode="P" horiz-adv-x="1822" d="M-39 66q-15 34 -15 67q0 59 48 113q73 85 206 85q38 0 81 -7q49 -6 100 -25q35 -12 25 -27q-6 -10 -31 0q-67 25 -121 25q-79 0 -133 -53q-47 -47 -47 -103q0 -23 8 -47q29 -98 151 -108q8 -2 15 -2q10 0 21 -1q229 0 450 214q90 88 185 244.5t170 307t187.5 334 t229.5 314.5q14 14 35.5 37.5t39 42t33.5 34.5q-147 21 -294 21q-189 0 -379 -35q-109 -20 -219.5 -58t-224 -98.5t-192.5 -152.5t-97 -201q-3 -22 -4 -42q0 -78 49 -138q61 -76 155 -80h5q92 1 178 71q88 72 124 177q2 14 9.5 19t13.5 -1t6 -20q-3 -133 -107 -212 q-99 -75 -221 -75h-12q-131 4 -221 87q-83 76 -83 207q0 12 1 24q6 104 66.5 194t148.5 149.5t204 106.5t215 71.5t198 39.5q210 30 391 30q188 0 346 -32q74 57 153 86q51 20 54 4q2 -12 -33 -35q-55 -39 -92 -76q131 -35 237 -98q148 -88 194 -200q24 -57 24 -112 q0 -52 -22 -104q-44 -106 -137.5 -202.5t-219 -166t-248.5 -100.5q-214 -52 -385 -52q-38 0 -74 3q-150 -219 -307 -373q-230 -217 -510 -217q-45 0 -92 6q-184 23 -236 140zM1135 553q14 -1 29 -1q149 0 335 56q164 49 298 150.5t204 215.5q59 95 59 193q0 19 -2 38 q-14 118 -131 196q-90 59 -229 92q-115 -160 -297 -485.5t-266 -454.5z" />
<glyph unicode="Q" horiz-adv-x="1540" d="M59 -270q4 47 54.5 96t113.5 49q100 0 196.5 -47t186.5 -120t189.5 -149.5t246 -148.5t316.5 -104q60 -11 108 -11q125 0 170 76q21 35 21 74q0 57 -45 123q-92 137 -283 170q-4 2 -8 2q-33 4 -33 24q0 18 27 15q240 -39 348 -182q52 -70 52 -136q0 -45 -25 -88 q-76 -129 -332 -129q-147 0 -272 32t-213.5 82t-163 110.5t-134 121t-112.5 110.5t-114.5 82t-125.5 32q-43 0 -87 -28t-48 -69q-2 -27 -16 -24q-18 0 -17 37zM197 363v29q0 105 25 203q28 112 80 224.5t124 202.5t154 166t170 112.5t172 43.5q11 2 23 2q71 0 138 -39 q14 -8 15.5 -16.5t-9 -12.5t-22.5 0q-29 9 -61 9q-94 0 -208 -79q-151 -104 -269.5 -276t-180.5 -387q-37 -125 -37 -233q0 -77 19 -146q35 -121 111.5 -185.5t174.5 -68.5h17q90 0 187 36q108 40 210 118q131 100 226.5 225t145.5 253t62 260q4 42 4 82q0 87 -18 168 q-27 117 -94.5 217.5t-164.5 168t-237 97.5q-80 17 -168 17q-67 0 -139 -10q-236 -31 -337 -203q-64 -109 -64 -245q0 -79 22 -168q8 -35 -10 -43t-39 30q-50 102 -50 200q0 117 73 227q133 202 397 247q133 21 247 21q57 0 110 -6q157 -15 266.5 -76.5t183.5 -150.5 t102 -205q28 -111 28 -232v-8q-1 -125 -42 -257t-107.5 -254t-168 -233.5t-224.5 -191.5q-102 -68 -218 -100q-93 -25 -182 -25q-23 0 -46 2q-111 8 -204 76.5t-142 191.5q-41 102 -45 222z" />
<glyph unicode="R" horiz-adv-x="2097" d="M53 70q-16 35 -16 69q0 58 47 111q74 84 207 84q40 0 86 -8q51 -8 106 -27q27 -10 21 -22.5t-33 -2.5q-68 26 -123 26q-79 0 -131 -54q-43 -47 -43 -102q0 -26 10 -54q37 -98 166 -106q13 -1 25 0q74 0 144 20q81 24 155 80.5t133 116t126.5 159t113 173t112.5 192.5 q31 53 118 210t129 228.5t110.5 174t128.5 167.5q-114 11 -230 11q-262 0 -532 -58q-248 -51 -400.5 -177t-183.5 -269q-7 -35 -7 -66q0 -86 55 -145q69 -74 173 -74q8 0 18 1q116 7 203 99q74 80 78 134q2 27 10 26q14 0 17 -24v-7q-14 -98 -80 -165q-102 -105 -244 -117 q-16 -1 -30 -2q-122 0 -212 83q-87 81 -87 216q0 20 2 41q16 178 204.5 331.5t509.5 200.5q228 32 440 32q176 0 341 -22q53 58 73 58q13 0 13 -23q-2 -18 -11 -45q152 -25 203 -39q272 -78 303 -237q4 -20 4 -41q0 -122 -149 -240q-188 -145 -504 -196q-90 -14 -188 -19 q66 -362 227 -610q55 -84 105 -125q43 -36 97 -36q7 0 15 1q64 6 135 76q88 88 197 305q16 31 33 31q16 0 2 -31q-119 -266 -209 -365q-94 -102 -214 -102t-220 104q-121 127 -195 342.5t-102 385.5q-66 -131 -103 -200t-108.5 -175.5t-149.5 -192.5q-241 -260 -548 -260 q-48 0 -97 6q-193 23 -246 144zM1348 825q45 8 132 15.5t126 11.5q233 29 397 182q124 114 124 223q0 17 -3 33q-18 115 -182 164q-49 14 -201 39q-37 -63 -180.5 -296.5t-212.5 -371.5z" />
<glyph unicode="S" horiz-adv-x="1845" d="M-4 332q-1 11 -1 21q1 141 99 303q106 174 252 243q31 12 46.5 8t-25.5 -39q-88 -70 -142 -153q-111 -174 -114 -383v-7q1 -140 77 -244q78 -106 205 -154t279 -59q39 -3 78 -3q112 -1 226 23q152 32 275 96q264 139 343 359q24 67 24 128q0 139 -125 246 q-68 53 -275.5 142t-279.5 136q-110 74 -142 166q-15 43 -15 85q0 47 20 92q37 85 121 157t196 113q158 55 350 59h27q174 0 281 -49q113 -56 136 -160q5 -21 5 -40q0 -80 -74 -144q-51 -41 -137 -66q-37 -10 -41 9q-2 16 25 26q12 4 26 6q98 12 121 99q6 22 6 43 q0 72 -65 135q-95 89 -259 89q-74 0 -163 -18q-76 -14 -160 -45q-92 -33 -158 -90q-68 -56 -94 -122q-12 -28 -11 -59q-1 -39 19 -81q34 -74 133 -135q57 -35 230.5 -114t253.5 -128q121 -74 172 -167q40 -74 40 -146q-1 -19 -3 -38q-14 -91 -71.5 -184t-145.5 -172 t-195 -143q-174 -104 -404 -140q-119 -19 -232 -19q-107 0 -209 17q-210 34 -361.5 164t-163.5 337z" />
<glyph unicode="T" horiz-adv-x="1880" d="M66 321q-5 33 -5 69q0 102 39 224q41 131 152 197q45 27 70 27q17 0 26 -13q6 -8 4 -22q-8 -10 -42 -34t-64.5 -49.5t-61 -78.5t-43.5 -121q-10 -54 -9 -104q0 -90 30 -172q48 -126 143.5 -203.5t215.5 -119.5q115 -40 230 -40h11q424 10 696 307q109 117 239 367 t232.5 475t130.5 264q-313 98 -620 113q-21 1 -42 1q-276 0 -458 -173q-139 -135 -145 -293v-9q0 -140 125 -192l20 -8q52 -15 98 -15q38 0 71 10q75 22 125 70t76 95q22 41 22 65q0 4 -1 7v4q16 14 28.5 9t12.5 -26q-20 -160 -162 -240q-87 -49 -176 -50q-57 0 -114 20 q-168 59 -213 227q-14 53 -14 106q0 121 75 238q135 209 424 252q68 10 141 10q45 0 92 -4q109 -8 239 -42.5t266 -81t163 -54.5q102 125 152 125h-2q11 3 20 3q25 0 35 -25q10 -31 -14 -39q-10 -2 -27 2q-6 4 -15.5 0t-23.5 -16.5t-23.5 -20.5t-26 -25.5t-18.5 -19.5 q84 -27 182 -53q99 -26 218 -48q85 -16 149 -16q25 0 47 3q78 9 78 59q0 31 23 30q20 0 20 -43q-1 -57 -67 -88q-47 -22 -109 -22q-26 0 -55 4q-301 39 -516 131q-80 -127 -149.5 -300t-111.5 -310.5t-121 -297t-182 -276.5q-80 -90 -198.5 -154.5t-250.5 -93.5 q-131 -30 -275 -34h-27q-129 0 -244 31q-127 34 -236.5 95.5t-175 160t-83.5 226.5z" />
<glyph unicode="U" horiz-adv-x="1929" d="M-8 694q-1 22 -1 44q0 268 202 519q162 203 434 353q178 98 353 122q53 7 102 8q115 0 212 -40q198 -85 197 -330q0 -85 -23 -188q-23 -102 -91 -263t-130.5 -293t-107.5 -282q-37 -122 -36 -213q0 -20 1 -39q14 -133 110 -133h2q124 0 289 205q27 35 56 76 q82 119 212 378t132 261q61 108 114 108q29 -14 37 -38.5t-4 -59.5t-27.5 -66.5t-41 -78t-37.5 -74.5q-80 -174 -123 -332q-23 -88 -36 -168t-14 -150v-6q0 -65 18 -103t56 -38h4q9 1 16 1q40 0 40 -18q0 -26 -45 -30q-12 -2 -25 0q-68 12 -104.5 71.5t-40.5 148.5 q-2 36 -2 69q0 50 4 96q6 76 22 156q-63 -104 -125 -185q-80 -102 -163 -168q-82 -66 -155 -90q-51 -16 -96 -17q-19 0 -37 3q-60 10 -100.5 57t-52.5 125q-4 26 -4 57q-1 109 55 268q72 204 177.5 435t132.5 338q36 147 36 248q0 149 -79 196q-97 52 -217 52q-48 0 -100 -8 q-182 -28 -365 -136q-367 -215 -496 -543q-53 -138 -52 -260q0 -105 38 -198q72 -172 241 -201q29 -5 59 -5q75 0 160 32q137 51 238 221q81 135 81 240q0 27 -5 51q-22 102 -133 102q-34 0 -76 -10q-57 -12 -53 0q6 16 43 35q74 31 129 31q85 0 127 -72q29 -51 29 -118 q0 -74 -35 -167q-78 -207 -267 -320q-39 -25 -80 -41q-104 -44 -195 -44q-119 0 -216 75q-152 117 -168 344z" />
<glyph unicode="V" horiz-adv-x="1996" d="M-7 643q-11 50 -11 104q0 129 63 285q63 147 183 277.5t259.5 217.5t294 144.5t291.5 58.5h6q133 0 246 -42q141 -61 179 -214q19 -75 18 -152q0 -81 -20 -165q-40 -164 -126 -342q-92 -188 -163.5 -405t-98.5 -369q-8 -44 -8 -77q0 -95 64 -95q10 0 22 2q135 31 422 328 q43 45 65 71q181 210 285 436q82 178 82 325q0 39 -6 77q-4 27 -11.5 45t-11.5 27.5t-16 16.5t-16.5 8t-21.5 4t-21 3q-47 10 -54 35q-4 20 23 25q14 2 39 -4q43 -12 84 -43t78 -89q38 -60 40 -142v-6q0 -81 -38 -191q-94 -250 -291 -493t-403 -381q-178 -119 -298 -119 q-19 0 -37 3q-99 18 -99 174q0 251 255 859q47 111 83 218t62 228q19 86 19 156q0 29 -3 56q-11 91 -69 126q-102 54 -229 54h-5q-130 -1 -276.5 -65.5t-276.5 -158.5t-236.5 -224t-155.5 -263q-56 -152 -55 -268q1 -47 9 -87q32 -142 121.5 -212t212.5 -70 q172 0 322.5 151.5t150.5 321.5q0 92 -45 142q-29 32 -79 32q-28 0 -62 -10q-43 -12 -43 1t33 27q61 29 112 29q53 0 94 -31q81 -61 81 -186t-95.5 -251t-234.5 -203t-266 -77q-145 0 -262 99.5t-155 267.5z" />
<glyph unicode="W" horiz-adv-x="2752" d="M-32 600q-4 31 -4 64q0 131 69 288q63 147 178 278.5t250 219.5t284.5 146.5t283.5 60.5h12q127 0 235 -41q197 -87 197 -329q0 -202 -138 -513q-94 -211 -180 -452.5t-115 -382.5q-8 -38 -8 -66q0 -45 20 -62q13 -11 32 -11q26 0 63 24q111 66 242 248t272 423.5 t194 315.5q65 90 110 90q9 0 19 -5q26 -14 27 -57q0 -38 -20 -98q-2 -6 -96.5 -234t-108.5 -331q-5 -43 -5 -79q0 -186 142 -193h13q148 0 362 168q221 176 319 379q6 14 13 28q86 203 96 376q1 20 1 38q0 147 -69 235q-63 81 -179 80q-27 0 -56 -4q-49 -13 -73 -13 q-23 0 -23 13q0 19 45 39q30 12 56 12q12 0 23 -2q15 1 29 1q118 0 210 -86q104 -97 132 -276q7 -42 7 -88q0 -150 -72 -343q-100 -254 -355 -438q-236 -172 -444 -173q-209 2 -258 197q-10 35 -12 76q-1 18 -1 37q0 115 42 256q-53 -88 -123 -185.5t-165 -213 t-195.5 -191.5t-180.5 -80h-10q-63 0 -101 46q-34 41 -34 127q0 19 2 40q14 207 266 807q168 406 168 607q0 132 -72 177q-86 56 -195 56q-47 0 -99 -10q-171 -34 -336 -133t-305 -259t-202 -327q-45 -125 -56 -229q-4 -35 -4 -68q1 -62 15 -109q22 -72 64 -122 q42 -49 102 -71q57 -21 122 -21h6q68 1 134 26q139 51 236 221q71 126 71 227q0 33 -8 64q-26 107 -142 107q-24 0 -52 -5q-45 -8 -43 6.5t39 26.5q69 21 123 21q107 0 155 -83q32 -51 32 -117q0 -73 -40 -165q-88 -201 -303 -318q-35 -18 -72 -35q-72 -30 -146 -30 q-48 0 -98 13q-126 32 -209 130t-105 254z" />
<glyph unicode="X" horiz-adv-x="1652" d="M-236 -387q8 18 25 41q416 575 1229 1155q1 51 1 99q0 297 -22 440q-25 161 -183 161q-26 0 -56 -4q-174 -27 -357 -168q-113 -86 -147 -161q-6 -6 -22.5 -1t-23.5 20t13 46q18 29 118.5 112t262.5 172t283 89q61 0 107 -24.5t74 -77t44 -107.5t23.5 -143t9.5 -156 t2 -174v-45q119 84 352.5 241.5t356 247.5t210.5 178q8 8 22.5 21.5t22 22t18.5 18.5t18 16t16.5 14.5t15.5 12.5t13.5 7l12.5 5t11 2q12 0 21.5 -2t17.5 -8t8 -16.5t-12 -28.5t-39 -45q-68 -68 -215.5 -173.5t-412.5 -287.5t-435 -303q-3 -118 -3 -217q0 -357 34 -483 q47 -172 157 -172q20 0 43 6q137 33 277 245q59 90 106 199q14 31 35 27q16 -2 0 -37q-184 -387 -405 -512q-83 -47 -151 -47q-74 0 -132 55q-57 55 -80 162q-12 55 -12 313q0 155 4 383q-797 -575 -1116 -1077q-63 -104 -125 -105q-28 0 -28 23q0 15 13 41z" />
<glyph unicode="Y" horiz-adv-x="1964" d="M40 668q-2 21 -2 42q0 138 81 304q70 145 191.5 276t261 221.5t293 149.5t288.5 62h18q124 0 230 -40q109 -49 158 -140q40 -75 40 -166q0 -19 -1 -39q-11 -115 -53 -234t-115 -242q-264 -451 -320 -700q-9 -44 -9 -79q0 -59 26 -93q35 -47 95 -47q12 0 24 1 q77 11 159 70q117 82 233.5 268.5t185 347.5t107.5 290q6 33 49 57q19 11 32 11q29 0 36 -48q1 -11 1 -24q0 -49 -17 -128q-61 -270 -160.5 -567t-204.5 -483q31 2 109.5 4t129 4t121 13.5t114.5 32t81 58t47 93.5q-4 27 4 30q6 2 13 -10q4 -8 8 -22q4 -13 4 -26 q0 -38 -28 -83q-38 -63 -124 -100q-106 -43 -510 -47q-98 -147 -248.5 -260t-318.5 -177q-166 -63 -306 -63q-92 0 -173 27q-133 43 -150 135q-3 13 -3 26q0 100 155 187q41 25 92 45q317 131 885 131q201 492 280 792q-186 -401 -415 -557q-106 -72 -222 -81q-13 -1 -25 -1 q-99 0 -165 65q-59 58 -59 163q0 27 4 57q31 223 299 662q94 154 152.5 312.5t63.5 288.5v15q0 118 -73 166q-88 58 -202 58q-46 0 -96 -9q-175 -33 -346 -129t-320.5 -254t-219.5 -323q-70 -179 -70 -306q0 -53 12 -97q42 -150 163 -204q63 -29 130 -29q63 0 130 25 q143 51 254 230q90 144 90 251q0 22 -4 43q-16 100 -123 100q-24 0 -53 -5q-41 -8 -43 2q-2 14 32 24q2 2 7 2q58 16 103 16q107 0 142 -89q16 -39 16 -85q0 -91 -63 -208q-109 -201 -317 -305q-25 -12 -49 -23q-74 -30 -148 -30q-48 0 -97 13q-124 31 -203 129.5t-94 252.5 zM555 -686q43 -70 217 -70h11q129 0 255 47q150 55 283 155t219 239q-537 0 -823 -166q-171 -98 -171 -172q0 -17 9 -33z" />
<glyph unicode="Z" horiz-adv-x="1386" d="M33 59q-11 32 -11 61q0 60 46 109q55 57 146 57q46 0 101 -14q106 -29 293 -147l692 817q207 244 437 430q-207 58 -427 78q-75 7 -148 6q-143 0 -281 -26q-94 -25 -168 -84q-73 -58 -87 -132q-2 -8 -2 -17q0 -66 93 -130q47 -33 22.5 -41t-47.5 2q-35 8 -82 62 q-35 39 -49 94q-6 25 -6 52q1 32 9 66q16 62 62 117.5t144 96t234 51.5q33 3 68 2q40 0 82 -3q78 -7 169.5 -30t150 -39t164 -50t138.5 -44q133 104 227 137q44 16 82 16q31 0 59 -12q59 -24 60 -77q0 -54 -62 -113q-38 -32 -121 -32t-211 32q-66 -59 -156.5 -173 t-202.5 -262.5t-161 -209.5q-37 -47 -76.5 -92.5t-83 -89.5t-76 -77.5t-79.5 -76.5t-72.5 -66.5t-74 -63.5t-63.5 -53.5t-63.5 -52.5t-52.5 -43q561 -244 781 -287q68 -12 152 -14h20q74 1 156 13q93 14 160 65t79 133q8 51 31 53h1q17 0 17 -45q0 -17 -2 -39 q-4 -39 -24.5 -79.5t-67.5 -93t-148.5 -87.5t-240.5 -37h-5q-132 0 -370 96q-242 98 -416 195l-174 99q-208 -148 -355 -148q-28 0 -55 6q-123 29 -155 135zM127 150q-13 -24 -13 -46q0 -37 36 -71q49 -49 143 -50q7 0 14 1q68 2 142.5 32.5t119.5 69.5q-41 33 -61 47 q-125 70 -209 80q-20 2 -38 2q-98 0 -134 -65zM1841 1384q112 -32 183 -32q52 0 81 18t37 54q3 12 3 23q0 22 -11 42q-16 29 -51 29q-84 0 -242 -134z" />
<glyph unicode="[" horiz-adv-x="1198" d="M78 57q0 236 209 631t407 627q49 57 79 84.5t80 49t114 21.5h41q186 1 186 -73q0 -14 -3 -22.5t-12.5 -11.5t-14.5 -3h-21q-25 0 -75 4t-77 4q-78 0 -96 -10q-98 -49 -267 -301t-299 -527.5t-130 -390.5q0 -90 137 -90q25 0 74 4t73 4q86 0 86 -45q0 -47 -254 -47 q-238 0 -237 92z" />
<glyph unicode="\" horiz-adv-x="1775" d="M41 1544q25 74 147 74q274 0 699 -567q63 -84 200.5 -273.5t213 -293t199.5 -253t241 -270.5q16 -21 18 -31l-14 -12q-102 31 -272 212t-350.5 415.5t-362.5 466t-349 389.5t-270 158q-16 0 -48 -13.5t-38 -15.5z" />
<glyph unicode="]" horiz-adv-x="1138" d="M35 -25q10 49 65.5 65.5t123 13.5t152.5 19.5t138 84.5q158 176 322.5 551.5t164.5 590.5q0 31 -6 62q-23 8 -67 8q-39 0 -115 -4t-113 -4l-6 4q27 100 299 100q43 0 66.5 -4t43 -26.5t19.5 -63.5q0 -293 -174 -696.5t-385 -616.5q-43 -43 -114.5 -65.5t-124 -25.5 t-136.5 -3q-131 0 -153 10z" />
<glyph unicode="^" horiz-adv-x="757" d="M242 805q4 27 152.5 137.5t183.5 114.5l12 -6q84 -117 225 -234l10 -16q0 -18 -24 -19q-45 0 -139.5 71t-129.5 118q-244 -174 -278 -180z" />
<glyph unicode="_" horiz-adv-x="1650" d="M16 -90q0 39 35 39h1516q23 0 39 -17.5t18 -40.5l-14 -14q-483 0 -1161 -14q-57 0 -191.5 -6.5t-206.5 -6.5q-16 0 -25.5 20.5t-9.5 39.5z" />
<glyph unicode="`" horiz-adv-x="432" d="M18 1051q0 43 39 43q27 0 182.5 -123t155.5 -135q0 -18 -20 -19q-8 0 -68.5 31t-130.5 67.5t-82 42.5q-76 37 -76 93z" />
<glyph unicode="a" d="M51 221q23 174 170 350q99 115 241 150q40 10 75 10q92 0 159 -65q20 -23 12 -43.5t-34 -16.5q-16 56 -66 70q-15 4 -32 4q-36 0 -76 -23q-68 -37 -141.5 -117.5t-131.5 -174.5q-72 -125 -84 -207q-2 -18 -2 -33q0 -70 53 -70h1q61 0 137 90q84 100 182 287q38 76 66 104 q26 27 67 27h6q2 0 36 -6t50 -2q-37 -37 -104.5 -167t-85.5 -216q-9 -44 -9 -72q0 -51 29 -51h2q39 0 97 72q60 74 96.5 139.5t69.5 132.5q8 18 19 21.5t14 -7t-5 -30.5q-182 -371 -309 -381h-8q-61 0 -97 58q-19 30 -18 80q0 52 21 126q-76 -123 -148 -192 q-76 -72 -136 -72q-31 0 -58 20q-61 43 -61 150q0 26 3 55z" />
<glyph unicode="b" horiz-adv-x="706" d="M-53 86q-2 10 4 20q72 94 286 512t300 547q71 101 136 101h1h10q2 0 36 -6.5t50 -2.5q-68 -72 -212 -285.5t-239 -398.5q-57 -113 -91 -222q-31 -98 -31 -180v-19q4 -90 69 -103q7 -1 14 -1q65 0 162 118q92 109 154 254q34 74 34 137q0 23 -4 45q-16 73 -92 73 q-8 0 -16 -1q-37 -4 -43 16q-6 16 25 25q18 4 47 0q106 -15 146 -99q26 -54 26 -118q0 -35 -8 -72q-31 -139 -121 -259t-213 -153q-68 -18 -120 -18q-76 0 -120 38q-52 46 -52 119q0 30 9 66q23 86 90 225q-168 -317 -217 -364q-16 -14 -20 6z" />
<glyph unicode="c" horiz-adv-x="532" d="M72 202q8 89 47 184t96 173q119 162 274 162q76 0 113 -39q30 -32 31 -80q0 -10 -2 -22q-5 -54 -55 -98q-28 -26 -52 -25q-17 0 -30 14q51 61 63 104q8 28 8 49q0 51 -49 52q-96 0 -219 -176q-39 -55 -76 -145.5t-37 -168.5q0 -68 30 -112.5t91 -44.5q63 0 116.5 29.5 t101.5 94t73 107.5t68 129q8 18 19 22.5t14 -6t-5 -30.5q-49 -102 -76.5 -153.5t-78 -114t-110.5 -89t-142 -26.5q-115 0 -169 60q-46 52 -46 126z" />
<glyph unicode="d" horiz-adv-x="751" d="M56 136q-2 17 -1 34q0 88 42 188q50 118 128 213q90 107 208 143q45 14 89 14q73 0 144 -38q139 262 237 486q29 68 59 89q25 18 64 18q8 0 16 -1q2 0 36 -5t52 -3q-47 -43 -249.5 -419t-290.5 -583q-10 -25 -20.5 -55.5t-17.5 -70.5q-3 -15 -2 -28q0 -22 7 -38 q12 -26 45 -27q96 0 256 322q6 12 8 18q8 18 19.5 22.5t15.5 -5t-4 -29.5q-164 -381 -332 -381q-55 0 -92 55q-28 44 -28 104q0 36 10 77q-35 -57 -55.5 -86t-61.5 -76q-41 -46 -87 -62q-26 -9 -53 -9q-21 0 -42 5q-90 24 -100 128zM166 92q15 -31 44 -31q26 0 62 25 q49 35 103 109q108 153 274 462q-27 27 -64 27q-60 0 -145 -72q-137 -114 -227 -282q-59 -110 -59 -181q0 -33 12 -57z" />
<glyph unicode="e" horiz-adv-x="503" d="M63 188v8q-1 88 43 188q46 106 115 187q83 95 181 137q47 20 88 20q44 0 81 -23q36 -28 36 -73q1 -28 -13 -62q-34 -90 -135 -164q-45 -35 -127 -63t-125 -28q-13 -31 -21 -75q-8 -39 -7 -81v-11q1 -48 25.5 -80.5t71.5 -32.5q186 0 338 350q14 33 35 29q14 -4 2 -31 q-86 -186 -133 -248q-104 -143 -258 -143q-82 0 -138 52t-59 144zM221 350q35 0 101.5 24.5t115.5 65.5q94 80 111 176q3 15 3 26q0 42 -34 42h-2q-59 -4 -172 -141q-70 -86 -123 -193z" />
<glyph unicode="f" horiz-adv-x="405" d="M-240 -606v6q0 161 211 659q-25 41 -25 84q0 11 2 21q7 55 38 78q28 23 58 23q8 0 15 -1q233 526 420 875q37 74 76 108.5t98 34.5q8 0 41 -6t49 -4q-96 -90 -270 -397.5t-330 -657.5q47 -57 66 -154l6 -26h6q55 0 115 63q63 66 102 134.5t84 164.5q10 20 25.5 14.5 t5.5 -28.5q-170 -387 -334 -387q3 -32 3 -65q0 -117 -33 -246q-42 -166 -130 -285q-85 -115 -186 -115h-7q-104 4 -106 107zM-124 -637q15 -35 51 -15.5t79 77.5q74 98 124 263q46 153 46 282v20q-10 -1 -19 -1q-59 0 -100 34q-121 -305 -170 -506q-17 -76 -17 -117 q0 -24 6 -37zM78 68q20 -39 82 -39h12q-4 53 -18 92q-12 27 -31 49z" />
<glyph unicode="g" horiz-adv-x="802" d="M-39 -254q90 53 185.5 92t203 74t156.5 55q35 100 47 227q7 70 7 114q0 36 -5 54q-31 -61 -67.5 -117.5t-90 -123t-115.5 -97.5q-42 -21 -81 -21q-20 0 -39 5q-96 41 -106 144q-1 17 -1 33q0 88 43 179q52 109 133 207q96 115 225 147q36 9 71 9q92 0 180 -61 q32 -26 32 -51q0 -11 -8 -23q-16 -25 -37 -4q-6 6 -10 18q-25 70 -81 75q-6 1 -12 1q-51 0 -107 -37q-64 -41 -130 -115q-76 -86 -131 -184t-67 -175q-2 -14 -2 -26q0 -56 43 -77q14 -6 30 -6q46 0 106 54q81 74 141.5 173.5t80.5 169.5q12 41 35.5 55t52.5 16t39 11 q15 -93 15 -186q0 -155 -42 -312q94 68 144 133q31 41 54.5 84t41.5 85t23 48q8 18 20 21.5t15 -7t-5 -30.5q-90 -186 -150.5 -269t-164.5 -133q-49 -139 -142.5 -276t-234.5 -241.5t-281 -104.5q-192 0 -192 156q0 133 178 237zM-164 -475q-9 -29 -9 -52q0 -57 58 -73 q18 -6 41 -6q59 0 134 34.5t124 71.5q84 68 185 201q75 107 116 207l-71 -25q-319 -111 -451 -196q-96 -63 -127 -162z" />
<glyph unicode="h" horiz-adv-x="679" d="M-82 -14q389 809 563 1128q39 72 70 102q29 28 70 27h6q4 0 36.5 -5t49.5 -3q-61 -63 -220 -351t-305 -585q96 121 166 180q84 77 207 143q99 54 150 53q12 0 22 -3q-219 -385 -246 -529q-6 -29 -6 -51q0 -54 37 -57h3q98 0 274 360q14 29 28 20t0 -40 q-39 -80 -62.5 -124t-69.5 -116t-96 -107.5t-103 -35.5q-70 0 -110 56q-20 28 -20 73q0 46 21 110q20 68 113 215q22 36 22 56q0 15 -12 22q-6 3 -13 3q-43 0 -143 -93q-147 -135 -287 -405q-14 -31 -75 -31q-55 -4 -70 -12z" />
<glyph unicode="i" horiz-adv-x="356" d="M39 150q2 58 27 116l131 334q5 12 5 24q0 29 -26 62l113 2q47 0 55 -17.5t-12 -54.5l-164 -383q-21 -45 -25 -59q-10 -37 -10 -64q0 -61 53 -65q5 -1 10 -1q39 0 83 40q76 76 192 309q14 31 29 19q10 -10 -2 -37q-27 -57 -40.5 -86t-51 -93.5t-68.5 -99.5t-75 -65.5 t-87 -30.5q-72 0 -106 46q-32 43 -31 97v7zM262 856q6 35 35 59.5t63.5 24.5t56 -24.5t15.5 -59.5t-34.5 -59.5t-63.5 -24.5t-55.5 24.5t-16.5 59.5z" />
<glyph unicode="j" horiz-adv-x="362" d="M-808 -513q3 56 30 116q53 104 192 168q61 29 142.5 53t194 52t161.5 42q51 88 65 119l144 295q-33 0 -19 33l109 235q6 12 6 25q0 27 -27 61l113 2q47 0 55.5 -17.5t-12.5 -54.5l-164 -383q-51 -121 -127 -270q80 31 117 47.5t89 59.5t95 106q33 49 123 219 q14 29 28.5 21t0.5 -39q-59 -123 -94 -182.5t-90.5 -121t-123 -98t-180.5 -77.5q-45 -82 -85.5 -146.5t-105.5 -143.5t-127 -131t-146 -88t-170 -36q-96 0 -146 39q-48 37 -48 89v6zM-739 -444q-23 -45 -23 -79q0 -39 31 -63q25 -20 67 -20q119 0 256.5 123t235.5 260 q16 23 45 76q-340 -90 -424 -127q-133 -57 -188 -170zM262 856q6 35 35 59.5t63.5 24.5t56 -24.5t15.5 -59.5t-34.5 -59.5t-63.5 -24.5t-55.5 24.5t-16.5 59.5z" />
<glyph unicode="k" horiz-adv-x="743" d="M-53 86q-2 10 4 20q72 94 286 512t300 547q71 101 136 101h1h10q2 0 36 -6.5t50 -2.5q-76 -57 -209 -263t-242 -421q-47 -94 -73 -174q186 231 334 287q70 22 115 22q39 0 59 -16q27 -21 27 -59q0 -25 -11 -55q-29 -78 -106 -134q-100 -70 -207 -79q-25 -61 -25 -120 q0 -57 23 -112q39 -88 109 -87q10 0 20 1q55 8 114 72q63 70 166 280q14 27 27 15q10 -10 0 -33q-57 -133 -113.5 -219t-109 -123t-92.5 -47q-25 -6 -56 -6q-18 0 -37 2q-57 6 -100 51t-57 123q-5 28 -5 54q1 58 25 106q36 70 76 75h13q72 0 149 62q60 48 60 93q0 10 -3 21 q-11 35 -53 35q-20 0 -47 -8q-68 -20 -154 -94q-96 -84 -168 -187q-31 -59 -57 -179q-13 -61 -12 -96q0 -34 12 -44h-129q-31 0 -17 45q16 63 43 127t67 146.5t58 125.5q-168 -317 -217 -364q-16 -14 -20 6z" />
<glyph unicode="l" horiz-adv-x="434" d="M71 184q5 56 15 99t25 90q6 18 8 26q47 170 134 371t177 352q31 51 65.5 88t66.5 53.5t61.5 19.5t46.5 -15q18 -18 25 -50q3 -12 3 -28q0 -25 -7 -58q-11 -54 -42 -122q-176 -391 -420 -615q-2 -8 -18 -56t-25 -79q-14 -57 -14 -99q0 -46 16 -76q25 -47 70 -47q12 0 24 3 q62 14 115 90q74 106 152 260q16 29 31 23q12 -6 0 -33q-2 -2 -21.5 -46t-29 -61.5t-33 -61.5t-41 -65.5t-47 -55.5t-57 -51t-63.5 -30.5t-73 -13.5q-61 0 -96 27.5t-44 66.5q-6 25 -6 57q0 17 2 37zM246 461q104 106 206.5 267.5t165.5 311.5q34 77 34 123q0 13 -3 23 q-3 15 -13 15q-20 0 -67 -68q-68 -94 -165 -304.5t-158 -367.5z" />
<glyph unicode="m" horiz-adv-x="1038" d="M-76 -10q37 72 129 268.5t150 300.5q43 79 71 105q26 25 67 24h7q2 0 36 -6t50 -2q-76 -41 -248 -385q96 119 170 184q10 8 31 26.5t32 29t32.5 30t33 28.5t32 25.5t31.5 21.5t30.5 17.5t28.5 12.5t25.5 5t22.5 -3q41 -17 41 -51q0 -17 -10 -39q-20 -47 -74.5 -146.5 t-74.5 -140.5q90 113 170 184q83 73 207 141q100 55 150 55q12 0 21 -3q-217 -385 -245 -529q-5 -26 -5 -46q0 -56 39 -56q49 0 112 74.5t100.5 142.5t68.5 137q12 29 27.5 21t1.5 -39q-33 -68 -45.5 -92.5t-54.5 -94t-71.5 -102.5t-75.5 -64.5t-91 -31.5q-72 0 -112 56 q-20 28 -20 73q0 46 21 110q20 68 113 215q22 36 22 56q0 15 -12 22q-6 3 -13 3q-43 0 -143 -93q-76 -72 -173 -211t-115 -223q-34 0 -54 34q-14 24 -14 54q0 12 2 25q10 72 86 233q14 31 24.5 52.5t22 48t14.5 42t4 28.5t-8.5 14t-25.5 -7t-45 -30.5t-68 -59.5 q-143 -131 -282 -399q-10 -23 -25.5 -28t-52.5 -5q-53 -4 -68 -12z" />
<glyph unicode="n" horiz-adv-x="686" d="M-80 -14q33 66 129 267.5t154 305.5q43 79 71 105q26 25 67 24h7q2 0 36 -6t50 -2q-76 -41 -248 -385q96 119 170 184q84 77 207 143q99 54 150 53q12 0 22 -3q-219 -385 -246 -529q-5 -28 -6 -48q0 -54 39 -54q104 0 281 354q12 29 27 21t1 -39q-109 -219 -178 -297 q-80 -88 -159 -88q-70 0 -110 56q-20 28 -20 73q0 46 21 110q20 68 113 215q22 36 22 56q0 15 -12 22q-6 3 -13 3q-43 0 -143 -93q-147 -135 -284 -405q-12 -20 -27.5 -25.5t-50.5 -5.5q-55 -4 -70 -12z" />
<glyph unicode="o" horiz-adv-x="686" d="M66 119q-7 34 -7 69q0 87 45 185q61 143 174 245q111 100 212 99h4q113 -2 138 -119q7 -33 7 -68q0 -88 -45 -186q-57 -133 -172 -242q27 -51 96 -51q27 0 53.5 13.5t52 41t46 52t44 66.5t36 64.5t32 64.5t23.5 50q4 10 15 11.5t16.5 -7t-0.5 -22.5l-13 -29 q-12 -29 -18 -41t-21.5 -43.5t-27 -50t-30.5 -49.5t-34.5 -49.5t-38 -41t-43 -34.5t-46 -21.5t-50.5 -9.5q-84 0 -131 54q-93 -70 -174 -70h-4q-113 2 -139 119zM176 160q-1 -13 -1 -24q0 -71 46 -89q11 -3 24 -3q51 0 115 54q-32 46 -32 98q0 91 71 91q27 0 44.5 -18.5 t17.5 -43.5q0 -6 -4 -22q35 51 63 110q60 127 66 223q0 9 1 16q0 80 -50 97q-12 3 -24 3q-55 0 -123 -66q-84 -80 -144 -205q-62 -129 -70 -221z" />
<glyph unicode="p" horiz-adv-x="688" d="M-297 -545q45 43 228.5 408.5t207.5 492.5q-23 -33 -43 -34q-12 0 -4 16q14 31 41 92q33 74 40 158q1 14 1 26q0 60 -29 72q84 14 101 16q29 4 46 3.5t24 -19.5q4 -12 4 -40q0 -12 -1 -28q-4 -104 -57 -245q31 49 41 65.5t49 74.5t65.5 86t65.5 65.5t76 49.5q21 7 40 7 q15 0 30 -4q92 -25 101 -129q1 -15 1 -31q0 -90 -43 -189q-51 -118 -129 -212q-88 -106 -207 -142q-45 -14 -89 -14q-72 0 -142 37l-195 -486q-31 -66 -58 -87q-26 -19 -70 -19h-9q-6 0 -38 6t-48 4zM137 68q27 -27 63 -27q59 0 144 71q137 115 229 285q60 111 60 182 q0 31 -12 54q-15 32 -45 32q-27 0 -66 -26q-47 -35 -98 -107q-96 -133 -275 -464z" />
<glyph unicode="q" horiz-adv-x="700" d="M56 152q-1 17 -1 33q0 88 43 179q52 109 133 207q96 115 225 147q36 9 71 9q92 0 178 -61q33 -27 33 -51q0 -12 -7 -23q-16 -25 -37 -4q-6 6 -10 18q-28 78 -90 78q-49 0 -119 -49q-135 -94 -242 -277q-78 -135 -78 -212q0 -34 15 -56q10 -14 27 -22q10 -5 22 -5 q100 0 297 322q20 35 23 39q41 68 63 86q21 16 54 16h8q8 0 39 -5t47 -3q-111 -170 -289 -585.5t-193 -520.5q-8 14 -31.5 36t-27.5 26q-27 40 -27 73v9q4 36 39 112q96 221 189.5 408.5t119.5 247.5q-8 -14 -67.5 -100.5t-75.5 -108.5q-97 -113 -186 -113q-21 0 -41 6 q-94 41 -104 144z" />
<glyph unicode="r" horiz-adv-x="532" d="M-57 86q-2 10 4 20q115 152 198.5 359t116.5 393q10 63 57 64q45 0 66 -58q7 -19 7 -41q0 -18 -5 -39q-14 -68 -113 -137q40 -2 81 -2q97 0 202 10q3 -7 3 -18q0 -41 -46 -139q-2 -6 -21.5 -44t-37 -72t-39 -83t-34.5 -89t-20.5 -77t2 -57.5t33.5 -22.5h1q86 0 253 342 q14 27 26.5 19t-1.5 -39q-45 -92 -76 -149.5t-95.5 -133.5t-125.5 -90q-13 -3 -25 -3q-28 -1 -54 15q-38 22 -56 82q-6 18 -6 40q0 50 28 124q18 49 69.5 137t57.5 105q6 15 6 28q0 65 -163 68l-25 -66q-129 -338 -248 -452q-16 -14 -20 6z" />
<glyph unicode="s" horiz-adv-x="524" d="M-16 106q-8 28 -8 53q0 52 32 93q20 27 49 29q104 199 176 354q76 162 170 176q12 2 23 2q29 0 53 -12q31 -14 23 -33q-6 -14 -31 -2q-21 9 -38 9q-15 0 -27 -7q-42 -20 -58 -70q-11 -36 -12 -72q0 -14 2 -27q6 -48 24 -91q6 -12 26 -55t27 -63.5t15 -56.5q6 -29 6 -54 v-13q-2 -59 -44 -122.5t-101 -104.5l14 -2q11 -2 22 -2q83 0 162 96q43 53 154 268q4 10 14.5 11.5t15.5 -6t1 -17.5q-16 -35 -24.5 -54.5t-27 -56t-31.5 -59t-33.5 -55.5t-40 -52.5l-44 -44t-49.5 -36t-53.5 -20.5t-60 -8t-66.5 11q-47 -20 -84 -20q-145 0 -176 114zM70 83 q16 -56 75 -56q25 0 41 8q-76 47 -82 153q-37 -37 -38 -78q0 -14 4 -27zM92 276q4 0 12.5 -1t19.5 -17t11 -47v-8q1 -50 23 -89q24 -42 63 -61q82 63 90 213v13q-1 61 -17 187q-12 94 -12 147q0 26 3 42q-156 -311 -193 -379z" />
<glyph unicode="t" horiz-adv-x="409" d="M70 211q27 197 159 522h-106q-10 0 -13.5 11.5t2 22.5t15.5 11h123q74 162 149 291q51 88 113 132q45 31 78 32q13 1 24 -5q40 -18 48 -82q1 -8 0 -17q0 -63 -52 -175q-43 -90 -88 -176h99q10 0 13 -11t-2 -22.5t-16 -11.5h-118q-113 -190 -273 -338l-47 -209 q-6 -26 -6 -48q0 -30 12 -51q18 -32 48 -33q2 0 6 1q36 4 71 25q98 74 217 309q8 18 19.5 22.5t13.5 -5t-6 -29.5q-68 -141 -105.5 -201.5t-95.5 -118.5q-56 -53 -128 -59q-7 -1 -13 -1q-63 0 -107 51q-37 43 -38 115q0 23 4 48zM244 461q111 114 207 272h-97 q-25 -57 -110 -272zM375 778h102q58 103 103 209q33 73 33 125q0 9 -1 18q-3 24 -15 24q-23 0 -77 -77q-37 -53 -145 -299z" />
<glyph unicode="u" horiz-adv-x="731" d="M47 137q4 29 5 41t13.5 40t17.5 39t18.5 38t19.5 37q-33 0 -19 33l37 71q70 133 115 226q20 43 80 43h125q-74 -53 -131 -173l-129 -264q-44 -96 -44 -152q0 -35 17 -55q13 -16 32 -16q35 0 91 55q12 12 24 27q109 127 306 535q23 43 80 43h110q-45 -35 -70.5 -72 t-70.5 -131q-123 -246 -137 -326q-6 -29 -6 -51q0 -24 7 -40q13 -30 37 -32q111 0 273 342q12 29 27.5 21t1.5 -39q-29 -59 -46.5 -94t-53.5 -95.5t-66.5 -95.5t-73.5 -62.5t-86 -27.5q-75 0 -103 68q-12 30 -12 71q0 53 21 123q-150 -262 -277 -262q-111 0 -129 92 q-8 14 -4 43z" />
<glyph unicode="v" horiz-adv-x="536" d="M75 125q7 57 21.5 109.5t38.5 121.5q-20 -33 -37 -18q-6 8 0 24l37 70q33 66 39 152q1 11 1 22q0 66 -34 80q84 14 101 16q29 4 46 4q17 -2 23 -20q4 -14 5 -45q0 -11 -1 -23q-4 -104 -59 -247q-70 -184 -70 -260q0 -42 21 -52q17 -7 34 -8q55 1 113 75q76 98 144 265 q-30 66 -30 127q0 40 13 78q37 117 117 145q18 6 30 6q24 0 31 -22q6 -14 -4 -37q-4 -4 -4 -10q-104 -326 -192 -475q-128 -217 -270 -217q-19 0 -39 4q-42 8 -62 43q-14 26 -15 63q0 14 2 29z" />
<glyph unicode="w" horiz-adv-x="974" d="M47 137q4 29 5 41t13.5 40t17.5 39t18.5 38t19.5 37q-33 0 -19 33l37 71q100 197 115 226q20 43 80 43h125q-74 -53 -131 -173l-129 -264q-43 -94 -43 -151q0 -35 16 -56q14 -18 33 -18q30 0 74 43q27 25 55 63.5t58 88t54.5 93.5t53 102.5t45 91t40 81.5t25.5 56 q18 43 78 43h125q-4 -4 -21.5 -15.5t-34 -27t-26.5 -33.5q-51 -86 -113 -215q-18 -39 -36 -83q-16 -44 -42 -119q-19 -57 -20 -99q0 -13 2 -25q8 -49 53 -51h9q77 0 150 93q77 99 143 263q-29 62 -29 125q0 40 12 80q35 119 111 145q16 6 27 6q22 0 30 -20q6 -16 -4 -39 q-4 -4 -4 -10q-90 -299 -164 -438q-133 -247 -290 -247q-22 0 -44 5q-39 8 -61.5 40t-26.5 75q-2 19 -2 38q0 23 3 46q5 41 16 77q-152 -276 -273 -276q-45 0 -82 25.5t-45 68.5q-8 14 -4 43z" />
<glyph unicode="x" horiz-adv-x="681" d="M-66 -18.5q5 12.5 16 15.5t21 -5q18 -16 44 -16t61 16q63 31 147 161t127 267q19 104 19 150q0 60 -37 61h-2q-40 0 -94 -86q-14 -23 -65.5 -120t-61.5 -116q-16 -29 -25 -14q-8 12 6 41q119 250 176 303q57 48 104 48q5 0 11 -1q95 -10 95 -144q0 -49 -13 -114 q55 104 128 193.5t116 101.5q13 3 24 3q21 0 39 -10q26 -16 18 -54q-6 -27 -29.5 -46.5t-51.5 -19.5q-41 0 -52 35q-63 -59 -126.5 -159.5t-94.5 -197.5q-7 -42 -7 -78q1 -40 9 -74q16 -64 53 -71q11 -3 22 -3q99 0 210 198q10 18 78 147q16 31 30 19q10 -9 0 -29 q-2 -6 -34.5 -72.5t-45 -89t-48 -77t-64.5 -78t-73 -45t-91 -21.5q-72 0 -113 62q-37 56 -37 123q0 8 1 16q0 29 2 41q-123 -238 -236 -291q-44 -23 -80 -23q-42 0 -73 31q-8 10 -3 22.5z" />
<glyph unicode="y" horiz-adv-x="817" d="M-355 -513q3 56 29 116q53 104 193 168q61 29 142 53t193.5 52t162.5 42q74 129 176 461q-119 -209 -189 -283q-90 -94 -172 -94q-111 0 -129 92q-8 14 -4 43t5 41t13.5 40t17.5 39t18.5 38t19.5 37q-33 0 -19 33l37 71q70 133 115 226q20 43 80 43h125 q-4 -4 -20.5 -15.5t-31 -26t-24.5 -32.5q-74 -127 -184 -363q-44 -96 -44 -152q0 -35 17 -55q13 -16 32 -16q35 0 91 55q12 12 24 27q145 170 322 535q23 43 80 43h110q-37 -25 -65.5 -68t-46 -81t-47.5 -124q-27 -70 -81 -229.5t-83 -239.5q193 57 295 203q45 63 129 225 q14 29 28.5 21t0.5 -39q-59 -123 -94.5 -181.5t-90.5 -120t-122.5 -97t-180.5 -76.5q-45 -82 -86 -146.5t-105.5 -143.5t-127 -131t-146.5 -88t-170 -36q-96 0 -146 39q-47 37 -47 89v6zM-287 -444q-22 -45 -22 -79q0 -41 33 -65q25 -18 67 -18q119 0 254 122t238 261l45 76 q-338 -88 -426 -127q-131 -57 -189 -170z" />
<glyph unicode="z" horiz-adv-x="698" d="M-358 -574q-39 46 -40 100q0 56 42 120q27 39 77 76.5t97 63.5t132 57.5t132 47t147.5 46t132.5 40.5q14 45 23.5 90.5t13.5 95.5q1 9 1 17q0 38 -16 62q-15 22 -43 22q-8 0 -17 -2q-31 -16 -91 -39q-27 -10 -32 13q-6 18 16 26q139 43 229 180q26 41 26 76.5t-26 65.5 q-29 34 -72 34q-25 0 -55 -12q-61 -27 -106 -104q-57 -96 -109 -205q-12 -29 -26.5 -19.5t2.5 41.5q109 213 121 234q78 139 209 164q22 4 41 3q72 0 110 -52q21 -30 21 -69v-7q-4 -72 -56.5 -149.5t-144.5 -133.5h4q133 0 137 -133q0 -78 -22 -149q156 31 315 366 q8 18 19.5 21.5t14.5 -7t-5 -30.5q-47 -94 -74 -142.5t-73 -113t-97 -99t-113 -47.5q-80 -219 -236.5 -375.5t-373.5 -220.5q-51 -15 -94 -15q-88 0 -141 62zM-313 -432q-12 -38 -13 -67q0 -53 41 -79q22 -12 55 -13q20 0 44 5q84 18 183 82t197.5 178.5t149.5 251.5 q-43 -14 -135 -40.5t-145.5 -43t-120 -43t-107.5 -51.5q-111 -63 -149 -180z" />
<glyph unicode="{" horiz-adv-x="755" d="M31 596q-35 0 12 55q174 18 236 72q66 49 96 207q4 18 17.5 90t23.5 115t29.5 104t47 105.5t62.5 70.5q96 72 299 72h8q35 0 17 -29q-14 -18 -27 -18q-150 0 -211 -56q-55 -49 -85 -171.5t-60.5 -257t-85.5 -201.5q-78 -96 -273 -131q164 -31 211 -111q16 -29 19.5 -77 t-6 -107.5t-18.5 -107.5t-23.5 -107.5t-18.5 -75.5q-31 -156 14 -207q45 -53 185 -53q20 2 12 -25q-4 -20 -18 -20h-11q-201 0 -268 71q-31 35 -34 113t9.5 142.5t35 156.5t24.5 102q31 152 -14 207q-29 35 -72 54q-45 18 -133 18z" />
<glyph unicode="|" horiz-adv-x="993" d="M453 -473v2007h88v-2007h-88z" />
<glyph unicode="}" horiz-adv-x="993" d="M43 -242q8 18 27 19q150 0 217 55q49 39 87 129t60.5 180t65.5 188.5t100 151.5q88 78 266 113q-154 27 -196 111q-12 25 -13.5 64.5t5 79.5t18.5 92t23.5 88t25.5 82t19 60q47 152 10 205q-37 55 -185 56q-39 0 13 47h10q211 0 264 -72q39 -49 22.5 -156.5t-56.5 -210 t-59 -205t13 -145.5q39 -51 197 -67q35 -2 -19 -56q-152 0 -243 -71q-57 -43 -97 -142.5t-61.5 -197t-70 -200.5t-121.5 -155q-100 -70 -302 -69h-10q-20 2 -10 26z" />
<glyph unicode="~" horiz-adv-x="993" d="M324 864q92 164 200 154q45 -4 126 -38t122 -36q74 -8 113 72q4 12 35 2q6 -4 8 -6q-84 -174 -203 -164q-43 4 -124 40t-124 40q-68 6 -106 -68q-4 -14 -37 -4q-10 4 -10 8z" />
<glyph unicode="&#xa1;" horiz-adv-x="821" d="M-90 -592q10 27 159.5 252t331 492.5t195.5 287.5l20 -2l-2 -14l-520 -991q-10 -18 -32.5 -28.5t-41 -12.5t-53.5 -1t-43 1l-10 4zM602 604q6 35 35 59.5t63.5 24.5t55 -24.5t14.5 -59.5q-4 -35 -33.5 -59.5t-64.5 -24.5t-55.5 24.5t-14.5 59.5z" />
<glyph unicode="&#xa2;" horiz-adv-x="647" d="M70.5 857q13.5 93 51.5 185.5t89 151.5q53 61 129 107.5t143 44.5h13l141 346q25 55 45 30q14 -16 6 -41q-6 -18 -26.5 -67t-53.5 -129t-61 -150q49 -14 78.5 -57t27.5 -96.5t-32.5 -90t-77.5 -36.5q-41 0 -70 28.5t-26.5 69.5t29 67.5t67.5 24.5q20 0 42.5 -12t26.5 -25 q6 33 -9 56.5t-36 29.5q-51 12 -125.5 -39t-136.5 -133q-125 -170 -119 -336q6 -135 113 -135q104 0 227 152q16 23 27 2q8 -16 -2 -29q-111 -154 -262 -160q-4 -10 -34 -79.5t-57.5 -142t-51 -152.5t-20.5 -134.5t42 -62.5q29 -6 17.5 -25.5t-35.5 -11.5q-55 18 -71 75.5 t4.5 136.5t48.5 151.5t61.5 148.5t39.5 96q-96 8 -136 78t-26.5 163z" />
<glyph unicode="&#xa3;" horiz-adv-x="1173" d="M49 92q0 57 49 89t109 32q57 0 121.5 -28.5t93.5 -49t102 -76.5q37 31 72 70t74 99.5t55 86t62.5 107.5t50.5 88q-45 4 -70 4q-63 0 -111 -10l-36 -12q-2 0 -6.5 -3.5t-8.5 -3.5q-10 0 -10 27q0 12 6 16q57 29 166 29q47 0 92 -6q373 651 668 651q59 0 103 -30t44 -85 q0 -84 -79.5 -186t-165.5 -164q-10 -10 -25 -10q-10 0 -10 8t12 17q240 199 240 338q0 68 -78 67q-98 0 -199.5 -82t-173.5 -184q-57 -84 -109 -201q-23 -53 -71 -160q45 -6 96 -6q29 0 59 6q31 10 37 11q10 0 11 -27q0 -14 -7 -16q-43 -16 -100 -17q-37 0 -119 8 q-168 -322 -422 -466q63 -45 196.5 -101.5t211.5 -75.5q49 -12 100 -12q94 0 172 42t78 130q0 10 8.5 10t8.5 -14v-4q-10 -98 -90 -140t-189 -42q-86 0 -195 24q-66 14 -213 65.5t-196 80.5q-88 -41 -170 -41q-80 0 -162 39t-82 108zM66 106q0 -57 57 -96t119 -45 q12 -2 37 -2q81 0 153 41q-12 8 -63.5 42t-87 55.5t-80.5 42t-72 20.5t-45 -15.5t-18 -42.5z" />
<glyph unicode="&#xa4;" horiz-adv-x="1374" d="M2 86l369 348q-29 53 -25 113q2 117 92 207l-213 331l316 -254q92 49 188 50q98 0 164 -50l446 267l-374 -350q31 -51 26 -119q-2 -96 -92 -197l217 -336l-319 260q-88 -49 -185 -49q-94 0 -168 47zM463 592q-4 -90 55.5 -150.5t141 -60.5t147 60.5t70.5 150.5 q2 90 -59.5 150.5t-143.5 60.5q-80 0 -144.5 -60.5t-66.5 -150.5z" />
<glyph unicode="&#xa5;" horiz-adv-x="1478" d="M102 -76q0 12 29 13q68 0 140.5 46t146.5 134t110.5 138t94.5 136h-465q-6 0 -6 6q0 10 14 24.5t22 14.5h465l11 17q0 72 -15 176h-289q-6 0 -6 4q0 10 13.5 25.5t23.5 15.5h252q-10 61 -31.5 129.5t-57.5 146.5t-91 128t-119 50q-74 0 -123 -74.5t-49 -152.5 q0 -23 5 -46.5t13.5 -42.5t16.5 -34.5t14 -23.5l4 -11q0 -14 -14 -14q-4 0 -10 6q-53 72 -54 166q0 90 55.5 172t141.5 82q121 0 212 -106.5t136 -241.5q39 -113 45 -240l41 64q0 8 2 13t9.5 12.5l9.5 9.5q14 16 28.5 40.5t32 54.5t25.5 44q41 61 66.5 100t85 114t105.5 121 t105.5 83t108.5 37q55 0 95 -41.5t40 -96.5q0 -39 -16 -39q-14 0 -15 15q0 4 2 12t2 12q0 43 -32.5 77t-75.5 34q-150 0 -451 -531q-12 -20 -16 -28h213q4 0 4 -6q0 -10 -13.5 -24.5t-23.5 -14.5h-205l-108 -193h207q6 0 6 -6q0 -10 -14.5 -24.5t-22.5 -14.5h-205 q-49 -74 -86 -125t-100.5 -124.5t-119.5 -119t-131 -79t-149 -33.5q-39 0 -39 14z" />
<glyph unicode="&#xa6;" horiz-adv-x="993" d="M344 -473l197 924l96 -9l-186 -915h-107zM586 670l184 864h107l-193 -875z" />
<glyph unicode="&#xa7;" horiz-adv-x="1933" d="M177 -450.5q-23 104.5 69 184.5q51 41 137 65q37 10 41 -8q2 -16 -25 -27q-12 -4 -26 -6q-98 -12 -121 -98q-25 -96 59 -178q137 -129 422 -72q76 14 160 45q92 33 158.5 90.5t93 123t-8 139t-132.5 135.5q-57 35 -230.5 113.5t-253.5 127.5q-121 74 -172 167 t-37.5 184.5t71.5 184.5t146 172t195 142q51 31 111 56q-98 147 -7 296.5t291 221.5q158 55 350.5 59t307.5 -49q113 -55 136 -159.5t-69 -184.5q-51 -41 -137 -66q-37 -10 -41 9q-2 16 25 26q12 4 26 6q98 12 121 99q25 96 -59 178q-137 129 -422 71q-76 -14 -160 -45 q-92 -33 -158.5 -90t-93 -122.5t8 -139.5t132.5 -135q57 -35 230.5 -114t253.5 -128q121 -74 172 -167t37.5 -184t-71.5 -184t-146.5 -172.5t-194.5 -142.5q-63 -39 -111 -57q96 -147 6 -295.5t-290 -220.5q-158 -55 -350.5 -59.5t-307.5 49.5q-113 55 -136 159.5z M495 664.5q-79 -220.5 101 -373.5q68 -53 275.5 -142.5t279.5 -136.5q31 -18 61 -47l39 19q264 139 343 359t-101 374q-68 53 -275.5 142t-279.5 136q-35 20 -61 47l-39 -18q-264 -139 -343 -359.5z" />
<glyph unicode="&#xa8;" horiz-adv-x="569" d="M78 950q0 29 18.5 48.5t46.5 19.5q31 0 50.5 -18.5t19.5 -49.5q0 -29 -18.5 -48t-47.5 -19q-31 0 -50 18.5t-19 48.5zM342 950q0 29 18.5 48.5t47.5 19.5q31 0 50 -18.5t19 -49.5q0 -29 -18.5 -48t-46.5 -19q-31 0 -50.5 18.5t-19.5 48.5z" />
<glyph unicode="&#xa9;" horiz-adv-x="1468" d="M53.5 540.5q26.5 245.5 247.5 425t504 187.5q285 6 465 -163t151 -412q-29 -246 -249 -425.5t-502 -185.5q-283 -8 -463 160t-153.5 413.5zM143.5 540.5q-26.5 -233.5 128 -393t400.5 -151.5q246 6 437 175t220 402q27 233 -127.5 394t-400.5 155q-248 -8 -439.5 -178 t-218 -403.5zM453.5 435q7.5 77 40 159t84.5 149q104 141 235 142q66 0 97.5 -34t25.5 -89q-6 -47 -48 -85t-71 -9q45 49 55 90q23 88 -34 88q-86 0 -191 -154q-96 -141 -96 -270q0 -59 25.5 -98t78.5 -39q119 0 217 147q12 16 23.5 18.5t13.5 -9t-6 -25.5 q-100 -162 -266 -162q-98 0 -144.5 52t-39 129z" />
<glyph unicode="&#xaa;" horiz-adv-x="765" d="M125 883q-43 51 0 159q20 55 65 109q49 57 121 74.5t117 -27.5q10 -10 6 -21.5t-16 -7.5q-20 59 -88 25q-68 -37 -135 -145q-37 -63 -43 -105q-8 -53 28 -51q31 4 66 45q39 45 92 143q14 27 21.5 38t19.5 20.5t29 7.5q4 0 19 -3t24 -1q-18 -16 -52 -82t-43 -109 q-14 -61 9 -61q45 -2 133 172q8 18 16 10q4 -6 -2 -18q-92 -184 -156 -191q-33 -2 -52 29t1 102q-39 -63 -74 -96q-66 -63 -106 -16z" />
<glyph unicode="&#xab;" horiz-adv-x="923" d="M229 367q8 4 121 75.5t209 129t107 57.5l14 -6l2 -15q-16 -27 -80.5 -79t-156 -114.5t-95.5 -66.5l-2 -278l-10 -21l-14 -6q-10 0 -17 6q-16 43 -29.5 96.5t-26.5 121t-22 100.5zM526 367q8 4 122 75.5t210 129t105 57.5l12 -6l2 -15q-18 -29 -80.5 -79t-153 -113.5 t-96.5 -67.5l-2 -278l-10 -21l-14 -6l-17 6q-12 23 -27.5 84.5t-31 138t-19.5 95.5z" />
<glyph unicode="&#xac;" horiz-adv-x="1654" d="M145 496q0 18 22.5 44.5t39.5 26.5h1163l-104 -493q-6 -45 -56 -45q-16 0 -28.5 14t-10.5 31l84 395q0 2 -534 2l-535 -2q-41 0 -41 27z" />
<glyph unicode="&#xad;" horiz-adv-x="831" d="M303 470q6 26 33 26q133 0 450 -9q35 -2 43 -26q-3 -25 -34 -29q-160 0 -459 -35q-14 -2 -26.5 22.5t-6.5 50.5z" />
<glyph unicode="&#xae;" horiz-adv-x="1468" d="M53.5 540.5q26.5 245.5 247.5 425t504 187.5q285 6 465 -163t151 -412q-29 -246 -249 -425.5t-502 -185.5q-283 -8 -463 160t-153.5 413.5zM143.5 540.5q-26.5 -233.5 128 -393t400.5 -151.5q246 6 437 175t220 402q27 233 -127.5 394t-400.5 155q-248 -8 -439.5 -178 t-218 -403.5zM252 336q-10 53 47 82q55 27 137 -2q14 -6 6 -10q-4 -4 -12 0q-80 31 -113 -23q-27 -43 9 -78q20 -18 55 -20q53 -2 101 20.5t91 72.5t73 95t71 119q14 27 49 88t53.5 93t47 75t53.5 70q-160 14 -318 -21q-102 -20 -165.5 -72.5t-78.5 -111.5q-10 -55 21 -88 t79 -30t85 40q33 33 32 55q2 10 5 10q8 0 6 -12q-6 -45 -33 -67q-43 -45 -101.5 -49.5t-100.5 33.5t-36 108q6 74 85 138t212 83q182 25 326 4q37 39 35 14q0 -6 -4 -18q8 -2 38.5 -7t45.5 -9q137 -39 139 -121q4 -80 -115 -135q-59 -27 -135 -39q-55 -10 -111 -11 q25 -150 95 -254q72 -111 147 -34q43 43 80 127q10 16 16 12q4 -2 0 -12q-61 -125 -88 -152q-41 -43 -101 -41t-101 45q-18 20 -34 47t-24 49.5t-16 56t-11 50t-7.5 48.5t-4.5 34q-80 -160 -151 -236q-102 -113 -273 -92q-94 12 -106 76zM827 639l99 10q109 14 168 96 q57 78 -4 127q-16 13 -41 21q-20 6 -74 14q-6 -10 -63.5 -110.5t-84.5 -157.5z" />
<glyph unicode="&#xaf;" horiz-adv-x="993" d="M375 842l26 61h437l-25 -61h-438z" />
<glyph unicode="&#xb0;" horiz-adv-x="661" d="M203 1409q0 53 39 92t92 39t92 -39t39 -92q0 -55 -39 -93t-92 -38q-59 0 -95 38t-36 93zM238 1407q0 -55 32.5 -76.5t61.5 -21.5q37 0 65.5 30.5t28.5 67.5q0 39 -26.5 66.5t-67.5 27.5q-39 0 -66.5 -27.5t-27.5 -66.5z" />
<glyph unicode="&#xb1;" horiz-adv-x="937" d="M272.5 117.5q6.5 25.5 32.5 25.5q37 0 116 -3t199.5 -7t217.5 -6q35 0 43 -27q2 -26 -35 -28q-313 0 -541 -27q-14 -2 -26.5 22.5t-6 50zM291 537q6 53 47 59q20 0 66.5 -1t112 -3t106.5 -2q10 37 34.5 145.5t36.5 151.5q10 37 39 43q20 4 21 -23q0 -4 -2 -12 q-14 -55 -62 -307h81h100h85q23 0 32 -14.5t-1 -28t-37 -13.5q-2 0 -272 -12q-6 -37 -17.5 -99.5t-19.5 -108.5t-10 -72q-4 -23 -49 -33q-53 -10 -52 24q2 4 2 9q4 20 15.5 62t29 108.5t27.5 105.5q-49 -4 -154.5 -9t-136.5 -9q-20 -2 -22 39z" />
<glyph unicode="&#xb2;" horiz-adv-x="649" d="M-8 494q-4 6 6 28q6 4 99 80t120 103q326 289 326 442q0 41 -21.5 55.5t-51.5 6t-58.5 -26t-44.5 -37.5q-41 -47 -78 -125q-12 -29 -35 -19q-14 8 -8 27q35 98 112.5 172t176.5 74q59 0 97 -31t38 -86q0 -45 -44 -109.5t-131 -146.5t-131.5 -120t-130.5 -109l-18 -17 q23 -23 67 -42t80 -19q27 0 76 28.5t72 57.5q27 31 37 20q8 -6 -12 -41q-119 -154 -203 -155q-119 -2 -215 63l-90 -69q-31 -10 -35 -4z" />
<glyph unicode="&#xb3;" horiz-adv-x="610" d="M9 600.5q3 7.5 26 -0.5q10 -29 37.5 -49.5t58.5 -20.5q113 0 204 103.5t91 206.5q0 33 -17.5 54t-46.5 21q-8 0 -25.5 -5t-39 -12t-29.5 -9q-39 -10 -41 8q-2 10 13 16q92 18 186 94t94 171q0 14 -17.5 23t-35.5 9q-76 0 -162 -98q-10 -12 -20.5 -11t-5.5 25 q123 152 251 152q51 0 84 -22.5t33 -69.5q0 -135 -244 -236q133 -20 134 -125q0 -121 -127 -224t-271 -103q-96 0 -125 75q-8 20 -5 27.5z" />
<glyph unicode="&#xb4;" horiz-adv-x="546" d="M117 872q4 6 58 47.5t117.5 85.5t76.5 54q68 51 118 24q37 -18 19 -55q-10 -25 -190.5 -106.5t-192.5 -75.5q-18 10 -6 26z" />
<glyph unicode="&#xb5;" horiz-adv-x="663" d="M-264 -516l395 776q14 27 49 98.5t53.5 108.5t50 93t60.5 99h4q14 -10 33 -10q47 0 98 43l4 -4q-37 -41 -100 -158q-49 -90 -94 -161q-121 -217 -121 -303q0 -55 51 -56q117 0 318 359q106 188 157 303h4q25 -14 52 -15q47 0 63 41l6 -2l-160 -309q-141 -262 -141 -342 q0 -41 35 -41q51 0 113.5 69.5t100.5 137.5t62 123h13l4 -4q-156 -346 -297 -346q-51 0 -79 32.5t-28 85.5q0 51 21 109q-51 -84 -121 -153.5t-139 -69.5q-66 0 -97 57l-264 -577q-4 -6 -26 -7q-45 0 -72 13q-8 8 -8 10z" />
<glyph unicode="&#xb6;" horiz-adv-x="825" d="M332 0l272 743q-141 0 -196.5 75t-4.5 216q33 90 105 165t168 112q76 29 209 28h352l-37 -102h-41l-452 -1237h-138l453 1237h-100l-453 -1237h-137z" />
<glyph unicode="&#xb7;" horiz-adv-x="534" d="M256 475q4 35 33.5 59.5t64.5 24.5t55.5 -24.5t14.5 -59.5t-35 -59.5t-63.5 -24.5t-55 24.5t-14.5 59.5z" />
<glyph unicode="&#xb8;" horiz-adv-x="776" d="M147 -332q0 14 13 15q8 0 30 -23q49 -51 177 -51q150 0 196 74q29 43 29 84q0 55 -47 85.5t-107 30.5q-45 0 -94 -24.5t-53 -24.5q-14 0 -26.5 9.5t-12.5 21.5q0 10 8 18q12 12 82 65.5t76 53.5q10 0 16 -16q-2 -2 -27.5 -19.5t-44 -32t-18.5 -20.5q41 6 80 6 q88 0 166 -39t78 -117q0 -84 -107 -155q-51 -35 -155 -35q-68 0 -163.5 23.5t-95.5 70.5z" />
<glyph unicode="&#xb9;" horiz-adv-x="503" d="M66 512l305 567q-20 -16 -76.5 -49t-81.5 -51q-37 -20 -41 -10q-2 6 18 28l33 25q57 43 209 195q37 43 70 45q35 4 41 -0.5t0 -30.5q-66 -119 -183.5 -355.5t-181.5 -351.5q-8 -12 -36.5 -19t-52 -5t-23.5 12z" />
<glyph unicode="&#xba;" horiz-adv-x="559" d="M119 972q2 42 22 89q29 72 86.5 123t108.5 49q37 0 55.5 -28.5t16.5 -70.5t-23 -87q-27 -68 -86 -121q12 -25 49 -25q14 0 29.5 7t29 22.5t24.5 29t21.5 35t16.5 32.5t14 30l9 18q4 8 10 5t2 -15q-53 -125 -103 -160q-29 -23 -63 -22q-35 0 -57 26q-47 -37 -91 -35 q-37 0 -55 28t-16 70zM199 897q33 -6 69 25q-16 27 -16 51q4 43 37 43q31 0 30 -29q0 -2 -1 -6t-1 -6q25 39 31 55q31 63 33 111.5t-25 56.5q-31 8 -72.5 -32t-72.5 -103q-70 -150 -12 -166z" />
<glyph unicode="&#xbb;" horiz-adv-x="923" d="M55 55q0 8 17.5 27.5t47.5 43.5t63.5 50.5t69.5 53t64.5 46t49.5 33.5l20 15l2 278q2 2 5 9t5 10l17 8l18 -8q16 -43 29.5 -95.5t26 -120t18.5 -98.5l-420 -262l-14 -2q-8 0 -17 4zM354 47v19q18 31 84 81t148 107t98 70q0 14 -1 87.5t1 133t10 76.5l17 8l16 -8 q8 -8 24.5 -74t35 -151t18.5 -89l-420 -262l-16 -2z" />
<glyph unicode="&#xbc;" horiz-adv-x="1273" d="M66 512l305 567q-20 -16 -76.5 -49t-81.5 -51q-37 -20 -41 -10q-2 6 18 28l33 25q57 43 209 195q37 43 70 45q35 4 41 -0.5t0 -30.5q-66 -119 -183.5 -355.5t-181.5 -351.5q-8 -12 -36.5 -19t-52 -5t-23.5 12zM123 -10q-8 8 10 28q164 186 528.5 642t454.5 581 q27 31 74 23q37 -8 16 -33q-16 -23 -103 -131.5t-155.5 -194.5t-174 -217t-191.5 -233.5t-173 -202.5t-153 -166t-100 -88q-25 -16 -33 -8zM696 233l9 39q47 57 116 125l84 88q133 152 176 211q23 39 88.5 46.5t83.5 -11.5q-2 -29 -385 -356q-53 -43 -88 -88l248 6 q12 27 35.5 73t42.5 80q29 31 88 37q39 4 35 -16q0 -6 -4 -12q0 -14 -78 -158h10q27 -4 35 -11t-2 -17.5t-41 -22.5h-31l-119 -232q-10 -10 -54 -19t-75 3q0 4 26 52t59.5 111.5t41.5 78.5z" />
<glyph unicode="&#xbd;" horiz-adv-x="1273" d="M61 -10q-8 8 11 28q164 186 528.5 642t454.5 581q27 31 73 23q37 -8 17 -33q-16 -23 -103.5 -131.5t-156 -194.5t-174 -217t-191.5 -233.5t-173 -202.5t-152.5 -166t-100.5 -88q-25 -16 -33 -8zM66 512l305 567q-20 -16 -76.5 -49t-81.5 -51q-37 -20 -41 -10q-2 6 18 28 l33 25q57 43 209 195q37 43 70 45q35 4 41 -0.5t0 -30.5q-66 -119 -183.5 -355.5t-181.5 -351.5q-8 -12 -36.5 -19t-52 -5t-23.5 12zM588 -18q-4 6 6 28q6 4 99 80t120 103q326 289 326 442q0 41 -21.5 55.5t-51.5 6t-58.5 -26t-44.5 -37.5q-41 -47 -78 -125 q-12 -29 -35 -19q-14 8 -8 27q35 98 112.5 172t175.5 74q59 0 97.5 -31t38.5 -86q0 -45 -44 -109.5t-131 -146.5t-131.5 -120t-130.5 -109l-18 -17q23 -23 67 -42t80 -19q27 0 76 28.5t72 57.5q27 31 37 20q8 -6 -13 -41q-119 -154 -202 -155q-119 -2 -215 63l-90 -69 q-31 -10 -35 -4z" />
<glyph unicode="&#xbe;" horiz-adv-x="1273" d="M9 600.5q3 7.5 26 -0.5q10 -29 37.5 -49.5t58.5 -20.5q113 0 204 103.5t91 206.5q0 33 -17.5 54t-46.5 21q-8 0 -25.5 -5t-39 -12t-29.5 -9q-39 -10 -41 8q-2 10 13 16q92 18 186 94t94 171q0 14 -17.5 23t-35.5 9q-76 0 -162 -98q-10 -12 -20.5 -11t-5.5 25 q123 152 251 152q51 0 84 -22.5t33 -69.5q0 -135 -244 -236q133 -20 134 -125q0 -121 -127 -224t-271 -103q-96 0 -125 75q-8 20 -5 27.5zM123 -10q-8 8 10 28q164 186 528.5 642t454.5 581q27 31 74 23q37 -8 16 -33q-16 -23 -103 -131.5t-155.5 -194.5t-174 -217 t-191.5 -233.5t-173 -202.5t-153 -166t-100 -88q-25 -16 -33 -8zM696 233l9 39q47 57 116 125l84 88q133 152 176 211q23 39 88.5 46.5t83.5 -11.5q-2 -29 -385 -356q-53 -43 -88 -88l248 6q12 27 35.5 73t42.5 80q29 31 88 37q39 4 35 -16q0 -6 -4 -12q0 -14 -78 -158h10 q27 -4 35 -11t-2 -17.5t-41 -22.5h-31l-119 -232q-10 -10 -54 -19t-75 3q0 4 26 52t59.5 111.5t41.5 78.5z" />
<glyph unicode="&#xbf;" horiz-adv-x="811" d="M26.5 -576.5q-28.5 50.5 1 137.5t119.5 189q47 53 162 165t182.5 202t114.5 215q8 18 25.5 12t13.5 -27q-16 -72 -69.5 -164t-90 -142t-137 -172t-115.5 -140q-51 -66 -66 -122t4 -90t58 -51.5t96.5 -12t114.5 33.5q49 25 85 66t30 76q-10 -39 -72 -74q-59 -27 -95 -7.5 t-34 71t47 85.5q53 41 107.5 32t74 -56t-4.5 -119q-29 -63 -150 -135q-84 -47 -169 -60.5t-144.5 12t-88 76zM602 604q6 35 35 59.5t63.5 24.5t55 -24.5t14.5 -59.5q-4 -35 -33.5 -59.5t-64.5 -24.5t-55.5 24.5t-14.5 59.5z" />
<glyph unicode="&#xc0;" horiz-adv-x="1458" d="M54.5 97q-27.5 126 10 276.5t116.5 306.5t179 264q-131 61 -192 131q-41 43 -46 117t28 96q20 27 36 6q10 -14 -2 -43q-33 -72 41 -147q68 -74 170 -119q195 211 437.5 337t508.5 126q154 0 243 -67t89 -173q0 -123 -146.5 -235.5t-451.5 -138.5q-332 -29 -594 55 q-49 -45 -135 -180.5t-137 -262.5q-80 -199 -63.5 -312.5t91 -151t200.5 5.5t265 157q307 258 480 574q68 123 125 108q39 -8 32 -69q-6 -49 -47 -92q-145 -160 -205 -482q-31 -164 13.5 -221t124.5 -16t164 143q117 150 178 291q16 33 35 29q14 -4 0 -37 q-84 -186 -191 -328q-55 -76 -137 -126t-164 -50q-80 0 -121 64.5t-41 152.5t21.5 174t56.5 133q-41 -49 -84 -95t-105.5 -105.5t-121 -104.5t-131 -91t-136 -65.5t-135 -26.5t-129.5 23q-102 43 -129.5 169zM512 926q236 -74 563 -47q238 20 378 115.5t140 236.5 q0 80 -67.5 124t-177.5 44q-248 0 -449 -127t-387 -346zM1182 1700q0 16 11 28.5t26 12.5q25 0 171 -114t146 -124q0 -18 -18 -18q-8 0 -65.5 28.5t-122 62.5t-77.5 40q-72 33 -71 84z" />
<glyph unicode="&#xc1;" horiz-adv-x="1458" d="M54.5 97q-27.5 126 10 276.5t116.5 306.5t179 264q-131 61 -192 131q-41 43 -46 117t28 96q20 27 36 6q10 -14 -2 -43q-33 -72 41 -147q68 -74 170 -119q195 211 437.5 337t508.5 126q154 0 243 -67t89 -173q0 -123 -146.5 -235.5t-451.5 -138.5q-332 -29 -594 55 q-49 -45 -135 -180.5t-137 -262.5q-80 -199 -63.5 -312.5t91 -151t200.5 5.5t265 157q307 258 480 574q68 123 125 108q39 -8 32 -69q-6 -49 -47 -92q-145 -160 -205 -482q-31 -164 13.5 -221t124.5 -16t164 143q117 150 178 291q16 33 35 29q14 -4 0 -37 q-84 -186 -191 -328q-55 -76 -137 -126t-164 -50q-80 0 -121 64.5t-41 152.5t21.5 174t56.5 133q-41 -49 -84 -95t-105.5 -105.5t-121 -104.5t-131 -91t-136 -65.5t-135 -26.5t-129.5 23q-102 43 -129.5 169zM512 926q236 -74 563 -47q238 20 378 115.5t140 236.5 q0 80 -67.5 124t-177.5 44q-248 0 -449 -127t-387 -346zM1405 1546q4 6 53 42t105.5 75t66.5 49q61 43 107 21q32 -15 16 -50q-10 -20 -171 -93.5t-171 -67.5q-14 8 -6 24z" />
<glyph unicode="&#xc2;" horiz-adv-x="1458" d="M54.5 97q-27.5 126 10 276.5t116.5 306.5t179 264q-131 61 -192 131q-41 43 -46 117t28 96q20 27 36 6q10 -14 -2 -43q-33 -72 41 -147q68 -74 170 -119q195 211 437.5 337t508.5 126q154 0 243 -67t89 -173q0 -123 -146.5 -235.5t-451.5 -138.5q-332 -29 -594 55 q-49 -45 -135 -180.5t-137 -262.5q-80 -199 -63.5 -312.5t91 -151t200.5 5.5t265 157q307 258 480 574q68 123 125 108q39 -8 32 -69q-6 -49 -47 -92q-145 -160 -205 -482q-31 -164 13.5 -221t124.5 -16t164 143q117 150 178 291q16 33 35 29q14 -4 0 -37 q-84 -186 -191 -328q-55 -76 -137 -126t-164 -50q-80 0 -121 64.5t-41 152.5t21.5 174t56.5 133q-41 -49 -84 -95t-105.5 -105.5t-121 -104.5t-131 -91t-136 -65.5t-135 -26.5t-129.5 23q-102 43 -129.5 169zM512 926q236 -74 563 -47q238 20 378 115.5t140 236.5 q0 80 -67.5 124t-177.5 44q-248 0 -449 -127t-387 -346zM1151 1518l305 217q76 10 78 0l74 -217q6 -12 -13 -13q-20 0 -28 13l-94 145l-271 -145q-20 -18 -49 -11q-10 4 -2 11z" />
<glyph unicode="&#xc3;" horiz-adv-x="1458" d="M54.5 97q-27.5 126 10 276.5t116.5 306.5t179 264q-131 61 -192 131q-41 43 -46 117t28 96q20 27 36 6q10 -14 -2 -43q-33 -72 41 -147q68 -74 170 -119q195 211 437.5 337t508.5 126q154 0 243 -67t89 -173q0 -123 -146.5 -235.5t-451.5 -138.5q-332 -29 -594 55 q-49 -45 -135 -180.5t-137 -262.5q-80 -199 -63.5 -312.5t91 -151t200.5 5.5t265 157q307 258 480 574q68 123 125 108q39 -8 32 -69q-6 -49 -47 -92q-145 -160 -205 -482q-31 -164 13.5 -221t124.5 -16t164 143q117 150 178 291q16 33 35 29q14 -4 0 -37 q-84 -186 -191 -328q-55 -76 -137 -126t-164 -50q-80 0 -121 64.5t-41 152.5t21.5 174t56.5 133q-41 -49 -84 -95t-105.5 -105.5t-121 -104.5t-131 -91t-136 -65.5t-135 -26.5t-129.5 23q-102 43 -129.5 169zM512 926q236 -74 563 -47q238 20 378 115.5t140 236.5 q0 80 -67.5 124t-177.5 44q-248 0 -449 -127t-387 -346zM1174 1583q92 164 200 154q45 -4 126 -38t122 -36q74 -8 113 72q4 12 34 2q7 -4 9 -6q-84 -174 -203 -164q-43 4 -124 39.5t-124 40.5q-68 6 -106 -68q-4 -14 -37 -4q-10 4 -10 8z" />
<glyph unicode="&#xc4;" horiz-adv-x="1458" d="M54.5 97q-27.5 126 10 276.5t116.5 306.5t179 264q-131 61 -192 131q-41 43 -46 117t28 96q20 27 36 6q10 -14 -2 -43q-33 -72 41 -147q68 -74 170 -119q195 211 437.5 337t508.5 126q154 0 243 -67t89 -173q0 -123 -146.5 -235.5t-451.5 -138.5q-332 -29 -594 55 q-49 -45 -135 -180.5t-137 -262.5q-80 -199 -63.5 -312.5t91 -151t200.5 5.5t265 157q307 258 480 574q68 123 125 108q39 -8 32 -69q-6 -49 -47 -92q-145 -160 -205 -482q-31 -164 13.5 -221t124.5 -16t164 143q117 150 178 291q16 33 35 29q14 -4 0 -37 q-84 -186 -191 -328q-55 -76 -137 -126t-164 -50q-80 0 -121 64.5t-41 152.5t21.5 174t56.5 133q-41 -49 -84 -95t-105.5 -105.5t-121 -104.5t-131 -91t-136 -65.5t-135 -26.5t-129.5 23q-102 43 -129.5 169zM512 926q236 -74 563 -47q238 20 378 115.5t140 236.5 q0 80 -67.5 124t-177.5 44q-248 0 -449 -127t-387 -346zM1315 1673q0 29 18.5 48.5t46.5 19.5q31 0 50.5 -18.5t19.5 -49.5q0 -29 -18.5 -48t-47.5 -19q-31 0 -50 18t-19 49zM1579 1673q0 29 18.5 48.5t47.5 19.5q31 0 50 -18.5t19 -49.5q0 -29 -18.5 -48t-46.5 -19 q-31 0 -50.5 18t-19.5 49z" />
<glyph unicode="&#xc5;" horiz-adv-x="1458" d="M54.5 97q-27.5 126 10 276.5t116.5 306.5t179 264q-131 61 -192 131q-41 43 -46 117t28 96q20 27 36 6q10 -14 -2 -43q-33 -72 41 -147q68 -74 170 -119q195 211 437.5 337t508.5 126q154 0 243 -67t89 -173q0 -123 -146.5 -235.5t-451.5 -138.5q-332 -29 -594 55 q-49 -45 -135 -180.5t-137 -262.5q-80 -199 -63.5 -312.5t91 -151t200.5 5.5t265 157q307 258 480 574q68 123 125 108q39 -8 32 -69q-6 -49 -47 -92q-145 -160 -205 -482q-31 -164 13.5 -221t124.5 -16t164 143q117 150 178 291q16 33 35 29q14 -4 0 -37 q-84 -186 -191 -328q-55 -76 -137 -126t-164 -50q-80 0 -121 64.5t-41 152.5t21.5 174t56.5 133q-41 -49 -84 -95t-105.5 -105.5t-121 -104.5t-131 -91t-136 -65.5t-135 -26.5t-129.5 23q-102 43 -129.5 169zM512 926q236 -74 563 -47q238 20 378 115.5t140 236.5 q0 80 -67.5 124t-177.5 44q-248 0 -449 -127t-387 -346zM1475 1624q4 45 48 78t101 37q55 2 91 -30t32 -77q-6 -47 -49 -79.5t-100.5 -34.5t-93 29.5t-29.5 76.5zM1546 1628q-2 -33 14.5 -54.5t43 -21.5t46 23.5t23.5 56.5q2 33 -14.5 54.5t-43 19.5t-47 -23.5t-22.5 -54.5z " />
<glyph unicode="&#xc6;" horiz-adv-x="2811" d="M38 229q1 240 155 516q82 147 180 261q-137 66 -205 141q-43 49 -48 128t30 103q20 27 36 11q14 -16 0 -50q-33 -76 43 -161q66 -76 181 -129q481 535 999 534q195 0 291 -102q154 90 345 134t341 27q184 -20 275.5 -94.5t82 -162t-104.5 -170t-253 -117.5q-84 -18 -86 2 q-4 20 51 33q12 2 27 4q74 8 139.5 74.5t90 145.5t-30 148.5t-195.5 83.5q-162 16 -337 -34t-300 -148q16 -43 16 -84q0 -156 -182 -272q16 -68 74.5 -111t128 -61.5t137.5 -33t110 -38t37 -62.5q-8 -37 -89 -36.5t-224 1.5t-256 -32q-109 -31 -191.5 -107.5t-123.5 -172 t-34 -199t60.5 -188.5t179 -140t306.5 -55q236 0 469 88t379 209q141 121 157 221q10 72 -63 88q-55 12 -60 29q-2 8 11 12q28 6 69 -14q125 -61 111 -170t-152 -226q-154 -129 -405.5 -207.5t-519.5 -78.5q-137 0 -254 25.5t-197 69.5t-139.5 103.5t-83 128t-28.5 142 t26 145.5q-41 -49 -85 -95t-104.5 -104.5t-119 -102.5t-129 -88t-133 -62.5t-132 -24.5t-127.5 24q-147 61 -146 301zM145.5 133.5q16.5 -113.5 91 -151t200.5 5.5t265 157q156 131 305.5 311.5t231.5 334.5q70 131 131 118q41 -8 37 -69q-4 -55 -51 -107l-10 -16 q57 29 135 51q102 33 217 39q-180 59 -256 176q-137 -49 -318 -68q-369 -33 -618 48q-207 -293 -297 -517q-80 -199 -63.5 -312.5zM539 1004q221 -70 585 -39q160 12 295 65q-8 33 -8 51q3 207 234 365q-66 84 -230 84q-137 0 -263 -41t-235.5 -121t-194.5 -164t-183 -200z M1573 1126q104 95 104 220q-96 -106 -102 -211z" />
<glyph unicode="&#xc7;" horiz-adv-x="1454" d="M131.5 302q-18.5 142 5 297t86 296t148.5 250q-66 256 -9 469q4 16 16.5 25.5t21 0t3.5 -35.5q-27 -156 17 -390q164 211 385 307.5t467 67.5q315 -35 426 -241q92 -172 2 -369t-309 -291q-201 -88 -455 -51q-367 53 -508 348q-20 -29 -52 -103.5t-67 -184t-46 -232.5 t3.5 -235.5t86 -204t198.5 -129.5q164 -49 349 -27t337 113q121 72 189.5 163t146.5 250q12 27 25.5 19t-1.5 -39q-78 -158 -144.5 -250t-184.5 -176q-238 -162 -500 -156q-4 -4 -28.5 -20.5t-42 -30.5t-17.5 -21q41 6 80 7q88 0 166 -39t78 -117q0 -84 -107 -156 q-53 -35 -156 -34q-68 0 -163 23.5t-95 70.5q0 14 13 14q8 0 30 -22q49 -51 176 -52q150 0 197 74q29 43 29 84q0 55 -47 86t-107 31q-45 0 -94 -24.5t-53 -24.5q-14 0 -26.5 9t-12.5 21q0 10 8 19q14 16 131 104q-135 10 -256 62q-147 61 -234 182t-105.5 263zM469 1051 q127 -324 498 -365q334 -37 534 148q147 137 148 319q-2 186 -160 289q-82 53 -199 69q-223 33 -444 -95t-377 -365z" />
<glyph unicode="&#xc8;" horiz-adv-x="1847" d="M50.5 245q23.5 93 80.5 179t166 159.5t248 114.5q109 31 207 35q-104 37 -177 97.5t-67 138.5q14 158 184 283.5t382 181t378 36.5q168 -18 248 -85.5t64.5 -144.5t-110.5 -149.5t-243 -105.5q-78 -18 -82 2q-2 18 53 29q10 2 23 4q55 6 111.5 45t89 94t39 110.5 t-45 99.5t-155.5 54q-158 14 -330 -35t-301 -149t-151 -221q-14 -86 26.5 -139.5t109 -74t139.5 -33.5t117 -34.5t38 -60.5q-10 -35 -86 -35t-211.5 1t-241.5 -30q-104 -29 -188 -100.5t-130.5 -160.5t-47.5 -186t43 -177t158 -131.5t282 -51.5q219 0 434 82t362 197 q145 115 166 209q12 63 -53 80q-43 10 -45 24q-4 18 41 15q24 -1 47 -13q111 -59 88.5 -160.5t-160.5 -209.5q-154 -121 -395.5 -195t-492.5 -74q-170 0 -301.5 41t-201 110t-101 155t-8 179zM1329 1704q0 37 33 37q25 0 156 -104.5t131 -114.5q0 -14 -19 -15q-6 0 -56 26 t-110.5 57.5t-68.5 35.5q-66 29 -66 78z" />
<glyph unicode="&#xc9;" horiz-adv-x="1847" d="M50.5 238.5q23.5 93.5 80.5 179.5t166 159.5t248 114.5q109 31 207 35q-100 37 -176 105.5t-70 150.5q14 166 183 293t379 179t380 34q170 -20 250 -90t64.5 -151t-112 -158.5t-245.5 -110.5q-84 -18 -82 4q8 25 76 33q55 6 112.5 48t90 99.5t40 115.5t-44 104.5 t-157.5 56.5q-252 25 -498 -96t-280 -310q-14 -90 26.5 -146.5t109 -80t139.5 -38.5t117 -37.5t38 -61.5q-10 -35 -86 -35t-211.5 1t-241.5 -30q-104 -29 -188 -100.5t-130.5 -160.5t-47.5 -186.5t43 -177t158 -131t282 -51.5q219 0 434 82t362 197q145 115 166 209 q12 63 -53 80q-43 10 -45 24q-4 18 41 15q24 -1 47 -13q111 -59 88.5 -160.5t-160.5 -209.5q-154 -121 -395.5 -195t-492.5 -74q-170 0 -301.5 41t-201 109.5t-101 154.5t-8 179.5zM1495 1554q2 6 49 40t100.5 72t63.5 46q57 41 100 21q31 -14 17 -47q-10 -20 -163 -90 t-163 -64q-14 8 -4 22z" />
<glyph unicode="&#xca;" horiz-adv-x="1847" d="M50.5 245q23.5 93 80.5 179t166 159.5t248 114.5q109 31 207 35q-104 37 -177 97.5t-67 138.5q14 158 184 283.5t382 181t378 36.5q168 -18 248 -85.5t64.5 -144.5t-110.5 -149.5t-243 -105.5q-78 -18 -82 2q-2 18 53 29q10 2 23 4q55 6 111.5 45t89 94t39 110.5 t-45 99.5t-155.5 54q-158 14 -330 -35t-301 -149t-151 -221q-14 -86 26.5 -139.5t109 -74t139.5 -33.5t117 -34.5t38 -60.5q-10 -35 -86 -35t-211.5 1t-241.5 -30q-104 -29 -188 -100.5t-130.5 -160.5t-47.5 -186t43 -177t158 -131.5t282 -51.5q219 0 434 82t362 197 q145 115 166 209q12 63 -53 80q-43 10 -45 24q-4 18 41 15q24 -1 47 -13q111 -59 88.5 -160.5t-160.5 -209.5q-154 -121 -395.5 -195t-492.5 -74q-170 0 -301.5 41t-201 110t-101 155t-8 179zM1190 1520q-8 4 0 8l301 207q76 10 78 0l71 -207q4 -8 -8 -10q-25 -2 -33 10 l-92 139q-242 -125 -266 -139q-23 -18 -51 -8z" />
<glyph unicode="&#xcb;" horiz-adv-x="1847" d="M50.5 249q23.5 93 80.5 179t166 160t248 114q109 31 207 35q-104 37 -177 97.5t-67 138.5q14 158 184 283.5t382 181t378 37.5q168 -18 248 -86t64.5 -145t-110.5 -149.5t-243 -105.5q-78 -18 -82 2q-2 18 53 29q10 2 23 4q55 6 111.5 45t89 94.5t39 110.5t-45 99 t-155.5 54q-158 14 -330 -35t-301 -149t-151 -221q-14 -86 26.5 -139.5t109 -74t139.5 -33.5t117 -34.5t38 -60.5q-10 -35 -86 -35t-211.5 1t-241.5 -30q-104 -29 -188 -100.5t-130.5 -160.5t-47.5 -186t43 -177t158 -131t282 -51q219 0 434 81.5t362 196.5q145 115 166 209 q12 63 -53 80q-43 10 -45 24q-4 18 41 15q24 -1 47 -13q111 -59 88.5 -160.5t-160.5 -209.5q-154 -121 -395.5 -195t-492.5 -74q-170 0 -301.5 41t-201 110t-101 155t-8 179zM1296 1673q0 29 18.5 48.5t47.5 19.5q31 0 50.5 -18.5t19.5 -49.5q0 -29 -18.5 -48t-47.5 -19 q-31 0 -50.5 18t-19.5 49zM1561 1673q0 29 18 48.5t47 19.5q31 0 50.5 -18.5t19.5 -49.5q0 -29 -18.5 -48t-47.5 -19q-31 0 -50 18t-19 49z" />
<glyph unicode="&#xcc;" horiz-adv-x="1855" d="M-14 -226.5q-39 142.5 32 335.5q37 94 131.5 179t149.5 89q20 0 24.5 -5t-3 -11.5t-19.5 -12.5q-63 -27 -141 -120t-107 -210q-27 -111 -5 -198.5t79 -151t139 -105.5t175.5 -62.5t188.5 -19.5t177 21q170 43 325.5 139.5t266 208t205 247.5t149.5 245t92 209 q143 379 307 661q-98 -20 -166.5 -37.5t-173 -49t-178 -63.5t-159.5 -83t-144.5 -109.5t-106.5 -137.5t-69 -171q-35 -150 37 -231.5t203 -32.5q76 31 122 88t57 112.5t9 100.5t-16 57q-4 6 4 18.5t18 14.5t21 -14q57 -113 -12.5 -244t-200.5 -180q-166 -63 -292 35t-87 276 q117 526 1167 705q18 39 66.5 96t91.5 72q45 16 80 2.5t37 -52.5q2 -41 -20.5 -71.5t-66.5 -48t-75 -25.5t-82 -16q-80 -147 -146.5 -334t-105.5 -326t-119 -310t-190 -314q-330 -422 -809 -502q-217 -37 -400.5 -8.5t-302 115.5t-157.5 229.5zM2204 1706q0 35 32 35 q23 0 154 -102.5t131 -112.5q0 -16 -18 -17q-6 0 -56.5 26t-111 57.5t-68.5 35.5q-63 35 -63 78zM2251 1274q139 29 133 78q-5 20 -23 24q-23 8 -110 -102z" />
<glyph unicode="&#xcd;" horiz-adv-x="1855" d="M-24.5 -162.5q-38.5 142.5 32.5 334.5q37 94 131 179t150 89q20 0 24 -5t-3 -11t-19 -12q-63 -27 -141 -120t-107 -210q-27 -111 -5.5 -199t79 -151.5t139.5 -105.5t175 -62.5t188.5 -19.5t177.5 22q170 43 325.5 139t266 208t205 248t149.5 244.5t92 208.5 q143 379 307 662q-98 -20 -166.5 -37.5t-173 -49.5t-178.5 -63.5t-160 -83t-144 -110t-106.5 -137t-68.5 -170.5q-35 -150 36.5 -232t202.5 -33q76 31 122 88.5t57.5 112.5t9.5 100.5t-17 57.5q-4 6 4.5 18.5t18.5 14.5t20 -15q57 -113 -12 -244t-201 -180 q-166 -63 -291.5 35t-86.5 277q117 526 1167 704q18 39 66.5 96.5t91.5 71.5q45 16 79.5 3t36.5 -52q0 -31 -12 -54.5t-37.5 -40t-48 -26.5t-59.5 -22q-12 0 -45 -9.5t-41 -9.5q-80 -147 -146.5 -333.5t-105.5 -326t-119 -310.5t-190 -314q-330 -422 -809 -502 q-217 -37 -400.5 -8t-302.5 116t-157.5 229.5zM1993 1520q4 6 58 47t117.5 85t76.5 54q68 51 118 25q37 -19 19 -56q-10 -25 -190.5 -106.5t-192.5 -75.5q-18 10 -6 27zM2241 1337q139 29 133 78q-5 21 -23 25q-23 8 -110 -103z" />
<glyph unicode="&#xce;" horiz-adv-x="1855" d="M-24.5 -162.5q-38.5 142.5 32.5 334.5q37 94 131 179t150 89q20 0 24 -5t-3 -11t-19 -12q-63 -27 -141 -120t-107 -210q-27 -111 -5.5 -199t79 -151.5t139.5 -105.5t175 -62.5t188.5 -19.5t177.5 22q170 43 325.5 139t266 208t205 248t149.5 244.5t92 208.5 q143 379 307 662q-98 -20 -166.5 -37.5t-173 -49.5t-178.5 -63.5t-160 -83t-144 -110t-106.5 -137t-68.5 -170.5q-35 -150 36.5 -232t202.5 -33q76 31 122 88.5t57.5 112.5t9.5 100.5t-17 57.5q-4 6 4.5 18.5t18.5 14.5t20 -15q57 -113 -12 -244t-201 -180 q-166 -63 -291.5 35t-86.5 277q117 526 1167 704q18 39 66.5 96.5t91.5 71.5q45 16 79.5 3t36.5 -52q0 -31 -12 -54.5t-37.5 -40t-48 -26.5t-59.5 -22q-12 0 -45 -9.5t-41 -9.5q-80 -147 -146.5 -333.5t-105.5 -326t-119 -310.5t-190 -314q-330 -422 -809 -502 q-217 -37 -400.5 -8t-302.5 116t-157.5 229.5zM2079 1518l305 217q76 10 78 0l73 -217q6 -12 -12 -13q-20 0 -29 13l-94 145l-270 -145q-20 -18 -49 -11q-10 4 -2 11zM2241 1337q139 29 133 78q-5 21 -23 25q-23 8 -110 -103z" />
<glyph unicode="&#xcf;" horiz-adv-x="1855" d="M-24.5 -162.5q-38.5 142.5 32.5 334.5q37 94 131 179t150 89q20 0 24 -5t-3 -11t-19 -12q-63 -27 -141 -120t-107 -210q-27 -111 -5.5 -199t79 -151.5t139.5 -105.5t175 -62.5t188.5 -19.5t177.5 22q170 43 325.5 139t266 208t205 248t149.5 244.5t92 208.5 q143 379 307 662q-98 -20 -166.5 -37.5t-173 -49.5t-178.5 -63.5t-160 -83t-144 -110t-106.5 -137t-68.5 -170.5q-35 -150 36.5 -232t202.5 -33q76 31 122 88.5t57.5 112.5t9.5 100.5t-17 57.5q-4 6 4.5 18.5t18.5 14.5t20 -15q57 -113 -12 -244t-201 -180 q-166 -63 -291.5 35t-86.5 277q117 526 1167 704q18 39 66.5 96.5t91.5 71.5q45 16 79.5 3t36.5 -52q0 -31 -12 -54.5t-37.5 -40t-48 -26.5t-59.5 -22q-12 0 -45 -9.5t-41 -9.5q-80 -147 -146.5 -333.5t-105.5 -326t-119 -310.5t-190 -314q-330 -422 -809 -502 q-217 -37 -400.5 -8t-302.5 116t-157.5 229.5zM2195 1661q0 29 18.5 48.5t47.5 19.5q31 0 50.5 -18.5t19.5 -49.5q0 -29 -18.5 -48.5t-47.5 -19.5q-31 0 -50.5 18.5t-19.5 49.5zM2241 1337q139 29 133 78q-5 21 -23 25q-23 8 -110 -103zM2460 1661q0 29 18.5 48.5t46.5 19.5 q31 0 50.5 -18.5t19.5 -49.5q0 -29 -18.5 -48.5t-47.5 -19.5q-31 0 -50 18.5t-19 49.5z" />
<glyph unicode="&#xd0;" horiz-adv-x="2103" d="M20 68q-41 96 33 180q94 109 287 78q49 -8 100 -27q84 -31 312 -152q137 133 299 426l-168 -18q-14 -2 -26.5 22.5t-6.5 50t33 25.5q117 0 211 -2q8 16 62 118.5t70.5 132.5t63.5 114t77 128t75 104.5t88 109.5q-324 195 -705 115q-317 -68 -483 -277q-127 -158 -94 -299 q25 -109 141 -145q90 -25 158.5 -7.5t116 63.5t71 91t25.5 76q2 18 23.5 13t17.5 -32q-20 -150 -157.5 -226.5t-274.5 -27.5q-156 53 -205 199q-59 168 63 334q180 242 639 309q383 55 721 -123l51 60q29 25 88.5 65.5t83.5 48.5q51 20 54 4q2 -12 -33 -34q-37 -27 -59 -56 l-97 -139q219 -145 334 -372.5t86 -508.5q-18 -184 -133 -322t-285 -199.5t-354 -39.5q-315 39 -555 146q-227 -182 -512 -148q-184 23 -236 142zM156 72q41 -82 151 -88q211 -9 391 122q-240 115 -309 140q-152 53 -219 -33q-53 -63 -14 -141zM817 111q223 -100 504 -127 q256 -25 438.5 127.5t206.5 373.5q25 244 -67.5 455t-272.5 352l-395 -645q14 0 49 -1t53 -1q35 -2 43 -27q-4 -24 -35 -28q-57 0 -151 -4q-170 -266 -295 -402q-35 -37 -78 -73z" />
<glyph unicode="&#xd1;" horiz-adv-x="2127" d="M9.5 510q-29.5 152 53.5 362q70 170 222.5 319.5t339.5 252.5q131 72 276.5 102.5t272 12t199.5 -122t50 -281.5q-4 -33 -10 -65.5t-19.5 -73.5t-21.5 -64.5t-29.5 -73t-27.5 -63.5t-33 -72.5t-29 -64.5q-55 -123 -53 -125l29 47q25 39 35 55q125 193 270 369 q270 328 485 426q100 47 195.5 55t162 -40t64.5 -154q-2 -109 -68.5 -259.5t-196.5 -388t-202 -391.5q-145 -317 -94 -483q39 -129 178 -82q16 6 35 14q80 37 88 0q8 -31 -43 -59q-39 -20 -90 -18q-207 8 -270.5 145t20.5 385q25 72 244 532.5t237 581.5q18 102 -61.5 117.5 t-187.5 -41.5q-238 -113 -455 -373q-82 -100 -159 -214.5t-155.5 -262t-116.5 -220.5t-118 -245t-84 -180q-25 -53 -102 -57q-63 -4 -68 30q-2 6 0 15q98 145 275.5 537t242.5 683q43 193 0 300.5t-145.5 124t-231.5 -21.5t-266 -124q-309 -193 -448 -502 q-115 -254 -58 -444q68 -170 238 -179q211 0 369 177q123 137 126 270q4 123 -108 137q-29 4 -66 0q-18 -2 -23 5t2 16.5t17 11.5q195 47 242 -78q43 -113 -51 -274q-111 -184 -305 -263q-100 -41 -209 -40q-135 0 -234.5 82.5t-129 234.5zM1894 1610q76 133 166 127 q37 -4 104.5 -32t100.5 -30q63 -6 94 60q6 12 31 2q6 -2 4 -6q-72 -143 -168 -136q-35 2 -102.5 33t-102.5 33q-57 6 -88 -55q-4 -12 -32 -2q-8 2 -7 6z" />
<glyph unicode="&#xd2;" horiz-adv-x="1605" d="M78 897q-29 287 211 475q209 164 506 174q317 10 522 -162q225 -190 211 -538q205 135 266 258q10 23 31 18q23 -4 0 -41q-121 -190 -305 -307q-8 -96 -47 -219q-49 -147 -154 -291.5t-245 -253t-302 -153.5t-326 6q-117 37 -189.5 155.5t-80.5 278.5t60 342 q-143 96 -158 258zM190 879q12 -96 82 -156q37 78 95.5 165t140.5 179t171 151.5t188.5 82t189.5 -32.5q14 -8 15 -16.5t-9 -12.5t-23 0q-90 29 -197.5 -29.5t-199.5 -163t-160.5 -208t-105.5 -185.5q186 -86 479 -48t547 175q39 428 -217 621q-190 141 -461 100 q-250 -37 -408 -207q-162 -178 -127 -415zM284.5 321q-10.5 -128 31.5 -237t137 -156q182 -84 361 -3t322.5 255t217.5 383q29 83 37 146q-254 -135 -548 -171t-497 44q-51 -133 -61.5 -261zM1161 1704q0 37 35 37q25 0 164 -110t139 -120q0 -18 -18 -18q-8 0 -62.5 27.5 t-116 60.5t-73.5 39q-68 35 -68 84z" />
<glyph unicode="&#xd3;" horiz-adv-x="1605" d="M78 897q-29 287 211 475q209 164 506 174q317 10 522 -162q225 -190 211 -538q205 135 266 258q10 23 31 18q23 -4 0 -41q-121 -190 -305 -307q-8 -96 -47 -219q-49 -147 -154 -291.5t-245 -253t-302 -153.5t-326 6q-117 37 -189.5 155.5t-80.5 278.5t60 342 q-143 96 -158 258zM190 879q12 -96 82 -156q37 78 95.5 165t140.5 179t171 151.5t188.5 82t189.5 -32.5q14 -8 15 -16.5t-9 -12.5t-23 0q-90 29 -197.5 -29.5t-199.5 -163t-160.5 -208t-105.5 -185.5q186 -86 479 -48t547 175q39 428 -217 621q-190 141 -461 100 q-250 -37 -408 -207q-162 -178 -127 -415zM284.5 321q-10.5 -128 31.5 -237t137 -156q182 -84 361 -3t322.5 255t217.5 383q29 83 37 146q-254 -135 -548 -171t-497 44q-51 -133 -61.5 -261zM1231 1520q4 6 58 47t117.5 85t76.5 54q68 51 119 25q36 -19 18 -56 q-10 -25 -190.5 -106.5t-192.5 -75.5q-18 10 -6 27z" />
<glyph unicode="&#xd4;" horiz-adv-x="1605" d="M78 897q-29 287 211 475q209 164 506 174q317 10 522 -162q225 -190 211 -538q205 135 266 258q10 23 31 18q23 -4 0 -41q-121 -190 -305 -307q-8 -96 -47 -219q-49 -147 -154 -291.5t-245 -253t-302 -153.5t-326 6q-117 37 -189.5 155.5t-80.5 278.5t60 342 q-143 96 -158 258zM190 879q12 -96 82 -156q37 78 95.5 165t140.5 179t171 151.5t188.5 82t189.5 -32.5q14 -8 15 -16.5t-9 -12.5t-23 0q-90 29 -197.5 -29.5t-199.5 -163t-160.5 -208t-105.5 -185.5q186 -86 479 -48t547 175q39 428 -217 621q-190 141 -461 100 q-250 -37 -408 -207q-162 -178 -127 -415zM284.5 321q-10.5 -128 31.5 -237t137 -156q182 -84 361 -3t322.5 255t217.5 383q29 83 37 146q-254 -135 -548 -171t-497 44q-51 -133 -61.5 -261zM1049 1556l251 181q61 8 64 0l61 -181q4 -8 -8 -8q-20 -2 -26 8l-78 121 l-223 -121q-16 -14 -39 -8q-10 2 -2 8z" />
<glyph unicode="&#xd5;" horiz-adv-x="1605" d="M78 897q-29 287 211 475q209 164 506 174q317 10 522 -162q225 -190 211 -538q205 135 266 258q10 23 31 18q23 -4 0 -41q-121 -190 -305 -307q-8 -96 -47 -219q-49 -147 -154 -291.5t-245 -253t-302 -153.5t-326 6q-117 37 -189.5 155.5t-80.5 278.5t60 342 q-143 96 -158 258zM190 879q12 -96 82 -156q37 78 95.5 165t140.5 179t171 151.5t188.5 82t189.5 -32.5q14 -8 15 -16.5t-9 -12.5t-23 0q-90 29 -197.5 -29.5t-199.5 -163t-160.5 -208t-105.5 -185.5q186 -86 479 -48t547 175q39 428 -217 621q-190 141 -461 100 q-250 -37 -408 -207q-162 -178 -127 -415zM284.5 321q-10.5 -128 31.5 -237t137 -156q182 -84 361 -3t322.5 255t217.5 383q29 83 37 146q-254 -135 -548 -171t-497 44q-51 -133 -61.5 -261zM858 1612q76 135 166 125q37 -2 104.5 -30t100.5 -30q59 -8 92 60q6 10 31 0 q6 -2 4 -4q-66 -143 -166 -136q-35 2 -102.5 33t-102.5 33q-53 6 -88 -55q0 -2 -5 -4t-10 -2t-11.5 1t-9.5 4t-3 5z" />
<glyph unicode="&#xd6;" horiz-adv-x="1605" d="M78 897q-29 287 211 475q209 164 506 174q317 10 522 -162q225 -190 211 -538q205 135 266 258q10 23 31 18q23 -4 0 -41q-121 -190 -305 -307q-8 -96 -47 -219q-49 -147 -154 -291.5t-245 -253t-302 -153.5t-326 6q-117 37 -189.5 155.5t-80.5 278.5t60 342 q-143 96 -158 258zM190 879q12 -96 82 -156q37 78 95.5 165t140.5 179t171 151.5t188.5 82t189.5 -32.5q14 -8 15 -16.5t-9 -12.5t-23 0q-90 29 -197.5 -29.5t-199.5 -163t-160.5 -208t-105.5 -185.5q186 -86 479 -48t547 175q39 428 -217 621q-190 141 -461 100 q-250 -37 -408 -207q-162 -178 -127 -415zM284.5 321q-10.5 -128 31.5 -237t137 -156q182 -84 361 -3t322.5 255t217.5 383q29 83 37 146q-254 -135 -548 -171t-497 44q-51 -133 -61.5 -261zM1047 1673q0 29 18 48.5t47 19.5q31 0 50.5 -18.5t19.5 -49.5q0 -29 -18.5 -48 t-47.5 -19q-31 0 -50 18t-19 49zM1311 1673q0 29 18.5 48.5t46.5 19.5q31 0 50.5 -18.5t19.5 -49.5q0 -29 -18.5 -48t-47.5 -19q-31 0 -50 18t-19 49z" />
<glyph unicode="&#xd7;" horiz-adv-x="622" d="M170 260l152 164l-89 172q2 6 17.5 22.5t21.5 18.5l86 -174l152 164q6 0 14 -17.5t8 -25.5l-151 -164l88 -172q-2 -6 -17.5 -22.5t-21.5 -18.5l-86 174l-151 -164q-4 2 -13.5 19.5t-9.5 23.5z" />
<glyph unicode="&#xd8;" horiz-adv-x="1579" d="M104 936q-16 160 54.5 293t198.5 213t282 118.5t318.5 19.5t293.5 -93l99 174l69 -33l-104 -184q254 -188 239 -559q205 135 267 258q10 23 30 18q23 -4 0 -41q-121 -190 -305 -307q-8 -96 -47 -219q-49 -147 -153.5 -291.5t-244.5 -253t-302 -154t-326 6.5l-24 10 l-87 -154l-65 29l88 160q-133 96 -171 295.5t48 435.5q-143 96 -158 258zM217 918q12 -96 82 -156q37 78 95.5 165t140 179t171 151.5t188.5 82t189 -32.5q14 -8 15.5 -16.5t-9 -12.5t-22.5 0q-90 29 -197.5 -29.5t-199.5 -163t-161 -208t-106 -185.5q141 -70 369 -59 l449 799q-109 84 -254.5 108.5t-282.5 -13.5t-253 -117t-176 -210t-38 -282zM311 274.5q8 -178.5 109 -268.5l313 559q-208 -5 -360 56q-70 -168 -62 -346.5zM479 -33q182 -84 361.5 -2t323 256t216.5 381q29 83 37 146q-283 -150 -596 -177zM860 641q300 33 570 178 q31 367 -152 559z" />
<glyph unicode="&#xd9;" horiz-adv-x="1929" d="M-8 694q-18 291 201 563q162 203 434 353q178 98 353 122.5t314 -32.5q266 -115 174 -518q-23 -102 -91 -263t-130.5 -293t-107.5 -281.5t-35 -252.5q14 -133 110 -133q125 -2 291 205q27 35 56 76q82 119 212 378t132 261q61 108 114 108q29 -14 37 -38.5t-4 -59.5 t-27.5 -66.5t-41 -78t-37.5 -74.5q-80 -174 -123 -332q-23 -88 -36 -168t-14 -149.5t18 -109.5t60 -38q59 4 55.5 -19.5t-44.5 -27.5q-12 -2 -25 0q-68 12 -104.5 71.5t-40.5 148.5t2 165t22 156q-63 -104 -125 -185q-80 -102 -162.5 -168.5t-155.5 -90t-133.5 -13.5 t-100.5 57t-52 125q-20 121 51.5 325t177 435t132.5 338q90 365 -43 444q-135 72 -316.5 43.5t-365.5 -135.5q-367 -215 -496 -543q-98 -256 -14 -458q72 -172 241 -201q100 -18 219 27q137 51 238 221q102 170 76 291q-29 133 -209 92q-57 -12 -53 0q6 16 43 35 q186 78 256 -41q61 -106 -6 -285q-78 -207 -267 -320q-39 -25 -80 -41q-240 -102 -411 31q-152 117 -168 344zM1679 1698q0 43 39 43q27 0 182.5 -123t155.5 -135q0 -18 -20 -19q-8 0 -68.5 31t-130.5 67.5t-82 43.5q-76 37 -76 92z" />
<glyph unicode="&#xda;" horiz-adv-x="1929" d="M-8 694q-18 291 201 563q162 203 434 353q178 98 353 122.5t314 -32.5q266 -115 174 -518q-23 -102 -91 -263t-130.5 -293t-107.5 -281.5t-35 -252.5q14 -133 110 -133q125 -2 291 205q27 35 56 76q82 119 212 378t132 261q61 108 114 108q29 -14 37 -38.5t-4 -59.5 t-27.5 -66.5t-41 -78t-37.5 -74.5q-80 -174 -123 -332q-23 -88 -36 -168t-14 -149.5t18 -109.5t60 -38q59 4 55.5 -19.5t-44.5 -27.5q-12 -2 -25 0q-68 12 -104.5 71.5t-40.5 148.5t2 165t22 156q-63 -104 -125 -185q-80 -102 -162.5 -168.5t-155.5 -90t-133.5 -13.5 t-100.5 57t-52 125q-20 121 51.5 325t177 435t132.5 338q90 365 -43 444q-135 72 -316.5 43.5t-365.5 -135.5q-367 -215 -496 -543q-98 -256 -14 -458q72 -172 241 -201q100 -18 219 27q137 51 238 221q102 170 76 291q-29 133 -209 92q-57 -12 -53 0q6 16 43 35 q186 78 256 -41q61 -106 -6 -285q-78 -207 -267 -320q-39 -25 -80 -41q-240 -102 -411 31q-152 117 -168 344zM1675 1399q4 6 58.5 47t118 85t75.5 54q68 51 119 25q36 -19 18 -56q-10 -25 -190 -106.5t-193 -75.5q-18 10 -6 27z" />
<glyph unicode="&#xdb;" horiz-adv-x="1929" d="M-8 694q-18 291 201 563q162 203 434 353q178 98 353 122.5t314 -32.5q266 -115 174 -518q-23 -102 -91 -263t-130.5 -293t-107.5 -281.5t-35 -252.5q14 -133 110 -133q125 -2 291 205q27 35 56 76q82 119 212 378t132 261q61 108 114 108q29 -14 37 -38.5t-4 -59.5 t-27.5 -66.5t-41 -78t-37.5 -74.5q-80 -174 -123 -332q-23 -88 -36 -168t-14 -149.5t18 -109.5t60 -38q59 4 55.5 -19.5t-44.5 -27.5q-12 -2 -25 0q-68 12 -104.5 71.5t-40.5 148.5t2 165t22 156q-63 -104 -125 -185q-80 -102 -162.5 -168.5t-155.5 -90t-133.5 -13.5 t-100.5 57t-52 125q-20 121 51.5 325t177 435t132.5 338q90 365 -43 444q-135 72 -316.5 43.5t-365.5 -135.5q-367 -215 -496 -543q-98 -256 -14 -458q72 -172 241 -201q100 -18 219 27q137 51 238 221q102 170 76 291q-29 133 -209 92q-57 -12 -53 0q6 16 43 35 q186 78 256 -41q61 -106 -6 -285q-78 -207 -267 -320q-39 -25 -80 -41q-240 -102 -411 31q-152 117 -168 344zM1655 1518l305 217q76 10 78 0l73 -217q6 -12 -12 -13q-20 0 -28 13l-95 145l-270 -145q-20 -18 -49 -11q-10 4 -2 11z" />
<glyph unicode="&#xdc;" horiz-adv-x="1929" d="M-8 694q-18 291 201 563q162 203 434 353q178 98 353 122.5t314 -32.5q266 -115 174 -518q-23 -102 -91 -263t-130.5 -293t-107.5 -281.5t-35 -252.5q14 -133 110 -133q125 -2 291 205q27 35 56 76q82 119 212 378t132 261q61 108 114 108q29 -14 37 -38.5t-4 -59.5 t-27.5 -66.5t-41 -78t-37.5 -74.5q-80 -174 -123 -332q-23 -88 -36 -168t-14 -149.5t18 -109.5t60 -38q59 4 55.5 -19.5t-44.5 -27.5q-12 -2 -25 0q-68 12 -104.5 71.5t-40.5 148.5t2 165t22 156q-63 -104 -125 -185q-80 -102 -162.5 -168.5t-155.5 -90t-133.5 -13.5 t-100.5 57t-52 125q-20 121 51.5 325t177 435t132.5 338q90 365 -43 444q-135 72 -316.5 43.5t-365.5 -135.5q-367 -215 -496 -543q-98 -256 -14 -458q72 -172 241 -201q100 -18 219 27q137 51 238 221q102 170 76 291q-29 133 -209 92q-57 -12 -53 0q6 16 43 35 q186 78 256 -41q61 -106 -6 -285q-78 -207 -267 -320q-39 -25 -80 -41q-240 -102 -411 31q-152 117 -168 344zM1638 1473q0 29 18.5 48t47.5 19q31 0 50.5 -18t19.5 -49q0 -29 -18.5 -48.5t-47.5 -19.5q-31 0 -50.5 18.5t-19.5 49.5zM1903 1473q0 29 18 48t47 19 q31 0 50.5 -18t19.5 -49q0 -29 -18.5 -48.5t-47.5 -19.5q-31 0 -50 18.5t-19 49.5z" />
<glyph unicode="&#xdd;" horiz-adv-x="2060" d="M40 667.5q-15 153.5 79 346.5q70 145 191.5 276t261 221.5t293 149.5t288.5 62t248 -40q109 -49 158 -140t38.5 -205.5t-52.5 -233.5t-115 -242q-264 -451 -320 -700q-25 -117 17 -172.5t119 -45t159 69.5q117 82 233.5 268.5t185 347.5t107.5 290q6 33 49 57 q57 35 68 -37q6 -51 -16 -152q-61 -270 -160.5 -567t-204.5 -483q31 2 109.5 4t129 4t121 13.5t114.5 32t81 58t47 93.5q-4 27 4 30q6 2 13 -10q4 -8 8 -22q14 -47 -24 -109.5t-124 -99.5q-106 -43 -510 -47q-98 -147 -248.5 -260t-318.5 -177q-274 -104 -479 -36 q-133 43 -150 135q-23 115 152 213q41 25 92 45q317 131 885 131q201 492 280 792q-186 -401 -415 -557q-106 -72 -222 -81t-190 64t-55 220q31 223 299 662q94 154 152.5 312.5t63.5 288.5t-73 181q-123 82 -298 49t-346 -129t-320.5 -254t-219.5 -323 q-100 -254 -58 -403.5t163 -204t260 -3.5q143 51 254 230q109 174 86 294q-20 123 -176 95q-41 -8 -43 2q-2 14 32 24q2 2 7 2q195 53 245 -73q47 -117 -47 -293q-109 -201 -317 -305q-25 -12 -49 -23q-121 -49 -245 -17.5t-203 130t-94 252zM555 -686q43 -70 217 -70 q135 -2 266 47q150 55 283 155t219 239q-537 0 -823 -166q-211 -121 -162 -205zM1827 1389q4 6 58 47t117.5 85t76.5 54q68 51 119 24q36 -18 18 -55q-10 -25 -190.5 -106.5t-192.5 -75.5q-18 10 -6 27z" />
<glyph unicode="&#xde;" horiz-adv-x="688" d="M23 16q37 35 184 294t215 401q152 319 244 634.5t90 395.5q8 -12 40.5 -17.5t41.5 -13.5q37 -33 42 -68.5t-18 -105.5l-110 -279q135 -23 231 -77q129 -72 180 -162t27.5 -174t-87 -162t-155.5 -133t-188 -80q-193 -51 -357 -43l-153 -313q-33 -66 -62.5 -88.5 t-78.5 -18.5q-6 0 -38 6t-48 4zM422 467q162 4 278 41q125 39 222.5 121t139.5 173t17 186.5t-127 156.5q-74 41 -215 74l-102 -279q-115 -293 -148 -340z" />
<glyph unicode="&#xdf;" horiz-adv-x="894" d="M-821 -532q-4 61 37 108t100 47q41 0 67.5 -29.5t22.5 -70.5t-37 -71t-74 -30q-33 0 -61 25q14 -37 65.5 -51t98.5 -2q184 47 330.5 225t283.5 522l406 1026q82 160 177 223.5t253 10.5q92 -33 126 -92.5t32 -147.5q-4 -147 -142 -264q-12 -10 -45 -32.5t-59.5 -40 t-55 -46t-43 -54.5t-14.5 -61.5t23 -70.5q139 -221 135 -326q-2 -59 -44 -122.5t-102 -104.5l15 -2q94 -14 184 94q43 53 154 268q4 10 14 11.5t15.5 -6t0.5 -17.5q-16 -35 -24 -54.5t-26.5 -56t-32 -59t-34 -55.5t-40 -52.5l-44 -44t-49 -36t-53 -20.5t-60.5 -8t-67 11 q-47 -20 -84 -20q-145 0 -176 114q-23 84 25 146q20 27 49 29q33 4 56.5 -12.5t21.5 -57.5q-2 -55 22.5 -97t63.5 -61q82 63 90 213q2 51 -34 176t-40 148q-12 57 6.5 106t47 78t81 76t80.5 82q57 68 83 156t1.5 166.5t-102.5 105.5q-106 39 -195.5 -40t-124.5 -179 q-55 -154 -147 -432.5t-149.5 -442.5t-140.5 -344t-163 -272q-111 -129 -240.5 -218t-244.5 -98q-207 -14 -219 134zM439.5 83q15.5 -56 74.5 -56q25 0 41 8q-76 47 -82 153q-49 -49 -33.5 -105z" />
<glyph unicode="&#xe0;" d="M51 221q23 174 170 350q98 115 240.5 150t234.5 -55q20 -23 12 -43.5t-34 -16.5q-16 55 -66.5 69.5t-107.5 -18.5q-68 -37 -141.5 -117.5t-131.5 -174.5q-72 -125 -84 -207q-14 -104 52 -103q61 0 137 90q84 100 182 287q39 76 66.5 104.5t72.5 26.5q2 0 36 -6t50 -2 q-37 -37 -104.5 -167t-85.5 -216q-25 -123 20 -123q39 -2 98.5 72t96.5 139.5t70 132.5q8 18 19 21.5t14 -7t-5 -30.5q-182 -371 -309 -381q-66 -4 -104.5 58.5t2.5 205.5q-76 -123 -148 -192q-115 -109 -194 -52q-76 53 -58 205zM285 1047q0 43 39 43q27 0 182.5 -123.5 t155.5 -135.5q0 -18 -21 -18q-8 0 -68.5 30.5t-130 67.5t-82.5 43q-76 37 -75 93z" />
<glyph unicode="&#xe1;" d="M51 221q23 174 170 350q98 115 240.5 150t234.5 -55q20 -23 12 -43.5t-34 -16.5q-16 55 -66.5 69.5t-107.5 -18.5q-68 -37 -141.5 -117.5t-131.5 -174.5q-72 -125 -84 -207q-14 -104 52 -103q61 0 137 90q84 100 182 287q39 76 66.5 104.5t72.5 26.5q2 0 36 -6t50 -2 q-37 -37 -104.5 -167t-85.5 -216q-25 -123 20 -123q39 -2 98.5 72t96.5 139.5t70 132.5q8 18 19 21.5t14 -7t-5 -30.5q-182 -371 -309 -381q-66 -4 -104.5 58.5t2.5 205.5q-76 -123 -148 -192q-115 -109 -194 -52q-76 53 -58 205zM453 834q4 6 58 47t117.5 85t76.5 54 q68 51 118 24q37 -18 19 -55q-10 -25 -190.5 -106.5t-192.5 -75.5q-18 10 -6 27z" />
<glyph unicode="&#xe2;" d="M51 221q23 174 170 350q98 115 240.5 150t234.5 -55q20 -23 12 -43.5t-34 -16.5q-16 55 -66.5 69.5t-107.5 -18.5q-68 -37 -141.5 -117.5t-131.5 -174.5q-72 -125 -84 -207q-14 -104 52 -103q61 0 137 90q84 100 182 287q39 76 66.5 104.5t72.5 26.5q2 0 36 -6t50 -2 q-37 -37 -104.5 -167t-85.5 -216q-25 -123 20 -123q39 -2 98.5 72t96.5 139.5t70 132.5q8 18 19 21.5t14 -7t-5 -30.5q-182 -371 -309 -381q-66 -4 -104.5 58.5t2.5 205.5q-76 -123 -148 -192q-115 -109 -194 -52q-76 53 -58 205zM383 840l305 217q76 10 78 0l74 -217 q6 -12 -13 -13q-20 0 -28 13l-94 145l-271 -145q-20 -18 -49 -11q-10 4 -2 11z" />
<glyph unicode="&#xe3;" d="M51 221q23 174 170 350q98 115 240.5 150t234.5 -55q20 -23 12 -43.5t-34 -16.5q-16 55 -66.5 69.5t-107.5 -18.5q-68 -37 -141.5 -117.5t-131.5 -174.5q-72 -125 -84 -207q-14 -104 52 -103q61 0 137 90q84 100 182 287q39 76 66.5 104.5t72.5 26.5q2 0 36 -6t50 -2 q-37 -37 -104.5 -167t-85.5 -216q-25 -123 20 -123q39 -2 98.5 72t96.5 139.5t70 132.5q8 18 19 21.5t14 -7t-5 -30.5q-182 -371 -309 -381q-66 -4 -104.5 58.5t2.5 205.5q-76 -123 -148 -192q-115 -109 -194 -52q-76 53 -58 205zM311 920q92 164 201 153q45 -4 126 -38 t122 -36q74 -8 112 72q4 12 35 2q6 -4 8 -6q-84 -174 -202 -164q-43 4 -124 40t-124 40q-68 6 -107 -68q-4 -14 -36 -4q-10 4 -11 9z" />
<glyph unicode="&#xe4;" d="M51 221q23 174 170 350q98 115 240.5 150t234.5 -55q20 -23 12 -43.5t-34 -16.5q-16 55 -66.5 69.5t-107.5 -18.5q-68 -37 -141.5 -117.5t-131.5 -174.5q-72 -125 -84 -207q-14 -104 52 -103q61 0 137 90q84 100 182 287q39 76 66.5 104.5t72.5 26.5q2 0 36 -6t50 -2 q-37 -37 -104.5 -167t-85.5 -216q-25 -123 20 -123q39 -2 98.5 72t96.5 139.5t70 132.5q8 18 19 21.5t14 -7t-5 -30.5q-182 -371 -309 -381q-66 -4 -104.5 58.5t2.5 205.5q-76 -123 -148 -192q-115 -109 -194 -52q-76 53 -58 205zM440 940q0 29 18.5 48.5t47.5 19.5 q31 0 50 -18.5t19 -49.5q0 -29 -18 -48.5t-47 -19.5q-31 0 -50.5 18.5t-19.5 49.5zM705 940q0 29 18 48.5t47 19.5q31 0 50.5 -18.5t19.5 -49.5q0 -29 -18.5 -48.5t-47.5 -19.5q-31 0 -50 18.5t-19 49.5z" />
<glyph unicode="&#xe5;" d="M51 221q23 174 170 350q98 115 240.5 150t234.5 -55q20 -23 12 -43.5t-34 -16.5q-16 55 -66.5 69.5t-107.5 -18.5q-68 -37 -141.5 -117.5t-131.5 -174.5q-72 -125 -84 -207q-14 -104 52 -103q61 0 137 90q84 100 182 287q39 76 66.5 104.5t72.5 26.5q2 0 36 -6t50 -2 q-37 -37 -104.5 -167t-85.5 -216q-25 -123 20 -123q39 -2 98.5 72t96.5 139.5t70 132.5q8 18 19 21.5t14 -7t-5 -30.5q-182 -371 -309 -381q-66 -4 -104.5 58.5t2.5 205.5q-76 -123 -148 -192q-115 -109 -194 -52q-76 53 -58 205zM502 1001q4 45 48 78t101 37q55 2 91 -29.5 t32 -76.5q-6 -47 -49 -80t-100.5 -35t-93 29.5t-29.5 76.5zM573 1005.5q-2 -32.5 14.5 -54t43 -21.5t46 23.5t23.5 56.5q2 33 -14 54t-43 19t-47.5 -23.5t-22.5 -54z" />
<glyph unicode="&#xe6;" horiz-adv-x="892" d="M51 221q23 174 170 350q98 115 240.5 150t234.5 -55l6 -9q164 119 261 48q57 -47 22 -134.5t-135 -164.5q-45 -35 -126 -63t-124 -28l-8 -16q-20 -45 -25.5 -104.5t19 -109.5t82.5 -50q186 0 338 350q14 33 34 29q14 -4 2 -31q-86 -186 -133 -248q-104 -143 -258 -143 q-66 0 -121 39q-98 68 -79 229q-76 -123 -148 -192q-115 -109 -194 -52q-76 53 -58 205zM143 158q-14 -104 52 -103q61 0 137 90q80 92 182 287q60 113 152 195q-20 43 -67.5 51t-98.5 -21q-68 -37 -141.5 -117.5t-131.5 -174.5q-72 -125 -84 -207zM616 350q37 2 100.5 25.5 t112.5 64.5q94 80 111 176q12 70 -33 68q-59 -4 -172 -141q-33 -41 -76 -107z" />
<glyph unicode="&#xe7;" horiz-adv-x="532" d="M35 -332q0 14 12 15q8 0 31 -23q49 -51 176 -51q150 0 197 74q29 43 28 84q0 55 -47 85.5t-106 30.5q-47 0 -96.5 -24.5t-51.5 -24.5q-14 0 -26.5 9.5t-12.5 21.5q0 10 8 18q27 31 140 109h-2q-115 0 -168.5 60.5t-45 149.5t47.5 184t96 173q119 162 274 162 q76 0 113 -39t29 -102q-6 -53 -55.5 -97.5t-81.5 -11.5q51 61 63 104q27 100 -41 101q-96 0 -219 -176q-39 -55 -76 -145.5t-37 -168.5q0 -68 30 -112.5t91 -44.5q63 0 116.5 29.5t101.5 94t73 107.5t68 129q8 18 19 22.5t14 -6t-5 -30.5q-47 -98 -73.5 -146.5t-72.5 -111 t-101.5 -90t-127.5 -33.5l5 -8q-2 -2 -28 -19.5t-44.5 -32t-18.5 -20.5q39 6 80 6q88 0 166 -39t78 -117q0 -84 -106 -155q-51 -35 -156 -35q-68 0 -163 23.5t-95 70.5z" />
<glyph unicode="&#xe8;" horiz-adv-x="503" d="M63 188q-2 90 43.5 195.5t114.5 187.5q82 96 180.5 137.5t169.5 -3.5q57 -45 22.5 -134.5t-134.5 -164.5q-45 -35 -127 -63t-125 -28q-12 -31 -20.5 -74.5t-7.5 -92t25.5 -81t71.5 -32.5q186 0 338 350q14 33 35 29q14 -4 2 -31q-86 -186 -133 -248q-104 -143 -258 -143 q-82 0 -138 52t-59 144zM211 1028q0 43 39 43q27 0 182.5 -123t155.5 -135q0 -18 -21 -18q-8 0 -68.5 30.5t-130 67.5t-81.5 43q-76 39 -76 92zM221 350q35 0 101.5 24.5t115.5 65.5q94 80 111 176q12 70 -33 68q-59 -4 -172 -141q-70 -86 -123 -193z" />
<glyph unicode="&#xe9;" horiz-adv-x="503" d="M63 188q-2 90 43.5 195.5t114.5 187.5q82 96 180.5 137.5t169.5 -3.5q57 -45 22.5 -134.5t-134.5 -164.5q-45 -35 -127 -63t-125 -28q-12 -31 -20.5 -74.5t-7.5 -92t25.5 -81t71.5 -32.5q186 0 338 350q14 33 35 29q14 -4 2 -31q-86 -186 -133 -248q-104 -143 -258 -143 q-82 0 -138 52t-59 144zM221 350q35 0 101.5 24.5t115.5 65.5q94 80 111 176q12 70 -33 68q-59 -4 -172 -141q-70 -86 -123 -193zM418 834q4 6 58 47t117.5 85t76.5 54q68 51 118 24q37 -18 19 -55q-10 -25 -190.5 -106.5t-192.5 -75.5q-18 10 -6 27z" />
<glyph unicode="&#xea;" horiz-adv-x="503" d="M63 188q-2 90 43.5 195.5t114.5 187.5q82 96 180.5 137.5t169.5 -3.5q57 -45 22.5 -134.5t-134.5 -164.5q-45 -35 -127 -63t-125 -28q-12 -31 -20.5 -74.5t-7.5 -92t25.5 -81t71.5 -32.5q186 0 338 350q14 33 35 29q14 -4 2 -31q-86 -186 -133 -248q-104 -143 -258 -143 q-82 0 -138 52t-59 144zM221 350q35 0 101.5 24.5t115.5 65.5q94 80 111 176q12 70 -33 68q-59 -4 -172 -141q-70 -86 -123 -193zM293 840l305 217q76 10 78 0l74 -217q6 -12 -13 -13q-20 0 -28 13l-95 145l-270 -145q-20 -18 -49 -11q-10 4 -2 11z" />
<glyph unicode="&#xeb;" horiz-adv-x="503" d="M63 188q-2 90 43.5 195.5t114.5 187.5q82 96 180.5 137.5t169.5 -3.5q57 -45 22.5 -134.5t-134.5 -164.5q-45 -35 -127 -63t-125 -28q-12 -31 -20.5 -74.5t-7.5 -92t25.5 -81t71.5 -32.5q186 0 338 350q14 33 35 29q14 -4 2 -31q-86 -186 -133 -248q-104 -143 -258 -143 q-82 0 -138 52t-59 144zM221 350q35 0 101.5 24.5t115.5 65.5q94 80 111 176q12 70 -33 68q-59 -4 -172 -141q-70 -86 -123 -193zM330 901q0 29 18.5 48.5t46.5 19.5q31 0 50.5 -18.5t19.5 -49.5q0 -29 -18.5 -48t-47.5 -19q-31 0 -50 18t-19 49zM594 901q0 29 18.5 48.5 t46.5 19.5q31 0 50.5 -18.5t19.5 -49.5q0 -29 -18.5 -48t-46.5 -19q-31 0 -50.5 18t-19.5 49z" />
<glyph unicode="&#xec;" horiz-adv-x="344" d="M21.5 152.5q1.5 60.5 29.5 113.5l178 340q39 76 51.5 87.5t59.5 11.5h104q-4 -4 -20 -15.5t-30.5 -26t-24.5 -32.5q-158 -256 -213 -398q-20 -45 -25 -59q-37 -123 43 -129q45 -6 90 39q82 80 193 309q16 31 28 19q12 -10 -2 -37q-29 -61 -41 -86t-50 -92.5t-67.5 -101.5 t-74.5 -64.5t-88 -30.5q-72 0 -107 46t-33.5 106.5zM111 1051q0 43 39 43q27 0 182 -123t155 -135q0 -18 -20 -19q-8 0 -68.5 31t-130 67.5t-82.5 42.5q-76 37 -75 93z" />
<glyph unicode="&#xed;" horiz-adv-x="344" d="M21.5 152.5q1.5 60.5 29.5 113.5l178 340q39 76 51.5 87.5t59.5 11.5h104q-4 -4 -20 -15.5t-30.5 -26t-24.5 -32.5q-158 -256 -213 -398q-20 -45 -25 -59q-37 -123 43 -129q45 -6 90 39q82 80 193 309q16 31 28 19q12 -10 -2 -37q-29 -61 -41 -86t-50 -92.5t-67.5 -101.5 t-74.5 -64.5t-88 -30.5q-72 0 -107 46t-33.5 106.5zM385 877q4 6 58.5 47t118 85t75.5 54q68 51 119 24q36 -18 18 -55q-10 -25 -190.5 -106.5t-192.5 -75.5q-18 10 -6 27z" />
<glyph unicode="&#xee;" horiz-adv-x="344" d="M21.5 152.5q1.5 60.5 29.5 113.5l178 340q39 76 51.5 87.5t59.5 11.5h104q-4 -4 -20 -15.5t-30.5 -26t-24.5 -32.5q-158 -256 -213 -398q-20 -45 -25 -59q-37 -123 43 -129q45 -6 90 39q82 80 193 309q16 31 28 19q12 -10 -2 -37q-29 -61 -41 -86t-50 -92.5t-67.5 -101.5 t-74.5 -64.5t-88 -30.5q-72 0 -107 46t-33.5 106.5zM190 831l306 218q76 10 77 0l74 -218q6 -12 -12 -12q-20 0 -29 12l-94 146l-270 -146q-20 -18 -49 -10q-10 4 -3 10z" />
<glyph unicode="&#xef;" horiz-adv-x="344" d="M21.5 152.5q1.5 60.5 29.5 113.5l178 340q39 76 51.5 87.5t59.5 11.5h104q-4 -4 -20 -15.5t-30.5 -26t-24.5 -32.5q-158 -256 -213 -398q-20 -45 -25 -59q-37 -123 43 -129q45 -6 90 39q82 80 193 309q16 31 28 19q12 -10 -2 -37q-29 -61 -41 -86t-50 -92.5t-67.5 -101.5 t-74.5 -64.5t-88 -30.5q-72 0 -107 46t-33.5 106.5zM219 879q0 29 18.5 48t47.5 19q31 0 50 -18t19 -49q0 -29 -18.5 -48.5t-46.5 -19.5q-31 0 -50.5 18.5t-19.5 49.5zM483 879q0 29 18.5 48t47.5 19q31 0 50 -18t19 -49q0 -29 -18 -48.5t-47 -19.5q-31 0 -50.5 18.5 t-19.5 49.5z" />
<glyph unicode="&#xf0;" horiz-adv-x="794" d="M74 184q0 70 18 133q35 121 152.5 231.5t234.5 110.5q53 0 82 -31.5t29 -84.5v-31q23 100 22 193q0 209 -92 366l-151 -110q-12 -8 -35 8t-30 37.5t15 40.5l156 86q-78 92 -184 92q-14 0 -38 -4t-36 -4q-23 0 -22 14q0 43 118 43q150 0 242 -96l160 86q33 18 51 -4 q17 -21 -16 -39q-49 -29 -154 -97q90 -133 90 -354q0 -137 -39 -283q-16 -66 -41.5 -130t-65.5 -131.5t-88.5 -119t-113 -84t-133.5 -32.5q-68 0 -99.5 60.5t-31.5 133.5zM164 96q0 -82 57 -82q117 0 287 314q53 94 53 207q0 104 -72 104q-80 0 -165.5 -114.5t-118.5 -211.5 q-41 -115 -41 -217z" />
<glyph unicode="&#xf1;" horiz-adv-x="686" d="M-80 -14q33 66 129 267.5t154 305.5q43 78 70.5 104.5t74.5 24.5q2 0 36 -6t50 -2q-76 -41 -248 -385q96 119 170 184q84 76 207 142.5t172 50.5q-219 -385 -246 -529q-20 -102 33 -102q104 0 281 354q12 29 27 21t1 -39q-109 -219 -178 -297q-80 -88 -159 -88 q-70 0 -110 56t1 183q20 68 113 215q39 63 10 78q-39 18 -156 -90q-147 -135 -284 -405q-12 -20 -27.5 -25.5t-50.5 -5.5q-55 -4 -70 -12zM291 854q92 164 201 154q45 -4 125.5 -38t121.5 -36q74 -8 113 72q4 12 35 2q6 -5 8 -7q-84 -174 -203 -163q-43 4 -124 39.5 t-124 40.5q-68 6 -106 -68q-4 -14 -37 -4q-10 4 -10 8z" />
<glyph unicode="&#xf2;" horiz-adv-x="686" d="M66.5 119q-25.5 117 37.5 254q61 143 174 244.5t216 99.5q113 -2 138 -119t-38 -254q-57 -133 -172 -242q27 -51 96 -51q27 0 53.5 13.5t52 41t46 52t44 66.5t36 64.5t32 64.5t23.5 50q4 10 15 11.5t16.5 -7t-0.5 -22.5l-13 -29q-12 -29 -18 -41t-21.5 -43.5t-27 -50 t-30.5 -49.5t-34.5 -49.5t-38 -41t-43 -34.5t-46 -21.5t-50.5 -9.5q-84 0 -131 54q-96 -72 -178 -70q-113 2 -138.5 119zM176.5 160q-8.5 -92 44.5 -113q59 -16 139 51q-33 47 -32 101q4 88 71 88q27 0 44.5 -18.5t17.5 -43.5q0 -6 -4 -22q35 51 63 110q61 127 66.5 222.5 t-49.5 113.5q-63 18 -147.5 -62.5t-143.5 -205.5q-61 -129 -69.5 -221zM256 1051q0 43 39 43q27 0 182.5 -123t155.5 -135q0 -18 -21 -19q-8 0 -68.5 31t-130 67.5t-81.5 42.5q-76 37 -76 93z" />
<glyph unicode="&#xf3;" horiz-adv-x="686" d="M66.5 119q-25.5 117 37.5 254q61 143 174 244.5t216 99.5q113 -2 138 -119t-38 -254q-57 -133 -172 -242q27 -51 96 -51q27 0 53.5 13.5t52 41t46 52t44 66.5t36 64.5t32 64.5t23.5 50q4 10 15 11.5t16.5 -7t-0.5 -22.5l-13 -29q-12 -29 -18 -41t-21.5 -43.5t-27 -50 t-30.5 -49.5t-34.5 -49.5t-38 -41t-43 -34.5t-46 -21.5t-50.5 -9.5q-84 0 -131 54q-96 -72 -178 -70q-113 2 -138.5 119zM176.5 160q-8.5 -92 44.5 -113q59 -16 139 51q-33 47 -32 101q4 88 71 88q27 0 44.5 -18.5t17.5 -43.5q0 -6 -4 -22q35 51 63 110q61 127 66.5 222.5 t-49.5 113.5q-63 18 -147.5 -62.5t-143.5 -205.5q-61 -129 -69.5 -221zM516 883q4 6 58.5 47t118 85t75.5 54q68 51 119 25q36 -19 18 -56q-10 -25 -190 -106.5t-193 -75.5q-18 10 -6 27z" />
<glyph unicode="&#xf4;" horiz-adv-x="686" d="M66.5 119q-25.5 117 37.5 254q61 143 174 244.5t216 99.5q113 -2 138 -119t-38 -254q-57 -133 -172 -242q27 -51 96 -51q27 0 53.5 13.5t52 41t46 52t44 66.5t36 64.5t32 64.5t23.5 50q4 10 15 11.5t16.5 -7t-0.5 -22.5l-13 -29q-12 -29 -18 -41t-21.5 -43.5t-27 -50 t-30.5 -49.5t-34.5 -49.5t-38 -41t-43 -34.5t-46 -21.5t-50.5 -9.5q-84 0 -131 54q-96 -72 -178 -70q-113 2 -138.5 119zM176.5 160q-8.5 -92 44.5 -113q59 -16 139 51q-33 47 -32 101q4 88 71 88q27 0 44.5 -18.5t17.5 -43.5q0 -6 -4 -22q35 51 63 110q61 127 66.5 222.5 t-49.5 113.5q-63 18 -147.5 -62.5t-143.5 -205.5q-61 -129 -69.5 -221zM328 840l305 217q76 10 78 0l73 -217q6 -12 -12 -13q-20 0 -29 13l-94 145l-270 -145q-20 -18 -49 -11q-10 4 -2 11z" />
<glyph unicode="&#xf5;" horiz-adv-x="686" d="M66.5 119q-25.5 117 37.5 254q61 143 174 244.5t216 99.5q113 -2 138 -119t-38 -254q-57 -133 -172 -242q27 -51 96 -51q27 0 53.5 13.5t52 41t46 52t44 66.5t36 64.5t32 64.5t23.5 50q4 10 15 11.5t16.5 -7t-0.5 -22.5l-13 -29q-12 -29 -18 -41t-21.5 -43.5t-27 -50 t-30.5 -49.5t-34.5 -49.5t-38 -41t-43 -34.5t-46 -21.5t-50.5 -9.5q-84 0 -131 54q-96 -72 -178 -70q-113 2 -138.5 119zM176.5 160q-8.5 -92 44.5 -113q59 -16 139 51q-33 47 -32 101q4 88 71 88q27 0 44.5 -18.5t17.5 -43.5q0 -6 -4 -22q35 51 63 110q61 127 66.5 222.5 t-49.5 113.5q-63 18 -147.5 -62.5t-143.5 -205.5q-61 -129 -69.5 -221zM283 899q92 164 200 154q45 -4 126 -38t122 -36q74 -8 113 72q4 12 35 2q6 -4 8 -6q-84 -174 -203 -164q-43 4 -124 39.5t-124 40.5q-68 6 -106 -68q-4 -14 -37 -4q-10 4 -10 8z" />
<glyph unicode="&#xf6;" horiz-adv-x="686" d="M66.5 119q-25.5 117 37.5 254q61 143 174 244.5t216 99.5q113 -2 138 -119t-38 -254q-57 -133 -172 -242q27 -51 96 -51q27 0 53.5 13.5t52 41t46 52t44 66.5t36 64.5t32 64.5t23.5 50q4 10 15 11.5t16.5 -7t-0.5 -22.5l-13 -29q-12 -29 -18 -41t-21.5 -43.5t-27 -50 t-30.5 -49.5t-34.5 -49.5t-38 -41t-43 -34.5t-46 -21.5t-50.5 -9.5q-84 0 -131 54q-96 -72 -178 -70q-113 2 -138.5 119zM176.5 160q-8.5 -92 44.5 -113q59 -16 139 51q-33 47 -32 101q4 88 71 88q27 0 44.5 -18.5t17.5 -43.5q0 -6 -4 -22q35 51 63 110q61 127 66.5 222.5 t-49.5 113.5q-63 18 -147.5 -62.5t-143.5 -205.5q-61 -129 -69.5 -221zM399 936q0 29 18.5 48.5t47.5 19.5q31 0 50.5 -18.5t19.5 -49.5q0 -29 -18.5 -48.5t-47.5 -19.5q-31 0 -50.5 18.5t-19.5 49.5zM664 936q0 29 18 48.5t47 19.5q31 0 50.5 -18.5t19.5 -49.5 q0 -29 -18.5 -48.5t-47.5 -19.5q-31 0 -50 18.5t-19 49.5z" />
<glyph unicode="&#xf7;" horiz-adv-x="821" d="M131 305v37l2 2h705l4 -2v-37l-4 -2h-705zM348 55q6 35 35 59.5t63.5 24.5t55 -24.5t14.5 -59.5q-4 -35 -33.5 -59.5t-64.5 -24.5t-55.5 24.5t-14.5 59.5zM436 514q4 35 34 59.5t64.5 24.5t55 -24.5t14.5 -59.5t-34.5 -59.5t-63.5 -24.5t-55.5 24.5t-14.5 59.5z" />
<glyph unicode="&#xf8;" horiz-adv-x="686" d="M62.5 141.5q-13.5 108.5 41.5 231.5q61 143 174 244.5t216 99.5q31 0 59 -15l51 91l39 -19l-55 -94q49 -47 49 -142.5t-43 -193.5q-57 -133 -172 -242q27 -51 96 -51q27 0 53.5 13.5t52 41t46 52t44 66.5t36 64.5t32 64.5t23.5 50q4 10 15 11.5t16.5 -7t-0.5 -22.5 l-13 -29q-12 -29 -18 -41t-21.5 -43.5t-27 -50t-30.5 -49.5t-34.5 -49.5t-38 -41t-43 -34.5t-46 -21.5t-50.5 -9.5q-84 0 -131 54q-96 -72 -178 -70h-2l-64 -111l-37 17l58 100q-84 27 -97.5 135.5zM193 66l331 585q-63 8 -143 -71.5t-135 -198.5q-113 -240 -53 -315z M227 45q57 -8 133 53q-32 48 -32 101v22zM358 274q14 12 41 12.5t44.5 -18t17.5 -43.5q0 -6 -4 -22q34 51 63 110q51 109 62.5 196t-21.5 124z" />
<glyph unicode="&#xf9;" horiz-adv-x="731" d="M47 137q4 29 5 41t13.5 40t17.5 39t18.5 38t19.5 37q-33 0 -19 33l37 71q70 133 115 226q20 43 80 43h125q-74 -53 -131 -173l-129 -264q-72 -156 -27 -207q37 -45 123 39q12 12 24 27q109 127 306 535q23 43 80 43h110q-45 -35 -70.5 -72t-70.5 -131 q-123 -246 -137 -326q-12 -61 1 -91t37 -32q111 0 273 342q12 29 27.5 21t1.5 -39q-29 -59 -46.5 -94t-53.5 -95.5t-66.5 -95.5t-73.5 -62.5t-86 -27.5q-74 0 -102.5 68.5t8.5 193.5q-150 -262 -277 -262q-111 0 -129 92q-8 14 -4 43zM291 1057q0 43 39 43q27 0 182.5 -123 t155.5 -135q0 -18 -21 -19q-8 0 -68.5 31t-130 67.5t-81.5 43.5q-76 39 -76 92z" />
<glyph unicode="&#xfa;" horiz-adv-x="731" d="M47 137q4 29 5 41t13.5 40t17.5 39t18.5 38t19.5 37q-33 0 -19 33l37 71q70 133 115 226q20 43 80 43h125q-74 -53 -131 -173l-129 -264q-72 -156 -27 -207q37 -45 123 39q12 12 24 27q109 127 306 535q23 43 80 43h110q-45 -35 -70.5 -72t-70.5 -131 q-123 -246 -137 -326q-12 -61 1 -91t37 -32q111 0 273 342q12 29 27.5 21t1.5 -39q-29 -59 -46.5 -94t-53.5 -95.5t-66.5 -95.5t-73.5 -62.5t-86 -27.5q-74 0 -102.5 68.5t8.5 193.5q-150 -262 -277 -262q-111 0 -129 92q-8 14 -4 43zM500 858q4 6 58 47t117.5 85t76.5 54 q68 51 118 25q37 -18 19 -55q-10 -25 -190.5 -107t-192.5 -76q-18 10 -6 27z" />
<glyph unicode="&#xfb;" horiz-adv-x="731" d="M47 137q4 29 5 41t13.5 40t17.5 39t18.5 38t19.5 37q-33 0 -19 33l37 71q70 133 115 226q20 43 80 43h125q-74 -53 -131 -173l-129 -264q-72 -156 -27 -207q37 -45 123 39q12 12 24 27q109 127 306 535q23 43 80 43h110q-45 -35 -70.5 -72t-70.5 -131 q-123 -246 -137 -326q-12 -61 1 -91t37 -32q111 0 273 342q12 29 27.5 21t1.5 -39q-29 -59 -46.5 -94t-53.5 -95.5t-66.5 -95.5t-73.5 -62.5t-86 -27.5q-74 0 -102.5 68.5t8.5 193.5q-150 -262 -277 -262q-111 0 -129 92q-8 14 -4 43zM377 862l305 217q76 10 78 0l74 -217 q6 -12 -13 -12q-20 0 -28 12l-95 146l-270 -146q-20 -18 -49 -10q-10 4 -2 10z" />
<glyph unicode="&#xfc;" horiz-adv-x="731" d="M47 137q4 29 5 41t13.5 40t17.5 39t18.5 38t19.5 37q-33 0 -19 33l37 71q70 133 115 226q20 43 80 43h125q-74 -53 -131 -173l-129 -264q-72 -156 -27 -207q37 -45 123 39q12 12 24 27q109 127 306 535q23 43 80 43h110q-45 -35 -70.5 -72t-70.5 -131 q-123 -246 -137 -326q-12 -61 1 -91t37 -32q111 0 273 342q12 29 27.5 21t1.5 -39q-29 -59 -46.5 -94t-53.5 -95.5t-66.5 -95.5t-73.5 -62.5t-86 -27.5q-74 0 -102.5 68.5t8.5 193.5q-150 -262 -277 -262q-111 0 -129 92q-8 14 -4 43zM416 977q0 29 18.5 48t46.5 19 q31 0 50.5 -18t19.5 -49q0 -29 -18.5 -48.5t-47.5 -19.5q-31 0 -50 18.5t-19 49.5zM680 977q0 29 18.5 48t46.5 19q31 0 50.5 -18t19.5 -49q0 -29 -18.5 -48.5t-46.5 -19.5q-31 0 -50.5 18.5t-19.5 49.5z" />
<glyph unicode="&#xfd;" horiz-adv-x="817" d="M-355 -513q3 56 29 116q53 104 193 168q61 29 142 53t193.5 52t162.5 42q74 129 176 461q-119 -209 -189 -283q-90 -94 -172 -94q-111 0 -129 92q-8 14 -4 43t5 41t13.5 40t17.5 39t18.5 38t19.5 37q-33 0 -19 33l37 71q70 133 115 226q20 43 80 43h125 q-4 -4 -20.5 -15.5t-31 -26t-24.5 -32.5q-74 -127 -184 -363q-72 -156 -27 -207q37 -45 123 39q12 12 24 27q145 170 322 535q23 43 80 43h110q-37 -25 -65.5 -68t-46 -81t-47.5 -124q-27 -70 -81 -229.5t-83 -239.5q193 57 295 203q45 63 129 225q14 29 28.5 21t0.5 -39 q-59 -123 -94.5 -181.5t-90.5 -120t-122.5 -97t-180.5 -76.5q-45 -82 -86 -146.5t-105.5 -143.5t-127 -131t-146.5 -88t-170 -36q-96 0 -146 39t-47 95zM-287 -444q-49 -100 11 -144q25 -18 67 -18q119 0 254 122t238 261l45 76q-338 -88 -426 -127q-131 -57 -189 -170z M532 872q4 6 58.5 47.5t118 85.5t75.5 54q68 51 119 24q37 -18 19 -55q-10 -25 -190.5 -106.5t-192.5 -75.5q-18 10 -7 26z" />
<glyph unicode="&#xfe;" horiz-adv-x="788" d="M-301 -551q37 35 184.5 294t214.5 400q152 319 259.5 684t105.5 445q8 -12 41 -17.5t41 -13.5q37 -33 42 -68.5t-18 -105.5l-258 -694q129 211 209 282q84 76 152 58q92 -25 101 -128.5t-42 -221t-129 -211.5q-88 -106 -207 -142.5t-231 23.5l-238 -488 q-33 -66 -62.5 -88t-78.5 -18q-6 0 -38 6t-48 4zM180 63q70 -70 207 45t229 285q86 160 48 236q-29 61 -111 6q-47 -35 -98 -107q-96 -133 -275 -465z" />
<glyph unicode="&#xff;" horiz-adv-x="817" d="M-355 -513q3 56 29 116q53 104 193 168q61 29 142 53t193.5 52t162.5 42q74 129 176 461q-119 -209 -189 -283q-90 -94 -172 -94q-111 0 -129 92q-8 14 -4 43t5 41t13.5 40t17.5 39t18.5 38t19.5 37q-33 0 -19 33l37 71q70 133 115 226q20 43 80 43h125 q-4 -4 -20.5 -15.5t-31 -26t-24.5 -32.5q-74 -127 -184 -363q-72 -156 -27 -207q37 -45 123 39q12 12 24 27q145 170 322 535q23 43 80 43h110q-37 -25 -65.5 -68t-46 -81t-47.5 -124q-27 -70 -81 -229.5t-83 -239.5q193 57 295 203q45 63 129 225q14 29 28.5 21t0.5 -39 q-59 -123 -94.5 -181.5t-90.5 -120t-122.5 -97t-180.5 -76.5q-45 -82 -86 -146.5t-105.5 -143.5t-127 -131t-146.5 -88t-170 -36q-96 0 -146 39t-47 95zM-287 -444q-49 -100 11 -144q25 -18 67 -18q119 0 254 122t238 261l45 76q-338 -88 -426 -127q-131 -57 -189 -170z M377 950q0 29 18.5 48.5t46.5 19.5q31 0 50.5 -18.5t19.5 -49.5q0 -29 -18.5 -48t-47.5 -19q-31 0 -50 18.5t-19 48.5zM641 950q0 29 18.5 48.5t47.5 19.5q31 0 50 -18.5t19 -49.5q0 -29 -18.5 -48t-46.5 -19q-31 0 -50.5 18.5t-19.5 48.5z" />
<glyph unicode="&#x152;" horiz-adv-x="3057" d="M104 936q-29 287 211 475q209 164 506 174q317 10 522 -162q225 -190 211 -538q74 51 134 98q-31 45 -31 98q0 176 172 317.5t396 203t406.5 41t274.5 -95t82 -162t-104.5 -170t-251.5 -117.5q-84 -18 -88 2q-4 18 49 33q12 2 28 4q57 6 116 51t88.5 106.5t31.5 124 t-57.5 111.5t-173.5 59q-170 16 -351.5 -38t-311.5 -165.5t-144 -244.5l2 2q10 23 30 18q23 -4 0 -41l-32 -47q10 -74 66.5 -122t128 -68.5t142 -36t115.5 -39t41 -62.5q-8 -37 -89 -36.5t-225.5 1.5t-256.5 -32q-109 -31 -192 -107.5t-124 -172t-33.5 -199t60.5 -188.5 t179 -140t306 -55q238 0 470.5 88t377.5 209q143 121 158 221q10 72 -64 88q-55 12 -59 29q-2 16 35 12q22 -2 47 -14q123 -61 108.5 -170t-151.5 -226q-154 -129 -405.5 -207.5t-520.5 -78.5q-307 0 -486 115.5t-208 291.5q-168 -176 -369.5 -256t-396.5 -16 q-117 37 -189.5 155.5t-80.5 278.5t59 342q-143 96 -158 258zM217 918q12 -96 82 -156q37 78 95.5 165t140 179t171 151.5t188.5 82t189 -32.5q14 -8 15.5 -16.5t-9 -12.5t-22.5 0q-90 29 -197.5 -29.5t-199.5 -163t-161 -208t-106 -185.5q186 -86 479.5 -48t547.5 175 q39 428 -218 621q-190 141 -460 100q-250 -37 -408 -207q-162 -178 -127 -415zM311.5 359.5q-10.5 -128.5 31.5 -237t136 -155.5q195 -96 403 15.5t361 345.5q31 123 115 219q16 37 22 55q29 83 37 146q-254 -135 -548 -171t-496 44q-51 -133 -61.5 -261.5zM1524 682 q92 53 200 86q107 33 218 39q-147 51 -228 141q-70 -74 -168 -135q-2 -59 -22 -131z" />
<glyph unicode="&#x153;" horiz-adv-x="925" d="M66.5 119q-25.5 117 37.5 254q61 143 174 244.5t216 99.5q66 -2 101.5 -43t41.5 -111l6 8q80 98 179.5 139.5t170.5 -5.5q57 -45 21.5 -134.5t-135.5 -164.5q-45 -35 -126 -63t-124 -28q-12 -31 -20.5 -74.5t-7.5 -92t25.5 -81t71.5 -32.5q186 0 338 350q14 33 35 29 q14 -4 2 -31q-86 -188 -133 -250q-106 -141 -260 -141q-78 0 -134.5 49t-60.5 135q-152 -178 -280 -176q-113 2 -138.5 119zM176.5 160q-8.5 -92 44.5 -113q59 -16 136 53.5t135 161.5q23 113 86 217q31 147 -41 170q-63 18 -147.5 -62.5t-143.5 -205.5q-61 -129 -69.5 -221 zM641 350q37 0 103.5 24.5t115.5 65.5q94 80 111 176q12 70 -33 68q-59 -4 -172 -141q-53 -61 -125 -193z" />
<glyph unicode="&#x178;" horiz-adv-x="1964" d="M40 667.5q-15 153.5 79 346.5q70 145 191.5 276t261 221.5t293 149.5t288.5 62t248 -40q109 -49 158 -140t38.5 -205.5t-52.5 -233.5t-115 -242q-264 -451 -320 -700q-25 -117 17 -172.5t119 -45t159 69.5q117 82 233.5 268.5t185 347.5t107.5 290q6 33 49 57 q57 35 68 -37q6 -51 -16 -152q-61 -270 -160.5 -567t-204.5 -483q31 2 109.5 4t129 4t121 13.5t114.5 32t81 58t47 93.5q-4 27 4 30q6 2 13 -10q4 -8 8 -22q14 -47 -24 -109.5t-124 -99.5q-106 -43 -510 -47q-98 -147 -248.5 -260t-318.5 -177q-274 -104 -479 -36 q-133 43 -150 135q-23 115 152 213q41 25 92 45q317 131 885 131q201 492 280 792q-186 -401 -415 -557q-106 -72 -222 -81t-190 64t-55 220q31 223 299 662q94 154 152.5 312.5t63.5 288.5t-73 181q-123 82 -298 49t-346 -129t-320.5 -254t-219.5 -323 q-100 -254 -58 -403.5t163 -204t260 -3.5q143 51 254 230q109 174 86 294q-20 123 -176 95q-41 -8 -43 2q-2 14 32 24q2 2 7 2q195 53 245 -73q47 -117 -47 -293q-109 -201 -317 -305q-25 -12 -49 -23q-121 -49 -245 -17.5t-203 130t-94 252zM555 -686q43 -70 217 -70 q135 -2 266 47q150 55 283 155t219 239q-537 0 -823 -166q-211 -121 -162 -205zM1661 1235q0 29 18.5 48.5t46.5 19.5q31 0 50.5 -18.5t19.5 -49.5q0 -29 -18.5 -48.5t-46.5 -19.5q-31 0 -50.5 18.5t-19.5 49.5zM1925 1235q0 29 18.5 48.5t47.5 19.5q31 0 50 -18.5t19 -49.5 q0 -29 -18.5 -48.5t-46.5 -19.5q-31 0 -50.5 18.5t-19.5 49.5z" />
<glyph unicode="&#x2c6;" horiz-adv-x="993" d="M332 797l305 217q76 10 78 0l73 -217q6 -12 -12 -13q-20 0 -28 13l-95 145l-270 -145q-20 -18 -49 -11q-10 4 -2 11z" />
<glyph unicode="&#x2dc;" horiz-adv-x="993" d="M375 870q76 135 170 127q39 -2 107.5 -30.5t101.5 -30.5q61 -6 96 59q2 10 31 2l4 -4q-70 -145 -170 -137q-37 2 -105.5 33t-103.5 33q-59 6 -90 -56q-4 -12 -33 -2q-6 4 -8 6z" />
<glyph unicode="&#x2000;" horiz-adv-x="871" />
<glyph unicode="&#x2001;" horiz-adv-x="1742" />
<glyph unicode="&#x2002;" horiz-adv-x="871" />
<glyph unicode="&#x2003;" horiz-adv-x="1742" />
<glyph unicode="&#x2004;" horiz-adv-x="580" />
<glyph unicode="&#x2005;" horiz-adv-x="435" />
<glyph unicode="&#x2006;" horiz-adv-x="290" />
<glyph unicode="&#x2007;" horiz-adv-x="290" />
<glyph unicode="&#x2008;" horiz-adv-x="217" />
<glyph unicode="&#x2009;" horiz-adv-x="348" />
<glyph unicode="&#x200a;" horiz-adv-x="96" />
<glyph unicode="&#x2010;" horiz-adv-x="831" d="M303 470q6 26 33 26q133 0 450 -9q35 -2 43 -26q-3 -25 -34 -29q-160 0 -459 -35q-14 -2 -26.5 22.5t-6.5 50.5z" />
<glyph unicode="&#x2011;" horiz-adv-x="831" d="M303 470q6 26 33 26q133 0 450 -9q35 -2 43 -26q-3 -25 -34 -29q-160 0 -459 -35q-14 -2 -26.5 22.5t-6.5 50.5z" />
<glyph unicode="&#x2012;" horiz-adv-x="831" d="M303 470q6 26 33 26q133 0 450 -9q35 -2 43 -26q-3 -25 -34 -29q-160 0 -459 -35q-14 -2 -26.5 22.5t-6.5 50.5z" />
<glyph unicode="&#x2013;" horiz-adv-x="1093" d="M303 470q6 26 33 26q387 0 704 -9q35 -2 43 -26q-3 -25 -34 -29q-139 0 -379 -12t-334 -23q-14 -2 -26.5 22.5t-6.5 50.5z" />
<glyph unicode="&#x2014;" horiz-adv-x="1677" d="M303 470q6 26 33 26q973 0 1290 -9q35 -2 43 -26q-4 -25 -35 -29q-176 0 -695 -12t-603 -23q-14 -2 -26.5 22.5t-6.5 50.5z" />
<glyph unicode="&#x2018;" horiz-adv-x="378" d="M96 1253q14 92 86 152.5t158 87.5q20 6 20 -5.5t-20 -19.5q-63 -20 -114.5 -66t-69.5 -110q29 18 61 19q35 0 51.5 -24.5t6 -59.5t-43 -59.5t-67.5 -24.5q-43 0 -58.5 32.5t-9.5 77.5z" />
<glyph unicode="&#x2019;" horiz-adv-x="323" d="M322 1120q-2 10 16 17q61 20 104 66t52 112q-27 -20 -58 -21q-35 0 -55.5 24.5t-13.5 59.5q4 35 33.5 59.5t64.5 24.5q41 0 62.5 -32.5t21.5 -77.5q0 -90 -62.5 -150.5t-144.5 -87.5q-20 -8 -20 6z" />
<glyph unicode="&#x201a;" horiz-adv-x="315" d="M158 6q0 10 16 17q61 23 105.5 67.5t52.5 110.5q-31 -20 -60 -21q-35 0 -55 25.5t-14 58.5q6 35 34.5 60.5t63.5 25.5q41 0 62.5 -33.5t21.5 -78.5q0 -92 -62.5 -151.5t-142.5 -86.5q-23 -8 -22 6z" />
<glyph unicode="&#x201c;" horiz-adv-x="622" d="M94 1253q14 92 87 152.5t157 87.5q20 6 20 -5.5t-20 -19.5q-63 -20 -113.5 -66t-68.5 -110q29 18 59 19q35 0 52.5 -24.5t4.5 -59.5q-10 -35 -42.5 -59.5t-67.5 -24.5q-41 0 -57.5 32.5t-10.5 77.5zM338 1253q14 92 87 152.5t157 87.5q20 6 20 -5.5t-20 -19.5 q-63 -20 -113.5 -66t-69.5 -110q27 18 60 19q35 0 52 -24.5t5 -59.5q-10 -35 -43 -59.5t-67 -24.5q-41 0 -57.5 32.5t-10.5 77.5z" />
<glyph unicode="&#x201d;" horiz-adv-x="804" d="M322 1120q-2 10 16 17q61 20 104 66t52 112q-27 -20 -58 -21q-35 0 -55.5 24.5t-13.5 59.5q4 35 33.5 59.5t64.5 24.5q41 0 62.5 -32.5t21.5 -77.5q0 -90 -62.5 -150.5t-144.5 -87.5q-20 -8 -20 6zM565 1120q-2 10 17 17q61 20 104 66t51 112q-27 -20 -57 -21 q-35 0 -55.5 24.5t-14.5 59.5q4 35 34 59.5t65 24.5q41 0 62.5 -32.5t21.5 -77.5q0 -90 -62.5 -150.5t-144.5 -87.5q-20 -8 -21 6z" />
<glyph unicode="&#x201e;" horiz-adv-x="501" d="M137 395q-2 27 16.5 47.5t45.5 20.5q39 0 45 -39q12 -59 -68 -367h-20zM360 397q-2 29 14.5 47.5t45.5 18.5q41 0 47 -41q4 -20 -4 -75.5t-19.5 -103.5t-28 -114t-18.5 -72h-20z" />
<glyph unicode="&#x2022;" horiz-adv-x="1568" d="M113 708.5q0 280.5 198.5 479t479 198.5t480 -198.5t199.5 -479t-199.5 -479t-480 -198.5t-479 198.5t-198.5 479z" />
<glyph unicode="&#x2026;" horiz-adv-x="1099" d="M45 55q4 35 34 59.5t64.5 24.5t55 -24.5t14.5 -59.5t-34.5 -59.5t-63.5 -24.5t-55.5 24.5t-14.5 59.5zM442 55q4 35 34 59.5t64.5 24.5t55 -24.5t14.5 -59.5t-34.5 -59.5t-63.5 -24.5t-55.5 24.5t-14.5 59.5zM864 55q4 35 34 59.5t64.5 24.5t55 -24.5t14.5 -59.5 t-34.5 -59.5t-63.5 -24.5t-55.5 24.5t-14.5 59.5z" />
<glyph unicode="&#x202f;" horiz-adv-x="348" />
<glyph unicode="&#x2039;" horiz-adv-x="1024" d="M147 551q10 33 179 209q111 121 213 217q29 29 57 29q24 0 16 -23q-2 -10 -37.5 -50t-121.5 -137.5t-174 -203.5q33 -72 97 -182.5t81 -143.5q-12 -43 -60 -24q-55 96 -239 286q-10 2 -11 23zM563 551q10 33 178 209q111 121 213 217q29 29 57.5 29t16.5 -23 q-2 -10 -38 -50t-122 -137.5t-174 -203.5q33 -66 95.5 -174.5t82.5 -151.5q-12 -43 -59 -24q-49 92 -238 286q-12 2 -12 23z" />
<glyph unicode="&#x203a;" horiz-adv-x="1024" d="M156 250q2 10 37.5 50t121.5 137.5t174 203.5q-33 66 -95 174.5t-83 151.5q12 43 60 24q49 -92 237 -286q12 -2 13 -23q-10 -33 -179 -209q-111 -121 -213 -217q-29 -29 -57 -29t-16 23zM571 250q2 10 38 50t122 137.5t174 203.5q-33 72 -97.5 182.5t-80.5 143.5 q12 43 59 24q55 -96 240 -286q10 -2 10 -23q-10 -33 -178 -209q-111 -121 -213 -217q-29 -29 -57 -29q-25 0 -17 23z" />
<glyph unicode="&#x205f;" horiz-adv-x="435" />
<glyph unicode="&#x20ac;" horiz-adv-x="1353" d="M129 674l23 53h86q20 70 28 88h-80l27 51h76q49 113 128 229.5t180 221t227 170t249 65.5q133 0 219 -73.5t86 -204.5q0 -86 -46 -185.5t-120 -99.5q-23 0 -22 15l12 20q12 23 30.5 57.5t37 75.5t31 92t12.5 94q0 150 -131 150q-121 0 -241 -57.5t-215 -152.5 t-170 -200.5t-126 -216.5h469l-27 -51h-466q-14 -35 -31 -88h463l-23 -53h-453q-33 -135 -32 -256q0 -188 81 -311t259 -123q147 0 311 130t287 287q25 37 26 5q0 -18 -6 -35q-293 -428 -708 -428q-201 0 -296.5 125t-95.5 331q0 127 37 275h-96z" />
<glyph unicode="&#x2122;" horiz-adv-x="1507" d="M211 1208q16 25 216 40.5t296 15.5q47 0 47 -23q0 -18 -61.5 -28.5t-129 -18.5t-75.5 -20q-33 -45 -93.5 -213t-82.5 -197q-16 -19 -45 -19q-41 0 -41 29q2 33 93 206t91 202q-25 4 -39 4q-18 0 -60 -4t-63 -4q-43 0 -53 30zM694 774q0 16 75 160.5t83 175.5q2 8 7 51 t18.5 64.5t40.5 21.5q25 0 36 -87t31.5 -175t67.5 -88q33 0 99.5 79t128.5 164t81 95q27 0 27 -51q-2 -23 -13.5 -60t-13.5 -51q-4 -35 -14.5 -126t-18.5 -140q-23 -33 -72 -33q-12 0 -21 5t-7 18q0 23 59 235q-168 -186 -256 -186q-82 0 -149 194q-6 -14 -33 -99 t-56.5 -135t-68.5 -50q-31 0 -31 18z" />
<glyph unicode="&#x25fc;" horiz-adv-x="727" d="M0 0v727h727v-727h-727z" />
<glyph unicode="&#xfb01;" horiz-adv-x="761" d="M-240 -606q-4 158 211 665q-31 51 -23.5 105.5t38.5 77.5q35 29 73 22q233 526 420 875q37 74 76 108.5t98 34.5q8 0 41 -6t49 -4q-96 -90 -270 -397.5t-330 -657.5q47 -57 66 -154l6 -26q57 -4 120.5 62.5t102.5 135t84 164.5l2 4l78 197q16 39 -20 86l112 2 q47 0 55.5 -17.5t-12.5 -54.5l-164 -383q-20 -45 -24 -59q-33 -123 43 -129q43 -6 92 39q76 76 193 309q14 31 28 19q10 -10 -2 -37q-27 -57 -40 -86t-51 -93.5t-68.5 -99.5t-74.5 -65.5t-87 -30.5q-82 0 -113 52t-20 128q-113 -182 -230 -182q12 -145 -30 -311t-130 -285 t-192.5 -115t-106.5 107zM-124.5 -637q15.5 -35 51.5 -15.5t79 77.5q74 98 124 263t46 302q-72 -6 -119 33q-121 -305 -170 -506q-27 -119 -11.5 -154zM78 68q20 -39 82 -39h12q-4 53 -18 92q-12 27 -31 49zM668 856q6 35 34.5 59.5t63.5 24.5t56.5 -24.5t15 -59.5 t-35 -59.5t-63 -24.5t-55 24.5t-16.5 59.5z" />
<glyph unicode="&#xfb02;" horiz-adv-x="839" d="M-240 -606q-4 158 211 665q-31 51 -23.5 105.5t38.5 77.5q35 29 73 22q233 526 420 875q37 74 76 108.5t98 34.5q8 0 41 -6t49 -4q-96 -90 -270 -397.5t-330 -657.5q47 -57 66 -154l6 -26q57 -4 120.5 62.5t102.5 135t84 164.5q0 2 4 7q47 170 133 369.5t177 346.5 q31 51 65.5 88t66 53.5t61.5 19.5t47.5 -15.5t24.5 -50t-4 -85.5t-42 -122q-176 -391 -420 -615q-2 -8 -18.5 -56t-24.5 -79q-29 -117 2 -175t93.5 -44t115.5 90q74 106 151 260q16 29 31 23q12 -6 0 -33q-2 -2 -21.5 -46t-28.5 -61.5t-32.5 -61.5t-41 -65.5t-47.5 -55.5 t-57.5 -51t-63.5 -30.5t-72 -13.5q-184 0 -140 242q-131 -240 -262 -240q12 -145 -30 -311t-130 -285t-192.5 -115t-106.5 107zM-124.5 -637q15.5 -35 51.5 -15.5t79 77.5q74 98 124 263t46 302q-72 -6 -119 33q-121 -305 -170 -506q-27 -119 -11.5 -154zM78 68 q20 -39 82 -39h12q-4 53 -18 92q-12 27 -31 49zM651 461q104 106 207 267.5t166 311.5q43 98 31 146q-10 47 -80 -53q-68 -94 -165 -304.5t-159 -367.5z" />
<glyph unicode="&#xfb03;" horiz-adv-x="1167" d="M-240 -606q-4 158 211 665q-31 51 -23.5 105.5t38.5 77.5q35 29 73 22q233 526 420 875q37 74 76 108.5t98 34.5q8 0 41 -6t49 -4q-96 -90 -270 -397.5t-330 -657.5q47 -57 66 -154l6 -26q63 -6 139 80q-16 86 37 125q27 23 64 22l67 135l6 9q201 440 357 731 q37 74 75.5 108.5t98.5 34.5q8 0 41 -6t49 -4q-96 -90 -270 -397.5t-330 -657.5q47 -57 65 -154l7 -26q57 -4 120.5 62.5t102.5 135t84 164.5l2 4l78 197q16 39 -21 86l113 2q47 0 55 -17.5t-12 -54.5l-164 -383q-21 -45 -25 -59q-33 -123 43 -129q43 -6 93 39 q76 76 192 309q14 31 29 19q10 -10 -2 -37q-27 -57 -40.5 -86t-51 -93.5t-68.5 -99.5t-75 -65.5t-87 -30.5q-82 0 -112.5 52t-20.5 128q-113 -182 -229 -182q12 -145 -30 -311t-130 -285t-192.5 -115t-106.5 107q-4 158 211 665q-2 2 -8 15q-72 -76 -150 -76 q12 -145 -30 -311t-130 -285t-192.5 -115t-106.5 107zM-124.5 -637q15.5 -35 51.5 -15.5t79 77.5q74 98 124 263t46 302q-72 -6 -119 33q-121 -305 -170 -506q-27 -119 -11.5 -154zM78 68q20 -39 82 -39h12q-4 53 -18 92q-12 27 -31 49zM281.5 -637q15.5 -35 51.5 -15.5 t79 77.5q74 98 124 263t46 302q-72 -6 -119 33q-121 -305 -170 -506q-27 -119 -11.5 -154zM483 68q20 -39 82 -39h13q-4 53 -19 92q-12 27 -31 49zM1073 856q6 35 35 59.5t63.5 24.5t56 -24.5t15.5 -59.5t-34.5 -59.5t-63.5 -24.5t-55.5 24.5t-16.5 59.5z" />
<glyph unicode="&#xfb04;" horiz-adv-x="1245" d="M-240 -606q-4 158 211 665q-31 51 -23.5 105.5t38.5 77.5q35 29 73 22q233 526 420 875q37 74 76 108.5t98 34.5q8 0 41 -6t49 -4q-96 -90 -270 -397.5t-330 -657.5q47 -57 66 -154l6 -26q63 -6 139 80q-16 86 37 125q27 23 64 22l67 135l6 9q201 440 357 731 q37 74 75.5 108.5t98.5 34.5q8 0 41 -6t49 -4q-96 -90 -270 -397.5t-330 -657.5q47 -57 65 -154l7 -26q57 -4 120.5 62.5t102.5 135t84 164.5q0 2 4 7q47 170 133 369.5t176 346.5q31 51 65.5 88t66.5 53.5t61.5 19.5t47 -15.5t24.5 -50t-4 -85.5t-42 -122 q-176 -391 -420 -615q-2 -8 -18 -56t-25 -79q-29 -117 2 -175t93.5 -44t115.5 90q74 106 152 260q16 29 31 23q12 -6 0 -33q-2 -2 -21.5 -46t-29 -61.5t-33 -61.5t-41 -65.5t-47 -55.5t-57 -51t-63.5 -30.5t-73 -13.5q-184 0 -139 242q-131 -240 -262 -240q12 -145 -30 -311 t-130 -285t-192.5 -115t-106.5 107q-4 158 211 665q-2 2 -8 15q-72 -76 -150 -76q12 -145 -30 -311t-130 -285t-192.5 -115t-106.5 107zM-124.5 -637q15.5 -35 51.5 -15.5t79 77.5q74 98 124 263t46 302q-72 -6 -119 33q-121 -305 -170 -506q-27 -119 -11.5 -154zM78 68 q20 -39 82 -39h12q-4 53 -18 92q-12 27 -31 49zM281.5 -637q15.5 -35 51.5 -15.5t79 77.5q74 98 124 263t46 302q-72 -6 -119 33q-121 -305 -170 -506q-27 -119 -11.5 -154zM483 68q20 -39 82 -39h13q-4 53 -19 92q-12 27 -31 49zM1057 461q104 106 207 267.5t166 311.5 q43 98 30 146q-10 47 -80 -53q-68 -94 -165 -304.5t-158 -367.5z" />
</font>
</defs>
</svg>
