<?xml version="1.0" standalone="no"?>
<!DOCTYPE svg PUBLIC "-//W3C//DTD SVG 1.1//EN" "http://www.w3.org/Graphics/SVG/1.1/DTD/svg11.dtd" >
<svg xmlns="http://www.w3.org/2000/svg" xmlns:xlink="http://www.w3.org/1999/xlink" version="1.1">
<metadata></metadata>
<defs>
<font id="homeitalic" horiz-adv-x="644" >
<font-face units-per-em="1000" ascent="764" descent="-236" />
<missing-glyph horiz-adv-x="232" />
<glyph horiz-adv-x="0" />
<glyph horiz-adv-x="333" />
<glyph unicode=" "  horiz-adv-x="232" />
<glyph unicode="&#x09;" horiz-adv-x="232" />
<glyph unicode="&#xa0;" horiz-adv-x="232" />
<glyph unicode="!" horiz-adv-x="365" d="M72 52q0 26 18 44t44 18t44 -18t18 -44t-18 -43.5t-44 -17.5t-44 17.5t-18 43.5zM154 215q26 139 43.5 262t24.5 152t27 48.5t46 19.5q24 0 37.5 -15.5t13.5 -40.5q0 -35 -45 -139.5t-113 -293.5z" />
<glyph unicode="&#x22;" horiz-adv-x="392" d="M124 472q4 77 5.5 125t1.5 70q0 36 13.5 53t39.5 17q25 0 39.5 -15t14.5 -37q0 -18 -25 -71.5t-65 -141.5h-24zM319 472q4 77 5.5 125t1.5 70q0 36 13.5 53t39.5 17q25 0 39.5 -15t14.5 -37q0 -18 -25 -71.5t-65 -141.5h-24z" />
<glyph unicode="#" horiz-adv-x="560" d="M52 119l23 94l114 27l28 111l-115 -27l24 94l115 27l45 182h32l-43 -174l124 29l36 145h32l-34 -137l115 27l-23 -94l-115 -27l-28 -111l115 27l-23 -94l-116 -27l-49 -198h-32l47 190l-124 -29l-40 -161h-32l38 153zM223 248l125 29l28 111l-125 -29z" />
<glyph unicode="$" horiz-adv-x="615" d="M50 122q0 36 19.5 62t51.5 26q19 0 30.5 -11t11.5 -32q0 -28 -14 -43t-27 -30q12 -19 40 -37.5t88 -22.5l58 235q-87 17 -127 50.5t-40 97.5q0 81 68 139t175 58h10l25 99h34l-25 -101q80 -7 119.5 -40t39.5 -73q0 -33 -16 -53.5t-43 -20.5q-17 0 -28 11.5t-11 28.5 q0 28 13 39t22 30q-12 15 -34.5 27.5t-69.5 17.5l-56 -225q83 -20 126 -49t43 -92q0 -100 -75.5 -157t-179.5 -57h-3l-35 -141h-34l35 142q-87 7 -139 39t-52 83zM225 458q0 -41 23.5 -62t82.5 -34l55 219h-10q-71 0 -111 -33.5t-40 -89.5zM284 33q77 1 122 36.5t45 98.5 q0 33 -19.5 56t-90.5 38z" />
<glyph unicode="%" horiz-adv-x="820" d="M71 -77l665 770l34 -24l-667 -770zM79 423q0 76 61.5 136t136.5 60q57 0 96 -33t39 -90q0 -76 -61.5 -136t-136.5 -60q-57 0 -96 33t-39 90zM155 403q0 -36 14.5 -54t44.5 -18q49 0 85.5 61t36.5 124q0 36 -14.5 54t-44.5 18q-49 0 -85.5 -61t-36.5 -124zM437 110 q0 76 61.5 136t136.5 60q57 0 96 -33t39 -90q0 -76 -61.5 -136t-136.5 -60q-57 0 -96 33t-39 90zM513 90q0 -36 14.5 -54t44.5 -18q49 0 85.5 61t36.5 124q0 36 -14.5 54t-44.5 18q-49 0 -85.5 -61t-36.5 -124z" />
<glyph unicode="&#x26;" horiz-adv-x="883" d="M79 217q0 66 32.5 96.5t71.5 54.5q-27 22 -46.5 47.5t-19.5 80.5q0 46 44 92.5t109 46.5q74 0 119.5 -33t59.5 -89l-22 -13q-25 40 -51 60t-68 20q-50 0 -82 -33.5t-32 -85.5q0 -35 3 -49.5t15 -26.5q17 7 43 11t44 4q31 0 48 -12.5t17 -31.5q0 -17 -9.5 -28.5 t-35.5 -11.5q-34 0 -59 11.5t-45 24.5q-8 -3 -36.5 -24.5t-28.5 -61.5q0 -77 83.5 -140t240.5 -63q139 0 214 77t75 166q0 88 -45.5 125.5t-103.5 37.5q-43 0 -78.5 -23.5t-35.5 -67.5q0 -21 2.5 -31.5t7.5 -18.5q7 19 21.5 34t34.5 15q26 0 37 -17t11 -30q0 -24 -9 -40 t-52 -16q-44 0 -65 30.5t-21 85.5q0 36 15.5 63t44.5 46q20 13 50.5 20.5t62.5 7.5q21 0 56 -2.5t53 -2.5q42 0 67 26.5t25 51.5q0 16 -3.5 24t-11.5 12q-5 -13 -13.5 -26.5t-29.5 -13.5q-24 0 -34 13.5t-10 31.5q0 21 14 39t46 18q43 0 57.5 -41t14.5 -64q0 -60 -40.5 -94 t-110.5 -34q37 -19 61 -52.5t24 -111.5q0 -43 -24 -102.5t-70 -103.5q-53 -51 -126.5 -82t-196.5 -31q-126 0 -217.5 69t-91.5 166z" />
<glyph unicode="'" horiz-adv-x="196" d="M124 472q4 77 5.5 125t1.5 70q0 36 13.5 53t39.5 17q25 0 39.5 -15t14.5 -37q0 -18 -25 -71.5t-65 -141.5h-24z" />
<glyph unicode="(" horiz-adv-x="365" d="M35 185q0 171 89 308t264 255l28 -37q-165 -115 -242.5 -243t-77.5 -275q0 -111 39.5 -186t101.5 -134l-38 -33q-70 62 -117 148t-47 197z" />
<glyph unicode=")" horiz-adv-x="365" d="M-38 -123q167 119 243.5 243.5t76.5 274.5q0 110 -39 185t-102 135l38 33q70 -62 117 -147t47 -198q0 -168 -90.5 -308.5t-262.5 -254.5z" />
<glyph unicode="*" horiz-adv-x="421" d="M100 482q0 18 11 24t31 6h15.5t30.5 1q18 2 40 4t46 7q-64 51 -101.5 66.5t-37.5 35.5q0 10 8 24.5t31 14.5q18 0 40.5 -39.5t66.5 -86.5q6 47 5.5 85.5t3.5 57.5q3 13 11.5 20t19.5 7q17 0 27.5 -7.5t10.5 -25.5q0 -15 -21.5 -50t-40.5 -92q55 23 92 44.5t51 21.5 q11 0 21 -11.5t10 -25.5q0 -18 -10.5 -25.5t-36.5 -7.5q-23 0 -49 -1.5t-77 -10.5q63 -50 99.5 -65.5t36.5 -36.5q0 -17 -13 -28.5t-24 -11.5q-20 0 -40 37t-67 90q-9 -59 -6.5 -94t-2.5 -49q-2 -12 -10.5 -19.5t-20.5 -7.5q-17 0 -27 9.5t-10 23.5q0 20 22 56t40 85 q-46 -15 -89.5 -39t-56.5 -24q-11 0 -20 10.5t-9 27.5z" />
<glyph unicode="+" horiz-adv-x="580" d="M67 234v52h214v215h54v-215h214v-52h-214v-215h-54v215h-214z" />
<glyph unicode="," horiz-adv-x="242" d="M-7 -141q46 25 81 63.5t39 79.5h-24q-33 0 -47 14t-14 39t18.5 45.5t49.5 20.5q35 0 52 -18t17 -57q0 -75 -52.5 -131.5t-106.5 -82.5z" />
<glyph unicode="-" horiz-adv-x="344" d="M31 211l21 73h265l-21 -73h-265z" />
<glyph unicode="." horiz-adv-x="242" d="M33 56q0 27 19.5 46.5t46.5 19.5t46.5 -19.5t19.5 -46.5t-19.5 -46t-46.5 -19t-46.5 19t-19.5 46z" />
<glyph unicode="/" horiz-adv-x="420" d="M-120 -193l592 941l45 -26l-593 -941z" />
<glyph unicode="0" horiz-adv-x="618" d="M53 214q0 157 101 281.5t228 124.5q92 0 152.5 -57.5t60.5 -174.5q0 -159 -99.5 -280.5t-228.5 -121.5q-104 0 -159 65t-55 163zM152 167q0 -66 27.5 -106.5t77.5 -40.5q47 0 91 38.5t77 100.5q36 68 53.5 139.5t17.5 136.5q0 62 -27 106.5t-80 44.5q-89 0 -163 -132.5 t-74 -286.5z" />
<glyph unicode="1" horiz-adv-x="431" d="M6 0l8 31q14 1 42 3.5t40 6.5q18 7 28 19t15 30l119 431q-8 -2 -15.5 -3t-21.5 -1q-24 0 -50.5 15t-54.5 42l18 23q20 -8 40.5 -14t55.5 -6q42 0 80.5 15t61.5 27h23q-12 -26 -29 -74t-25 -76l-105 -375q-2 -7 -2.5 -12t-0.5 -8q0 -11 4 -16.5t17 -11.5q8 -4 34.5 -9.5 t43.5 -5.5l-8 -31h-318z" />
<glyph unicode="2" horiz-adv-x="581" d="M7 0l8 37q87 58 158 106.5t121 93.5q77 69 112.5 130t35.5 111q0 52 -28.5 79t-79.5 27q-45 0 -83.5 -24.5t-48.5 -55.5q0 -9 10 -22.5t10 -30.5q0 -18 -14 -42.5t-51 -24.5q-26 0 -38.5 18.5t-12.5 40.5q0 25 14.5 52t49.5 59q30 27 77 46.5t102 19.5q82 0 137.5 -41 t55.5 -114q0 -97 -94 -181t-280 -178l-27 -25h221q38 0 71.5 28.5t60.5 71.5l27 -12l-88 -169h-426z" />
<glyph unicode="3" horiz-adv-x="569" d="M3 104q0 42 21.5 73t63.5 31q24 0 36.5 -11.5t12.5 -28.5q0 -27 -10.5 -39.5t-20.5 -17.5q-12 -6 -21.5 -15.5t-9.5 -28.5q0 -26 28.5 -40.5t75.5 -14.5q77 0 150 64.5t73 155.5q0 33 -19.5 49t-51.5 16q-24 0 -45 -13t-50 -33l-19 37q130 66 186 104.5t56 116.5 q0 43 -27 60t-67 17q-51 0 -81.5 -20.5t-35.5 -31.5q0 -9 7 -21t7 -31q0 -13 -12 -39.5t-49 -26.5q-28 0 -39 18t-11 37q0 46 60.5 97.5t178.5 51.5q81 0 123.5 -39t42.5 -87q0 -57 -51.5 -101.5t-141.5 -56.5l-6 -11q56 0 101.5 -29t45.5 -84q0 -105 -87.5 -171.5 t-214.5 -66.5q-69 0 -134 31.5t-65 98.5z" />
<glyph unicode="4" horiz-adv-x="573" d="M26 209l8 30l436 390h32l-105 -377q28 0 53.5 2t37.5 11q18 13 31 34t18 42h29l-61 -226h-27q5 21 4.5 46t-11.5 37q-9 9 -31 10t-55 1l-32 -115q-2 -7 -2.5 -12t-0.5 -8q0 -11 4 -16.5t17 -11.5q8 -4 31 -9.5t38 -5.5l-8 -31h-300l8 31q13 1 38 3.5t37 6.5q18 7 28 19 t15 30l33 119h-265zM93 252h210l69 249z" />
<glyph unicode="5" horiz-adv-x="527" d="M10 101q0 38 24.5 56.5t47.5 18.5q21 0 32 -9.5t11 -26.5q0 -20 -12.5 -37.5t-19.5 -35.5q4 -20 26.5 -34.5t59.5 -14.5q79 0 137.5 69.5t58.5 162.5q0 42 -29 66.5t-78 24.5q-39 0 -71 -14.5t-57 -50.5l-33 7l149 334h26q9 -13 34.5 -26t92.5 -13q52 0 89 15t70 41 l15 -16q-60 -76 -142 -100t-151 -24h-29t-22 1l-65 -145q24 14 52 21t62 7q77 0 129 -45t52 -116q0 -91 -79 -161t-206 -70q-74 0 -124 33t-50 82z" />
<glyph unicode="6" horiz-adv-x="569" d="M52 197q0 175 140 339t293 164q72 0 102.5 -31t30.5 -66q0 -32 -12.5 -52t-42.5 -20q-23 0 -35.5 17.5t-14.5 53.5q-1 31 -13 44.5t-51 13.5q-68 0 -141 -83t-121 -214l3 -3q40 36 80 52.5t88 16.5q68 0 112 -47.5t44 -123.5q0 -40 -18 -92t-48 -88q-36 -42 -82.5 -67 t-117.5 -25q-91 0 -143.5 53t-52.5 158zM137 149q0 -63 27.5 -95.5t71.5 -32.5q77 0 125.5 88t48.5 168q0 52 -27 80t-75 28q-66 0 -118.5 -68.5t-52.5 -167.5z" />
<glyph unicode="7" horiz-adv-x="510" d="M64 394l128 257h28l-7 -56h381l-3 -17q-65 -69 -129 -152t-104 -148q-43 -70 -78 -143.5t-62 -168.5q-12 -41 -29 -63.5t-48 -22.5q-24 0 -35.5 13.5t-11.5 34.5q0 35 32 91.5t149 217.5q57 78 101 137t104 134h-233q-50 0 -85 -31.5t-71 -90.5z" />
<glyph unicode="8" horiz-adv-x="562" d="M39 134q0 63 55.5 112.5t119.5 64.5v4q-36 23 -59.5 50.5t-23.5 72.5q0 73 70 131t162 58q74 0 127.5 -38t53.5 -95q0 -54 -43.5 -100t-103.5 -63v-4q42 -23 72.5 -53.5t30.5 -79.5q0 -100 -82 -155t-173 -55q-88 0 -147 43t-59 107zM118 128q0 -43 32 -75.5t100 -32.5 q60 0 107.5 33.5t47.5 97.5q0 51 -39 84t-113 60q-61 -24 -98 -70t-37 -97zM225 477q0 -45 29 -73t108 -57q56 22 84.5 65t28.5 85q0 43 -31 68.5t-86 25.5q-58 0 -95.5 -35t-37.5 -79z" />
<glyph unicode="9" horiz-adv-x="569" d="M-31 0q0 30 13.5 46.5t39.5 16.5t38.5 -13t14.5 -60q1 -29 15 -41.5t53 -12.5q77 0 154 92t120 223l-4 3q-34 -31 -64.5 -54t-98.5 -23q-69 0 -116.5 48t-47.5 126q0 108 80 188.5t189 80.5q83 0 136.5 -50.5t53.5 -155.5q0 -82 -34 -176.5t-91 -167.5 q-63 -81 -141.5 -126.5t-163.5 -45.5q-72 0 -109 28.5t-37 73.5zM191 348q0 -65 24.5 -94.5t75.5 -29.5q60 0 115.5 62.5t55.5 167.5q0 65 -26.5 99t-77.5 34q-74 0 -120.5 -76.5t-46.5 -162.5z" />
<glyph unicode=":" horiz-adv-x="320" d="M52 56q0 27 19.5 46.5t46.5 19.5t46.5 -19.5t19.5 -46.5t-19.5 -46t-46.5 -19t-46.5 19t-19.5 46zM139 398q0 27 19.5 46.5t46.5 19.5t46.5 -19.5t19.5 -46.5t-19.5 -46t-46.5 -19t-46.5 19t-19.5 46z" />
<glyph unicode=";" horiz-adv-x="320" d="M16 -141q46 25 81 63.5t39 79.5h-24q-33 0 -47 14t-14 39t18.5 45.5t49.5 20.5q35 0 52 -18t17 -57q0 -75 -52.5 -131.5t-106.5 -82.5zM139 398q0 27 19.5 46.5t46.5 19.5t46.5 -19.5t19.5 -46.5t-19.5 -46t-46.5 -19t-46.5 19t-19.5 46z" />
<glyph unicode="&#x3c;" horiz-adv-x="560" d="M73 237v46l442 205v-57l-374 -171l374 -171v-57z" />
<glyph unicode="=" horiz-adv-x="580" d="M87 143v52h442v-52h-442zM87 325v52h442v-52h-442z" />
<glyph unicode="&#x3e;" horiz-adv-x="560" d="M81 32v57l374 171l-374 171v57l442 -205v-46z" />
<glyph unicode="?" horiz-adv-x="439" d="M98 52q0 26 18.5 44t44.5 18t44.5 -18t18.5 -44t-18.5 -43.5t-44.5 -17.5t-44.5 17.5t-18.5 43.5zM130 264q0 52 34.5 85.5t114.5 72.5q81 40 101.5 73.5t20.5 74.5q0 35 -25.5 64t-88.5 29q-48 0 -74.5 -26.5t-26.5 -64.5q0 -4 1.5 -7t1.5 -6h5q6 14 20 25.5t31 11.5 q19 0 30.5 -12t11.5 -30q0 -24 -20 -42t-44 -18q-27 0 -48 22.5t-21 62.5q0 48 43 84t109 36q79 0 125.5 -45t46.5 -112q0 -47 -26 -92t-105 -79q-50 -21 -108 -57.5t-58 -75.5q0 -27 15 -35t32 -8q28 0 47 21.5t29 48.5l29 -13q-14 -39 -46.5 -63.5t-61.5 -24.5 q-39 0 -67 24.5t-28 75.5z" />
<glyph unicode="@" horiz-adv-x="1000" d="M78 174q0 87 34.5 174t100.5 158q62 66 156 108t201 42q87 0 149.5 -27.5t103.5 -72.5q41 -46 60.5 -103t19.5 -119q0 -129 -78 -215t-180 -86q-40 0 -66 20.5t-29 59.5l-3 1q-25 -38 -51 -58.5t-61 -20.5q-42 0 -77 26.5t-35 104.5q0 36 14 75t47 86q27 39 73.5 69 t96.5 30q25 0 46.5 -15t26.5 -45h3l20 54h70l-95 -258q-5 -13 -7.5 -28.5t-2.5 -23.5q0 -25 11 -36.5t30 -11.5q76 0 144.5 75t68.5 203q0 113 -77 197t-224 84q-73 0 -143.5 -29t-128.5 -87q-55 -55 -90 -138t-35 -188q0 -170 98 -260.5t238 -90.5q163 0 268.5 77.5 t151.5 216.5l24 -8q-45 -154 -162.5 -241.5t-281.5 -87.5q-80 0 -158 24.5t-138 72.5t-96.5 122t-36.5 170zM407 159q0 -50 13 -67.5t29 -17.5q37 0 64 29t43 58l60 162q-7 40 -22 57t-45 17q-57 0 -99.5 -81t-42.5 -157z" />
<glyph unicode="A" d="M-121 0l9 31q10 1 34 6.5t41 13.5q20 10 41 27.5t47 50.5q85 108 216 276t223 289h36v-595q0 -24 3.5 -35.5t19.5 -19.5q11 -6 32 -9.5t32 -3.5l-9 -31h-292l9 31q24 2 42.5 4.5t33.5 8.5q19 8 25.5 21.5t6.5 30.5v164h-222q-35 -45 -55 -72.5t-35 -48.5q-14 -20 -25 -37 t-11 -24q0 -22 37 -34t57 -13l-9 -31h-287zM238 300h191v249z" />
<glyph unicode="B" horiz-adv-x="631" d="M-31 0l8 31q13 1 38 3.5t37 6.5q18 7 28 19t15 30l137 494q1 5 2.5 12t1.5 11q0 10 -5 16t-15 11q-12 5 -33.5 10.5t-33.5 6.5l9 32h300q79 0 127.5 -32t48.5 -95q0 -81 -64 -123t-138 -61v-9q63 -11 111 -45t48 -97q0 -99 -91.5 -160t-234.5 -61h-296zM197 99 q-1 -7 -1 -13q0 -23 14 -34q18 -14 64 -14q102 0 156.5 56.5t54.5 124.5q0 58 -42 91t-113 33q-16 0 -35.5 -1t-30.5 -1zM274 380h37q100 0 158.5 50.5t58.5 116.5q0 50 -29 74.5t-83 24.5q-19 0 -36.5 -1t-31.5 -1z" />
<glyph unicode="C" horiz-adv-x="632" d="M50 246q0 186 126.5 318t272.5 132q55 0 87.5 -15t61.5 -39l41 51h41l-48 -247h-31q-11 112 -50.5 161.5t-118.5 49.5q-98 0 -184.5 -115t-86.5 -278q0 -104 47 -165.5t140 -61.5q73 0 123.5 42t97.5 113l31 -19q-23 -35 -50 -69.5t-62 -59.5q-37 -27 -78 -43t-102 -16 q-123 0 -190.5 71.5t-67.5 189.5z" />
<glyph unicode="D" horiz-adv-x="748" d="M-31 0l8 31q14 1 38.5 3.5t36.5 6.5q18 7 28 19t15 30l137 494q1 5 2.5 12t1.5 11q0 10 -5 16t-15 11q-12 5 -33.5 10.5t-33.5 6.5l9 32h296q57 0 106 -14.5t87 -44.5q41 -31 65.5 -80.5t24.5 -125.5q0 -192 -141 -305t-331 -113h-296zM201 116q-4 -13 -4 -24 q0 -20 12 -32q18 -20 71 -21q149 0 249.5 107t100.5 263q0 125 -57 180.5t-158 55.5q-20 0 -37 -1t-30 -1z" />
<glyph unicode="E" d="M-40 0l10 31q10 0 40 3.5t44 8.5q19 7 29 19.5t14 30.5l135 490l2.5 12.5t1.5 11.5q0 10 -3 15t-17 12q-14 6 -37 11t-38 6l10 32h528l-46 -166h-31v8q0 43 -18 77.5t-52 39.5q-13 2 -35.5 3t-42.5 1h-105l-77 -274h75q39 0 62.5 11.5t32.5 20.5q14 12 31 42t24 49h32 l-80 -288h-30q1 8 2 19t1 26t-2.5 31t-5.5 21q-8 11 -18.5 21t-57.5 10h-75l-58 -206q-4 -13 -7 -27t-3 -21q0 -26 22.5 -35t78.5 -9q50 0 95 3.5t66 20.5q33 27 70.5 74.5t46.5 66.5h31l-68 -202h-577z" />
<glyph unicode="F" horiz-adv-x="620" d="M-40 0l10 31q10 0 40 3.5t44 8.5q19 7 29 19.5t14 30.5l135 490l2.5 12.5t1.5 11.5q0 10 -3 15t-17 12q-14 6 -37 11t-38 6l10 32h555l-46 -166h-31v8q0 43 -18 77.5t-52 39.5q-13 2 -35.5 3t-42.5 1h-132l-78 -277h92q39 0 62.5 11.5t32.5 20.5q14 12 31 42t24 49h32 l-80 -288h-30q1 8 2 19t1 26t-2.5 31t-5.5 21q-8 11 -18.5 21t-57.5 10h-92l-65 -232q-2 -6 -3 -13t-1 -11q0 -10 3.5 -15.5t16.5 -11.5q14 -6 39.5 -11.5t35.5 -5.5l-10 -32h-318z" />
<glyph unicode="G" horiz-adv-x="715" d="M50 252q0 170 123 307t296 137q59 0 95.5 -16t60.5 -38l45 51h39l-55 -240h-31q-9 93 -45 148.5t-129 55.5q-103 0 -195 -113.5t-92 -281.5q0 -115 45 -175t127 -60q72 0 111.5 37.5t55.5 101.5l10 38q4 17 4 29q0 4 -1 7q-1 14 -21 23q-17 7 -49 11t-45 5l9 33h326 l-9 -33q-12 -1 -34 -5t-36 -9q-21 -8 -30.5 -21.5t-13.5 -30.5l-62 -232l-18 -7l-41 61q-51 -24 -90.5 -37t-91.5 -13q-105 0 -181.5 63t-76.5 204z" />
<glyph unicode="H" horiz-adv-x="813" d="M-31 0l8 31q13 1 38 3.5t37 6.5q18 7 28 19t15 30l137 494q1 5 2.5 12t1.5 11q0 10 -5 16t-15 11q-12 5 -33.5 10.5t-33.5 6.5l9 32h306l-9 -32q-13 0 -39 -4.5t-39 -7.5q-21 -6 -30.5 -21t-13.5 -29l-59 -212h328l58 207l2.5 12.5t1.5 11.5q0 9 -5 15t-15 11 q-13 5 -35 10.5t-36 6.5l11 32h305l-10 -32q-12 0 -37.5 -4.5t-37.5 -7.5q-20 -5 -29.5 -21t-13.5 -29l-138 -495q-2 -7 -3 -12.5t-1 -8.5q0 -10 6 -16t15 -11q7 -4 31 -9.5t37 -5.5l-9 -31h-306l9 31q14 1 40.5 3.5t37.5 6.5q19 7 29 19.5t14 29.5l69 245h-329l-68 -241 q-2 -7 -2.5 -12t-0.5 -8q0 -11 4 -16.5t17 -11.5q8 -4 31 -9.5t38 -5.5l-8 -31h-305z" />
<glyph unicode="I" horiz-adv-x="392" d="M-28 0l8 31q13 1 38 3.5t37 6.5q18 7 28 19t15 30l137 494q1 5 2.5 12t1.5 11q0 10 -5 16t-15 11q-12 5 -33.5 10.5t-33.5 6.5l9 32h306l-9 -32q-13 0 -39 -4.5t-39 -7.5q-21 -6 -30.5 -21t-13.5 -29l-138 -495q-2 -7 -2.5 -12t-0.5 -8q0 -11 4 -16.5t17 -11.5 q8 -4 31 -9.5t38 -5.5l-8 -31h-305z" />
<glyph unicode="J" horiz-adv-x="492" d="M-42 99q0 31 19 55t52 24q28 0 43 -16.5t15 -40.5q0 -22 -16 -42t-45 -26q10 -21 34 -28t43 -7q63 0 99 55t55 132l98 379q1 4 2 9.5t1 8.5q0 10 -4 17t-17 14q-12 7 -41 11.5t-42 5.5l9 33h324l-9 -33q-13 0 -37.5 -4t-39.5 -8q-19 -5 -29.5 -19.5t-14.5 -29.5 l-108 -417q-7 -27 -28 -62.5t-50 -60.5q-36 -32 -71.5 -49t-94.5 -17q-65 0 -106 36.5t-41 79.5z" />
<glyph unicode="K" horiz-adv-x="742" d="M-31 0l8 31q13 1 38 3.5t37 6.5q18 7 28 19t15 30l137 494q1 5 2.5 12t1.5 11q0 10 -5 16t-15 11q-12 5 -33.5 10.5t-33.5 6.5l9 32h306l-9 -32q-13 0 -39 -4.5t-39 -7.5q-21 -6 -30.5 -21t-13.5 -29l-65 -235h8q115 77 209 151.5t103 109.5q1 3 1 7q-1 16 -23 22 q-26 6 -37 7l9 32h283l-9 -32q-15 0 -61.5 -6t-95.5 -46q-69 -57 -141.5 -116.5t-148.5 -110.5q57 -73 96.5 -128t90.5 -132q10 -16 27.5 -34t45.5 -32q12 -5 38 -9.5t38 -4.5l-8 -32h-341l8 32q54 5 75.5 12t21.5 29q0 11 -15 39t-43 68q-26 38 -57 78.5t-61 76.5h-18 l-68 -241q-2 -7 -2.5 -12t-0.5 -8q0 -11 4 -16.5t17 -11.5q8 -4 31 -9.5t38 -5.5l-8 -31h-305z" />
<glyph unicode="L" horiz-adv-x="636" d="M-40 0l10 31q10 0 40 3.5t44 8.5q19 7 29 19.5t14 30.5l135 490l2.5 12.5t1.5 11.5q0 10 -3 15t-17 12q-14 6 -37 11t-38 6l10 32h313l-9 -32q-13 0 -39 -4.5t-39 -7.5q-21 -6 -30.5 -21t-13.5 -29l-128 -460q-4 -13 -7 -27t-3 -21q0 -26 22.5 -35t78.5 -9q50 0 95 3.5 t66 20.5q33 27 70.5 74.5t46.5 66.5h31l-68 -202h-577z" />
<glyph unicode="M" horiz-adv-x="945" d="M-53 0l9 31q19 1 53 9.5t47 17.5q20 13 36.5 45t32.5 92l93 346q6 24 6 41v10q-2 20 -15 31q-14 14 -37.5 20.5t-44.5 7.5l9 32h207l104 -529l297 443q20 30 31.5 53.5t14.5 32.5h228l-9 -32q-13 0 -39 -4.5t-39 -7.5q-21 -6 -30 -19.5t-14 -30.5l-127 -495 q-2 -4 -2.5 -10.5t-0.5 -9.5q0 -11 4 -16.5t17 -11.5q9 -4 33 -9.5t40 -5.5l-8 -31h-304l8 31q13 1 36.5 3.5t34.5 6.5q19 7 29 19.5t14 29.5l122 484l-387 -563h-28q-2 38 -5.5 72.5t-9.5 66.5l-83 415l-97 -365q-6 -21 -11 -51t-5 -41q0 -18 3 -28t10 -17q12 -12 46 -22 t49 -10l-9 -31h-309z" />
<glyph unicode="N" horiz-adv-x="751" d="M-53 0l9 31q19 1 53 9.5t47 17.5q20 13 37 44.5t33 92.5l88 333q1 5 2.5 14.5t1.5 19.5q0 15 -4.5 30t-14.5 25q-15 15 -37 23.5t-64 10.5l10 32h206l231 -538l89 342q7 28 11.5 51t4.5 42q0 16 -3.5 26t-10.5 16q-13 10 -45 19.5t-49 10.5l9 31h307l-9 -31 q-14 0 -46.5 -7t-52.5 -18q-26 -14 -41.5 -52.5t-27.5 -81.5l-133 -500h-43l-240 560l-92 -353q-6 -21 -11 -51.5t-5 -40.5q0 -18 3 -28t10 -17q12 -12 46 -22t49 -10l-9 -31h-309z" />
<glyph unicode="O" horiz-adv-x="724" d="M54 257q0 97 33.5 180.5t110.5 156.5q54 51 120 77.5t133 26.5q55 0 100.5 -16.5t82.5 -54.5q34 -35 56.5 -82t22.5 -115q0 -92 -37 -189t-112 -161q-57 -48 -115 -72t-136 -24q-55 0 -96.5 16.5t-77.5 51.5q-37 36 -61 88.5t-24 116.5zM161 230q0 -93 39 -149.5 t125 -56.5q55 0 102 26.5t81 74.5q46 66 72 149.5t26 176.5q0 91 -36 149t-127 58q-58 0 -108.5 -31t-86.5 -88q-39 -61 -63 -141.5t-24 -167.5z" />
<glyph unicode="P" horiz-adv-x="607" d="M-31 0l8 31q13 1 38 3.5t37 6.5q18 7 28 19t15 30l137 494q1 5 2.5 12t1.5 11q0 10 -5 16t-15 11q-12 5 -33.5 10.5t-33.5 6.5l9 32h277q92 0 144.5 -38.5t52.5 -108.5q0 -104 -93 -166t-237 -62h-47l-60 -215q-2 -5 -2.5 -10.5t-0.5 -8.5q0 -11 4 -16.5t17 -11.5 q8 -4 31 -9.5t38 -5.5l-8 -31h-305zM266 348h49q102 0 156.5 48t54.5 131q0 57 -32.5 87.5t-103.5 30.5h-42z" />
<glyph unicode="Q" horiz-adv-x="724" d="M54 257q0 97 33.5 180.5t110.5 156.5q54 51 120 77.5t133 26.5q57 0 101 -16.5t82 -53.5q32 -32 55.5 -83t23.5 -115q0 -117 -59 -232t-176 -173q7 -69 43.5 -88.5t72.5 -19.5q30 0 66 26t54 51l24 -22q-25 -32 -81.5 -78t-132.5 -46q-48 0 -89.5 29.5t-48.5 114.5 q-18 -3 -35.5 -4.5t-37.5 -1.5q-55 0 -97.5 16.5t-78.5 51.5q-35 34 -59 87t-24 116zM161 230q0 -36 5.5 -67t16.5 -56q34 60 81.5 83.5t85.5 23.5q52 0 86 -39t39 -93q61 63 96 162t35 207q0 91 -36 149t-127 58q-58 0 -108.5 -31t-86.5 -88q-39 -61 -63 -141.5t-24 -167.5 zM202 78q21 -26 49.5 -40t73.5 -14q13 0 30.5 2t28.5 6q1 10 1 18.5v16.5q0 50 -20.5 73t-53.5 23q-22 0 -51.5 -14.5t-57.5 -70.5z" />
<glyph unicode="R" horiz-adv-x="705" d="M-31 0l8 31q13 1 38 3.5t37 6.5q18 7 28 19t15 30l137 494q1 5 2.5 12t1.5 11q0 10 -5 16t-15 11q-12 5 -33.5 10.5t-33.5 6.5l9 32h281q98 0 153 -34.5t55 -99.5q0 -89 -67.5 -137t-156.5 -66v-7q36 -10 73 -39.5t50 -90.5q7 -34 12.5 -68t6.5 -45q3 -37 23.5 -45 t31.5 -10l30 -5t28 -3l-8 -33h-203q0 55 -6.5 104.5t-14.5 93.5q-10 54 -49.5 91t-90.5 37h-46q-20 -72 -39 -140t-26 -92q-2 -7 -2.5 -12t-0.5 -8q0 -11 4 -16.5t17 -11.5q8 -4 33 -9.5t40 -5.5l-8 -31h-309zM271 366h48q102 0 160.5 44t58.5 128q0 60 -32 83.5t-94 23.5 h-63z" />
<glyph unicode="S" horiz-adv-x="541" d="M-22 -10l56 234h31q10 -73 50 -135t129 -62q72 0 110.5 41t38.5 93q0 49 -25.5 78.5t-91.5 63.5q-83 43 -119.5 81t-36.5 109q0 84 72.5 143.5t174.5 59.5q42 0 77.5 -15t55.5 -35l47 47h34l-57 -227h-30q-9 88 -38 139t-102 51q-64 0 -102.5 -33.5t-38.5 -86.5 q0 -44 23.5 -72.5t82.5 -57.5q97 -49 135 -91.5t38 -104.5q0 -98 -82 -160.5t-187 -62.5q-56 0 -99.5 16t-65.5 34l-46 -47h-34z" />
<glyph unicode="T" horiz-adv-x="636" d="M82 499l52 184h607l-52 -184h-28q0 58 -16 98t-51 45q-16 2 -36 3t-44 1h-38l-149 -548q-2 -4 -2.5 -11.5t-0.5 -10.5q0 -10 4.5 -16.5t15.5 -11.5q4 -2 16 -5t26 -5q15 -3 27.5 -5t19.5 -2l-9 -31h-341l9 31q16 1 47 4.5t42 7.5q19 7 29.5 20t14.5 30l152 553h-38 q-18 0 -39.5 -1t-42.5 -3q-33 -4 -81.5 -57.5t-65.5 -85.5h-28z" />
<glyph unicode="U" horiz-adv-x="801" d="M116 142q0 24 3 44.5t11 50.5l96 347q1 5 2.5 12t1.5 11q0 10 -5 16t-15 11q-12 5 -33.5 10.5t-33.5 6.5l9 32h306l-9 -32q-13 0 -39 -4.5t-39 -7.5q-21 -6 -30.5 -21t-13.5 -29l-92 -332q-10 -34 -14.5 -64t-4.5 -53q0 -55 32 -84t109 -29q92 0 151.5 55t87.5 153 l72 253q8 32 12 52t4 40q0 16 -3.5 26t-10.5 16q-13 10 -45 19.5t-49 10.5l9 31h307l-9 -31q-14 0 -46.5 -7t-52.5 -18q-26 -14 -41 -51.5t-28 -81.5l-73 -256q-37 -127 -110.5 -190.5t-204.5 -63.5q-111 0 -161 41.5t-50 116.5z" />
<glyph unicode="V" d="M75 652l9 31h292l-9 -31q-23 -1 -43 -5t-33 -8q-17 -6 -24.5 -20t-7.5 -32v-453l192 250q39 52 71.5 93.5t48.5 66.5q11 17 23.5 34.5t12.5 26.5q0 22 -35.5 33.5t-58.5 13.5l9 31h287l-9 -31q-10 0 -32.5 -6t-42.5 -14q-22 -10 -44.5 -31t-43.5 -47q-86 -107 -216 -276 t-223 -289h-36v595q0 22 -3.5 34.5t-19.5 20.5q-11 6 -30 9t-34 4z" />
<glyph unicode="W" horiz-adv-x="957" d="M75 652l9 31h292l-9 -31q-23 -1 -43 -5t-33 -8q-17 -6 -24.5 -20t-7.5 -32v-30.5v-58.5v-73.5v-77.5v-207l283 432q1 8 2 14.5t1 16.5q0 14 -5.5 21.5t-17.5 14.5q-11 6 -30 9t-34 4l9 31h292l-9 -31q-23 -1 -43 -5t-33 -8q-17 -6 -24.5 -20t-7.5 -32v-447l247 377 q26 41 34 56t8 30q0 22 -28.5 33.5t-64.5 14.5l9 32h269l-9 -32q-12 0 -33 -6.5t-34 -13.5q-19 -9 -34 -25t-30 -38l-385 -576h-46v505l-337 -505h-46v262v193v137q0 22 -3.5 34.5t-19.5 20.5q-11 6 -30 9t-34 4z" />
<glyph unicode="X" horiz-adv-x="752" d="M-68 0l9 32q15 1 40.5 4t41.5 10q30 12 55.5 30.5t44.5 36.5q62 57 113 105t117 115q-40 85 -62 131t-52 106q-8 17 -18 35t-34 32q-9 5 -36 9t-43 5l9 32h343l-9 -32q-42 -2 -74.5 -12t-32.5 -38q0 -23 21 -69.5t58 -126.5q97 98 142.5 143t45.5 66q0 17 -15 25.5 t-65 11.5l9 32h300l-9 -32q-15 0 -39 -4t-42 -10q-29 -10 -57 -32t-43 -35q-49 -43 -104.5 -99t-104.5 -105q29 -61 66.5 -140t54.5 -113q9 -19 18.5 -35t32.5 -34q7 -6 35.5 -9t43.5 -3l-9 -32h-343l9 32q44 3 76.5 11.5t32.5 39.5q0 21 -19 65t-68 148 q-63 -62 -135.5 -136t-72.5 -89q0 -21 16 -29t62 -10l-9 -32h-300z" />
<glyph unicode="Y" horiz-adv-x="623" d="M64 650l10 33h307l-10 -33q-25 -1 -65.5 -6t-40.5 -19q0 -22 23.5 -95.5t62.5 -197.5q47 55 87.5 103.5t69.5 86.5q35 45 51.5 67t16.5 29q0 19 -30 24t-64 8l10 33h266l-10 -33q-9 0 -30 -7t-32 -12q-24 -11 -35.5 -20t-35.5 -31q-50 -47 -96 -103.5t-114 -142.5 q-18 -22 -38 -57t-25 -55l-31 -123q-1 -3 -1.5 -9t-0.5 -10q0 -9 6 -18t15 -13t38.5 -10t44.5 -6l-9 -33h-324l9 33q14 1 41 4t39 7q19 7 29 20t14 30l41 164q1 4 1.5 9.5t0.5 9.5q0 10 -2.5 26.5t-6.5 29.5q-18 67 -36 122.5t-37 110.5q-9 25 -20 40.5t-28 27.5 q-10 7 -29.5 11t-31.5 5z" />
<glyph unicode="Z" horiz-adv-x="600" d="M-65 0l6 22l607 624h-153q-27 0 -49 -1t-38 -4q-40 -7 -92.5 -62t-76.5 -90h-31l71 194h510l-7 -22l-607 -624h174q38 0 91 6.5t69 19.5q37 29 74 72t60 80h31l-76 -215h-563z" />
<glyph unicode="[" horiz-adv-x="475" d="M-20 -136l230 849h321l-12 -44h-235l-206 -761h235l-12 -44h-321z" />
<glyph unicode="\" horiz-adv-x="470" d="M148 746l53 9l190 -960l-52 -10z" />
<glyph unicode="]" horiz-adv-x="475" d="M-41 -136l12 44h235l206 761h-235l12 44h321l-230 -849h-321z" />
<glyph unicode="^" horiz-adv-x="540" d="M120 456q76 87 110.5 126.5t68.5 78.5q13 15 24 21t32 6q29 0 35 -6t12 -18q14 -30 41 -87t57 -121l-26 -14l-129 155l-205 -155z" />
<glyph unicode="_" horiz-adv-x="600" d="M-110 -108h610v-49h-610v49z" />
<glyph unicode="`" horiz-adv-x="500" d="M255 693q0 17 9 27.5t27 10.5q21 0 33.5 -13t23.5 -38q11 -24 30.5 -61.5t39.5 -77.5l-20 -16q-47 48 -71.5 72t-39.5 39t-23.5 28.5t-8.5 28.5z" />
<glyph unicode="a" horiz-adv-x="555" d="M26 144q0 44 16 93t57 109q35 52 88 88t119 36q32 0 58.5 -18t32.5 -55h3l23 66h90l-113 -325q-7 -17 -11.5 -41.5t-4.5 -36.5q0 -20 10.5 -27.5t24.5 -7.5q35 0 58.5 42.5t36.5 76.5l29 -10q-25 -61 -55.5 -103t-85.5 -42q-32 0 -62.5 15t-33.5 75q-33 -47 -63.5 -70 t-79.5 -23q-52 0 -94.5 31t-42.5 127zM123 128q0 -67 19 -82t39 -15q42 0 76 30t55 67l73 222q-9 46 -29 67t-56 21q-74 0 -125.5 -112t-51.5 -198z" />
<glyph unicode="b" horiz-adv-x="519" d="M48 111q0 33 6 52.5t10 35.5l127 400q8 25 11.5 41t3.5 26q0 16 -11 22.5t-29 9.5q-14 2 -27 2.5t-33 1.5v30l221 10l-114 -349l3 -1q21 25 57.5 51.5t77.5 26.5q50 0 97 -33.5t47 -128.5q0 -41 -20 -98t-56 -105q-39 -51 -91.5 -85.5t-120.5 -34.5q-55 0 -107 29.5 t-52 96.5zM128 123q0 -69 30 -87t55 -18q75 0 131.5 110t56.5 195q0 69 -24.5 85.5t-43.5 16.5q-45 0 -79 -27.5t-58 -62.5z" />
<glyph unicode="c" horiz-adv-x="405" d="M26 149q0 41 18 93.5t53 105.5q32 48 84 85t113 37q48 0 76.5 -29t28.5 -61q0 -36 -13 -56.5t-40 -20.5q-17 0 -35.5 10.5t-18.5 34.5q0 15 14 30t39 29q-4 20 -17.5 27.5t-42.5 7.5q-34 0 -64 -35t-51 -78q-21 -42 -35 -100.5t-14 -98.5q0 -51 19.5 -75.5t58.5 -24.5 q54 0 89.5 39t60.5 89l30 -14q-45 -84 -95.5 -121t-102.5 -37q-27 0 -54 6t-50 24q-23 19 -37 49.5t-14 83.5z" />
<glyph unicode="d" horiz-adv-x="566" d="M26 149q0 42 18 94t56 106q34 49 89 85t120 36q32 0 57.5 -15.5t36.5 -48.5h3l58 193q7 25 11 41t4 26q0 16 -11 22.5t-30 9.5q-14 2 -31 2.5t-39 1.5v30l230 10l-189 -604q-6 -18 -11 -42.5t-5 -35.5q0 -20 10.5 -27.5t24.5 -7.5q35 0 58.5 42.5t36.5 76.5l29 -10 q-25 -61 -55.5 -103t-85.5 -42q-32 0 -62 14.5t-31 74.5l-3 1q-32 -44 -68 -68.5t-81 -24.5q-25 0 -49.5 6t-45.5 26q-21 19 -33 49t-12 82zM123 128q0 -69 20.5 -83t40.5 -14q42 0 78 28t59 67l71 235q-13 42 -33 59.5t-56 17.5q-38 0 -71 -31.5t-58 -78.5 q-24 -46 -37.5 -102t-13.5 -98z" />
<glyph unicode="e" horiz-adv-x="406" d="M26 146q0 46 16 94.5t58 107.5q35 50 91 86t123 36q35 0 59 -16.5t24 -55.5q0 -45 -29 -79.5t-67 -54.5q-43 -24 -86.5 -37.5t-82.5 -18.5q-4 -15 -8 -41.5t-4 -44.5q0 -48 19 -70t58 -22q54 0 90.5 39t61.5 89l30 -14q-46 -86 -97.5 -122t-102.5 -36q-26 0 -53.5 7 t-49.5 25t-36 49.5t-14 78.5zM138 238q104 19 146 65.5t42 83.5q0 24 -9.5 38t-33.5 14q-43 0 -83.5 -65t-61.5 -136z" />
<glyph unicode="f" horiz-adv-x="315" d="M-221 -156q0 17 12.5 35.5t39.5 18.5q15 0 35 -10.5t20 -37.5q0 -15 -6.5 -26.5t-15.5 -21.5q0 -3 7.5 -5.5t12.5 -2.5q55 0 92 45t71 157q35 116 63.5 231t46.5 187h-106l12 40h106l8 31q15 59 42.5 109.5t74.5 93.5q32 31 70 43t72 12q49 0 75.5 -26.5t26.5 -59.5 q0 -14 -11.5 -32.5t-40.5 -18.5q-16 0 -36 9t-20 35q0 10 7 25t9 30q-2 3 -8.5 5t-13.5 2q-48 0 -84 -44.5t-67 -152.5l-17 -61h126l-13 -40h-124q-23 -86 -52 -202.5t-52 -187.5q-18 -57 -47 -111.5t-74 -90.5q-37 -31 -69 -44.5t-71 -13.5q-59 0 -80 25t-21 55z" />
<glyph unicode="g" horiz-adv-x="491" d="M-42 -124q0 52 36.5 86t124.5 47v7q-35 7 -57.5 19t-22.5 47q0 44 34.5 67t58.5 31v5q-33 15 -51 42t-18 59q0 75 59 129.5t139 54.5q50 0 84 -14.5t44 -14.5q22 11 45 20t49 9q17 0 30 -16t13 -36q0 -24 -13 -38t-33 -14q-24 0 -30.5 17.5t-6.5 47.5q-25 0 -37 -4.5 t-25 -12.5v-6q9 -14 14.5 -33.5t5.5 -37.5q0 -75 -58.5 -122t-128.5 -47h-60q-14 -6 -29 -18t-15 -29q0 -27 26.5 -35.5t80.5 -13.5q22 -2 59 -6.5t52 -6.5q37 -5 67.5 -34.5t30.5 -77.5q0 -74 -71.5 -127.5t-213.5 -53.5q-91 0 -137 31t-46 79zM44 -120q0 -30 27 -56.5 t97 -26.5q83 0 130.5 31.5t47.5 96.5q0 16 -8 33.5t-29 23.5q-40 9 -76.5 11.5t-82.5 4.5q-51 -12 -78.5 -43t-27.5 -75zM153 288q0 -37 16 -65t45 -28q27 0 47 16.5t33 44.5q12 27 17.5 54.5t5.5 52.5q0 31 -16.5 55.5t-48.5 24.5q-27 0 -46.5 -17.5t-32.5 -43.5 q-10 -21 -15 -48.5t-5 -45.5z" />
<glyph unicode="h" horiz-adv-x="564" d="M13 0l188 600q8 26 11 41t3 25q0 17 -13 23.5t-26 8.5q-16 2 -30.5 2.5t-29.5 1.5v30l221 10l-117 -353l4 -1q28 36 64 59t78 23q50 0 82.5 -33.5t32.5 -78.5q0 -10 -5.5 -32.5t-13.5 -42.5l-53 -145q-11 -29 -16.5 -48.5t-5.5 -29.5q0 -24 11 -29.5t22 -5.5 q32 0 53.5 32t44.5 87l29 -10q-29 -68 -59.5 -106.5t-85.5 -38.5q-28 0 -65 16.5t-37 61.5q0 21 6 41t14 42l58 155q5 14 12.5 36t7.5 37q0 31 -14.5 40t-35.5 9q-43 0 -79.5 -28.5t-73.5 -94.5l-94 -304h-88z" />
<glyph unicode="i" horiz-adv-x="340" d="M24 317q25 65 59.5 109t85.5 44q32 0 64.5 -16.5t32.5 -68.5q0 -16 -10.5 -46t-20.5 -55l-56 -146q-7 -17 -14.5 -42.5t-7.5 -35.5q0 -24 11 -29.5t22 -5.5q32 0 53.5 32t44.5 87l29 -10q-29 -68 -59 -106.5t-86 -38.5q-28 0 -64 16.5t-36 61.5q0 21 6 41t14 42l66 169 q8 22 15 46t7 34q0 21 -6.5 28t-21.5 7q-32 0 -55 -37.5t-43 -88.5zM214 638q0 30 18 50t51 20q21 0 34 -17t13 -38q0 -30 -16.5 -50.5t-48.5 -20.5q-24 0 -37.5 16t-13.5 40z" />
<glyph unicode="j" horiz-adv-x="300" d="M-186 -153q0 13 13.5 32.5t39.5 19.5t40.5 -11t14.5 -39q0 -9 -5.5 -21.5t-14.5 -24.5q0 -5 5.5 -7.5t9.5 -2.5q56 0 93 45t70 156q33 108 51 178.5l42 164.5q3 13 7 31.5t4 30.5q0 21 -6.5 28t-21.5 7q-32 0 -56 -38.5t-44 -89.5l-30 9q25 65 60.5 110t86.5 45 q32 0 62.5 -17.5t30.5 -73.5q0 -11 -3.5 -32.5t-10.5 -44.5q-23 -88 -35 -136t-41 -144q-20 -62 -46 -112t-74 -89q-36 -30 -69.5 -43.5t-72.5 -13.5q-59 0 -79.5 26.5t-20.5 56.5zM212 638q0 30 18 50t51 20q21 0 34 -17t13 -38q0 -30 -16.5 -50.5t-48.5 -20.5 q-24 0 -37.5 16t-13.5 40z" />
<glyph unicode="k" horiz-adv-x="554" d="M12 0l189 599q9 29 11.5 43t2.5 24q0 17 -13 23.5t-26 8.5q-16 2 -30.5 2.5t-29.5 1.5v30l221 10l-148 -463q10 0 19 -0.5t25 -0.5q45 0 70 31t43 65t48 65t77 31q46 0 62.5 -23.5t16.5 -52.5q0 -27 -15.5 -47.5t-41.5 -20.5q-15 0 -29 9.5t-14 23.5q0 20 5 28.5t12 14.5 t13.5 10t7.5 14q-4 12 -9.5 16t-20.5 4q-24 0 -37 -23t-27 -50q-14 -28 -39 -60t-67 -47q26 -11 52.5 -28t26.5 -65q0 -40 -7.5 -65t-7.5 -48q0 -24 11 -29.5t22 -5.5q32 0 54 32t45 87l29 -10q-29 -68 -60 -106.5t-86 -38.5q-26 0 -64.5 16t-38.5 62q0 33 10 70t10 59 q0 29 -20 41.5t-54 12.5q-9 0 -16 -1t-15 -2l-79 -247h-88z" />
<glyph unicode="l" horiz-adv-x="301" d="M39 66q0 22 5.5 39.5t12.5 44.5l141 449q9 29 11.5 43t2.5 24q0 16 -11 22.5t-29 9.5q-14 2 -27 2.5t-33 1.5v30l222 10l-193 -606q-5 -15 -12 -40.5t-7 -35.5q0 -24 11 -29.5t22 -5.5q32 0 53.5 32t44.5 87l29 -10q-29 -68 -59.5 -106.5t-85.5 -38.5q-28 0 -63 16 t-35 61z" />
<glyph unicode="m" horiz-adv-x="872" d="M25 317q25 65 59.5 109t85.5 44q32 0 62.5 -17.5t30.5 -73.5l3 -1q25 36 64 64t78 28q52 0 83 -29t33 -63h4q23 32 63 62t80 30q50 0 84.5 -33.5t34.5 -78.5q0 -10 -5.5 -31t-13.5 -43l-54 -146q-9 -22 -15.5 -45t-6.5 -33q0 -24 11 -29.5t22 -5.5q32 0 53.5 32t44.5 87 l29 -10q-29 -68 -59.5 -106.5t-85.5 -38.5q-28 0 -65.5 16.5t-37.5 61.5q0 21 7.5 41.5t14.5 41.5l58 155q8 21 13.5 40t5.5 35q0 31 -16.5 39t-36.5 8q-40 0 -72.5 -29.5t-56.5 -64.5l-108 -333h-92l105 318q4 13 8 29t4 33q0 31 -17.5 39t-37.5 8q-40 0 -79.5 -40.5 t-60.5 -82.5l-100 -304h-91l107 319q7 23 13 46.5t6 33.5q0 21 -6.5 28t-21.5 7q-32 0 -55 -37.5t-43 -88.5z" />
<glyph unicode="n" horiz-adv-x="607" d="M25 317q25 65 59.5 109t85.5 44q32 0 62.5 -17.5t30.5 -73.5l3 -1q25 35 63.5 63.5t80.5 28.5q50 0 82.5 -33.5t32.5 -78.5q0 -10 -5.5 -31.5t-13.5 -43.5l-54 -145q-9 -25 -15.5 -46t-6.5 -32q0 -24 11 -29.5t22 -5.5q32 0 53.5 32t44.5 87l29 -10q-29 -68 -59.5 -106.5 t-85.5 -38.5q-28 0 -65.5 16.5t-37.5 61.5q0 21 5 37t17 46l58 155q7 20 13 40t6 35q0 31 -14.5 39t-34.5 8q-39 0 -79 -35.5t-67 -87.5l-100 -304h-91l107 319q7 22 13 46t6 34q0 21 -6.5 28t-21.5 7q-32 0 -55 -37.5t-43 -88.5z" />
<glyph unicode="o" horiz-adv-x="487" d="M30 164q0 47 15 93t55 101q33 47 87 79.5t122 32.5q51 0 100 -42t49 -137q0 -35 -20 -95t-49 -98q-38 -50 -87 -81t-124 -31q-51 0 -99.5 41.5t-48.5 136.5zM124 145q0 -69 21 -99t51 -30q41 0 74 30.5t52 72.5q21 46 31.5 96t10.5 98q0 70 -23 98.5t-50 28.5 q-75 0 -121 -101.5t-46 -193.5z" />
<glyph unicode="p" horiz-adv-x="570" d="M-89 -234l8 29q33 0 49.5 5.5t25.5 16.5q12 14 22 38.5t16 45.5l130 418q5 18 12 44t7 36q0 21 -6.5 28t-21.5 7q-32 0 -55 -37.5t-43 -88.5l-30 9q25 65 59.5 109t85.5 44q31 0 60.5 -16.5t30.5 -70.5l3 -1q29 38 65.5 63t76.5 25q51 0 95.5 -34t44.5 -128 q0 -41 -19 -98.5t-54 -104.5q-39 -52 -87.5 -85t-120.5 -33q-30 0 -58 17t-37 47h-4l-47 -152q-7 -23 -10.5 -41t-3.5 -26q0 -16 12 -23t29 -9l33 -3t25 -1l-8 -30h-285zM181 95q10 -41 32.5 -58t58.5 -17q75 0 127.5 110.5t52.5 192.5q0 68 -22.5 85t-42.5 17 q-42 0 -76 -29t-57 -65z" />
<glyph unicode="q" horiz-adv-x="526" d="M26 144q0 44 18 96.5t57 107.5q34 50 88.5 86t120.5 36q32 0 60.5 -15.5t39.5 -48.5h4l34 58h72l-179 -565q-7 -20 -10.5 -39.5t-3.5 -27.5q0 -16 11.5 -23t28.5 -9q19 -2 28 -3t23 -1l-8 -30h-289l8 29q28 0 54 6.5t33 15.5q13 15 23 41t15 43l50 157l-4 1 q-21 -25 -52.5 -48.5t-80.5 -23.5q-51 0 -96 31.5t-45 125.5zM119 128q0 -69 23.5 -82.5t42.5 -13.5q42 0 79 27.5t60 66.5l74 235q-13 42 -35.5 59.5t-58.5 17.5q-39 0 -72.5 -32.5t-58.5 -79.5q-24 -43 -39 -101t-15 -97z" />
<glyph unicode="r" horiz-adv-x="429" d="M25 317q25 65 59.5 109t85.5 44q32 0 61.5 -18t29.5 -74l3 -1q20 34 50.5 63.5t72.5 29.5q31 0 48 -19t17 -42t-14.5 -49t-40.5 -26t-37.5 12.5t-11.5 29.5q0 16 11.5 28t11.5 17q0 7 -0.5 9.5t-14.5 2.5q-26 0 -57 -44.5t-53 -83.5l-93 -305h-90l99 319q5 16 12 43t7 37 q0 21 -6.5 28t-21.5 7q-32 0 -55 -37.5t-43 -88.5z" />
<glyph unicode="s" horiz-adv-x="402" d="M8 101q0 27 17.5 50.5t38.5 23.5q33 0 45 -16.5t12 -28.5q0 -15 -8 -29.5t-37 -14.5q-16 0 -20 -2.5t-4 -5.5q0 -23 30 -42t69 -19q44 0 80 18.5t36 58.5q0 42 -27.5 66t-61.5 45q-33 21 -61 47t-28 74q0 50 50 97.5t111 47.5q39 0 65.5 -12.5t41.5 -29.5 q14 -19 18.5 -35t4.5 -26q0 -29 -13.5 -48.5t-35.5 -19.5t-36 8.5t-14 32.5q0 16 8 25t17 15t18 10t11 8q-2 9 -14.5 25t-71.5 16q-23 0 -54.5 -19t-31.5 -62q0 -36 28 -58.5t61 -42.5q32 -20 60 -47.5t28 -75.5q0 -53 -55.5 -101.5t-122.5 -48.5q-84 0 -119 40.5t-35 75.5z " />
<glyph unicode="t" horiz-adv-x="340" d="M47 66q0 19 4 34.5t6 23.5q8 34 39.5 136t46.5 154h-96l13 40h97l44 155h87l-46 -155h128l-13 -40h-127q-24 -78 -39 -131t-42 -147q-6 -19 -11 -43t-5 -34q0 -24 12 -29t22 -5q32 0 57 33.5t49 89.5l29 -11q-30 -72 -63.5 -110t-88.5 -38q-27 0 -65 15.5t-38 61.5z" />
<glyph unicode="u" horiz-adv-x="600" d="M20 317q25 65 59.5 109t85.5 44q34 0 67 -19.5t33 -60.5q0 -17 -5.5 -38.5t-15.5 -44.5l-60 -155q-8 -20 -13.5 -40t-5.5 -32q0 -32 14.5 -41t34.5 -9q38 0 77 30.5t64 75.5l100 320h92l-104 -318q-6 -17 -11 -42t-5 -36q0 -20 10.5 -27.5t24.5 -7.5q36 0 59 42.5 t36 76.5l29 -10q-25 -61 -55.5 -103t-85.5 -42q-31 0 -64 17.5t-33 75.5l-3 1q-28 -41 -65.5 -68.5t-82.5 -27.5q-50 0 -83 34t-33 78q0 11 5.5 31t14.5 43l56 146q11 30 15.5 50t4.5 30q0 20 -7 27.5t-22 7.5q-32 0 -55 -37.5t-43 -88.5z" />
<glyph unicode="v" horiz-adv-x="530" d="M22 290l56 178h19q13 -26 42 -37.5t51 -11.5q33 0 61 12t54 41l22 -26q-49 -53 -99.5 -144t-50.5 -179q0 -50 26.5 -68.5t52.5 -18.5q59 0 128.5 68.5t69.5 172.5q0 29 -8 45.5t-17 27.5q-10 13 -17.5 26t-7.5 42q0 19 15.5 35.5t36.5 16.5q35 0 44.5 -29t9.5 -61 q0 -147 -84.5 -270.5t-208.5 -123.5q-50 0 -91 34t-41 99q0 74 47 141.5t128 139.5l-5 7q-40 -21 -65.5 -33.5t-53.5 -12.5q-24 0 -37 2.5t-22 8.5l-25 -91z" />
<glyph unicode="w" horiz-adv-x="733" d="M22 290l56 178h19q13 -26 42 -37.5t51 -11.5q31 0 59.5 12.5t49.5 40.5l21 -29q-47 -47 -96 -135.5t-49 -185.5q0 -48 16.5 -68.5t40.5 -20.5q15 0 44.5 16t46.5 39q-3 15 -6 33.5t-3 42.5q0 71 63.5 188.5t112.5 117.5q24 0 33 -23t9 -57q0 -60 -42.5 -137.5 t-92.5 -137.5q5 -26 16.5 -42t25.5 -22q15 -7 27.5 -7.5t19.5 -0.5q66 0 120 75t54 157q0 28 -8 43.5t-17 27.5q-9 11 -17.5 29t-8.5 43q0 20 13.5 36t34.5 16q35 0 44.5 -32t9.5 -64q0 -147 -81 -267.5t-190 -120.5q-32 0 -60 18.5t-46 56.5q-37 -37 -71.5 -55.5 t-61.5 -18.5q-50 0 -83.5 33.5t-33.5 101.5q0 74 46 139t127 139l-4 6q-40 -21 -64.5 -33t-52.5 -12q-24 0 -37 2.5t-22 8.5l-25 -91zM388 189q0 -9 0.5 -22t0.5 -20q52 66 82 125.5t30 94.5q0 17 -9 26t-23 9q-16 0 -26.5 -4t-18.5 -13q-20 -26 -28 -77t-8 -119z" />
<glyph unicode="x" horiz-adv-x="538" d="M-15 56q0 45 27 81.5t53 59.5l24 -12q-15 -24 -24.5 -49.5t-9.5 -48.5q0 -32 2.5 -47t18.5 -15q30 0 57 21.5t48 58.5q19 33 33 68.5t21 60.5q12 40 19.5 72t7.5 60q0 49 -18 58.5t-32 9.5q-36 0 -64.5 -41t-45.5 -85l-30 9q25 66 64 109.5t90 43.5q18 0 35.5 -2 t36.5 -15q17 -12 28 -35t11 -68h3q15 40 55.5 80t86.5 40q29 0 49.5 -21t20.5 -62t-22.5 -72.5t-44.5 -50.5l-22 11q8 17 21 58t13 70q0 17 -3.5 26t-18.5 9q-30 0 -57 -26.5t-51 -72.5q-18 -33 -31.5 -75t-16.5 -52q-7 -26 -13.5 -58.5t-6.5 -48.5q0 -32 7 -46.5t17 -22.5 q8 -6 18 -7.5t17 -1.5q31 0 57 31t48 86l29 -10q-29 -68 -60 -106.5t-98 -38.5q-10 0 -32.5 3.5t-37.5 14.5q-18 12 -30.5 39.5t-12.5 72.5h-3q-17 -42 -55 -86.5t-98 -44.5q-45 0 -62.5 19t-17.5 49z" />
<glyph unicode="y" horiz-adv-x="545" d="M-42 -135q0 38 23 53.5t46 15.5t34.5 -15.5t11.5 -26.5q0 -29 -9 -38.5t-21 -11.5q-12 -1 -21.5 -2t-13.5 -15q3 -22 32.5 -28.5t44.5 -6.5q71 0 139.5 64t118.5 219l-4 1q-31 -38 -62 -62t-80 -24q-50 0 -83 34t-33 78q0 12 5.5 32t14.5 43l56 144q10 27 15 48.5t5 31.5 q0 20 -7 27.5t-22 7.5q-32 0 -55 -37.5t-43 -88.5l-30 9q25 65 59.5 109t85.5 44q34 0 67 -19.5t33 -60.5q0 -15 -6 -38.5t-15 -44.5l-61 -153q-8 -20 -13.5 -40.5t-5.5 -32.5q0 -32 15 -40.5t35 -8.5q38 0 76 27t64 65l102 332h89l-107 -350q-58 -184 -149.5 -264.5 t-197.5 -80.5q-43 0 -69 12t-41 29q-14 17 -18.5 34.5t-4.5 28.5z" />
<glyph unicode="z" horiz-adv-x="430" d="M-21 21q0 19 12 37t39 41q54 45 127.5 104.5t188.5 141.5l-2 5q-50 3 -95 17.5t-68 14.5q-33 0 -49.5 -10t-16.5 -29q0 -24 18 -35.5t38 -17.5l-11 -23q-29 10 -63.5 31.5t-34.5 73.5q0 37 30 66.5t67 29.5q30 0 53.5 -13t47.5 -31q22 -17 43 -30.5t46 -13.5 q30 0 33 12.5t3 31.5q0 21 7.5 33t24.5 12q15 0 26 -6t11 -24q0 -17 -9 -38t-44 -48q-43 -34 -130.5 -102.5t-177.5 -138.5l1 -6q37 -5 76 -20t73 -15q38 0 65 9t27 35q0 19 -11 28.5t-30 14.5l8 24q47 -12 63.5 -37.5t16.5 -61.5q0 -38 -30.5 -66.5t-73.5 -28.5 q-20 0 -48 14t-54 30q-24 14 -55.5 28.5t-50.5 15.5q-19 -5 -19.5 -17.5t-0.5 -32.5t-10.5 -29.5t-31.5 -9.5q-9 0 -19 8.5t-10 25.5z" />
<glyph unicode="{" horiz-adv-x="430" d="M24 256l15 63q102 11 147.5 43t52.5 143q8 130 68.5 184.5t204.5 54.5l-9 -33q-86 -5 -121.5 -38t-44.5 -129q-12 -127 -77.5 -177t-157.5 -67l-6 -25q69 -14 104.5 -37.5t35.5 -83.5q0 -61 -26.5 -118t-26.5 -104q0 -35 26 -50t84 -18l-9 -33q-106 0 -147 24.5t-41 82.5 q0 34 9 61.5t23 61.5q9 24 20 56t11 55q0 42 -34 60t-101 24z" />
<glyph unicode="|" horiz-adv-x="340" d="M165 -207v953h52v-953h-52z" />
<glyph unicode="}" horiz-adv-x="430" d="M-55 -169l9 33q89 7 123 37t43 130q6 65 26 107t51 70q28 26 71.5 42t86.5 25l6 25q-70 15 -105 38t-35 83q0 61 26.5 118t26.5 104q0 36 -24.5 50t-85.5 18l9 33q106 0 147 -24.5t41 -82.5q0 -27 -9 -59t-22 -64q-10 -24 -21 -56t-11 -55q0 -41 35 -60t100 -24l-15 -63 q-100 -9 -146 -43t-54 -143q-9 -130 -68.5 -184.5t-204.5 -54.5z" />
<glyph unicode="~" horiz-adv-x="540" d="M55 179q11 43 51 84t87 41q56 0 95.5 -22t77.5 -22q37 0 59.5 12.5t38.5 44.5l20 -7q-12 -43 -51 -84t-87 -41q-59 0 -97 22t-76 22q-41 0 -60 -11.5t-38 -45.5z" />
<glyph unicode="&#xa1;" horiz-adv-x="365" d="M68 42q0 35 45.5 139t112.5 294l34 -7q-26 -132 -43 -258.5t-25 -155.5q-8 -31 -26 -49.5t-47 -18.5q-24 0 -37.5 15.5t-13.5 40.5zM218 631q0 26 18 43.5t44 17.5t44 -17.5t18 -43.5t-18 -44t-44 -18t-44 18t-18 44z" />
<glyph unicode="&#xa2;" horiz-adv-x="455" d="M61 222q0 40 18.5 92t54.5 103q34 48 83.5 82.5t111.5 38.5l48 132l30 -10l-46 -123q40 -6 69 -33t29 -55q0 -27 -12 -47t-39 -20q-17 0 -30 10.5t-13 34.5q0 17 6 28t24 25q-5 12 -15 20.5t-27 12.5l-150 -405q6 -2 12 -3t14 -1q49 0 91 34t73 93l28 -12 q-48 -87 -100 -121t-108 -34h-12t-14 1l-68 -183l-28 9l66 180q-38 12 -67 46t-29 105zM154 201q0 -28 5 -46t17 -31l144 390q-62 -9 -114 -117t-52 -196z" />
<glyph unicode="&#xa3;" horiz-adv-x="790" d="M-4 19q0 40 36 72.5t102 32.5q36 0 72.5 -9.5t59.5 -20.5q10 32 18 80t8 84h-138l12 39h129q1 4 1 8v8q0 7 1 15.5t1 16.5q1 17 4.5 39.5t7.5 40.5q22 93 101 175t189 82q75 0 112 -38.5t37 -88.5q0 -31 -21 -69t-58 -38q-30 0 -41.5 14.5t-11.5 30.5q0 25 11.5 36.5 t19.5 17.5q13 9 22 14.5t9 19.5q0 21 -12.5 44t-74.5 23q-39 0 -88 -32.5t-75 -131.5q-7 -28 -17 -86t-18 -101h169l-12 -39h-167q-9 -40 -32 -90.5t-57 -81.5q59 -21 90 -33t104 -12q78 0 118 53t56 104l35 -9q-13 -41 -29.5 -77t-53.5 -75q-35 -37 -77 -59t-108 -22 q-44 0 -93 21t-86 46q-31 -31 -76 -49.5t-78 -18.5q-49 0 -75 16.5t-26 47.5zM30 30q0 -16 17 -27t56 -11q32 0 65.5 12.5t57.5 32.5q-22 14 -59 27.5t-65 13.5q-35 0 -53.5 -15t-18.5 -33z" />
<glyph unicode="&#xa5;" horiz-adv-x="599" d="M69 0l8 31q13 1 38 3.5t37 6.5q18 7 28 19t15 30l40 146h-156l8 37h151q0 5 -1.5 14.5t-3.5 18.5q-16 65 -27 104t-29 97q-9 26 -19.5 37.5t-21.5 18.5q-10 7 -24 10t-27 4l7 30h279l-7 -30q-26 -1 -60 -7t-34 -19q1 -7 2 -13t2 -10q1 -10 4 -20.5t7 -27.5 q8 -29 19.5 -71.5t25.5 -92.5q98 110 144.5 165.5t46.5 66.5q0 16 -21 21t-51 8l7 30h228l-8 -30q-8 0 -26 -6t-28 -10q-22 -10 -75 -58.5t-173 -195.5q-6 -7 -11.5 -15.5t-12.5 -18.5h150l-8 -37h-162q-3 -5 -5 -11.5t-4 -13.5l-32 -117q-2 -7 -2.5 -12t-0.5 -8 q0 -11 4 -16.5t17 -11.5q8 -4 31 -9.5t38 -5.5l-8 -31h-299z" />
<glyph unicode="&#xa7;" horiz-adv-x="550" d="M13 -115q0 30 17 48.5t41 18.5q19 0 31.5 -12t12.5 -30q0 -23 -15 -33t-15 -28q0 -17 18 -30.5t48 -13.5q45 0 74.5 38t29.5 88q0 21 -4 40.5t-24 60.5q-19 41 -42 74t-52 87q-26 45 -34 69.5t-8 55.5q0 62 42 107.5t126 51.5q-9 21 -12.5 39t-3.5 37q0 69 49.5 127 t129.5 58q58 0 95.5 -32t37.5 -80q0 -30 -17 -48.5t-41 -18.5q-19 0 -31.5 12t-12.5 30q0 23 15 33t15 28q0 17 -18 30.5t-51 13.5q-45 0 -72 -33t-27 -78q0 -24 5 -42t26 -64q21 -44 40 -74t51 -88q25 -44 35 -71t10 -54q0 -81 -54 -116t-116 -39q9 -22 13.5 -42.5 t4.5 -42.5q0 -80 -54 -134.5t-129 -54.5q-59 0 -96.5 32t-37.5 80zM162 350q0 -18 6 -34.5t20 -43.5q31 -58 63.5 -109.5t47.5 -84.5q45 6 77 25t32 64q0 21 -6.5 38.5t-19.5 40.5q-30 56 -61.5 110.5t-48.5 88.5q-57 -5 -83.5 -30t-26.5 -65z" />
<glyph unicode="&#xa8;" horiz-adv-x="500" d="M191 639q0 28 19 47t49 19q20 0 33.5 -16t13.5 -35q0 -27 -16.5 -47t-48.5 -20q-24 0 -37 15.5t-13 36.5zM404 639q0 28 19.5 47t49.5 19q20 0 33 -16t13 -35q0 -27 -16 -47t-48 -20q-24 0 -37.5 15.5t-13.5 36.5z" />
<glyph unicode="&#xa9;" horiz-adv-x="942" d="M27 251q0 178 128.5 304t304.5 126q174 0 302.5 -128t128.5 -302q0 -179 -128 -305.5t-303 -126.5q-177 0 -305 127.5t-128 304.5zM65 251q0 -164 115.5 -281t279.5 -117q163 0 278 117t115 281q0 162 -115 278.5t-278 116.5q-164 0 -279.5 -116.5t-115.5 -278.5z M227 247q0 103 71.5 173t181.5 70q29 0 59 -8.5t48 -21.5l22 37l29 -1l4 -181h-25q-19 55 -51 98t-105 43q-52 0 -92.5 -47t-40.5 -157q0 -88 45.5 -139.5t112.5 -51.5q61 0 94 31t53 74l24 -11q-24 -53 -67 -97.5t-124 -44.5q-107 0 -173 63.5t-66 170.5z" />
<glyph unicode="&#xaa;" horiz-adv-x="490" d="M65 155l12 43h296l-12 -43h-296zM105 395q0 31 11.5 65.5t40.5 75.5q24 34 64 59t86 25q23 0 40.5 -9.5t26.5 -32.5l13 38h68l-77 -225q-4 -10 -7 -27.5t-3 -22.5q0 -15 6 -20t14 -5q14 0 31.5 20t33.5 66l26 -8q-24 -54 -41.5 -82.5t-62.5 -28.5q-32 0 -48 14.5 t-19 43.5h-4q-26 -31 -45 -45.5t-54 -14.5q-37 0 -68.5 21.5t-31.5 92.5zM180 378q0 -33 12.5 -47t29.5 -14q20 0 44.5 17.5t37.5 42.5l53 170q-6 26 -17 35.5t-36 9.5q-51 0 -87.5 -78t-36.5 -136z" />
<glyph unicode="&#xab;" horiz-adv-x="560" d="M45 205l6 24q2 8 7 15.5t11 12.5q33 22 103 66.5t162 108.5l16 -17l-215 -198l106 -190l-19 -12q-42 43 -89.5 92.5t-72.5 74.5q-11 10 -13 14t-2 9zM254 205l6 24q2 8 7 15.5t11 12.5q33 22 103 66.5t162 108.5l16 -17l-215 -198l106 -190l-19 -12q-42 43 -89.5 92.5 t-72.5 74.5q-11 10 -13 14t-2 9z" />
<glyph unicode="&#xac;" horiz-adv-x="655" d="M24 317q0 125 89 214t214 89t214 -89t89 -214t-89 -214t-214 -89t-214 89t-89 214zM30 317q0 -122 87.5 -209.5t209.5 -87.5q39 0 60 10t21 28q0 27 -40.5 89t-40.5 170t40.5 172t40.5 87q0 18 -21 28t-60 10q-122 0 -209.5 -87.5t-87.5 -209.5z" />
<glyph unicode="&#xad;" horiz-adv-x="344" d="M31 211l21 73h265l-21 -73h-265z" />
<glyph unicode="&#xae;" horiz-adv-x="630" d="M111 443q0 106 77.5 183t184.5 77q106 0 184 -77t78 -183t-78 -183.5t-184 -77.5q-108 0 -185 77.5t-77 183.5zM139 443q0 -97 68.5 -167t165.5 -70q96 0 165 70t69 167q0 96 -69 166t-165 70q-97 0 -165.5 -70t-68.5 -166zM241 306v20q7 0 18 1t15 3q7 3 9 7t2 11v207 q0 7 -2 11.5t-9 6.5q-5 2 -15 3.5t-18 2.5v20h150q34 0 62 -16t28 -53q0 -36 -25.5 -51.5t-55.5 -24.5q22 -4 41.5 -16.5t29.5 -36.5q4 -10 10 -28t7 -22q4 -13 11 -17t14 -5q5 -1 12 -2t16 -1v-20h-97q-5 20 -11 43t-14 42q-8 21 -26.5 36.5t-38.5 15.5h-19v-95 q0 -5 2 -10.5t9 -7.5q4 -1 15 -2.5t19 -1.5v-20h-139zM335 466h24q28 0 46.5 15.5t18.5 44.5q0 27 -16.5 39t-38.5 12h-34v-111z" />
<glyph unicode="&#xaf;" horiz-adv-x="655" d="M24 317q0 125 89 214t214 89t214 -89t89 -214t-89 -214t-214 -89t-214 89t-89 214zM30 317q0 -122 87.5 -209.5t209.5 -87.5q39 0 60 10t21 28q0 27 -40.5 89t-40.5 170t40.5 172t40.5 87q0 18 -21 28t-60 10q-122 0 -209.5 -87.5t-87.5 -209.5z" />
<glyph unicode="&#xb0;" horiz-adv-x="387" d="M84 544q0 70 49.5 118t116.5 48q56 0 105 -40t49 -110t-49.5 -118t-116.5 -48q-56 0 -105 40t-49 110zM154 534q0 -47 24 -73t61 -26q40 0 67.5 38t27.5 97q0 47 -24 73t-61 26q-40 0 -67.5 -38t-27.5 -97z" />
<glyph unicode="&#xb1;" horiz-adv-x="580" d="M49 19h482v52h-214v163h214v52h-214v215h-54v-215h-214v-52h214v-163h-214v-52z" />
<glyph unicode="&#xb4;" horiz-adv-x="500" d="M213 543q47 53 77 84.5t53 57.5q22 24 38 35t36 11q16 0 25 -10t9 -22q0 -20 -15 -35.5t-37 -29.5q-28 -19 -63.5 -41.5t-106.5 -68.5z" />
<glyph unicode="&#xb5;" horiz-adv-x="655" d="M24 317q0 125 89 214t214 89t214 -89t89 -214t-89 -214t-214 -89t-214 89t-89 214zM30 317q0 -122 87.5 -209.5t209.5 -87.5q39 0 60 10t21 28q0 27 -40.5 89t-40.5 170t40.5 172t40.5 87q0 18 -21 28t-60 10q-122 0 -209.5 -87.5t-87.5 -209.5z" />
<glyph unicode="&#xb6;" horiz-adv-x="609" d="M99 492q0 68 59.5 129.5t175.5 61.5h359l-8 -32h-137l-193 -776h-38l193 776h-86l-193 -776h-38l116 467h-5q-96 0 -150.5 41t-54.5 109z" />
<glyph unicode="&#xb7;" horiz-adv-x="655" d="M24 317q0 125 89 214t214 89t214 -89t89 -214t-89 -214t-214 -89t-214 89t-89 214zM30 317q0 -122 87.5 -209.5t209.5 -87.5q39 0 60 10t21 28q0 27 -40.5 89t-40.5 170t40.5 172t40.5 87q0 18 -21 28t-60 10q-122 0 -209.5 -87.5t-87.5 -209.5z" />
<glyph unicode="&#xb8;" horiz-adv-x="500" d="M25 -232l9 32q78 2 113 11t35 41q0 20 -20 27.5t-59 7.5l41 121h30l-21 -64q47 0 77 -14.5t30 -52.5q0 -58 -64 -83.5t-171 -25.5z" />
<glyph unicode="&#xba;" horiz-adv-x="447" d="M70 155l12 43h296l-12 -43h-296zM110 407q0 31 11 64t40 71q25 32 63.5 55t87.5 23q36 0 71 -29t35 -97q0 -26 -13.5 -65.5t-36.5 -69.5q-30 -37 -61.5 -57.5t-89.5 -20.5q-35 0 -71 29t-36 97zM183 393q0 -40 13 -61.5t33 -21.5q57 0 87 71.5t30 129.5q0 42 -13.5 61.5 t-31.5 19.5q-53 0 -85.5 -71t-32.5 -128z" />
<glyph unicode="&#xbb;" horiz-adv-x="560" d="M5 32l215 198l-106 190l19 12q41 -42 89.5 -92.5t72.5 -74.5q11 -10 13 -14t2 -9q-1 -9 -2.5 -15t-3.5 -9q-2 -7 -7 -16t-11 -12q-35 -22 -106 -68.5t-159 -106.5zM214 32l215 198l-106 190l19 12q41 -42 89.5 -92.5t72.5 -74.5q11 -10 13 -14t2 -9q-1 -9 -2.5 -15 t-3.5 -9q-2 -7 -7 -16t-11 -12q-35 -22 -106 -68.5t-159 -106.5z" />
<glyph unicode="&#xbf;" horiz-adv-x="439" d="M6 145q0 52 24 93t107 78q67 31 116.5 55.5t49.5 77.5q0 27 -15 35t-32 8q-26 0 -44 -18.5t-32 -51.5l-29 13q14 43 48 65.5t60 22.5q39 0 67 -24.5t28 -75.5t-37 -87t-112 -71q-74 -35 -98 -68.5t-24 -79.5q0 -35 25.5 -64t88.5 -29q48 0 74.5 26.5t26.5 64.5q0 4 -1 7 l-2 6h-5q-9 -16 -19.5 -26.5t-31.5 -10.5q-19 0 -30.5 12t-11.5 30q0 24 20 42t44 18q27 0 48 -22.5t21 -62.5q0 -48 -43 -84t-109 -36q-79 0 -125.5 45t-46.5 112zM260 635q0 26 18.5 43.5t44.5 17.5t44.5 -17.5t18.5 -43.5t-18.5 -44t-44.5 -18t-44.5 18t-18.5 44z" />
<glyph unicode="&#xc0;" d="M-121 0l9 31q10 1 34 6.5t41 13.5q20 10 41 27.5t47 50.5q85 108 216 276t223 289h36v-595q0 -24 3.5 -35.5t19.5 -19.5q11 -6 32 -9.5t32 -3.5l-9 -31h-292l9 31q24 2 42.5 4.5t33.5 8.5q19 8 25.5 21.5t6.5 30.5v164h-222q-35 -45 -55 -72.5t-35 -48.5q-14 -20 -25 -37 t-11 -24q0 -22 37 -34t57 -13l-9 -31h-287zM238 300h191v249zM379 895q0 17 9 27.5t27 10.5q21 0 33.5 -13t23.5 -38q11 -24 30.5 -61.5t39.5 -77.5l-20 -16q-47 48 -71.5 72t-39.5 39t-23.5 28.5t-8.5 28.5z" />
<glyph unicode="&#xc1;" d="M-121 0l9 31q10 1 34 6.5t41 13.5q20 10 41 27.5t47 50.5q85 108 216 276t223 289h36v-595q0 -24 3.5 -35.5t19.5 -19.5q11 -6 32 -9.5t32 -3.5l-9 -31h-292l9 31q24 2 42.5 4.5t33.5 8.5q19 8 25.5 21.5t6.5 30.5v164h-222q-35 -45 -55 -72.5t-35 -48.5q-14 -20 -25 -37 t-11 -24q0 -22 37 -34t57 -13l-9 -31h-287zM238 300h191v249zM443 734q47 53 77 84.5t53 57.5q22 24 38 35t36 11q16 0 25 -10t9 -22q0 -20 -15 -35.5t-37 -29.5q-28 -19 -63.5 -41.5t-106.5 -68.5z" />
<glyph unicode="&#xc2;" d="M-121 0l9 31q10 1 34 6.5t41 13.5q20 10 41 27.5t47 50.5q85 108 216 276t223 289h36v-595q0 -24 3.5 -35.5t19.5 -19.5q11 -6 32 -9.5t32 -3.5l-9 -31h-292l9 31q24 2 42.5 4.5t33.5 8.5q19 8 25.5 21.5t6.5 30.5v164h-222q-35 -45 -55 -72.5t-35 -48.5q-14 -20 -25 -37 t-11 -24q0 -22 37 -34t57 -13l-9 -31h-287zM238 300h191v249zM346 709q45 48 88 92t66 71q12 14 20 18t30 4q21 0 26 -5t9 -15q11 -25 30 -69.5t42 -99.5l-23 -14l-95 133l-176 -133z" />
<glyph unicode="&#xc3;" d="M-121 0l9 31q10 1 34 6.5t41 13.5q20 10 41 27.5t47 50.5q85 108 216 276t223 289h36v-595q0 -24 3.5 -35.5t19.5 -19.5q11 -6 32 -9.5t32 -3.5l-9 -31h-292l9 31q24 2 42.5 4.5t33.5 8.5q19 8 25.5 21.5t6.5 30.5v164h-222q-35 -45 -55 -72.5t-35 -48.5q-14 -20 -25 -37 t-11 -24q0 -22 37 -34t57 -13l-9 -31h-287zM238 300h191v249zM332 737q19 33 59.5 76t82.5 43q28 0 49 -10.5t33 -18.5q16 -10 33 -19t35 -9q36 0 55 21.5t38 50.5l25 -15q-21 -33 -59 -76t-84 -43q-23 0 -44.5 9t-37.5 19q-18 12 -34 20.5t-34 8.5q-37 0 -54 -20.5 t-39 -51.5z" />
<glyph unicode="&#xc4;" d="M-121 0l9 31q10 1 34 6.5t41 13.5q20 10 41 27.5t47 50.5q85 108 216 276t223 289h36v-595q0 -24 3.5 -35.5t19.5 -19.5q11 -6 32 -9.5t32 -3.5l-9 -31h-292l9 31q24 2 42.5 4.5t33.5 8.5q19 8 25.5 21.5t6.5 30.5v164h-222q-35 -45 -55 -72.5t-35 -48.5q-14 -20 -25 -37 t-11 -24q0 -22 37 -34t57 -13l-9 -31h-287zM238 300h191v249zM363 800q0 28 19 47t49 19q20 0 33.5 -16t13.5 -35q0 -27 -16.5 -47t-48.5 -20q-24 0 -37 15.5t-13 36.5zM576 800q0 28 19.5 47t49.5 19q20 0 33 -16t13 -35q0 -27 -16 -47t-48 -20q-24 0 -37.5 15.5 t-13.5 36.5z" />
<glyph unicode="&#xc5;" d="M-119 0l9 31q10 1 34 6.5t41 13.5q20 10 40 27.5t46 50.5q85 108 216 276t223 289h36v-595q0 -24 3.5 -35.5t19.5 -19.5q11 -6 32 -9.5t32 -3.5l-9 -31h-292l9 31q24 2 42.5 4.5t33.5 8.5q19 8 25.5 21.5t6.5 30.5v164h-222q-35 -45 -55 -72.5t-35 -48.5q-14 -20 -25 -37 t-11 -24q0 -22 37 -34t57 -13l-9 -31h-285zM238 300h191v249zM424 825q0 44 31 75t81 31q47 0 80.5 -30.5t33.5 -74.5q0 -45 -31.5 -75t-78.5 -30q-48 0 -82 28t-34 76zM476 817q0 -30 16 -48t42 -18q30 0 47 27t17 57t-16 48t-42 18q-27 0 -45.5 -24t-18.5 -60z" />
<glyph unicode="&#xc6;" horiz-adv-x="971" d="M-114 0l9 32q13 1 39.5 6.5t39.5 12.5q25 12 45.5 29t45.5 47q88 103 215.5 250.5t221.5 261.5q-13 5 -35.5 8t-38.5 4l8 32h570l-46 -166h-31v8q0 43 -18 77.5t-52 39.5q-13 2 -35.5 3t-42.5 1h-105l-77 -274h75q39 0 62.5 11.5t32.5 20.5q14 12 31 42t24 49h32 l-80 -288h-30q1 8 2 19t1 26t-2.5 31t-5.5 21q-8 11 -18.5 21t-57.5 10h-75l-58 -206q-4 -13 -7 -27t-3 -21q0 -26 22.5 -35t78.5 -9q50 0 95 3.5t66 20.5q33 27 70.5 74.5t46.5 66.5h31l-68 -202h-577l10 31q10 0 40 3.5t44 8.5q19 7 29 19.5t14 30.5l46 167h-233 q-28 -32 -53.5 -64t-48.5 -59q-13 -15 -25.5 -33t-12.5 -28q0 -19 29.5 -30.5t60.5 -13.5l-9 -32h-292zM271 300h210l90 340h-13z" />
<glyph unicode="&#xc7;" horiz-adv-x="632" d="M50 246q0 186 126.5 318t272.5 132q55 0 87.5 -15t61.5 -39l41 51h41l-48 -247h-31q-11 112 -50.5 161.5t-118.5 49.5q-98 0 -184.5 -115t-86.5 -278q0 -104 47 -165.5t140 -61.5q73 0 123.5 42t97.5 113l31 -19q-23 -35 -50 -69.5t-62 -59.5q-37 -27 -78 -43t-102 -16 q-123 0 -190.5 71.5t-67.5 189.5zM151 -232l9 32q78 2 113 11t35 41q0 20 -20 27.5t-59 7.5l41 121h30l-21 -64q47 0 77 -14.5t30 -52.5q0 -58 -64 -83.5t-171 -25.5z" />
<glyph unicode="&#xc8;" d="M-40 0l10 31q10 0 40 3.5t44 8.5q19 7 29 19.5t14 30.5l135 490l2.5 12.5t1.5 11.5q0 10 -3 15t-17 12q-14 6 -37 11t-38 6l10 32h528l-46 -166h-31v8q0 43 -18 77.5t-52 39.5q-13 2 -35.5 3t-42.5 1h-105l-77 -274h75q39 0 62.5 11.5t32.5 20.5q14 12 31 42t24 49h32 l-80 -288h-30q1 8 2 19t1 26t-2.5 31t-5.5 21q-8 11 -18.5 21t-57.5 10h-75l-58 -206q-4 -13 -7 -27t-3 -21q0 -26 22.5 -35t78.5 -9q50 0 95 3.5t66 20.5q33 27 70.5 74.5t46.5 66.5h31l-68 -202h-577zM330 884q0 17 9 27.5t27 10.5q21 0 33.5 -13t23.5 -38 q11 -24 30.5 -61.5t39.5 -77.5l-20 -16q-47 48 -71.5 72t-39.5 39t-23.5 28.5t-8.5 28.5z" />
<glyph unicode="&#xc9;" d="M-40 0l10 31q10 0 40 3.5t44 8.5q19 7 29 19.5t14 30.5l135 490l2.5 12.5t1.5 11.5q0 10 -3 15t-17 12q-14 6 -37 11t-38 6l10 32h528l-46 -166h-31v8q0 43 -18 77.5t-52 39.5q-13 2 -35.5 3t-42.5 1h-105l-77 -274h75q39 0 62.5 11.5t32.5 20.5q14 12 31 42t24 49h32 l-80 -288h-30q1 8 2 19t1 26t-2.5 31t-5.5 21q-8 11 -18.5 21t-57.5 10h-75l-58 -206q-4 -13 -7 -27t-3 -21q0 -26 22.5 -35t78.5 -9q50 0 95 3.5t66 20.5q33 27 70.5 74.5t46.5 66.5h31l-68 -202h-577zM393 734q47 53 77 84.5t53 57.5q22 24 38 35t36 11q16 0 25 -10t9 -22 q0 -20 -15 -35.5t-37 -29.5q-28 -19 -63.5 -41.5t-106.5 -68.5z" />
<glyph unicode="&#xca;" d="M-40 0l10 31q10 0 40 3.5t44 8.5q19 7 29 19.5t14 30.5l135 490l2.5 12.5t1.5 11.5q0 10 -3 15t-17 12q-14 6 -37 11t-38 6l10 32h528l-46 -166h-31v8q0 43 -18 77.5t-52 39.5q-13 2 -35.5 3t-42.5 1h-105l-77 -274h75q39 0 62.5 11.5t32.5 20.5q14 12 31 42t24 49h32 l-80 -288h-30q1 8 2 19t1 26t-2.5 31t-5.5 21q-8 11 -18.5 21t-57.5 10h-75l-58 -206q-4 -13 -7 -27t-3 -21q0 -26 22.5 -35t78.5 -9q50 0 95 3.5t66 20.5q33 27 70.5 74.5t46.5 66.5h31l-68 -202h-577zM295 739q45 48 88 92t66 71q12 14 20 18t30 4q21 0 26 -5t9 -15 q11 -25 30 -69.5t42 -99.5l-23 -14l-95 133l-176 -133z" />
<glyph unicode="&#xcb;" d="M-40 0l10 31q10 0 40 3.5t44 8.5q19 7 29 19.5t14 30.5l135 490l2.5 12.5t1.5 11.5q0 10 -3 15t-17 12q-14 6 -37 11t-38 6l10 32h528l-46 -166h-31v8q0 43 -18 77.5t-52 39.5q-13 2 -35.5 3t-42.5 1h-105l-77 -274h75q39 0 62.5 11.5t32.5 20.5q14 12 31 42t24 49h32 l-80 -288h-30q1 8 2 19t1 26t-2.5 31t-5.5 21q-8 11 -18.5 21t-57.5 10h-75l-58 -206q-4 -13 -7 -27t-3 -21q0 -26 22.5 -35t78.5 -9q50 0 95 3.5t66 20.5q33 27 70.5 74.5t46.5 66.5h31l-68 -202h-577zM299 800q0 28 19 47t49 19q20 0 33.5 -16t13.5 -35q0 -27 -16.5 -47 t-48.5 -20q-24 0 -37 15.5t-13 36.5zM512 800q0 28 19.5 47t49.5 19q20 0 33 -16t13 -35q0 -27 -16 -47t-48 -20q-24 0 -37.5 15.5t-13.5 36.5z" />
<glyph unicode="&#xcc;" horiz-adv-x="392" d="M-28 0l8 31q13 1 38 3.5t37 6.5q18 7 28 19t15 30l137 494q1 5 2.5 12t1.5 11q0 10 -5 16t-15 11q-12 5 -33.5 10.5t-33.5 6.5l9 32h306l-9 -32q-13 0 -39 -4.5t-39 -7.5q-21 -6 -30.5 -21t-13.5 -29l-138 -495q-2 -7 -2.5 -12t-0.5 -8q0 -11 4 -16.5t17 -11.5 q8 -4 31 -9.5t38 -5.5l-8 -31h-305zM192 884q0 17 9 27.5t27 10.5q21 0 33.5 -13t23.5 -38q11 -24 30.5 -61.5t39.5 -77.5l-20 -16q-47 48 -71.5 72t-39.5 39t-23.5 28.5t-8.5 28.5z" />
<glyph unicode="&#xcd;" horiz-adv-x="392" d="M-28 0l8 31q13 1 38 3.5t37 6.5q18 7 28 19t15 30l137 494q1 5 2.5 12t1.5 11q0 10 -5 16t-15 11q-12 5 -33.5 10.5t-33.5 6.5l9 32h306l-9 -32q-13 0 -39 -4.5t-39 -7.5q-21 -6 -30.5 -21t-13.5 -29l-138 -495q-2 -7 -2.5 -12t-0.5 -8q0 -11 4 -16.5t17 -11.5 q8 -4 31 -9.5t38 -5.5l-8 -31h-305zM285 734q47 53 77 84.5t53 57.5q22 24 38 35t36 11q16 0 25 -10t9 -22q0 -20 -15 -35.5t-37 -29.5q-28 -19 -63.5 -41.5t-106.5 -68.5z" />
<glyph unicode="&#xce;" horiz-adv-x="392" d="M-28 0l8 31q13 1 38 3.5t37 6.5q18 7 28 19t15 30l137 494q1 5 2.5 12t1.5 11q0 10 -5 16t-15 11q-12 5 -33.5 10.5t-33.5 6.5l9 32h306l-9 -32q-13 0 -39 -4.5t-39 -7.5q-21 -6 -30.5 -21t-13.5 -29l-138 -495q-2 -7 -2.5 -12t-0.5 -8q0 -11 4 -16.5t17 -11.5 q8 -4 31 -9.5t38 -5.5l-8 -31h-305zM171 739q45 48 88 92t66 71q12 14 20 18t30 4q21 0 26 -5t9 -15q11 -25 30 -69.5t42 -99.5l-23 -14l-95 133l-176 -133z" />
<glyph unicode="&#xcf;" horiz-adv-x="392" d="M-28 0l8 31q13 1 38 3.5t37 6.5q18 7 28 19t15 30l137 494q1 5 2.5 12t1.5 11q0 10 -5 16t-15 11q-12 5 -33.5 10.5t-33.5 6.5l9 32h306l-9 -32q-13 0 -39 -4.5t-39 -7.5q-21 -6 -30.5 -21t-13.5 -29l-138 -495q-2 -7 -2.5 -12t-0.5 -8q0 -11 4 -16.5t17 -11.5 q8 -4 31 -9.5t38 -5.5l-8 -31h-305zM181 800q0 28 19 47t49 19q20 0 33.5 -16t13.5 -35q0 -27 -16.5 -47t-48.5 -20q-24 0 -37 15.5t-13 36.5zM394 800q0 28 19.5 47t49.5 19q20 0 33 -16t13 -35q0 -27 -16 -47t-48 -20q-24 0 -37.5 15.5t-13.5 36.5z" />
<glyph unicode="&#xd1;" horiz-adv-x="751" d="M-53 0l9 31q19 1 53 9.5t47 17.5q20 13 37 44.5t33 92.5l88 333q1 5 2.5 14.5t1.5 19.5q0 15 -4.5 30t-14.5 25q-15 15 -37 23.5t-64 10.5l10 32h206l231 -538l89 342q7 28 11.5 51t4.5 42q0 16 -3.5 26t-10.5 16q-13 10 -45 19.5t-49 10.5l9 31h307l-9 -31 q-14 0 -46.5 -7t-52.5 -18q-26 -14 -41.5 -52.5t-27.5 -81.5l-133 -500h-43l-240 560l-92 -353q-6 -21 -11 -51.5t-5 -40.5q0 -18 3 -28t10 -17q12 -12 46 -22t49 -10l-9 -31h-309zM314 747q19 33 59.5 76t82.5 43q28 0 49 -10.5t33 -18.5q16 -10 33 -19t35 -9q36 0 55 21.5 t38 50.5l25 -15q-21 -33 -59 -76t-84 -43q-23 0 -44.5 9t-37.5 19q-18 12 -34 20.5t-34 8.5q-37 0 -54 -20.5t-39 -51.5z" />
<glyph unicode="&#xd2;" horiz-adv-x="724" d="M54 257q0 97 33.5 180.5t110.5 156.5q54 51 120 77.5t133 26.5q55 0 100.5 -16.5t82.5 -54.5q34 -35 56.5 -82t22.5 -115q0 -92 -37 -189t-112 -161q-57 -48 -115 -72t-136 -24q-55 0 -96.5 16.5t-77.5 51.5q-37 36 -61 88.5t-24 116.5zM161 230q0 -93 39 -149.5 t125 -56.5q55 0 102 26.5t81 74.5q46 66 72 149.5t26 176.5q0 91 -36 149t-127 58q-58 0 -108.5 -31t-86.5 -88q-39 -61 -63 -141.5t-24 -167.5zM332 884q0 17 9 27.5t27 10.5q21 0 33.5 -13t23.5 -38q11 -24 30.5 -61.5t39.5 -77.5l-20 -16q-47 48 -71.5 72t-39.5 39 t-23.5 28.5t-8.5 28.5z" />
<glyph unicode="&#xd3;" horiz-adv-x="724" d="M54 257q0 97 33.5 180.5t110.5 156.5q54 51 120 77.5t133 26.5q55 0 100.5 -16.5t82.5 -54.5q34 -35 56.5 -82t22.5 -115q0 -92 -37 -189t-112 -161q-57 -48 -115 -72t-136 -24q-55 0 -96.5 16.5t-77.5 51.5q-37 36 -61 88.5t-24 116.5zM161 230q0 -93 39 -149.5 t125 -56.5q55 0 102 26.5t81 74.5q46 66 72 149.5t26 176.5q0 91 -36 149t-127 58q-58 0 -108.5 -31t-86.5 -88q-39 -61 -63 -141.5t-24 -167.5zM400 734q47 53 77 84.5t53 57.5q22 24 38 35t36 11q16 0 25 -10t9 -22q0 -20 -15 -35.5t-37 -29.5q-28 -19 -63.5 -41.5 t-106.5 -68.5z" />
<glyph unicode="&#xd4;" horiz-adv-x="724" d="M54 257q0 97 33.5 180.5t110.5 156.5q54 51 120 77.5t133 26.5q55 0 100.5 -16.5t82.5 -54.5q34 -35 56.5 -82t22.5 -115q0 -92 -37 -189t-112 -161q-57 -48 -115 -72t-136 -24q-55 0 -96.5 16.5t-77.5 51.5q-37 36 -61 88.5t-24 116.5zM161 230q0 -93 39 -149.5 t125 -56.5q55 0 102 26.5t81 74.5q46 66 72 149.5t26 176.5q0 91 -36 149t-127 58q-58 0 -108.5 -31t-86.5 -88q-39 -61 -63 -141.5t-24 -167.5zM303 739q45 48 88 92t66 71q12 14 20 18t30 4q21 0 26 -5t9 -15q11 -25 30 -69.5t42 -99.5l-23 -14l-95 133l-176 -133z" />
<glyph unicode="&#xd5;" horiz-adv-x="724" d="M54 257q0 97 33.5 180.5t110.5 156.5q54 51 120 77.5t133 26.5q55 0 100.5 -16.5t82.5 -54.5q34 -35 56.5 -82t22.5 -115q0 -92 -37 -189t-112 -161q-57 -48 -115 -72t-136 -24q-55 0 -96.5 16.5t-77.5 51.5q-37 36 -61 88.5t-24 116.5zM161 230q0 -93 39 -149.5 t125 -56.5q55 0 102 26.5t81 74.5q46 66 72 149.5t26 176.5q0 91 -36 149t-127 58q-58 0 -108.5 -31t-86.5 -88q-39 -61 -63 -141.5t-24 -167.5zM292 752q19 33 59.5 76t82.5 43q28 0 49 -10.5t33 -18.5q16 -10 33 -19t35 -9q36 0 55 21.5t38 50.5l25 -15q-21 -33 -59 -76 t-84 -43q-23 0 -44.5 9t-37.5 19q-18 12 -34 20.5t-34 8.5q-37 0 -54 -20.5t-39 -51.5z" />
<glyph unicode="&#xd6;" horiz-adv-x="724" d="M54 257q0 97 33.5 180.5t110.5 156.5q54 51 120 77.5t133 26.5q55 0 100.5 -16.5t82.5 -54.5q34 -35 56.5 -82t22.5 -115q0 -92 -37 -189t-112 -161q-57 -48 -115 -72t-136 -24q-55 0 -96.5 16.5t-77.5 51.5q-37 36 -61 88.5t-24 116.5zM161 230q0 -93 39 -149.5 t125 -56.5q55 0 102 26.5t81 74.5q46 66 72 149.5t26 176.5q0 91 -36 149t-127 58q-58 0 -108.5 -31t-86.5 -88q-39 -61 -63 -141.5t-24 -167.5zM322 800q0 28 19 47t49 19q20 0 33.5 -16t13.5 -35q0 -27 -16.5 -47t-48.5 -20q-24 0 -37 15.5t-13 36.5zM535 800 q0 28 19.5 47t49.5 19q20 0 33 -16t13 -35q0 -27 -16 -47t-48 -20q-24 0 -37.5 15.5t-13.5 36.5z" />
<glyph unicode="&#xd8;" horiz-adv-x="724" d="M-39 -15l133 124q-19 31 -29.5 68.5t-10.5 79.5q0 97 33.5 180.5t110.5 156.5q54 51 120 77.5t133 26.5q55 0 100.5 -16.5t82.5 -54.5l5 -5l112 105l29 -28l-116 -108q22 -33 35.5 -71t13.5 -90q0 -92 -37 -189t-112 -161q-57 -48 -115 -72t-136 -24q-55 0 -96.5 16.5 t-77.5 51.5q-6 6 -11 11.5t-12 13.5l-127 -119zM160 230q0 -16 1 -28t3 -27l422 397q-17 40 -52.5 63t-90.5 23q-58 0 -109 -31t-87 -88q-39 -61 -63 -141.5t-24 -167.5zM174 131q17 -52 51.5 -79.5t99.5 -27.5q55 0 102.5 26.5t81.5 74.5q46 66 72 149.5t26 176.5 q0 19 -2 42t-6 37z" />
<glyph unicode="&#xd9;" horiz-adv-x="801" d="M116 142q0 24 3 44.5t11 50.5l96 347q1 5 2.5 12t1.5 11q0 10 -5 16t-15 11q-12 5 -33.5 10.5t-33.5 6.5l9 32h306l-9 -32q-13 0 -39 -4.5t-39 -7.5q-21 -6 -30.5 -21t-13.5 -29l-92 -332q-10 -34 -14.5 -64t-4.5 -53q0 -55 32 -84t109 -29q92 0 151.5 55t87.5 153 l72 253q8 32 12 52t4 40q0 16 -3.5 26t-10.5 16q-13 10 -45 19.5t-49 10.5l9 31h307l-9 -31q-14 0 -46.5 -7t-52.5 -18q-26 -14 -41 -51.5t-28 -81.5l-73 -256q-37 -127 -110.5 -190.5t-204.5 -63.5q-111 0 -161 41.5t-50 116.5zM376 884q0 17 9 27.5t27 10.5q21 0 33.5 -13 t23.5 -38q11 -24 30.5 -61.5t39.5 -77.5l-20 -16q-47 48 -71.5 72t-39.5 39t-23.5 28.5t-8.5 28.5z" />
<glyph unicode="&#xda;" horiz-adv-x="801" d="M116 142q0 24 3 44.5t11 50.5l96 347q1 5 2.5 12t1.5 11q0 10 -5 16t-15 11q-12 5 -33.5 10.5t-33.5 6.5l9 32h306l-9 -32q-13 0 -39 -4.5t-39 -7.5q-21 -6 -30.5 -21t-13.5 -29l-92 -332q-10 -34 -14.5 -64t-4.5 -53q0 -55 32 -84t109 -29q92 0 151.5 55t87.5 153 l72 253q8 32 12 52t4 40q0 16 -3.5 26t-10.5 16q-13 10 -45 19.5t-49 10.5l9 31h307l-9 -31q-14 0 -46.5 -7t-52.5 -18q-26 -14 -41 -51.5t-28 -81.5l-73 -256q-37 -127 -110.5 -190.5t-204.5 -63.5q-111 0 -161 41.5t-50 116.5zM493 734q47 53 77 84.5t53 57.5q22 24 38 35 t36 11q16 0 25 -10t9 -22q0 -20 -15 -35.5t-37 -29.5q-28 -19 -63.5 -41.5t-106.5 -68.5z" />
<glyph unicode="&#xdb;" horiz-adv-x="801" d="M116 142q0 24 3 44.5t11 50.5l96 347q1 5 2.5 12t1.5 11q0 10 -5 16t-15 11q-12 5 -33.5 10.5t-33.5 6.5l9 32h306l-9 -32q-13 0 -39 -4.5t-39 -7.5q-21 -6 -30.5 -21t-13.5 -29l-92 -332q-10 -34 -14.5 -64t-4.5 -53q0 -55 32 -84t109 -29q92 0 151.5 55t87.5 153 l72 253q8 32 12 52t4 40q0 16 -3.5 26t-10.5 16q-13 10 -45 19.5t-49 10.5l9 31h307l-9 -31q-14 0 -46.5 -7t-52.5 -18q-26 -14 -41 -51.5t-28 -81.5l-73 -256q-37 -127 -110.5 -190.5t-204.5 -63.5q-111 0 -161 41.5t-50 116.5zM378 739q45 48 88 92t66 71q12 14 20 18 t30 4q21 0 26 -5t9 -15q11 -25 30 -69.5t42 -99.5l-23 -14l-95 133l-176 -133z" />
<glyph unicode="&#xdc;" horiz-adv-x="801" d="M116 142q0 24 3 44.5t11 50.5l96 347q1 5 2.5 12t1.5 11q0 10 -5 16t-15 11q-12 5 -33.5 10.5t-33.5 6.5l9 32h306l-9 -32q-13 0 -39 -4.5t-39 -7.5q-21 -6 -30.5 -21t-13.5 -29l-92 -332q-10 -34 -14.5 -64t-4.5 -53q0 -55 32 -84t109 -29q92 0 151.5 55t87.5 153 l72 253q8 32 12 52t4 40q0 16 -3.5 26t-10.5 16q-13 10 -45 19.5t-49 10.5l9 31h307l-9 -31q-14 0 -46.5 -7t-52.5 -18q-26 -14 -41 -51.5t-28 -81.5l-73 -256q-37 -127 -110.5 -190.5t-204.5 -63.5q-111 0 -161 41.5t-50 116.5zM384 800q0 28 19 47t49 19q20 0 33.5 -16 t13.5 -35q0 -27 -16.5 -47t-48.5 -20q-24 0 -37 15.5t-13 36.5zM597 800q0 28 19.5 47t49.5 19q20 0 33 -16t13 -35q0 -27 -16 -47t-48 -20q-24 0 -37.5 15.5t-13.5 36.5z" />
<glyph unicode="&#xdf;" horiz-adv-x="552" d="M-229 -156q0 17 12.5 35.5t39.5 18.5q15 0 35 -10.5t20 -37.5q0 -15 -6.5 -26.5t-15.5 -21.5q0 -3 7.5 -5.5t12.5 -2.5q55 0 92 45t71 157q32 107 63.5 237.5t64.5 251.5q19 71 45 115t73 88q35 33 75.5 44t72.5 11q63 0 101.5 -34t38.5 -81q0 -26 -10 -66t-22 -60 q-63 -20 -94 -44t-31 -58q0 -32 13 -60.5t38 -65.5q20 -30 33.5 -52.5t13.5 -58.5q0 -43 -16.5 -78.5t-43.5 -57.5q-25 -20 -53.5 -30.5t-55.5 -10.5q-53 0 -85 28.5t-32 69.5q0 24 15 43t44 19q18 0 29.5 -9.5t11.5 -30.5q0 -26 -20 -33.5t-20 -22.5q0 -14 19 -25t45 -11 q37 0 59.5 21.5t22.5 66.5q0 40 -14.5 69.5t-30.5 53.5q-23 34 -35.5 62.5t-12.5 61.5q0 49 29.5 82t69.5 54q29 26 46.5 56t17.5 75q0 47 -23 72t-67 25q-47 0 -83 -47t-67 -151q-27 -92 -61.5 -235.5t-69.5 -255.5q-18 -57 -47 -111.5t-74 -90.5q-37 -31 -69 -44.5 t-71 -13.5q-59 0 -80 25t-21 55z" />
<glyph unicode="&#xe0;" horiz-adv-x="555" d="M26 144q0 44 16 93t57 109q35 52 88 88t119 36q32 0 58.5 -18t32.5 -55h3l23 66h90l-113 -325q-7 -17 -11.5 -41.5t-4.5 -36.5q0 -20 10.5 -27.5t24.5 -7.5q35 0 58.5 42.5t36.5 76.5l29 -10q-25 -61 -55.5 -103t-85.5 -42q-32 0 -62.5 15t-33.5 75q-33 -47 -63.5 -70 t-79.5 -23q-52 0 -94.5 31t-42.5 127zM123 128q0 -67 19 -82t39 -15q42 0 76 30t55 67l73 222q-9 46 -29 67t-56 21q-74 0 -125.5 -112t-51.5 -198zM215 693q0 17 9 27.5t27 10.5q21 0 33.5 -13t23.5 -38q11 -24 30.5 -61.5t39.5 -77.5l-20 -16q-47 48 -71.5 72t-39.5 39 t-23.5 28.5t-8.5 28.5z" />
<glyph unicode="&#xe1;" horiz-adv-x="555" d="M26 144q0 44 16 93t57 109q35 52 88 88t119 36q32 0 58.5 -18t32.5 -55h3l23 66h90l-113 -325q-7 -17 -11.5 -41.5t-4.5 -36.5q0 -20 10.5 -27.5t24.5 -7.5q35 0 58.5 42.5t36.5 76.5l29 -10q-25 -61 -55.5 -103t-85.5 -42q-32 0 -62.5 15t-33.5 75q-33 -47 -63.5 -70 t-79.5 -23q-52 0 -94.5 31t-42.5 127zM123 128q0 -67 19 -82t39 -15q42 0 76 30t55 67l73 222q-9 46 -29 67t-56 21q-74 0 -125.5 -112t-51.5 -198zM270 543q47 53 77 84.5t53 57.5q22 24 38 35t36 11q16 0 25 -10t9 -22q0 -20 -15 -35.5t-37 -29.5q-28 -19 -63.5 -41.5 t-106.5 -68.5z" />
<glyph unicode="&#xe2;" horiz-adv-x="555" d="M26 144q0 44 16 93t57 109q35 52 88 88t119 36q32 0 58.5 -18t32.5 -55h3l23 66h90l-113 -325q-7 -17 -11.5 -41.5t-4.5 -36.5q0 -20 10.5 -27.5t24.5 -7.5q35 0 58.5 42.5t36.5 76.5l29 -10q-25 -61 -55.5 -103t-85.5 -42q-32 0 -62.5 15t-33.5 75q-33 -47 -63.5 -70 t-79.5 -23q-52 0 -94.5 31t-42.5 127zM123 128q0 -67 19 -82t39 -15q42 0 76 30t55 67l73 222q-9 46 -29 67t-56 21q-74 0 -125.5 -112t-51.5 -198zM183 548q45 48 88 92t66 71q12 14 20 18t30 4q21 0 26 -5t9 -15q11 -25 30 -69.5t42 -99.5l-23 -14l-95 133l-176 -133z" />
<glyph unicode="&#xe3;" horiz-adv-x="555" d="M26 144q0 44 16 93t57 109q35 52 88 88t119 36q32 0 58.5 -18t32.5 -55h3l23 66h90l-113 -325q-7 -17 -11.5 -41.5t-4.5 -36.5q0 -20 10.5 -27.5t24.5 -7.5q35 0 58.5 42.5t36.5 76.5l29 -10q-25 -61 -55.5 -103t-85.5 -42q-32 0 -62.5 15t-33.5 75q-33 -47 -63.5 -70 t-79.5 -23q-52 0 -94.5 31t-42.5 127zM123 128q0 -67 19 -82t39 -15q42 0 76 30t55 67l73 222q-9 46 -29 67t-56 21q-74 0 -125.5 -112t-51.5 -198zM153 566q19 33 59.5 76t82.5 43q28 0 49 -10.5t33 -18.5q16 -10 33 -19t35 -9q36 0 55 21.5t38 50.5l25 -15 q-21 -33 -59 -76t-84 -43q-23 0 -44.5 9t-37.5 19q-18 12 -34 20.5t-34 8.5q-37 0 -54 -20.5t-39 -51.5z" />
<glyph unicode="&#xe4;" horiz-adv-x="555" d="M26 144q0 44 16 93t57 109q35 52 88 88t119 36q32 0 58.5 -18t32.5 -55h3l23 66h90l-113 -325q-7 -17 -11.5 -41.5t-4.5 -36.5q0 -20 10.5 -27.5t24.5 -7.5q35 0 58.5 42.5t36.5 76.5l29 -10q-25 -61 -55.5 -103t-85.5 -42q-32 0 -62.5 15t-33.5 75q-33 -47 -63.5 -70 t-79.5 -23q-52 0 -94.5 31t-42.5 127zM123 128q0 -67 19 -82t39 -15q42 0 76 30t55 67l73 222q-9 46 -29 67t-56 21q-74 0 -125.5 -112t-51.5 -198zM199 639q0 28 19 47t49 19q20 0 33.5 -16t13.5 -35q0 -27 -16.5 -47t-48.5 -20q-24 0 -37 15.5t-13 36.5zM412 639 q0 28 19.5 47t49.5 19q20 0 33 -16t13 -35q0 -27 -16 -47t-48 -20q-24 0 -37.5 15.5t-13.5 36.5z" />
<glyph unicode="&#xe5;" horiz-adv-x="555" d="M26 144q0 44 16 93t57 109q35 52 88 88t119 36q32 0 58.5 -18t32.5 -55h3l23 66h90l-113 -325q-7 -17 -11.5 -41.5t-4.5 -36.5q0 -20 10.5 -27.5t24.5 -7.5q35 0 58.5 42.5t36.5 76.5l29 -10q-25 -61 -55.5 -102t-85.5 -41q-32 0 -62.5 14t-33.5 74q-33 -47 -63.5 -69 t-79.5 -22q-52 0 -94.5 30t-42.5 126zM123 128q0 -67 19 -82t39 -15q42 0 76 30t55 67l73 222q-9 46 -29 67t-56 21q-74 0 -125.5 -112t-51.5 -198zM241 634q0 44 31 75t81 31q47 0 80.5 -30.5t33.5 -74.5q0 -45 -31.5 -75t-78.5 -30q-48 0 -82 28t-34 76zM293 626 q0 -30 16 -48t42 -18q30 0 47 27t17 57t-16 48t-42 18q-27 0 -45.5 -24t-18.5 -60z" />
<glyph unicode="&#xe6;" horiz-adv-x="700" d="M26 144q0 44 16 93t57 109q35 52 88 88t119 36q32 0 58.5 -18t32.5 -55h3l23 66h57l-18 -55q31 28 69.5 45t78.5 17q35 0 59 -16.5t24 -55.5q0 -45 -29 -79.5t-67 -54.5q-43 -24 -86.5 -37.5t-82.5 -18.5q-4 -15 -8 -41.5t-4 -44.5q0 -48 19 -70t58 -22q54 0 90.5 39 t61.5 89l30 -14q-46 -86 -97.5 -122t-102.5 -36t-90 24t-56 82h-5q-39 -55 -78 -80.5t-83 -25.5q-52 0 -94.5 31t-42.5 127zM123 128q0 -67 19 -82t39 -15q42 0 76 30t55 67l73 222q-9 46 -29 67t-56 21q-74 0 -125.5 -112t-51.5 -198zM434 238q104 19 146 65.5t42 83.5 q0 24 -9.5 38t-33.5 14q-43 0 -83.5 -65t-61.5 -136z" />
<glyph unicode="&#xe7;" horiz-adv-x="405" d="M26 149q0 41 18 93.5t53 105.5q32 48 84 85t113 37q48 0 76.5 -29t28.5 -61q0 -36 -13 -56.5t-40 -20.5q-17 0 -35.5 10.5t-18.5 34.5q0 15 14 30t39 29q-4 20 -17.5 27.5t-42.5 7.5q-34 0 -64 -35t-51 -78q-21 -42 -35 -100.5t-14 -98.5q0 -51 19.5 -75.5t58.5 -24.5 q54 0 89.5 39t60.5 89l30 -14q-45 -84 -95.5 -121t-102.5 -37q-27 0 -54 6t-50 24q-23 19 -37 49.5t-14 83.5zM32 -232l9 32q78 2 113 11t35 41q0 20 -20 27.5t-59 7.5l41 121h30l-21 -64q47 0 77 -14.5t30 -52.5q0 -58 -64 -83.5t-171 -25.5z" />
<glyph unicode="&#xe8;" horiz-adv-x="406" d="M26 146q0 46 16 94.5t58 107.5q35 50 91 86t123 36q35 0 59 -16.5t24 -55.5q0 -45 -29 -79.5t-67 -54.5q-43 -24 -86.5 -37.5t-82.5 -18.5q-4 -15 -8 -41.5t-4 -44.5q0 -48 19 -70t58 -22q54 0 90.5 39t61.5 89l30 -14q-46 -86 -97.5 -122t-102.5 -36q-26 0 -53.5 7 t-49.5 25t-36 49.5t-14 78.5zM138 238q104 19 146 65.5t42 83.5q0 24 -9.5 38t-33.5 14q-43 0 -83.5 -65t-61.5 -136zM164 693q0 17 9 27.5t27 10.5q21 0 33.5 -13t23.5 -38q11 -24 30.5 -61.5t39.5 -77.5l-20 -16q-47 48 -71.5 72t-39.5 39t-23.5 28.5t-8.5 28.5z" />
<glyph unicode="&#xe9;" horiz-adv-x="406" d="M26 146q0 46 16 94.5t58 107.5q35 50 91 86t123 36q35 0 59 -16.5t24 -55.5q0 -45 -29 -79.5t-67 -54.5q-43 -24 -86.5 -37.5t-82.5 -18.5q-4 -15 -8 -41.5t-4 -44.5q0 -48 19 -70t58 -22q54 0 90.5 39t61.5 89l30 -14q-46 -86 -97.5 -122t-102.5 -36q-26 0 -53.5 7 t-49.5 25t-36 49.5t-14 78.5zM138 238q104 19 146 65.5t42 83.5q0 24 -9.5 38t-33.5 14q-43 0 -83.5 -65t-61.5 -136zM230 543q47 53 77 84.5t53 57.5q22 24 38 35t36 11q16 0 25 -10t9 -22q0 -20 -15 -35.5t-37 -29.5q-28 -19 -63.5 -41.5t-106.5 -68.5z" />
<glyph unicode="&#xea;" horiz-adv-x="406" d="M26 146q0 46 16 94.5t58 107.5q35 50 91 86t123 36q35 0 59 -16.5t24 -55.5q0 -45 -29 -79.5t-67 -54.5q-43 -24 -86.5 -37.5t-82.5 -18.5q-4 -15 -8 -41.5t-4 -44.5q0 -48 19 -70t58 -22q54 0 90.5 39t61.5 89l30 -14q-46 -86 -97.5 -122t-102.5 -36q-26 0 -53.5 7 t-49.5 25t-36 49.5t-14 78.5zM138 238q104 19 146 65.5t42 83.5q0 24 -9.5 38t-33.5 14q-43 0 -83.5 -65t-61.5 -136zM171 538q45 48 88 92t66 71q12 14 20 18t30 4q21 0 26 -5t9 -15q11 -25 30 -69.5t42 -99.5l-23 -14l-95 133l-176 -133z" />
<glyph unicode="&#xeb;" horiz-adv-x="406" d="M26 146q0 46 16 94.5t58 107.5q35 50 91 86t123 36q35 0 59 -16.5t24 -55.5q0 -45 -29 -79.5t-67 -54.5q-43 -24 -86.5 -37.5t-82.5 -18.5q-4 -15 -8 -41.5t-4 -44.5q0 -48 19 -70t58 -22q54 0 90.5 39t61.5 89l30 -14q-46 -86 -97.5 -122t-102.5 -36q-26 0 -53.5 7 t-49.5 25t-36 49.5t-14 78.5zM138 238q104 19 146 65.5t42 83.5q0 24 -9.5 38t-33.5 14q-43 0 -83.5 -65t-61.5 -136zM153 639q0 28 19 47t49 19q20 0 33.5 -16t13.5 -35q0 -27 -16.5 -47t-48.5 -20q-24 0 -37 15.5t-13 36.5zM366 639q0 28 19.5 47t49.5 19q20 0 33 -16 t13 -35q0 -27 -16 -47t-48 -20q-24 0 -37.5 15.5t-13.5 36.5z" />
<glyph unicode="&#xec;" horiz-adv-x="340" d="M24 317q25 65 59.5 109t85.5 44q32 0 64.5 -16.5t32.5 -68.5q0 -17 -11 -49t-20 -52l-56 -146q-7 -17 -14.5 -42.5t-7.5 -35.5q0 -24 11 -29.5t22 -5.5q32 0 53.5 32t44.5 87l29 -10q-29 -68 -59 -105.5t-86 -37.5q-28 0 -64 15.5t-36 60.5q0 21 6 41t14 42l66 169 q11 30 16.5 50t5.5 30q0 21 -6.5 28t-21.5 7q-32 0 -55 -37.5t-43 -88.5zM103 693q0 17 9 27.5t27 10.5q21 0 33.5 -13t23.5 -38q11 -24 30.5 -61.5t39.5 -77.5l-20 -16q-47 48 -71.5 72t-39.5 39t-23.5 28.5t-8.5 28.5z" />
<glyph unicode="&#xed;" horiz-adv-x="340" d="M24 317q25 65 59.5 109t85.5 44q32 0 64.5 -16.5t32.5 -68.5q0 -17 -11 -49t-20 -52l-56 -146q-7 -17 -14.5 -42.5t-7.5 -35.5q0 -24 11 -29.5t22 -5.5q32 0 53.5 32t44.5 87l29 -10q-29 -68 -59 -105.5t-86 -37.5q-28 0 -64 15.5t-36 60.5q0 21 6 41t14 42l66 169 q11 30 16.5 50t5.5 30q0 21 -6.5 28t-21.5 7q-32 0 -55 -37.5t-43 -88.5zM161 543q47 53 77 84.5t53 57.5q22 24 38 35t36 11q16 0 25 -10t9 -22q0 -20 -15 -35.5t-37 -29.5q-28 -19 -63.5 -41.5t-106.5 -68.5z" />
<glyph unicode="&#xee;" horiz-adv-x="340" d="M24 317q25 65 59.5 109t85.5 44q32 0 64.5 -16.5t32.5 -68.5q0 -17 -11 -49t-20 -52l-56 -146q-7 -17 -14.5 -42.5t-7.5 -35.5q0 -24 11 -29.5t22 -5.5q32 0 53.5 32t44.5 87l29 -10q-29 -68 -59 -105.5t-86 -37.5q-28 0 -64 15.5t-36 60.5q0 21 6 41t14 42l66 169 q11 30 16.5 50t5.5 30q0 21 -6.5 28t-21.5 7q-32 0 -55 -37.5t-43 -88.5zM70 548q53 61 78.5 94t55.5 69q12 16 22.5 19t27.5 3q21 0 26 -5t9 -15q10 -27 22 -73.5t29 -98.5l-23 -11l-74 135l-157 -135z" />
<glyph unicode="&#xef;" horiz-adv-x="340" d="M24 317q25 65 59.5 109t85.5 44q32 0 64.5 -16.5t32.5 -68.5q0 -17 -11 -49t-20 -52l-56 -146q-7 -17 -14.5 -42.5t-7.5 -35.5q0 -24 11 -29.5t22 -5.5q32 0 53.5 32t44.5 87l29 -10q-29 -68 -59 -105.5t-86 -37.5q-28 0 -64 15.5t-36 60.5q0 21 6 41t14 42l66 169 q11 30 16.5 50t5.5 30q0 21 -6.5 28t-21.5 7q-32 0 -55 -37.5t-43 -88.5zM94 639q0 28 19 47t49 19q20 0 33.5 -16t13.5 -35q0 -27 -16.5 -47t-48.5 -20q-24 0 -37 15.5t-13 36.5zM279 639q0 28 19.5 47t49.5 19q20 0 33 -16t13 -35q0 -27 -16 -47t-48 -20q-24 0 -37.5 15.5 t-13.5 36.5z" />
<glyph unicode="&#xf1;" horiz-adv-x="607" d="M25 317q25 65 59.5 109t85.5 44q32 0 62.5 -17.5t30.5 -73.5l3 -1q25 35 63.5 63.5t80.5 28.5q50 0 82.5 -33.5t32.5 -78.5q0 -10 -5.5 -31.5t-13.5 -43.5l-54 -145q-9 -25 -15.5 -46t-6.5 -32q0 -24 11 -29.5t22 -5.5q32 0 53.5 32t44.5 87l29 -10q-29 -68 -59.5 -106.5 t-85.5 -38.5q-28 0 -65.5 16.5t-37.5 61.5q0 21 5 37t17 46l58 155q7 20 13 40t6 35q0 31 -14.5 39t-34.5 8q-39 0 -79 -35.5t-67 -87.5l-100 -304h-91l107 319q7 22 13 46t6 34q0 21 -6.5 28t-21.5 7q-32 0 -55 -37.5t-43 -88.5zM186 566q19 33 59.5 76t82.5 43 q28 0 49 -10.5t33 -18.5q16 -10 33 -19t35 -9q36 0 55 21.5t38 50.5l25 -15q-21 -33 -59 -76t-84 -43q-23 0 -44.5 9t-37.5 19q-18 12 -34 20.5t-34 8.5q-37 0 -54 -20.5t-39 -51.5z" />
<glyph unicode="&#xf2;" horiz-adv-x="487" d="M30 164q0 47 15 93t55 101q33 47 87 79.5t122 32.5q51 0 100 -42t49 -137q0 -35 -20 -95t-49 -98q-38 -50 -87 -81t-124 -31q-51 0 -99.5 41.5t-48.5 136.5zM124 145q0 -69 21 -99t51 -30q41 0 74 30.5t52 72.5q21 46 31.5 96t10.5 98q0 70 -23 98.5t-50 28.5 q-75 0 -121 -101.5t-46 -193.5zM193 693q0 17 9 27.5t27 10.5q21 0 33.5 -13t23.5 -38q11 -24 30.5 -61.5t39.5 -77.5l-20 -16q-47 48 -71.5 72t-39.5 39t-23.5 28.5t-8.5 28.5z" />
<glyph unicode="&#xf3;" horiz-adv-x="487" d="M30 164q0 47 15 93t55 101q33 47 87 79.5t122 32.5q51 0 100 -42t49 -137q0 -35 -20 -95t-49 -98q-38 -50 -87 -81t-124 -31q-51 0 -99.5 41.5t-48.5 136.5zM124 145q0 -69 21 -99t51 -30q41 0 74 30.5t52 72.5q21 46 31.5 96t10.5 98q0 70 -23 98.5t-50 28.5 q-75 0 -121 -101.5t-46 -193.5zM243 543q47 53 77 84.5t53 57.5q22 24 38 35t36 11q16 0 25 -10t9 -22q0 -20 -15 -35.5t-37 -29.5q-28 -19 -63.5 -41.5t-106.5 -68.5z" />
<glyph unicode="&#xf4;" horiz-adv-x="487" d="M30 164q0 47 15 93t55 101q33 47 87 79.5t122 32.5q51 0 100 -42t49 -137q0 -35 -20 -95t-49 -98q-38 -50 -87 -81t-124 -31q-51 0 -99.5 41.5t-48.5 136.5zM124 145q0 -69 21 -99t51 -30q41 0 74 30.5t52 72.5q21 46 31.5 96t10.5 98q0 70 -23 98.5t-50 28.5 q-75 0 -121 -101.5t-46 -193.5zM164 548q45 48 88 92t66 71q12 14 20 18t30 4q21 0 26 -5t9 -15q11 -25 30 -69.5t42 -99.5l-23 -14l-95 133l-176 -133z" />
<glyph unicode="&#xf5;" horiz-adv-x="487" d="M30 164q0 47 15 93t55 101q33 47 87 79.5t122 32.5q51 0 100 -42t49 -137q0 -35 -20 -95t-49 -98q-38 -50 -87 -81t-124 -31q-51 0 -99.5 41.5t-48.5 136.5zM124 145q0 -69 21 -99t51 -30q41 0 74 30.5t52 72.5q21 46 31.5 96t10.5 98q0 70 -23 98.5t-50 28.5 q-75 0 -121 -101.5t-46 -193.5zM129 566q19 33 59.5 76t82.5 43q28 0 49 -10.5t33 -18.5q16 -10 33 -19t35 -9q36 0 55 21.5t38 50.5l25 -15q-21 -33 -59 -76t-84 -43q-23 0 -44.5 9t-37.5 19q-18 12 -34 20.5t-34 8.5q-37 0 -54 -20.5t-39 -51.5z" />
<glyph unicode="&#xf6;" horiz-adv-x="487" d="M30 164q0 47 15 93t55 101q33 47 87 79.5t122 32.5q51 0 100 -42t49 -137q0 -35 -20 -95t-49 -98q-38 -50 -87 -81t-124 -31q-51 0 -99.5 41.5t-48.5 136.5zM124 145q0 -69 21 -99t51 -30q41 0 74 30.5t52 72.5q21 46 31.5 96t10.5 98q0 70 -23 98.5t-50 28.5 q-75 0 -121 -101.5t-46 -193.5zM182 639q0 28 19 47t49 19q20 0 33.5 -16t13.5 -35q0 -27 -16.5 -47t-48.5 -20q-24 0 -37 15.5t-13 36.5zM395 639q0 28 19.5 47t49.5 19q20 0 33 -16t13 -35q0 -27 -16 -47t-48 -20q-24 0 -37.5 15.5t-13.5 36.5z" />
<glyph unicode="&#xf7;" horiz-adv-x="542" d="M50 240h442v61h-442v-61zM220 118q0 -20 16 -36q15 -16 36 -16q22 0 37 16q15 15 15 36q0 22 -15 37t-37 15q-21 0 -37 -15q-15 -15 -15 -37zM220 421q0 -21 16 -36q15 -15 36 -15q22 0 37 15t15 36q0 22 -15 37t-37 15q-21 0 -36 -15q-16 -15 -16 -37z" />
<glyph unicode="&#xf8;" horiz-adv-x="487" d="M-31 -18l83 83q-9 17 -15.5 45.5t-6.5 53.5q0 47 15 93t55 101q33 47 87 79.5t122 32.5q29 0 52.5 -9t47.5 -34l76 76l25 -22l-81 -80q14 -24 21.5 -47.5t7.5 -62.5q0 -35 -20 -95t-49 -98q-38 -50 -87 -81t-124 -31q-30 0 -57 11.5t-50 39.5l-78 -78zM121 135l239 240 q-11 37 -30.5 51t-38.5 14q-38 0 -69.5 -28t-54.5 -74q-24 -46 -35 -99t-11 -94v-10zM125 94q8 -41 27.5 -59.5t43.5 -18.5q41 0 74.5 30t53.5 72q21 46 32 96t11 99v12t-1 12z" />
<glyph unicode="&#xf9;" horiz-adv-x="600" d="M20 317q25 65 59.5 109t85.5 44q34 0 67 -19.5t33 -60.5q0 -17 -5.5 -38.5t-15.5 -44.5l-60 -155q-8 -20 -13.5 -40t-5.5 -32q0 -32 14.5 -41t34.5 -9q38 0 77 30.5t64 75.5l100 320h92l-104 -318q-6 -17 -11 -42t-5 -36q0 -20 10.5 -27.5t24.5 -7.5q36 0 59 42.5 t36 76.5l29 -10q-25 -61 -55.5 -103t-85.5 -42q-31 0 -64 17.5t-33 75.5l-3 1q-28 -41 -65.5 -68.5t-82.5 -27.5q-50 0 -83 34t-33 78q0 11 5.5 31t14.5 43l56 146q11 30 15.5 50t4.5 30q0 20 -7 27.5t-22 7.5q-32 0 -55 -37.5t-43 -88.5zM216 693q0 17 9 27.5t27 10.5 q21 0 33.5 -13t23.5 -38q11 -24 30.5 -61.5t39.5 -77.5l-20 -16q-47 48 -71.5 72t-39.5 39t-23.5 28.5t-8.5 28.5z" />
<glyph unicode="&#xfa;" horiz-adv-x="600" d="M20 317q25 65 59.5 109t85.5 44q34 0 67 -19.5t33 -60.5q0 -17 -5.5 -38.5t-15.5 -44.5l-60 -155q-8 -20 -13.5 -40t-5.5 -32q0 -32 14.5 -41t34.5 -9q38 0 77 30.5t64 75.5l100 320h92l-104 -318q-6 -17 -11 -42t-5 -36q0 -20 10.5 -27.5t24.5 -7.5q36 0 59 42.5 t36 76.5l29 -10q-25 -61 -55.5 -103t-85.5 -42q-31 0 -64 17.5t-33 75.5l-3 1q-28 -41 -65.5 -68.5t-82.5 -27.5q-50 0 -83 34t-33 78q0 11 5.5 31t14.5 43l56 146q11 30 15.5 50t4.5 30q0 20 -7 27.5t-22 7.5q-32 0 -55 -37.5t-43 -88.5zM320 543q47 53 77 84.5t53 57.5 q22 24 38 35t36 11q16 0 25 -10t9 -22q0 -20 -15 -35.5t-37 -29.5q-28 -19 -63.5 -41.5t-106.5 -68.5z" />
<glyph unicode="&#xfb;" horiz-adv-x="600" d="M20 317q25 65 59.5 109t85.5 44q34 0 67 -19.5t33 -60.5q0 -17 -5.5 -38.5t-15.5 -44.5l-60 -155q-8 -20 -13.5 -40t-5.5 -32q0 -32 14.5 -41t34.5 -9q38 0 77 30.5t64 75.5l100 320h92l-104 -318q-6 -17 -11 -42t-5 -36q0 -20 10.5 -27.5t24.5 -7.5q36 0 59 42.5 t36 76.5l29 -10q-25 -61 -55.5 -103t-85.5 -42q-31 0 -64 17.5t-33 75.5l-3 1q-28 -41 -65.5 -68.5t-82.5 -27.5q-50 0 -83 34t-33 78q0 11 5.5 31t14.5 43l56 146q11 30 15.5 50t4.5 30q0 20 -7 27.5t-22 7.5q-32 0 -55 -37.5t-43 -88.5zM203 548q45 48 88 92t66 71 q12 14 20 18t30 4q21 0 26 -5t9 -15q11 -25 30 -69.5t42 -99.5l-23 -14l-95 133l-176 -133z" />
<glyph unicode="&#xfc;" horiz-adv-x="600" d="M20 317q25 65 59.5 109t85.5 44q34 0 67 -19.5t33 -60.5q0 -17 -5.5 -38.5t-15.5 -44.5l-60 -155q-8 -20 -13.5 -40t-5.5 -32q0 -32 14.5 -41t34.5 -9q38 0 77 30.5t64 75.5l100 320h92l-104 -318q-6 -17 -11 -42t-5 -36q0 -20 10.5 -27.5t24.5 -7.5q36 0 59 42.5 t36 76.5l29 -10q-25 -61 -55.5 -103t-85.5 -42q-31 0 -64 17.5t-33 75.5l-3 1q-28 -41 -65.5 -68.5t-82.5 -27.5q-50 0 -83 34t-33 78q0 11 5.5 31t14.5 43l56 146q11 30 15.5 50t4.5 30q0 20 -7 27.5t-22 7.5q-32 0 -55 -37.5t-43 -88.5zM222 639q0 28 19 47t49 19 q20 0 33.5 -16t13.5 -35q0 -27 -16.5 -47t-48.5 -20q-24 0 -37 15.5t-13 36.5zM435 639q0 28 19.5 47t49.5 19q20 0 33 -16t13 -35q0 -27 -16 -47t-48 -20q-24 0 -37.5 15.5t-13.5 36.5z" />
<glyph unicode="&#xff;" horiz-adv-x="545" d="M-42 -135q0 38 23 53.5t46 15.5t34.5 -15.5t11.5 -26.5q0 -29 -9 -38.5t-21 -11.5q-12 -1 -21.5 -2t-13.5 -15q3 -22 32.5 -28.5t44.5 -6.5q71 0 139.5 64t118.5 219l-4 1q-31 -38 -62 -62t-80 -24q-50 0 -83 34t-33 78q0 12 5.5 32t14.5 43l56 144q10 27 15 48.5t5 31.5 q0 20 -7 27.5t-22 7.5q-32 0 -55 -37.5t-43 -88.5l-30 9q25 65 59.5 109t85.5 44q34 0 67 -19.5t33 -60.5q0 -15 -6 -38.5t-15 -44.5l-61 -153q-8 -20 -13.5 -40.5t-5.5 -32.5q0 -32 15 -40.5t35 -8.5q38 0 76 27t64 65l102 332h89l-107 -350q-58 -184 -149.5 -264.5 t-197.5 -80.5q-43 0 -69 12t-41 29q-14 17 -18.5 34.5t-4.5 28.5zM221 639q0 28 19 47t49 19q20 0 33.5 -16t13.5 -35q0 -27 -16.5 -47t-48.5 -20q-24 0 -37 15.5t-13 36.5zM434 639q0 28 19.5 47t49.5 19q20 0 33 -16t13 -35q0 -27 -16 -47t-48 -20q-24 0 -37.5 15.5 t-13.5 36.5z" />
<glyph unicode="&#x152;" horiz-adv-x="1006" d="M54 263q0 78 33.5 162t110.5 156q54 51 120.5 77.5t133.5 26.5q62 0 105 -1t90 -1h394l-46 -166h-31v8q0 43 -18 77.5t-52 39.5q-13 2 -35.5 3t-42.5 1h-105l-77 -274h75q39 0 62.5 11.5t32.5 20.5q14 12 31 42t24 49h32l-80 -288h-30q1 8 2 19t1 26t-2.5 31t-5.5 21 q-8 11 -18.5 21t-57.5 10h-75l-58 -206q-4 -13 -7 -27t-3 -21q0 -26 22.5 -35t78.5 -9q50 0 95 3.5t66 20.5q33 27 70.5 74.5t46.5 66.5h31l-68 -202h-435q-49 0 -86.5 -0.5t-78.5 -0.5q-68 0 -111.5 22t-82.5 71q-29 36 -40 77.5t-11 93.5zM161 232q0 -104 43 -149t99 -45 q38 0 61.5 7.5t48.5 26.5q36 26 66.5 105.5t52.5 165.5q20 73 35 151t-7 109q-18 24 -44 33.5t-65 9.5q-120 0 -205 -126.5t-85 -287.5z" />
<glyph unicode="&#x153;" horiz-adv-x="718" d="M30 164q0 47 15 93t55 101q33 47 87 79.5t122 32.5q41 0 75 -23t55 -69q31 35 81.5 63.5t105.5 28.5q35 0 59 -16.5t24 -55.5q0 -45 -29 -79.5t-67 -54.5q-43 -24 -86.5 -37.5t-82.5 -18.5q-4 -15 -8 -41.5t-4 -44.5q0 -48 19 -70t58 -22q54 0 90.5 39t61.5 89l30 -14 q-46 -86 -97.5 -121.5t-102.5 -35.5q-44 0 -78 17t-57 60q-38 -36 -75 -56.5t-103 -20.5q-51 0 -99.5 41t-48.5 136zM124 145q0 -69 21 -99t51 -30q41 0 74 30.5t52 72.5q21 46 31.5 96t10.5 98q0 70 -23 98.5t-50 28.5q-75 0 -121 -101.5t-46 -193.5zM450 238 q104 19 146 65.5t42 83.5q0 24 -9.5 38t-33.5 14q-43 0 -83.5 -65t-61.5 -136z" />
<glyph unicode="&#x178;" horiz-adv-x="623" d="M64 650l10 33h307l-10 -33q-25 -1 -65.5 -6t-40.5 -19q0 -22 23.5 -95.5t62.5 -197.5q47 55 87.5 103.5t69.5 86.5q35 45 51.5 67t16.5 29q0 19 -30 24t-64 8l10 33h266l-10 -33q-9 0 -30 -7t-32 -12q-24 -11 -35.5 -20t-35.5 -31q-50 -47 -96 -103.5t-114 -142.5 q-18 -22 -38 -57t-25 -55l-31 -123q-1 -3 -1.5 -9t-0.5 -10q0 -9 6 -18t15 -13t38.5 -10t44.5 -6l-9 -33h-324l9 33q14 1 41 4t39 7q19 7 29 20t14 30l41 164q1 4 1.5 9.5t0.5 9.5q0 10 -2.5 26.5t-6.5 29.5q-18 67 -36 122.5t-37 110.5q-9 25 -20 40.5t-28 27.5 q-10 7 -29.5 11t-31.5 5zM296 800q0 28 19 47t49 19q20 0 33.5 -16t13.5 -35q0 -27 -16.5 -47t-48.5 -20q-24 0 -37 15.5t-13 36.5zM509 800q0 28 19.5 47t49.5 19q20 0 33 -16t13 -35q0 -27 -16 -47t-48 -20q-24 0 -37.5 15.5t-13.5 36.5z" />
<glyph unicode="&#x2c6;" horiz-adv-x="500" d="M172 548q45 48 88 92t66 71q12 14 20 18t30 4q21 0 26 -5t9 -15q11 -25 30 -69.5t42 -99.5l-23 -14l-95 133l-176 -133z" />
<glyph unicode="&#x2dc;" horiz-adv-x="500" d="M135 566q19 33 59.5 76t82.5 43q28 0 49 -10.5t33 -18.5q16 -10 33 -19t35 -9q36 0 55 21.5t38 50.5l25 -15q-21 -33 -59 -76t-84 -43q-23 0 -44.5 9t-37.5 19q-18 12 -34 20.5t-34 8.5q-37 0 -54 -20.5t-39 -51.5z" />
<glyph unicode="&#x2000;" horiz-adv-x="466" />
<glyph unicode="&#x2001;" horiz-adv-x="933" />
<glyph unicode="&#x2002;" horiz-adv-x="466" />
<glyph unicode="&#x2003;" horiz-adv-x="933" />
<glyph unicode="&#x2004;" horiz-adv-x="311" />
<glyph unicode="&#x2005;" horiz-adv-x="233" />
<glyph unicode="&#x2006;" horiz-adv-x="155" />
<glyph unicode="&#x2007;" horiz-adv-x="155" />
<glyph unicode="&#x2008;" horiz-adv-x="116" />
<glyph unicode="&#x2009;" horiz-adv-x="186" />
<glyph unicode="&#x200a;" horiz-adv-x="51" />
<glyph unicode="&#x2010;" horiz-adv-x="344" d="M31 211l21 73h265l-21 -73h-265z" />
<glyph unicode="&#x2011;" horiz-adv-x="344" d="M31 211l21 73h265l-21 -73h-265z" />
<glyph unicode="&#x2012;" horiz-adv-x="344" d="M31 211l21 73h265l-21 -73h-265z" />
<glyph unicode="&#x2013;" horiz-adv-x="512" d="M53 242l16 58h412l-16 -58h-412z" />
<glyph unicode="&#x2014;" horiz-adv-x="900" d="M91 227l17 58h752l-17 -58h-752z" />
<glyph unicode="&#x2018;" horiz-adv-x="185" d="M114 554q0 60 40 105.5t111 83.5l15 -27q-46 -24 -76.5 -53.5t-38.5 -70.5h21q32 0 47.5 -16t15.5 -36t-18.5 -42t-49.5 -22q-32 0 -49.5 18t-17.5 60z" />
<glyph unicode="&#x2019;" horiz-adv-x="185" d="M107 497q48 27 78 53.5t37 70.5h-21q-32 0 -47.5 16t-15.5 36t18.5 42t49.5 22q32 0 49.5 -18t17.5 -60q0 -58 -42 -106.5t-109 -82.5z" />
<glyph unicode="&#x201a;" horiz-adv-x="185" d="M-68 -123q48 27 78 53.5t37 70.5h-21q-32 0 -47.5 16t-15.5 36t18.5 42t49.5 22q32 0 49.5 -18t17.5 -60q0 -58 -42 -106.5t-109 -82.5z" />
<glyph unicode="&#x201c;" horiz-adv-x="354" d="M114 549q0 62 38.5 107.5t113.5 85.5l14 -26q-46 -24 -77 -54.5t-39 -72.5h18q31 0 47 -15.5t16 -37.5q0 -21 -16.5 -40.5t-48.5 -19.5t-49 18.5t-17 54.5zM283 549q0 62 38.5 107.5t113.5 85.5l14 -26q-46 -24 -77 -54.5t-39 -72.5h18q31 0 47 -15.5t16 -37.5 q0 -21 -16.5 -40.5t-48.5 -19.5t-49 18.5t-17 54.5z" />
<glyph unicode="&#x201d;" horiz-adv-x="354" d="M107 497q48 27 78.5 54.5t37.5 72.5h-18q-31 0 -47 15.5t-16 37.5q0 21 16.5 40.5t48.5 19.5t49 -18.5t17 -54.5q0 -58 -38 -106t-114 -87zM276 497q48 27 78.5 54.5t37.5 72.5h-18q-31 0 -47 15.5t-16 37.5q0 21 16.5 40.5t48.5 19.5t49 -18.5t17 -54.5q0 -58 -38 -106 t-114 -87z" />
<glyph unicode="&#x201e;" horiz-adv-x="354" d="M-72 -126q48 27 78.5 54.5t37.5 72.5h-18q-31 0 -47 15.5t-16 37.5q0 21 16.5 40.5t48.5 19.5t49 -18.5t17 -54.5q0 -58 -38 -106t-114 -87zM97 -126q48 27 78.5 54.5t37.5 72.5h-18q-31 0 -47 15.5t-16 37.5q0 21 16.5 40.5t48.5 19.5t49 -18.5t17 -54.5q0 -58 -38 -106 t-114 -87z" />
<glyph unicode="&#x2022;" horiz-adv-x="589" d="M65 137v229v231h229h230v-231v-229h-230h-229z" />
<glyph unicode="&#x2026;" horiz-adv-x="788" d="M36 55q0 26 19 45t45 19t45 -19t19 -45t-19 -44.5t-45 -18.5t-45 18.5t-19 44.5zM310 55q0 26 19 45t45 19t45 -19t19 -45t-19 -44.5t-45 -18.5t-45 18.5t-19 44.5zM584 55q0 26 19 45t45 19t45 -19t19 -45t-19 -44.5t-45 -18.5t-45 18.5t-19 44.5z" />
<glyph unicode="&#x202f;" horiz-adv-x="186" />
<glyph unicode="&#x2039;" horiz-adv-x="351" d="M45 205l6 24q2 8 7 15.5t11 12.5q33 22 103 66.5t162 108.5l16 -17l-215 -198l106 -190l-19 -12q-42 43 -89.5 92.5t-72.5 74.5q-11 10 -13 14t-2 9z" />
<glyph unicode="&#x203a;" horiz-adv-x="542" d="M50 240h442v61h-442v-61z" />
<glyph unicode="&#x205f;" horiz-adv-x="233" />
<glyph unicode="&#x20ac;" horiz-adv-x="655" d="M24 317q0 125 89 214t214 89t214 -89t89 -214t-89 -214t-214 -89t-214 89t-89 214zM30 317q0 -122 87.5 -209.5t209.5 -87.5q39 0 60 10t21 28q0 27 -40.5 89t-40.5 170t40.5 172t40.5 87q0 18 -21 28t-60 10q-122 0 -209.5 -87.5t-87.5 -209.5z" />
<glyph unicode="&#x2122;" horiz-adv-x="830" d="M145 593v90h289v-90h-22q-5 17 -18 39t-28 25q-9 1 -19 1.5t-17 0.5h-13v-242q0 -6 2 -11t9 -8q6 -2 10.5 -3t7.5 -1q5 -1 11.5 -2t10.5 -1v-23h-157v23q8 0 22 1.5t18 3.5q7 3 9 8t2 10v245h-13q-7 0 -18.5 -1t-17.5 -1q-13 -2 -27 -25t-19 -39h-22zM474 368v22 q9 2 22.5 3.5t21.5 7.5t10.5 17.5t2.5 41.5v156q0 12 -3.5 20t-9.5 13q-7 6 -18 8.5t-23 3.5v22h115l95 -221l79 181q4 10 7.5 22.5t4.5 17.5h111v-22q-8 0 -19 -2t-18 -4q-6 -1 -8.5 -6t-2.5 -12v-222q0 -6 2 -10.5t9 -7.5q4 -1 15.5 -3.5t21.5 -2.5v-23h-156v23 q10 0 23.5 1.5t17.5 3.5q7 5 10 8.5t3 10.5v203l-108 -245h-17q-5 17 -11.5 33t-13.5 33l-77 184v-161q0 -30 3 -41.5t10 -17.5q5 -3 21 -7.5t26 -4.5v-23h-146z" />
</font>
</defs>
</svg>
