<?xml version="1.0" standalone="no"?>
<!DOCTYPE svg PUBLIC "-//W3C//DTD SVG 1.1//EN" "http://www.w3.org/Graphics/SVG/1.1/DTD/svg11.dtd" >
<svg xmlns="http://www.w3.org/2000/svg">
<metadata></metadata>
<defs>
<font id="ifc_insane_rodeoregular" horiz-adv-x="700" >
<font-face units-per-em="2048" ascent="1638" descent="-410" />
<missing-glyph horiz-adv-x="508" />
<glyph horiz-adv-x="2048" />
<glyph horiz-adv-x="2048" />
<glyph unicode="&#xd;" horiz-adv-x="508" />
<glyph unicode=" "  horiz-adv-x="508" />
<glyph unicode="&#x09;" horiz-adv-x="508" />
<glyph unicode="&#xa0;" horiz-adv-x="508" />
<glyph unicode="!" horiz-adv-x="3658" d="M-9 291q8 0 21 13q12 14 12 34q0 10 -6 29v1q0 10 31 35q9 9 9 16q0 11 -18 39q-5 10 -5 17v2q0 16 42 41q24 9 33 9v2q-91 8 -91 15v57q0 17 17 36q4 8 4 14v2q-17 12 -19 15v2q0 4 35 12l2 2q-5 2 -22 5q-1 2 -7 40q-10 39 -10 56q0 5 20 41q9 18 9 29q-4 13 -4 16v1 q0 24 49 40q0 4 -8 5q-6 0 -47 -14q-6 -2 -10 -2h-4q-5 0 -5 6v56q0 34 37 79q13 20 13 26v2q0 13 -32 47q-14 17 -14 19q0 12 60 17q4 7 6 8l2 -6q16 0 80 24q12 3 69 13v1q-30 5 -76 7q-25 7 -33 14l-1 2v2q0 2 13 10q23 -4 80 -16q13 -2 68 -7q1 0 12 -15q36 14 40 14h1 q21 0 196 5v-1q0 -2 -34 -35l-9 -12h1q8 0 52 34q24 17 37 17h102q23 0 87 -20q25 -6 40 -6q25 0 106 22q21 4 36 4h160q3 0 7 -1q2 1 6 1h7q221 0 290 -31q8 0 38 -20h3q12 1 13 4v2q0 5 -32 31q-3 4 -3 6v1q0 3 13 5q397 -3 831 -6q62 -1 135 -1q4 -1 4 -2q-9 -10 -9 -11 h1q1 -1 2 -1q5 0 78 20q6 1 12 1h127q33 0 181 -10q13 -1 33 -1q31 0 58 5q9 0 80 -25q5 -1 9 -1v1q-4 5 -30 27l-1 2l2 2h12q19 0 119 5q42 0 221 3h14q6 0 13 1q21 0 30 -24q10 -11 16 -32q10 -50 17 -50q30 21 48 21q0 1 2 1v10l1 1q14 -12 20 -12q9 6 25 6h17 q11 0 24 -1v2l-1 5q4 0 9 -6h1l12 4h8q5 0 19 -5v-1q0 -16 -34 -25q-16 -6 -16 -24q0 -13 20 -42q7 -11 7 -19v-1q0 -10 -16 -42l-4 -17q0 -1 -1 -1h-1q-5 0 -40 31q-6 6 -9 6q-1 0 -2 -2v-2q0 -13 58 -81q15 -22 15 -30t-19 -83v-7q0 -10 17 -60q2 -7 2 -14v-61 q0 -6 -8 -33q0 -11 -9 -11q-22 -8 -25 -11v-1q3 -4 38 -17l4 -4v-44q0 -24 -31 -78q-9 -23 -9 -36v-3q0 -13 30 -43q10 -13 10 -21v-40q-11 -15 -34 -15q-38 0 -75 21q-9 7 -11 17h-2q-32 -27 -47 -42q-11 -16 -35 -32q-16 -10 -40 -28q-18 -8 -38 -8q-10 0 -33 6h-18h-123 q-19 -8 -39 -8q-9 0 -69 8q-5 0 -47 5q-24 3 -54 3h-1q-56 0 -192 -17q-38 -3 -95 -5q-56 0 -66 17v5q0 10 17 40h-1q-17 0 -68 -30q-34 -18 -61 -18h-444q-33 0 -111 21q-30 5 -45 5q-29 0 -116 -21q-27 -5 -51 -5h-331q-32 0 -166 -14h-24q-27 0 -99 12q-14 2 -32 2h-135 q-30 0 -69 19q-16 5 -28 5v1q52 28 68 43h-3q-31 -8 -129 -51q-44 -17 -54 -17h-83q-24 0 -98 13q-11 1 -25 2q-28 0 -181 -14q-25 -1 -41 -1q-57 17 -118 17q-23 0 -97 -7h-2q-10 11 -22 28zM23 1150v1q19 10 80 61q13 10 23 14v-1q-2 -2 -2 -4v-3q0 -12 41 -24 q13 -1 18 -1q11 1 16 1v-2q-91 -30 -104 -30v1l2 16q-2 0 -16 -20q-14 -2 -58 -9zM195 473h90v58q-14 0 -14 17v3q3 38 5 38h63q4 0 6 -42v-8q0 -8 -14 -8h-4v-58h106v58h-2q-11 0 -13 8q-3 0 -17 129q0 47 19 63q-16 0 -27 31q-5 14 -16 128q0 9 8 9h12v63h-160v-63h13 q7 0 7 -11q-11 -101 -14 -113q-11 -43 -30 -43q18 -16 18 -50q-10 -103 -17 -134q-3 -17 -17 -17h-2v-58zM288 695q6 52 20 160l2 1q2 -15 18 -162h-1h-37q-2 0 -2 1zM444 731q21 -8 25 -56v-107q0 -36 -7 -36q-3 -1 -9 -1h-5v-58h99v58h-5q-15 0 -15 13q-1 16 -1 61v130 q0 1 1 1q3 0 9 -32q50 -212 55 -231h89v196q0 32 16 54q7 7 9 7v1q-6 1 -13 10q-12 22 -12 54v59q0 45 8 45h4h9v63h-99v-63h10q11 0 11 -21v-188q0 -2 -1 -2q-2 4 -27 114q-2 3 -39 160h-108v-63h10q11 0 11 -24v-83q0 -33 -16 -55zM721 795q0 -2 2 -2h45v1q0 103 9 103 q3 4 13 4h6q1 0 1 -2v-110q0 -29 -13 -50q-9 -8 -12 -8q13 -7 20 -25q5 -20 5 -33v-115q0 -27 -8 -27h-2h-14v-58h118v58h-11q-13 0 -13 15q-1 12 -1 24v98q0 53 25 63h1q-7 0 -17 15q-9 15 -9 41v112q1 2 2 2h4q20 0 20 -16q5 -61 5 -92h47v104q0 20 -1 64h-221l-1 -1v-34 v-131zM949 735q13 -7 19 -24q3 0 7 -69q4 -39 11 -71q11 -39 24 -61q31 -48 69 -48q50 0 82 69q8 18 18 65q7 40 10 105q5 22 16 30q1 2 4 2q-13 9 -18 20q-4 6 -9 62q-11 59 -23 86q-31 71 -80 71q-33 0 -60 -38q-15 -20 -31 -71q-8 -32 -15 -100q-6 -18 -16 -24 q-2 -3 -8 -4zM1052 704q1 12 12 23q6 5 8 5v1q-6 0 -16 14l-4 11v4q0 105 12 126q6 9 13 9h2q15 0 20 -34q3 -16 3 -93v-12q0 -10 -16 -23l-4 -1v-1q9 0 19 -22q1 -1 1 -4q0 -35 1 -90q0 -58 -16 -76q-4 -4 -9 -4h-1q-17 0 -21 40q-4 60 -4 127zM1207 730q9 -3 18 -22 q6 -25 6 -35v-101q0 -40 -7 -40q-3 -1 -9 -1h-5v-58h99v58h-5q-15 0 -15 13q-1 11 -1 35v156q0 1 1 1q2 0 11 -42l53 -221h89v200q0 24 14 50q9 7 11 7v1q-24 9 -25 65v68q0 35 9 35h12v63h-99v-63h10q11 0 11 -23v-186q0 -2 -1 -2q-2 0 -17 69q-2 6 -49 205h-1h-107v-63h10 q11 0 11 -27v-77q0 -37 -16 -58q-1 0 -8 -7zM1630 731q13 -7 19 -21q6 -11 6 -47v-105q0 -31 -10 -31h-10q-1 0 -1 -1v-53q0 -1 1 -1h104v54q0 1 -6 2q-8 5 -8 42v34q0 2 20 60h1q1 0 12 -57q11 -50 11 -66q0 -9 -6 -14h-6v-55h115v57q-6 3 -13 12q-15 30 -37 152v2 q0 25 17 36q-12 3 -20 12t-14 31q-5 21 -7 36q26 90 56 90h5q1 0 1 1v59q0 2 -1 2h-101q-1 -1 -1 -2v-59l8 -2l2 -2v-5q-2 -8 -40 -118h-2v97q0 29 13 29h4v62h-107q-1 -1 -1 -2v-59q0 -1 1 -1h10q10 0 10 -20v-10v-84q0 -47 -25 -55zM1880 732q20 -14 20 -24q5 -10 5 -22 v-129q0 -28 -11 -28h-10v-55h104v55h-2q-11 0 -11 25v97q0 1 1 1h17q2 0 18 -83q2 -10 2 -19v-2q0 -18 -11 -18v-56h103v54q-11 6 -16 24q-12 38 -35 158v1q22 24 31 70q4 23 4 51v8q0 57 -33 96q-27 26 -56 26h-116v-61h5q14 0 14 -11q2 -7 2 -18v-93q0 -36 -24 -47h-1z M1975 733v108v60h1q26 0 32 -47q2 -17 2 -23q0 -82 -26 -97q-4 -2 -8 -2zM2122 900q15 0 19 -28q21 -86 21 -105q0 -24 -16 -36q19 0 34 -39q15 -69 20 -101v-29q0 -34 -10 -34h-12v-55h114v55h-9q-13 0 -13 19q-1 8 -1 19v26q0 12 18 104q4 17 18 31q7 4 13 5 q-18 11 -18 38q0 24 20 116q4 14 13 14h4q1 0 1 1v59q0 1 -1 1h-85v-61h9q5 0 5 -5v-1q0 -10 -19 -136q-1 -2 -2 -2q-1 1 -19 95q-5 34 -5 40v1q0 8 6 8h7v61h-110q-2 0 -2 -1v-60zM2355 473h188v176h-46q-1 0 -1 -1q0 -67 -6 -102q-5 -15 -17 -15q0 -1 -4 -1h-8 q-10 0 -10 25v135q0 20 14 37q3 3 10 7q-7 0 -18 17q-6 16 -6 24v100q0 29 10 29h14q1 0 1 1v61h-121v-61q0 -1 1 -1h14q10 0 10 -27v-92q0 -37 -22 -50l-3 -1q25 -13 25 -55v-120q0 -22 -5 -28q-4 -2 -7 -2h-13v-56zM2549 735q13 -7 19 -25q4 -10 6 -61q5 -47 12 -77 q9 -32 20 -55q32 -55 72 -55h2q40 0 72 51q15 30 23 67q13 63 13 114q0 16 13 33q7 6 9 6v1q-6 0 -17 14q-6 8 -9 42q-5 54 -20 97q-12 33 -29 55q-26 30 -57 30q-36 0 -66 -48q-10 -18 -23 -56q-9 -36 -15 -85q0 -36 -20 -46q-4 -2 -5 -2zM2651 704q0 11 16 25q5 3 5 4 q-8 0 -18 17q0 3 -3 8l1 2q0 73 7 114q6 23 18 23h1q23 0 23 -89v-50q0 -10 -15 -23l-4 -1q14 -8 19 -26q1 -64 1 -88q0 -83 -24 -83h-1q-16 0 -20 33q-6 65 -6 134zM2799 901h1q13 0 17 -10q8 -31 19 -115l1 -6q0 -27 -18 -39q15 0 27 -28q6 -12 17 -92q20 -130 22 -138h61 q29 215 32 229q13 30 28 30q-18 12 -18 36v6q9 90 18 119q3 8 14 8h5v62h-87v-62h5q8 0 8 -8v-7q0 -9 -23 -172h-2q-2 0 -7 38q-21 128 -21 140q0 9 6 9h8v62h-113v-62zM3126 463h33v9q0 9 13 9h55q21 0 27 -18q7 18 27 18h74q12 0 12 -7v-11h31v91h-31v-11q0 -8 -13 -8h-75 q-17 0 -25 18q0 -9 -17 -16q-2 -2 -5 -2h-59q-14 0 -14 10v9h-33v-91zM3126 573h34v7q0 9 13 9h18h25q31 0 38 -19h1q0 8 15 16q10 3 20 3h48q28 0 28 -5v-11h32v76h-31q-1 0 -1 -1v-6q0 -8 -11 -8q-3 -1 -13 -1h-89q-1 0 -1 1q9 4 145 48l1 2v67h-111q-13 0 -27 11 q-5 6 -5 8h-1q0 -8 -15 -15q-11 -4 -21 -4h-36q-22 0 -22 8v9h-34v-77h34v5q0 11 9 11q2 1 8 1h100q1 -1 1 -2l-152 -50v-83zM3126 783h34v8q0 9 16 9h45q29 0 33 -19h2q0 11 19 18q8 1 20 1h55q18 0 18 -9v-8h31v81h-31q0 -11 -25 -11h-17q-1 0 -34 15v2q50 14 67 18h1 q8 0 8 -8v-2h31v88h-33q0 -15 -64 -30q-2 -2 -27 -8q-14 0 -20 12q-1 0 -4 -9q-6 -11 -22 -16q-10 -4 -20 -6q-49 21 -49 43v6h-34v-80h34v4q0 4 2 4h3q1 0 66 -31v-2h-43q-27 0 -27 7q-1 0 -1 2v4h-34v-83zM3298 229v1q1 0 6 -1q33 0 68 33q13 8 41 39q0 1 39 38 q6 -14 27 -22q41 -16 67 -16q16 0 30 9q1 0 1 -1v-1q-17 -13 -20 -13q-57 -12 -127 -40q-73 -29 -110 -29q-7 0 -22 3zM3341 1219v2q17 7 29 7h12q38 0 136 -55q45 -21 59 -22l16 -3v-2q-3 0 -12 1q-10 0 -17 -3q-16 7 -19 7q-1 0 -1 -1t2 -4v-2h-35q-18 0 -29 -6 q-18 16 -22 16h-1v-1q2 -3 3 -7q0 -8 -15 -10q-8 -2 -23 -9q-9 12 -26 55q-11 23 -15 30q-15 10 -28 10z" />
<glyph unicode="&#x22;" horiz-adv-x="1800" />
<glyph unicode="#" horiz-adv-x="1854" d="M0 655q1 3 4 4q9 -2 32 -13q7 -1 12 -1h80v9q-2 0 -26 -3v1q4 5 11 12h-78q-32 15 -32 17q20 16 23 17q83 11 87 11v10q-27 0 -70 -14q-5 -1 -14 -1h-25q-1 0 -1 1v21l24 -3l1 6q-12 21 -13 26l38 -10q-4 13 -13 19q-22 6 -22 22v5q0 4 10 8q6 -18 13 -18q1 -1 6 -2 q28 2 37 2v1q-4 5 -16 17q0 2 5 10q39 -20 46 -20h16q10 0 25 8q7 2 13 2v10h-17q-14 0 -14 18q0 7 -9 11l-19 16h1q29 0 38 -21q13 -14 17 -14q14 16 14 18q-21 11 -21 15q0 3 -5 36l1 1q7 0 15 -13q3 -14 16 -14h3q7 0 20 2q-5 15 -5 17v3q0 4 10 14q42 6 45 7l-10 38h1 q11 -8 11 -18q0 -6 23 -6h13q4 0 57 35q37 1 58 1h2h11q48 0 105 -28q82 -45 116 -60q9 -3 15 -3h117q-5 15 -5 24v25q0 15 21 29q5 2 12 2q13 0 15 -4v-3l-7 -20q-1 -3 -1 -8v-29q0 -13 59 -37q16 -8 49 -32q14 -8 19 -8q7 0 7 13v32q-3 16 -37 72q-25 47 -28 68 q-19 46 -19 88v26v26q-21 19 -36 43q-39 53 -60 84q-13 11 -27 11l-2 2q0 85 -1 85q-14 0 -34 21q-12 17 -12 29v2q26 33 27 33h25q1 0 15 -29h1l39 9v-2v-3q0 -16 -9 -22l-1 -6v-8q0 -9 8 -14q2 -6 2 -14v-10h10v2h1q7 -9 12 -24q10 -16 18 -26q11 -11 20 -21q-1 -1 -5 -1 q1 -1 63 -65q10 3 27 21q3 5 46 6q30 32 32 32q10 0 29 7h4v-2h-2q23 -15 52 -15q9 -2 12 -8q5 -7 5 -28v-18h1q25 0 41 -22q3 -6 3 -20v-30q0 -17 -19 -28h-2q-9 0 -15 8q-2 1 -7 1h-22h-19l-20 -34h29q7 0 10 -10q-8 -10 -24 -18q-11 -9 -11 -28v-12q0 -21 11 -28 q5 -10 5 -27l19 -23q-9 -18 -9 -19h14v14q0 1 1 1q13 1 17 1q7 -4 7 -16h-24q1 -18 5 -18q38 -21 39 -21q7 19 8 20q14 -32 18 -36h23q13 0 30 1q24 0 31 -10q5 -9 5 -15h32q4 0 23 11q6 3 8 3v-1q-23 -22 -27 -22q-45 -7 -46 -8q-40 6 -42 7q-15 14 -19 14q-8 0 -24 -5 q-11 7 -39 30q-6 5 -13 5h-12q-10 0 -21 -9q-37 -6 -39 -6q-7 4 -41 25q0 -25 44 -45l6 -29h89q30 0 37 -10q12 -11 34 -11h12q14 0 18 9q5 1 10 1h19q5 20 7 20h32q3 0 25 21q15 14 22 14q23 0 66 -29l3 -1q40 0 40 -3q6 -9 8 -13h1q6 4 6 5q-5 5 -19 26q-9 -4 -16 -4 q-13 0 -43 17q-26 9 -37 9h-3q-2 0 -24 -5q-7 -2 -11 -2v1q16 19 28 19h2q38 -4 84 -30h1q32 0 48 -20l2 -4v-3q0 -14 -44 -16q-62 -51 -82 -66v-1h1q7 0 28 10q4 1 6 1q1 0 13 -9l6 -1q9 28 11 29h79q1 -6 1 -9v-12q32 11 35 11v-1q-5 -24 -6 -24h-30q2 -14 12 -14h5 q13 0 13 14h2h19q8 7 18 14h1q-5 -30 -17 -30q0 -2 -18 -4v-10h17q22 0 27 21q2 13 3 13q0 1 18 12h20v-2q-5 -7 -23 -12q-2 -4 -2 -7q0 -14 7 -14h1q17 2 19 2h1q13 0 21 -12v-1q-16 4 -28 4h-5q-22 0 -28 -16q-2 -6 -2 -10v-2q0 -1 11 -4q11 -6 15 -6h3l17 8l47 8v-1 l-42 -25h1q15 0 57 -1q9 24 10 26l27 1v-1q-11 -2 -11 -7q-20 -33 -22 -34h-8q-41 0 -49 -10q-7 -6 -7 -14q14 5 25 5h21q11 0 23 -7h1q4 0 15 2v-2v-7q0 -3 -22 -7q-22 0 -22 -2l-11 -32h16q18 0 33 15l5 4h1v-1q-2 -12 -11 -21q-11 -7 -34 -7v-1q1 -4 1 -7v-14l43 11 q5 -7 5 -10l-38 -64h1q4 0 35 25q6 2 8 2h2q8 0 8 -6v-1q0 -6 -19 -36q-1 -3 -4 -23l-12 -16q12 -4 17 -13q11 -27 29 -27h4q7 0 34 20l1 -2q0 -28 -28 -37q-7 -1 -7 -3q25 -13 28 -13l32 -2v-2q-29 -14 -30 -14q-8 2 -60 18v-2q0 -20 20 -26q9 -6 9 -7t-8 -3q-2 -2 -11 -2 q-1 0 -43 17q-4 2 -7 2q0 -14 -9 -21q-1 -3 -1 -11v-53q0 -29 9 -58q1 -8 1 -12q0 -27 -46 -38q-9 0 -9 -2v-14q72 -15 92 -24q44 -40 63 -51q-12 -16 -44 -24q-7 -1 -13 -1h-56q-24 0 -30 38q0 1 -3 17l-25 -24l-68 -6q-17 0 -29 10q-5 3 -12 5v37q-43 3 -55 3 q-17 12 -37 37q-18 19 -45 42q-27 32 -43 32q-9 3 -26 20q-3 6 -7 20q-11 13 -44 37q-61 51 -92 65q-34 23 -48 23h-2q-10 -2 -14 -2h-3q-27 0 -115 32q-71 35 -94 59q-36 36 -47 39q-10 6 -27 6q-16 0 -93 -32q-60 -24 -101 -24h-23q-59 0 -86 11q-51 17 -87 24h-4 q-13 0 -30 -21q-15 -13 -32 -13h-1q-1 0 -7 -14q-15 -18 -37 -32q-21 -19 -38 -43q-2 -4 -5 -7q-21 0 -55 2q0 -1 -14 -11h-20q-11 -11 -19 -11q-21 2 -95 4l-1 1v11q0 34 45 61q19 9 35 9q31 0 39 -13q11 -11 21 -12q4 14 36 43q28 24 67 49q83 79 91 92h-50q-19 0 -49 -37 q-41 -42 -54 -47q-40 -25 -97 -25l-19 -16q-80 3 -80 16q0 20 36 48q17 12 29 12h22q8 0 25 -18l3 -2q12 9 16 20q10 12 32 23q28 24 47 49q24 35 64 78q6 6 10 7q95 -18 97 -18q12 10 28 20v1q0 65 67 100q34 19 50 32q7 8 8 12h-68q-8 0 -25 -8q-4 -2 -9 -2h-17 q-4 -14 -15 -14q-5 -1 -11 -1h-18v-1q1 0 3 -2v-1q-30 -41 -35 -46h-29q-29 -65 -31 -66q-83 -51 -85 -51h-63q-50 0 -157 1q-32 26 -32 27zM75 451l43 19q-1 17 -1 21q11 12 11 14h-1l-6 1q-29 -6 -29 -21v-2l1 -3q-17 -3 -17 -6q-1 -2 -1 -3v-20zM91 340q0 -10 9 -10h38 q5 16 19 46q2 5 2 12q-1 7 -11 7q-21 0 -50 -37q-7 -12 -7 -17v-1zM168 664h29q15 0 20 15h-35q-14 0 -14 -13v-2zM391 642q0 -1 14 -15l2 17q-14 -2 -16 -2zM418 626q0 -2 1 -2h1q32 -3 37 -3q10 0 10 9q-8 14 -15 14h-1q-10 0 -15 -9q-5 -6 -17 -6h-1v-3zM423 524 q0 -11 23 -24h4q14 0 14 27q3 18 12 18q32 -6 44 -20q1 0 2 -5v-20h21q-3 11 -5 24l1 1q18 0 22 -10q1 -5 33 -5h12q1 -1 1 -2v-7q0 -2 -1 -2h-33q-7 0 -11 -9h2q25 0 37 -9q5 -1 11 -1h55q18 0 27 15q12 15 21 15h4q7 0 18 -10q12 34 33 34q8 1 17 1h15q7 16 31 27 q5 3 14 3h18q2 0 2 -1v-9h9v36q0 10 16 36l109 -7q27 23 37 55q1 0 2 11q0 11 -11 13q-25 6 -35 20q-48 52 -67 65q-25 19 -90 58l-192 5l-3 1v-21q0 -15 -4 -15q-9 -1 -53 -47q-21 -14 -28 -22q-25 -37 -25 -94v-9q0 -17 50 -70q10 -11 10 -15v-1q-18 0 -81 35h-4h-24 q-24 0 -57 -58q-3 -5 -3 -7zM580 628q0 1 12 1v1q0 15 -8 20q-1 0 -2 6v63h1l4 -3q2 1 35 52l35 7q2 -20 7 -20q3 -2 3 -8v-4q0 -27 -34 -45q-24 -18 -24 -31q-1 0 -2 -22q0 -16 8 -22q2 -3 2 -5v-47q-3 2 -37 57zM732 1393q3 -24 12 -24q1 -1 4 -1q8 0 8 16q-11 3 -11 6 l2 1zM757 1334q0 -15 9 -15q15 0 25 28v6h-34v-19zM797 1251q0 -19 12 -25q18 -3 18 -4q0 -20 47 -65q21 -22 26 -35q33 -8 46 -14q9 -6 30 -13q5 0 5 -2q0 -11 -5 -11l-9 -7q20 -6 20 -7q-5 -29 -6 -29h-1q-25 0 -29 9q-5 14 -6 15q-3 0 -29 6l-4 -16v-5q0 -3 14 -16l1 -3 q-3 -1 -6 -1q15 -97 16 -100q28 -26 36 -26h1q6 0 14 28q9 19 25 19h10q13 0 13 -8q0 -5 -9 -23l34 -4v20q0 11 -5 25h-5q-10 0 -10 2q1 0 20 18v30q0 9 -8 16q-2 6 -5 32l-21 22v1q19 3 19 5v8l-12 6q-8 9 -12 9h-6q-6 0 -26 -4q-44 28 -77 57q-31 33 -33 47q-3 7 -4 16 h-23q-17 0 -32 20q5 23 5 24h-29v-17zM927 550q19 0 26 15q3 8 3 10q-15 0 -24 -11q-2 -3 -5 -14zM942 489q24 -19 25 -19q23 0 69 -25h3q7 0 13 8q4 2 6 2h37q1 -1 1 -2q0 -8 -6 -8q-26 -8 -33 -10v-15h24h19q2 -4 6 -4l50 72q5 9 5 12v16q0 30 14 48q0 1 5 9q2 0 2 -1 q0 -5 2 -26l34 20q-3 3 -3 4q7 65 7 66q-20 13 -21 13v-1q0 -34 -14 -56q-7 -7 -11 -7l-1 1q4 47 6 63q-1 10 -1 14q-26 14 -31 16l-48 5q-7 -4 -23 -25l-47 -84q-8 -11 -22 -11q-9 -3 -24 -25q-2 -9 -27 -24q-14 -12 -16 -26zM978 788q0 -22 31 -44q15 -9 27 -9h34 q19 0 23 11q3 5 3 8h-20q-4 0 -90 50q-8 -8 -8 -16zM992 575q13 0 19 7q0 4 15 7v20h-14q-8 -11 -11 -14q-9 -3 -9 -15v-5zM1012 1234q0 -1 1 -1q5 -3 45 -7q3 0 34 -17q11 -3 19 -5l-5 24h-19q-1 0 -6 15q-41 6 -45 6h-1q-13 0 -23 -15zM1027 611h1q19 15 26 34 q10 24 21 43v1l-18 5v-1zM1036 1134q0 -7 15 -15v14q0 1 1 1h19v4v5q-2 0 -19 5q-14 -7 -16 -14zM1096 367q0 -2 1 -2q0 1 34 34l3 -16q12 17 13 17l14 -10q14 23 15 23h1l-11 -48q8 8 17 30q13 34 13 49v32q-1 14 -10 14q-14 0 -48 -56q-42 -51 -42 -62v-5zM1171 515 q16 -5 20 -5t20 5q0 19 -11 19h-15q-14 0 -14 -12v-7zM1171 708q14 -28 69 -28h5q1 0 1 -1v-9h1q17 0 41 13q2 1 5 1h7q10 0 10 -14l-1 -1h-2q-31 0 -31 -28h1q1 1 2 1q7 0 71 4q2 -2 2 -8q-2 0 -49 -13q2 -3 83 -55q20 12 46 36q3 7 3 8q-9 12 -38 32q-71 51 -101 63 q-20 -3 -24 -4l-101 4v-1zM1211 471q0 -12 14 -24q6 -8 6 -15v-5q-10 -7 -10 -21q0 -1 1 -1q28 -7 41 -23q13 -29 17 -31q5 -4 27 -7q1 -7 36 -35q21 -17 27 -34q11 -20 27 -26q22 -11 30 -14q10 0 22 18q1 1 1 2v1q0 30 -39 54q-24 19 -33 36q-23 27 -23 49v32q0 6 1 13 q0 7 -10 38v10v15q0 9 6 9q4 3 9 13h1q47 0 107 -41q28 -24 32 -40q20 8 22 9q-73 75 -73 76q3 6 4 6q89 -51 96 -56v-20q0 -10 -27 -27q-23 -19 -23 -53v-14q0 -23 23 -49q7 -11 8 -11q46 -4 64 -5q15 -24 15 -26q0 -4 -14 -28v-2l19 -44q-17 -8 -17 -9l38 -32l22 20h1 l24 -30q4 1 4 2q-7 58 -7 65v66q0 16 8 30q2 6 2 14v16q0 27 -16 33q-9 3 -19 3h-21q-34 34 -47 48v1q2 3 4 3l24 -14q-14 27 -14 28q10 -3 10 -5v-2q0 -6 16 -16q11 -3 20 -7l33 26v20l-1 4q4 8 30 49v1q-25 -5 -40 -18q-9 -8 -22 -27q-10 -9 -21 -9h-1v34v7q-89 49 -92 49 q-1 -4 -3 -4v8q0 1 1 1h19v9q0 1 2 1h28q-7 10 -27 15q-14 0 -26 12q-4 7 -7 17q-16 0 -21 -12q0 -8 -8 -16q-10 -6 -31 -6h-5l-2 -6h-2q-5 5 -5 6q10 15 27 15q9 2 12 8q5 12 5 41q-18 -7 -56 -41q-23 -23 -23 -34q0 -10 21 -10q16 1 18 1l1 -1v-4q0 -2 -2 -2q-11 0 -38 1 q-4 -7 -4 -8h-2v8h-9l-9 -13h-1v12q0 2 -2 2h-19q-34 0 -46 29q-3 11 -5 11q-30 0 -58 37q-12 12 -20 17q-12 -47 -12 -71q0 -8 12 -18q29 -13 29 -30q-3 0 -44 4q0 -21 -9 -37q-1 -8 -1 -14v-7zM1365 485q10 -14 11 -14q0 -84 11 -106q7 -11 25 -21q26 -19 34 -37 q14 -23 25 -40q36 -46 86 -84q2 -1 18 -13q5 7 5 14q0 26 -78 111l-22 21q1 52 1 88q0 57 -42 74q-13 9 -61 21h-2zM1391 224q7 -17 64 -62q50 -36 60 -36v9q-19 5 -39 30q-31 35 -41 45q-26 24 -40 24q-4 -8 -4 -10zM1476 215q0 -19 68 -78q8 -9 46 -59q11 -12 15 -12h19 q10 0 16 15q-9 15 -38 36q-47 31 -82 63q-17 19 -25 35h-19zM1520 755q2 14 9 14q9 1 15 1h10q1 -1 1 -2q-3 -15 -11 -15q-10 1 -18 1h-4q-2 0 -2 1zM1625 335v6q0 13 18 22q3 2 5 2h4q24 0 28 -33v-2q0 -10 -19 -29v-1l5 -70q0 -6 -1 -20q-11 0 -20 28q-5 23 -5 50v26 q-15 17 -15 21zM1660 535q0 -8 11 -10q9 4 9 9v1q0 7 -11 10q-5 0 -9 -10zM1706 21q0 -1 39 -10l25 9q-4 19 -13 27q-7 6 -21 6h-3z" />
<glyph unicode="$" horiz-adv-x="2200" d="M134 213v2q26 20 26 50q24 149 105 149h20q21 0 52 -26h2q5 18 10 18h32v-2q-34 -40 -34 -95v-34q0 -4 -4 -4h-2q-4 0 -4 4v14q0 103 -40 103q-33 0 -38 -95v-8q0 -48 30 -48v-4q-22 0 -32 -46q0 -5 -5 -78q4 -67 29 -67q52 13 52 99q2 0 2 32v24q0 4 18 6l2 -4 q-6 -24 -6 -44v-14q3 -48 24 -48v-4q-71 -71 -133 -71h-2q-59 0 -76 91q-4 100 -24 100h-4zM190 28v2h2q20 -16 44 -16q32 0 57 12q3 -8 14 -8q15 0 34 34q18 12 40 37h2q4 -25 24 -25v-12q-75 -78 -142 -78h-4q-50 0 -71 54zM214 474q0 4 20 6q31 23 31 62v107 q-6 48 -45 48v4q36 0 45 52v69q0 44 -43 72v2q78 -10 123 -10q224 12 255 12h40q4 -1 4 -4q-54 -47 -54 -137q0 -4 -4 -4h-6q-4 0 -8 42q-32 79 -85 79h-4q-70 0 -80 -93q7 -66 22 -66q29 0 40 30q4 30 8 30h6q3 0 10 -38q13 -19 43 -40q-47 -32 -47 -74v-10l2 -4l-4 -2h-10 q-2 0 -10 38q-11 24 -42 24q-22 -25 -22 -72v-16q0 -57 44 -89q18 -12 61 -12v-2q0 -1 -6 -6q-81 2 -121 2h-54q-62 0 -107 -4zM228 436q0 11 27 14q11 16 22 16h130q64 0 80 -12q17 -4 45 -4h4q4 -1 4 -4v-8q0 -4 -16 -14q-88 2 -131 2h-46q-54 0 -113 -4q-6 7 -6 14z M230 653v12q0 6 20 6q7 -10 7 -20l-2 -4q-25 2 -25 6zM230 854v12l2 4q13 0 23 -30l-5 -2zM261 115q0 112 26 112q0 2 2 2h4q0 -18 24 -18q4 2 6 2l2 -4v-12q-34 -18 -34 -40q-6 -78 -6 -82q2 -8 2 -17l-4 -2h-4q-15 0 -18 59zM267 287v2q4 95 30 95h2q24 -15 24 -38 q-26 0 -30 -77v-16l-2 -4q-24 0 -24 38zM351 241v20q0 3 6 6l-2 10v30q0 48 20 69h28q4 0 6 -18q-30 -40 -30 -95v-22l2 -14q-7 -4 -16 -4h-6q-8 3 -8 18zM357 153v18q0 5 32 8q0 -2 2 -2q-10 -33 -10 -64v-4q0 -4 -4 -4q-20 0 -20 48zM387 404v4q40 -2 60 -2h26q33 0 57 4 v-4q-24 0 -28 -38q2 -22 2 -38v-23q0 -7 -2 -18q5 -20 22 -20v-4q-20 -10 -20 -26v-78q0 -54 34 -54q35 0 46 66q2 19 2 38v24q0 29 -14 36q14 10 14 51v28q0 56 -20 56h-6v4q24 -4 54 -4q26 0 54 4v-4q-28 0 -28 -28v-75q0 -16 18 -24q2 0 2 -2q-20 -11 -20 -30v-48 q0 -69 -52 -90q-55 -24 -105 -24h-8q-58 0 -58 84v54q-4 28 -24 28v2q24 15 24 34v59q0 58 -30 58zM405 207v12h4v-12h-4zM407 583v12q0 45 18 64h8q20 0 28 -38l-4 -2h-4l-4 2q-18 -21 -18 -71q0 -11 4 -40q-28 29 -28 73zM411 779q0 59 46 81q29 2 49 2q22 0 50 -52v-4 q-23 20 -42 20h-4q-63 0 -73 -75v-22q0 -4 -4 -4h-6q-9 0 -16 54zM437 81v4h2q20 -8 34 -8h16q21 0 57 8q0 -4 14 -8q14 0 36 28q52 20 52 92v50q5 24 24 24v-6q0 -10 12 -16q2 -17 2 -20q-14 -8 -14 -24v-48q0 -75 -64 -99q-51 -22 -100 -22h-10q-45 0 -61 45zM481 597 q15 1 15 6l-3 24q0 29 39 60h2l32 -24v-6q-48 -37 -48 -72q2 -14 2 -22l-6 -4h-25q-6 0 -8 38zM498 743l4 2h4q12 -1 12 -6v-4l-2 -10q2 0 2 -2l-4 -2q-10 11 -16 22zM512 163v74q0 14 22 24q0 -24 24 -24l2 -4v-8q0 -2 -20 -14l-4 -14v-80h-6q-18 11 -18 46zM512 285v87 q0 6 50 8l2 -4v-12q0 -3 -24 -12q-4 -13 -4 -18v-55q0 -4 -4 -4q-14 0 -20 10zM572 364v10h4v-10h-4zM588 743q10 3 10 6v4q0 75 34 115h32l24 -2v-2q-66 -55 -66 -145q-18 -12 -26 -12q-3 0 -6 6v10zM612 703v2q27 0 34 54q0 60 91 119q55 24 100 24q131 0 177 -80 q11 -24 24 -87q23 -30 36 -30v-2q-24 -13 -38 -62q-11 -61 -36 -95q-58 -80 -163 -80q-129 0 -171 107q-7 12 -18 84q-6 24 -36 46zM614 661v2q0 4 18 10q5 -8 8 -22h-2q-1 0 -24 10zM648 303v69q2 6 12 6h2q4 -1 4 -4q-6 0 -12 -36q0 -22 18 -47v-6q-21 0 -24 18zM664 330 v10q0 64 103 74q46 0 84 -22h2q10 16 20 16q11 0 16 -10v-6h-6q-22 0 -22 -28q0 -26 -12 -36h-6l2 14v14q-10 40 -56 40q-35 0 -40 -34q0 -24 62 -53q10 -2 20 -2h8q5 0 18 4q0 -2 2 -2l-2 -10q0 -15 34 -32q28 -23 28 -54q0 -72 -116 -84h-12q-23 0 -65 24h-2 q-17 0 -34 -32l-4 -2h-2q-3 0 -6 6q20 59 20 80q-4 34 -4 38l4 2h4q3 0 14 -38q40 -60 91 -60h2q38 0 38 30v8q0 38 -56 52h-8q-8 0 -26 -4q0 2 -2 2l2 4v4q0 14 -47 30q-46 29 -46 57zM680 281v2h2q30 -23 67 -36l-2 -20v-6q26 8 38 8h6q48 -13 48 -46v-2q-22 8 -24 8h-8 q-13 0 -36 -8l-2 4v2l2 20q-59 23 -59 42q-32 7 -32 32zM690 514q55 -54 123 -54q54 -2 54 -6q75 21 111 54q52 57 62 109q6 46 30 74h6q19 -18 42 -24q0 2 2 2q6 -8 6 -18h-6l-8 6q-36 0 -56 -109q-40 -88 -121 -120q-36 -8 -40 -8v2q-8 -4 -22 -4h-8q-135 0 -175 96z M692 87q12 56 30 56h4q42 -20 45 -20q6 0 60 -6q22 0 34 16q62 28 62 78v16q24 -19 24 -50v-14q0 -4 -34 -12q-4 -6 -6 -20q23 2 26 4q0 -2 2 -2q-37 -52 -118 -52h-4q-29 0 -64 22q-3 0 -6 2q-11 0 -27 -30l-16 -7q-8 0 -12 19zM710 972q31 16 31 42q6 52 6 103 q0 64 -33 86v2q29 13 29 60q2 0 2 12q0 102 -29 113q-4 0 -4 4v2q69 -4 75 -4q13 0 70 4v-2q-30 -18 -30 -78v-30q0 -68 26 -83q-30 -30 -30 -84q4 -137 20 -137q16 -8 16 -10l-2 -4q-19 6 -60 6q-32 0 -85 -6zM724 211v4h4q13 -6 13 -22h-2q-4 0 -15 18zM724 924v8 q0 13 21 18q5 16 26 16h24q76 0 76 -16q8 -2 18 -8q15 0 26 22q16 0 54 -4q4 2 6 2q0 -16 25 -24q-3 -18 -8 -18q-35 4 -51 4q-27 0 -56 -6q-19 8 -64 8q-21 0 -95 -6zM724 1159v8q1 4 4 4q6 -9 6 -16h-6q-4 0 -4 4zM724 1352v10h4l4 -16h-2q-2 0 -6 6zM757 360v8 q9 16 22 16h24q34 -6 34 -30v-6l-2 -4q-14 4 -24 4q-12 0 -26 -12h-4q-24 17 -24 24zM769 757q0 -43 22 -52v-4q-20 -20 -20 -72v-2q0 -102 56 -137q12 -6 18 -6q40 0 68 77q12 33 12 68v6q0 47 -24 68q18 24 18 50v16q0 77 -56 111q-12 6 -20 6q-74 -28 -74 -129zM777 761 q0 70 48 107q14 4 34 4q14 0 36 -36l4 -14q-11 10 -30 16q-68 -24 -68 -127q-2 0 -2 -2q-19 0 -22 52zM779 629q0 61 24 68q0 -15 28 -32q-28 -18 -28 -76q0 -38 12 -77h-2q-34 41 -34 117zM831 1109q0 66 30 90h2q4 -15 22 -30q2 -3 2 -8q-30 -24 -30 -70v-12q0 -6 -2 -6 l2 -12q0 -30 4 -75l-4 -2h-2q-21 0 -24 125zM835 1288v2q0 74 12 74q4 0 36 4q8 -12 8 -28q-2 0 -2 -2q-6 4 -12 4q-18 -12 -18 -99q2 -29 2 -32h-2q-22 0 -24 77zM859 324l14 42l14 12h10l10 -2v4h2q8 -3 10 -32q0 -4 -22 -6q-4 -37 -14 -59h-2q-15 8 -16 14q1 16 4 16 q-2 4 -2 11h-2l-4 -2q0 2 -2 2zM865 1390q1 4 4 4q51 -8 86 -8q20 0 57 6q0 -2 2 -2q-2 -4 -4 -22q0 -29 72 -221l16 -48h2v42q0 47 -20 58q15 0 18 60q0 121 -14 121l-14 12v2q38 -2 46 -4q37 4 52 4q45 -6 77 -6q22 0 62 6l2 -4q-28 -12 -28 -72v-127q16 20 80 143l2 12 v12q0 18 -28 28v4q1 4 4 4q32 -6 62 -6q21 0 59 6l2 -4q-27 -18 -81 -125q-14 -20 -14 -32q0 -16 38 -26v-2q-6 0 -14 -28q10 -68 93 -199q2 0 2 -2v-4l-2 -4q-26 6 -69 8q-47 -2 -78 -8l-2 4q32 17 32 38v8q0 13 -54 127h-2q-36 -73 -36 -121q0 -38 28 -46q3 0 6 -6l-2 -4 q-26 6 -56 6h-24q-29 0 -59 -6q-49 10 -86 10q-10 0 -46 -4l2 20v4q0 39 -93 267v2h-2l-2 -32q0 -22 14 -38q-15 0 -20 -84q2 -14 2 -22v-32q0 -87 28 -87v-2q-2 0 -2 -2q-21 4 -46 4q-24 0 -46 -4v2q22 12 22 18q10 19 10 57v84q0 51 -22 70q18 18 18 62v79q0 36 -32 48 q-2 0 -2 2zM885 279v2q1 4 4 4l2 -4v-2h-6zM897 408v4q64 -4 87 -4q156 4 186 4v-2q-32 -36 -32 -86v-8q0 -5 -4 -5q-12 87 -44 87q-14 -6 -14 -48v-2q0 -59 22 -59v-4q-16 0 -20 -26v-62q0 -34 56 -44q2 0 2 -2v-2q-59 2 -68 2q-66 0 -145 -10v4q69 11 69 50v64 q0 18 -29 26v2q33 0 33 83q-4 28 -10 28h-4q-24 0 -49 -89h-4l-4 2l2 25v14q-11 58 -30 58zM905 661v6q2 0 6 2q4 -7 4 -10h-2zM933 93q0 26 34 26q23 8 37 22q11 0 66 2q2 0 48 -2q1 -8 50 -20l6 -12v-4q-3 0 -10 -4q-17 0 -76 2q-66 0 -153 -12q0 2 -2 2zM939 269 q0 55 30 111h11q2 0 6 -6v-14q0 -65 -31 -65h-4v-12l16 -12v-6q0 -4 -4 -4h-18q-5 0 -6 8zM945 1071v64q0 54 20 54q17 -39 17 -42q-13 -9 -13 -56v-59q0 -17 2 -50l-4 -2q-22 0 -22 91zM973 251v2q1 4 5 4h2q4 0 4 -4v-10q0 -4 -4 -4q-7 2 -7 12zM1020 1358q11 6 24 6 q0 -2 2 -2q-2 -27 -2 -40q0 -20 34 -113l-4 -2h-2q-7 0 -50 139q-2 3 -2 12zM1032 806q22 -19 32 -85h-2q-18 0 -30 85zM1046 928q6 18 6 24v12q0 6 34 6q96 -6 96 -20l10 -2l16 18h39q67 0 78 -18q16 -1 16 -6v-14q0 -3 -8 -8q-38 6 -62 6h-16q-26 0 -65 -6h-4 q-38 10 -82 10q-22 0 -54 -8zM1074 892v2l4 2q96 -8 138 -8q26 0 95 6q-4 -19 -4 -22q0 -32 56 -121l84 -150h2q0 9 2 44q-6 54 -30 54v4q25 6 26 54q0 121 -18 121q0 6 -26 14v4q40 -2 61 -2h26q21 0 64 2v-4q-52 -6 -52 -52v-85q0 -36 30 -52h2v-4q-28 -27 -28 -102v-63 q0 -40 36 -52q20 -1 20 -8l-2 -4q-71 10 -135 10h-8q-39 -2 -70 -2q3 7 6 18q0 44 -130 239q-18 34 -25 38v-42q0 -16 21 -32v-2q-25 0 -31 -74q0 -139 24 -139q9 -10 25 -10v-2q-2 0 -2 -2q-35 4 -71 4h-10q-36 0 -70 -4v2q0 3 28 10q24 20 24 58v95q0 48 -34 64v2 q30 20 30 82q0 93 -20 93q-11 7 -38 16zM1076 1187l4 2q10 -11 10 -32h-4q0 3 -10 30zM1082 1352v4h4v-8q-4 0 -4 4zM1084 344v10q0 26 6 26h14q5 0 14 -28q-8 0 -10 -49v-4l-2 -4q-22 0 -22 49zM1086 199v60q0 15 22 22q0 -18 34 -30q10 6 14 6l4 -6v-6h-2q-10 0 -10 4 q-38 -16 -38 -24v-52l-2 -4q-22 9 -22 30zM1088 854v8q0 2 8 6q26 0 26 -26v-4q-2 0 -2 -2q-32 3 -32 18zM1096 426v6q0 16 28 16q15 10 22 18h16q77 0 77 -14q12 -6 30 -10v-12q0 -3 -8 -8q-43 4 -75 4h-4q-27 0 -84 -4zM1132 1251q0 -32 20 -54q-18 -27 -18 -112v-42 q0 -63 28 -63q0 -4 8 -4q20 0 26 69v126q0 12 -22 34q22 18 22 36v81q0 68 -36 68q-28 -9 -28 -56v-83zM1140 1257v69q0 36 6 36h6q10 0 30 2q4 -8 4 -22q-22 0 -22 -67v-72h-2q-22 10 -22 54zM1142 1051v28q0 94 20 118v2h4q6 -34 22 -34q-22 -42 -22 -106v-37q0 -10 2 -34 q-2 0 -2 -2q-24 0 -24 65zM1144 287v2q22 13 22 51q40 72 111 72h24q75 0 102 -68q0 -43 28 -61q-18 -12 -32 -74q-33 -68 -96 -68h-14q-86 0 -115 76q-9 70 -30 70zM1146 271v4h2q5 0 6 -10h-2q-3 0 -6 6zM1146 318v4q0 41 16 60h20v-2q-28 -33 -28 -71l-4 -2h-2zM1192 165 v2h2q42 -36 105 -36q0 -6 16 -8q5 0 28 18q25 0 64 64q16 70 30 70q20 -18 20 -42q-10 0 -28 -74q-42 -66 -98 -66h-20q-84 0 -119 72zM1196 619q0 72 31 72h4q0 -11 22 -26v-10q-26 -13 -26 -30q-4 -19 -6 -50q2 -21 4 -87q-2 0 -2 -2q-27 0 -27 133zM1206 731v10h2 q23 -28 23 -38q-25 13 -25 28zM1243 243q0 -76 46 -90h4q35 0 46 82v10q0 27 -14 42q10 16 12 39q0 58 -44 76h-4q-36 0 -46 -72v-14q0 -15 12 -27v-2q-12 -16 -12 -44zM1251 245q0 30 18 42h6v-8q0 -21 22 -26v-2q-22 -13 -22 -48l4 -36h-2q-26 26 -26 78zM1251 318v12 q0 52 40 52h18q8 -7 16 -30q-2 0 -2 -2q-7 4 -12 4q-36 -19 -36 -63q-21 0 -24 27zM1283 1024q0 36 26 99h6q3 -12 18 -42q-20 -41 -28 -95h-2q-20 9 -20 38zM1289 1223v93q0 44 10 44l40 6q2 -4 4 -20q-30 -10 -30 -60v-21q0 -3 -20 -42h-4zM1317 862q3 2 26 4l2 -4v-6 q0 -3 -6 -22l6 -32q-26 35 -28 60zM1349 922v10q0 13 20 18l14 16q21 0 32 2q39 -2 81 -10v10h4q0 -5 20 -30v-16l-2 -4q-23 6 -81 10q-48 -2 -86 -10zM1349 1344v20h4l2 -10v-14h-2q-4 0 -4 4zM1355 426v2q12 22 12 36q-2 0 -2 2q4 0 4 4q40 2 60 2q110 0 135 -18 q32 -5 32 -20v-8q0 -4 -4 -4q-89 10 -141 10h-6q-23 0 -90 -6zM1375 1231v2q3 16 68 125q7 2 49 8l2 -4v-16q-31 -23 -73 -109q-12 -20 -14 -20q-19 0 -32 14zM1401 1177v6q1 4 4 4q34 -11 34 -14v-8q-14 -14 -14 -24v-8q0 -18 41 -109q-58 96 -65 153zM1411 344h2 q22 -23 22 -45v-6h-2q-22 13 -22 51zM1415 852v8q0 3 6 6h6q5 0 10 -24q-2 0 -2 -2q-17 5 -20 12zM1427 408v4h2q64 -6 87 -6q21 0 44 4q0 -2 2 -2q-4 -10 -4 -16q0 -23 60 -131q38 100 38 141l-2 10q40 -2 61 -2h40q17 0 50 2v-2l-22 -12q-6 -10 -6 -26v-61q0 -41 22 -58 v-4q-22 0 -22 -40v-82q0 -42 28 -57v-2q-94 33 -163 33l-2 4q46 9 46 46v80q-5 32 -20 32v2q20 18 20 44v25h-2q-43 -68 -52 -133l-14 -68q-16 0 -22 40q-28 88 -98 169v-37q0 -17 18 -28q-15 0 -18 -52q0 -98 26 -98h2v-4q-45 10 -83 10h-10v4q33 0 33 42q0 9 -2 26 q2 21 2 32q0 31 -23 46q19 16 19 45v50q0 30 -35 30zM1429 651q2 20 6 20q6 -2 6 -12v-4q0 -4 -4 -4h-8zM1439 368v8q0 3 6 6h8v-18q0 -4 -4 -4h-2q-3 0 -8 8zM1443 93v8q0 4 29 10q4 12 8 12q62 -8 62 -22q18 -8 18 -10v-14q0 -5 -4 -5q-37 11 -109 15q-4 5 -4 6z M1504 1328v56q0 16 20 16h70q11 0 16 -10v-66q0 -14 -14 -14h-78q-14 0 -14 18zM1506 233q0 35 20 38v16q-20 0 -20 18v11h2q13 -13 38 -53v-4l-16 18v-10q2 -20 20 -20v-12q-18 -11 -18 -28l-2 -18q2 -28 2 -54h-8q-18 0 -18 98zM1510 761v51q0 52 12 52q3 0 48 2q0 6 4 6 q18 -21 18 -32q-3 0 -6 6q-52 0 -52 -59v-74h-2q-22 11 -22 48zM1514 540v57q0 74 26 94q2 -8 28 -26v-8q-30 -24 -30 -105v-54l-2 -4q-18 0 -22 46zM1518 1322h38q-2 7 -2 22h-2q0 -16 -10 -20q-3 0 -8 8v16q0 4 4 4q2 -4 2 -8h2q0 8 4 14q-4 0 -4 10h-2q0 -8 -4 -8l-2 4v8 q0 11 8 14q8 -2 8 -18h2q0 14 4 20h-4q-11 0 -28 -2q-4 2 -6 2q4 -7 4 -16q0 -14 -4 -14q4 -7 4 -12v-12q0 -6 -4 -12zM1520 1286v10q0 4 4 4h82q12 0 12 12v52q1 4 4 4h4q3 0 8 -8v-80q-3 -9 -14 -9h-86q-14 0 -14 15zM1560 896v4q94 -6 147 -6q81 0 293 8l2 -4 q-56 -50 -56 -145l2 -14l-4 -2h-2q-5 0 -15 69q-22 72 -56 72q-24 0 -24 -66v-33q0 -78 36 -78v-2q-34 -23 -34 -40v-107q0 -53 70 -68q27 -4 27 -8v-4q-76 2 -115 2h-66q-72 0 -163 -8l-2 4l66 16q45 20 45 64v107q0 25 -47 40v4q49 0 49 78q4 0 4 51v10q0 35 -23 40 q-35 0 -74 -143h-12l-4 2q6 15 6 44v8q0 69 -50 105zM1560 1322h16l-2 4v10q0 14 4 22q-4 7 -4 16v10l2 4h-16l2 -4v-18q0 -5 -2 -8q2 -5 4 -20q0 -4 -4 -16zM1570 376q7 4 12 4h12v-4q0 -20 -4 -20q2 -14 18 -55q-20 28 -38 75zM1580 1322h6q12 0 18 38q-3 0 -8 22 q-7 6 -14 6q6 -7 6 -14v-4q0 -6 -4 -12q4 -1 4 -4v-14q0 -16 -8 -16v-2zM1612 125l14 -2q10 70 28 134h4q20 -3 20 -28v-4l-24 -108q-22 0 -22 -14v-2q0 -7 20 -10v-4q0 -4 -4 -4q-34 4 -34 34zM1612 420q0 24 26 24q34 6 67 20q12 2 28 2h128q47 0 95 -14q19 0 26 -18 q2 -4 2 -6l-10 -4q-87 2 -133 2h-52q-73 0 -135 -6q-3 2 -10 2q0 -4 -4 -4h-12l-14 -2zM1618 699q5 32 12 32v2q12 76 52 131h19q8 0 8 -34v-2q-29 -33 -53 -115q-2 -14 -4 -18q2 0 2 -2l-6 -4h-24q-4 0 -6 10zM1654 60v2q0 16 32 21q0 1 6 6q30 0 125 -35q0 -4 22 -18v-20 h-2q-98 36 -175 36zM1664 277v4q9 20 12 20v-4q0 -11 -12 -20zM1676 655v10q0 6 20 6q7 -7 7 -14v-10l-2 -4q-23 7 -25 12zM1785 129v86q0 28 28 28q3 -11 22 -28v-8q0 -2 -20 -10q-6 -9 -6 -36v-76l-2 -4q-18 0 -22 48zM1785 316v60q0 4 38 4q-18 -27 -18 -56v-2 q0 -5 4 -39v-24h-2q-18 0 -22 57zM1813 322q0 80 104 92q50 0 83 -34h2q12 24 16 24h4q15 0 18 -20q0 -4 -20 -6q-8 0 -12 -75q-6 -18 -10 -18h-2l-4 2q4 12 4 33q0 54 -48 68q-4 2 -9 2q-42 -11 -42 -42q0 -30 63 -83q20 -8 32 -8q14 2 16 2v-22q0 -16 38 -58 q24 -46 24 -86q0 -64 -42 -85q-15 -6 -26 -6q-68 0 -121 75l-14 4h-6q-6 -1 -22 -27h-6q-4 0 -4 4v4q0 7 18 73v26q0 17 -4 42l4 2h2q8 0 14 -46q58 -127 111 -127h12q12 11 12 34q0 74 -65 107q-6 0 -14 2l-12 -2l-2 4v8q0 2 2 2q0 17 -40 44q-54 49 -54 91zM1835 249v2 q18 -18 62 -56v-14q0 -4 -4 -4q-53 49 -58 72zM1843 24q7 48 24 48h2q4 0 48 -50q47 -28 87 -28q64 0 74 91v8q0 19 -10 62q32 -42 32 -85v-38q-12 -78 -74 -78q-72 0 -125 72q-7 6 -14 6q-6 -4 -18 -26h-18q-8 3 -8 18zM1855 787v21q4 58 12 58h14q28 -19 28 -42 q-14 4 -14 6q-16 -8 -16 -63v-34l2 -20l-4 -2q-22 6 -22 76zM1857 554v103q5 25 30 30q0 -8 30 -22l6 -8q-42 -23 -42 -36v-111h-2q-22 15 -22 44zM1869 173q4 2 6 2q14 0 20 -52q3 0 6 -14h-4q-28 52 -28 64zM1907 344v8q0 20 32 30q30 0 47 -44q0 -2 -2 -2q-19 6 -22 6 q-20 0 -31 -29v-6h-2q-22 23 -22 37zM1913 163v2h14q23 0 53 -50q2 -4 2 -6h-2q-19 16 -36 18q-4 -2 -25 -4q0 6 -2 6q2 15 4 20q0 3 -8 14zM1950 727q6 0 6 8q0 11 -2 28q11 107 44 107q0 2 20 2h14q4 -1 4 -4v-10q-58 -57 -58 -135l2 -12v-16q0 -3 -6 -6h-16q-8 0 -8 38z M2010 275v4q10 41 10 67v6q11 18 16 20l14 -2l2 4q22 -10 22 -42q-2 0 -2 -2l-14 2h-6q-9 0 -10 -61q-10 -34 -14 -34h-8q-4 0 -4 4v8l2 12q-2 3 -2 12l-4 -2zM2020 225q0 5 18 8h2q0 -7 2 -10q-2 -11 -2 -18v-2h-4q0 3 -16 22z" />
<glyph unicode="%" horiz-adv-x="1300" d="M0 269q0 87 39 201q48 98 65 121q34 31 48 53q14 12 42 31q8 8 13 24q-6 -3 -9 -3q-8 18 -16 18q-5 0 -20 -14q-5 -4 -7 -4l-5 7q-16 -7 -33 -7q-34 0 -48 19q-48 -24 -50 -24q-2 3 -13 27q15 7 15 8v4l-1 4q5 3 8 3q5 -7 6 -7q23 16 40 16q34 -6 37 -6q13 0 35 13 q0 5 -2 11q6 4 7 4q-7 19 -7 38q0 62 47 97q7 4 8 4l5 -7l8 3q10 -20 12 -25q-15 -29 -28 -49q21 -57 32 -66q18 -17 47 -28v-1q23 12 25 12v1q-25 38 -25 82q0 35 16 61l223 112q-7 15 -7 17q1 1 7 4q-3 6 -3 8v1q1 0 16 8q4 -7 4 -9q314 156 621 310l1 2q-7 14 -7 16 q15 8 17 8h1q0 -2 3 -8l9 3q4 -7 5 -7q39 20 42 20l8 -15q2 0 8 2q33 -63 33 -67q-5 -4 -7 -4q3 -6 3 -8v-1q0 -1 -7 -4l3 -9l-126 -64q1 -4 2 -4q8 1 10 1q2 -6 4 -6q7 2 8 2q9 -15 9 -18v-1q-7 0 -23 -23q0 -13 -81 -49q-152 -77 -268 -133q-15 -9 -15 -28q0 -7 -24 -29 q-23 -25 -23 -50q0 -20 20 -52q4 -11 4 -19v-5q0 -24 -13 -53q-15 -13 -97 -49q-12 -5 -39 -31q-77 -38 -77 -40v-1q7 -21 15 -21t19 -26q0 -33 -6 -43v-2q0 -4 2 -17q-12 -32 -32 -54q-17 -26 -22 -27l-52 -27q-3 -2 -12 -3l-12 3q-7 -2 -20 -11l-5 -1q-4 0 -56 18 q-7 20 -16 20t-15 23q-2 3 -21 13q-18 17 -18 21l-9 -4q3 -6 3 -9q-23 -17 -33 -40q-16 -40 -16 -75v-3q0 -24 15 -47q6 3 8 3q21 -39 21 -43q-3 -1 -10 -15l-3 -2q11 -29 22 -33q8 0 20 -25q11 -19 20 -19q3 -5 16 -12q2 -6 2 -8q-3 -15 -21 -32q-31 -11 -49 -32 q-11 -11 -60 -32q-54 -32 -78 -32q-41 -17 -53 -20q-17 -3 -23 -3q-20 0 -26 17q-11 33 -11 49q2 37 2 40q0 17 -14 77q-3 43 -7 86zM28 121q3 -5 3 -7q6 3 8 3q0 3 -4 9q-6 -4 -7 -4v-1zM32 70q3 -7 4 -7q5 4 7 4q0 1 -2 7h-3q-6 -3 -6 -4zM69 222l4 -1h8q1 0 1 -1q1 0 1 1 q6 -1 32 -1v-2l-7 -3q3 -6 3 -7q2 0 9 3q-3 6 -3 8l1 1h5q1 0 1 -1q1 0 1 1q2 0 7 -2q0 -3 -20 -14v-12q0 -5 -1 -12l1 -2q-1 -7 -1 -12v-8h1l21 61q-17 12 -19 15h-2l-43 -11v-1zM74 28q3 -7 5 -7q6 3 6 5q-2 4 -2 6q-8 -2 -9 -4zM95 241q4 -8 5 -8q6 3 7 3q-2 8 -5 8z M115 283l18 -63h1l9 23q-22 33 -28 40zM121 41q2 -7 5 -7l15 7q-3 6 -3 8q-8 -2 -17 -8zM134 215q0 -2 3 -6h-1q2 0 5 -15q-1 0 -1 -1q27 -9 45 -14l-51 38v-2zM138 219q11 0 11 -3q6 2 7 2h3l1 -1q8 11 30 38h-1q-26 -19 -29 -19q-1 3 -1 5l-9 -5q3 -4 3 -5 q-15 -11 -15 -12zM142 551q4 -18 12 -18v-1q3 1 5 4v1q-4 19 -13 19q-4 -2 -4 -5zM163 105l4 -8l8 4q-4 6 -4 8zM163 528q8 -13 8 -15q3 0 6 4h2q3 0 9 -16l2 -2h1l5 4h1q1 0 4 -7q1 -1 3 -1q5 0 5 5q0 3 -12 25q8 2 8 4q-4 17 -9 17h-3q-9 -8 -11 -8h-2q-2 1 -7 15l-2 2h-4 l-2 -3q8 -16 8 -17v-1q0 -3 -9 -4zM167 497q2 -5 4 -5h2q7 0 7 6q-1 4 -4 5h-1q-6 0 -8 -6zM182 559q1 -7 4 -7h2l5 3h1q1 0 5 -8h1q2 0 17 14h3q9 0 18 -32q5 -4 8 -4q2 0 14 10q5 1 5 6l-2 4v1q0 2 7 5l1 1q-1 7 -7 7l-4 -3h-2q-1 0 -4 7h-2l-5 -3h-1q-1 0 -5 8h-2 q-4 -4 -7 -4q-2 4 -2 8h-3l-5 -5h-2q-4 0 -14 25l-3 3q-3 0 -4 -7q3 -4 3 -7q-7 -4 -7 -6q3 -4 3 -7q-1 -2 -16 -8v-1zM207 529q0 -3 5 -7h1q3 3 6 3q2 -8 4 -8q7 0 10 6q-1 7 -7 7l-4 -4h-2q-1 0 -5 8h-1q-5 0 -7 -5zM219 583l2 -2h2q3 0 23 14q6 3 10 3h3q6 0 11 -25 q3 -2 5 -2l5 6l-5 7v1q0 2 8 4v3l-8 14h-2q-4 -4 -7 -4q-6 15 -8 16h-2q-4 -3 -6 -3q-5 2 -5 7q-16 -5 -16 -8q3 -5 3 -8l-7 -5l3 -6v-1q0 -2 -8 -4q-1 -6 -1 -7zM242 631q3 -6 3 -7h1q14 8 16 8q-6 15 -9 18h-3q-4 -3 -4 -7l4 -6q0 -2 -8 -4v-2zM244 282q3 -7 4 -7q7 3 7 5 q-2 5 -2 6q-8 -1 -9 -4zM258 660q0 -4 13 -23v-4q0 -2 -7 -4q0 -2 3 -6q7 5 9 5q5 -16 6 -16q2 -1 3 -1q13 0 16 8q0 3 -14 21v2q6 18 20 18q13 0 27 -44q3 -4 6 -4q3 6 3 10q-9 10 -9 14q27 11 27 15v3l-3 4q4 3 7 3q7 -14 7 -16v-1q0 -1 -7 -4l-1 -1q3 -7 5 -7l7 4h1l5 -8 h1l6 4l5 -9h2q11 8 23 12l-3 9q5 0 7 4v1q-7 16 -7 17v1q0 3 5 3h2q2 0 5 -9h1q7 2 7 6q-1 0 -4 5v1q2 5 16 9q3 0 6 -8q7 4 8 4q2 -7 4 -8q7 0 17 10l-4 5v2q9 7 16 7h2l5 -6q6 1 6 3v2l-4 4v2q0 2 15 8l2 2q0 1 -5 6q0 5 19 11h1q2 0 3 -3v-5h2q3 2 6 2q2 -8 5 -8h4 q5 0 5 5t-13 25l-145 -72q-3 0 -4 7h-3q-6 -3 -6 -4q1 0 8 -16q3 -7 5 -8q1 0 6 4h1q2 0 5 -9q-14 -8 -16 -8t-5 8l-7 -4h-2q-4 2 -4 9q8 4 8 5v1q0 6 -6 6q0 -1 -5 -4h-1q-1 0 -9 17q4 4 9 4l-5 9l-5 -5h-2q-2 0 -9 17h-1h-1l-5 -4h-1q-2 1 -6 16l-4 1h-1q-10 0 -24 -14v-1 q0 -1 5 -5v-1q0 -2 -16 -7q0 -2 -1 -2q4 -7 4 -9q-6 -1 -24 -12h-1q-2 0 -3 9h-2q-17 0 -17 -10zM261 121q3 -7 4 -7q6 3 7 3q0 2 -3 8q-7 -2 -8 -4zM261 206q3 -6 3 -8q10 2 14 2l-9 10q-8 -3 -8 -4zM282 185q8 -16 9 -16q7 3 7 4q-7 16 -8 16q-8 -3 -8 -4zM284 567 q0 -5 4 -7h3q3 1 5 5q0 4 -4 7h-1q-5 0 -7 -4v-1zM294 581q0 -4 5 -4q22 5 29 15v3q0 2 -5 3q-29 -10 -29 -17zM297 818q3 -7 5 -7q6 2 6 5q-2 5 -4 6q-7 -3 -7 -4zM314 848q3 -8 4 -8q7 4 8 4q-3 6 -3 7q-3 0 -9 -3zM322 659v3q0 3 17 7v-1q0 -5 5 -7q5 5 8 5q2 -2 2 -10 q-18 -12 -23 -12q-9 0 -9 15zM334 677v1q2 3 17 9h1q4 -2 4 -6v-3q-2 -2 -17 -7zM340 840q3 -8 4 -8q6 3 7 3q-3 6 -3 8q-3 0 -8 -3zM344 533q9 -15 9 -28q-2 -18 -2 -23q0 -20 52 -56q0 -2 3 -4h1l27 6h2l6 -1q16 5 33 6q2 9 22 21q7 27 13 27q10 15 10 31v11q0 10 1 31 q-8 5 -21 21q-27 15 -42 15h-16q-17 0 -25 -11q-9 -15 -9 -28v-6q5 -42 24 -66q18 -16 33 -20v-1q-3 -4 -20 -5q-23 0 -56 32l-29 57q-15 -7 -16 -7v-2zM351 622q8 -16 10 -16q5 4 7 4t4 -8h3q5 0 6 4q0 4 -9 16h-1q-4 -3 -7 -3q-3 9 -6 9q-7 -2 -7 -6zM378 679q1 -8 4 -8h1 q5 3 6 3l-4 8q-6 -3 -7 -3zM386 838l2 -1q2 0 14 8h3q3 0 6 -13h1q1 0 3 2q-2 3 -2 5q3 1 3 2q-2 4 -2 7l-6 -1q-3 6 -3 7l-5 -1q-1 2 -1 3q-8 -2 -8 -4l2 -3q-4 -2 -4 -3l1 -4q-3 -1 -4 -4zM397 860l2 -3q6 4 7 4q-3 8 -4 8h-1q-1 0 -2 -2l1 -3v-1zM405 875l6 -13 q-2 -2 -3 -2v-3l6 1q0 -7 4 -7q7 0 7 5q-6 6 -6 10q0 6 9 8q5 0 14 -23h1l2 4q-4 6 -4 8q13 5 13 7l-1 4l1 1q2 0 5 -8l-4 -3v-1l2 -2q3 1 4 1q2 -2 2 -3h1l2 2q3 0 3 -4h2q10 5 10 6v1l-1 2q1 0 3 3l-3 6v2q0 1 2 2q3 0 3 -4l4 1v2l-2 2q0 3 8 4h2v-3q3 2 5 2q1 -2 1 -4 q8 2 8 4l-2 3q0 3 8 4h1q1 0 1 -2h4l-1 6q8 2 8 4v1h-2v1q3 5 9 5q1 -1 1 -3l4 1q1 -4 3 -4h1q2 0 2 1v1q0 4 -6 12q-66 -34 -69 -34q-2 2 -2 4l-3 -2q4 -12 6 -12l2 2q2 0 3 -3v-1q0 -1 -7 -5q-2 0 -2 5h-1l-3 -2h-1q-1 0 -2 2v1l4 4q0 2 -2 2l-5 -1q-2 6 -2 8t2 2v1l-1 2 l-4 -1l-5 8l-2 -2l-5 8q-7 0 -12 -7l1 -3v-1l-6 -2l1 -6q-4 -1 -11 -5q-2 0 -2 3h-4q-3 0 -5 -3zM416 762q1 -1 2 -1q13 8 17 8q3 -2 6 -12l2 -1q1 3 1 4q-1 0 -1 2v1q0 1 3 1v2q-3 7 -4 7l-3 -2h-1q-1 0 -4 8q-3 -2 -4 -2q-2 2 -2 3q-5 -2 -7 -2v-2l1 -2l-3 -4v-4 q-2 0 -3 -4zM425 927q0 -3 3 -10q9 3 26 12q-4 9 -6 9q-5 -2 -23 -11zM427 785q0 -3 1 -3q3 0 8 3q-3 8 -4 8h-1q-2 -2 -3 -2q2 -2 2 -5q-3 0 -3 -1zM435 796q6 -8 6 -11q-2 -1 -3 -1v-1q0 -2 1 -2l3 2q2 0 3 -8h3q6 0 6 5l-6 8v2q2 8 9 8t13 -21l2 -1q2 0 3 4q-1 0 -5 6 l13 8l-1 4l2 1q2 0 5 -8q-4 -2 -4 -3q1 -2 1 -3q2 0 5 2q1 -3 1 -4q3 2 5 2q1 -2 1 -4q2 0 12 5l-1 5q4 0 4 3q-4 5 -4 8q1 1 2 1h2q1 0 2 -4q4 1 4 3l-2 2v1q0 2 8 4q2 -2 2 -3l4 1h1q0 -4 2 -4q4 2 7 4v1q-2 2 -2 3q5 4 9 4q1 -1 1 -3h2q1 0 2 2q-1 0 -1 2v1q0 2 7 4v1 l-2 2v1q0 2 9 4q2 0 2 -3l4 1q1 -2 1 -3h5v2q0 2 -5 12q-69 -35 -70 -35q-2 4 -3 4q-2 -1 -3 -1q0 -2 6 -13q2 2 5 2v-4l-5 -4h-1q-1 0 -4 4q-2 -2 -4 -2q-2 3 -2 4q3 2 5 2v1l-2 3q-3 -2 -5 -2q0 1 -3 8q1 0 3 3q-1 2 -1 3h-1l-2 -2q-1 0 -6 8l-3 -2q-1 0 -3 8l-2 1 q-10 -4 -12 -8l2 -3q0 -1 -7 -3l1 -6q-2 0 -12 -5l-1 4q-8 -1 -8 -3v-4zM435 872v3l8 4q-2 3 -2 4q4 2 7 4h1q2 0 2 -2v-2q0 -1 -8 -4v-2q1 -2 2 -2h1l2 2q2 0 3 -4q-8 -6 -12 -6h-1q-3 1 -3 5zM462 883q0 -4 2 -4l3 2q-1 3 -2 3q-2 -1 -3 -1zM465 798v1q0 3 8 3q0 -3 3 -3 q0 2 1 2h3q0 -2 1 -4q-7 -5 -12 -6q-4 0 -4 7zM470 807q0 1 9 5l2 -3v-2q0 -1 -9 -3zM492 803h1q2 2 4 2q-2 3 -2 4q-3 -1 -3 -2v-4zM557 747q0 -1 16 -34q32 14 34 19l-5 4v1q1 3 34 13q11 7 11 14q0 10 -19 29q-25 -11 -25 -14q7 -2 7 -4q0 -5 -53 -28zM608 813q0 -6 6 -6 t6 6q0 5 -6 5q-3 0 -6 -4v-1zM698 828q1 -8 8 -17q15 7 16 7l-8 17q-15 -7 -16 -7zM731 1079q4 -7 4 -8q1 0 9 2q3 -6 4 -6q6 0 17 7q-1 9 -9 17q-6 -2 -25 -12zM782 1018q7 -14 9 -15q26 11 74 36q0 12 8 15q2 0 13 6q8 -5 12 -5q1 14 8 14l210 105q7 -4 12 -4q3 5 5 17 q-1 5 -2 5q-37 -18 -349 -174z" />
<glyph unicode="&#x26;" horiz-adv-x="1300" d="M0 1276v1q0 4 32 67q6 -3 8 -3h1q7 15 9 15q40 -20 41 -20q3 7 5 8l7 -4q4 6 4 8q17 -6 17 -9l-7 -15q0 -3 43 -22l570 -285q0 2 5 8q14 -7 15 -7v-1q0 -2 -3 -8q7 -3 8 -5q-7 -14 -7 -17q218 -108 221 -111q14 -27 14 -60q0 -42 -24 -79v-2q1 0 24 -11q0 1 27 13 q28 15 40 53l11 29q-14 18 -27 47q10 24 11 24h1q2 0 8 -3q4 8 5 8q9 -3 30 -26q23 -36 23 -74q0 -18 -7 -38h1l6 -4q-2 -6 -2 -10q23 -13 36 -13l35 5q16 0 41 -15q4 5 4 6q4 0 8 -2v-4v-4q0 -1 15 -8v-1q-12 -25 -15 -26q-47 24 -49 24q-11 -19 -46 -19q-16 0 -33 7 q-4 -7 -5 -7q-8 5 -23 18h-4q-6 -1 -16 -18q-1 0 -8 4v-1q9 -25 27 -33q15 -8 36 -30q5 -11 39 -44q13 -14 63 -119q14 -29 25 -85q14 -64 14 -99v-25q-4 -31 -7 -81q-13 -47 -13 -71q1 -30 1 -39q-8 -52 -13 -52q-6 -11 -23 -11q-24 0 -61 17q-8 5 -39 10l-102 51 q-32 32 -49 36q-14 5 -19 15q-10 16 -10 22q1 6 21 19q8 0 29 37q18 10 23 24q0 2 6 14q-3 1 -13 18q20 41 22 41l7 -3q15 22 15 46v5q0 56 -35 101l-14 12q0 1 3 7l-8 4q-9 -17 -38 -31q-8 -25 -15 -25q-10 0 -16 -18q-1 -3 -20 -7q-29 -13 -36 -13q-4 0 -21 11q-2 0 -4 1 l-11 -3q-8 0 -58 27q-9 0 -24 25q-30 39 -32 52q-1 0 -3 6q3 12 3 18q-7 11 -7 43q10 26 21 26q7 4 11 15q2 6 2 8q-72 35 -81 42q-20 22 -38 28q-95 42 -95 54q-9 27 -9 45v5q0 15 22 51q2 11 2 19q0 31 -41 67q-4 3 -9 28q-3 9 -82 45q-214 107 -253 125q-16 10 -28 31 q-13 12 -15 12v1q6 17 9 17q6 -2 8 -2q3 6 5 6h9q1 1 1 4q-123 61 -124 63v1q0 1 3 7q-7 2 -7 5q0 2 3 8q-1 0 -7 3zM137 1170q2 -13 6 -17q11 5 12 5q18 -10 211 -106q2 -13 4 -13l11 6q20 -8 20 -14q0 -8 5 -10q45 -22 70 -31l7 13q0 2 -345 172v-1zM500 1059q11 -7 16 -7 q5 6 6 6q6 -2 8 -2q0 1 4 8l-25 12q-8 -9 -9 -17zM542 807l17 -7q7 14 7 16q-1 0 -15 8zM616 753q0 -13 40 -23q5 -2 5 -4v-1q0 -1 -5 -2v-1q2 -5 33 -19q16 32 16 34q-50 22 -52 27v1l7 4q-6 5 -26 13q-18 -20 -18 -29zM643 801q0 -6 7 -6q5 1 5 7q-1 5 -7 5q-5 0 -5 -6z M685 812h5q0 3 2 3h3q0 3 2 3q4 0 8 -4v-1l-2 -3q7 -3 7 -5l-1 -3l2 -2h2q0 4 2 4q7 -2 7 -4l-1 -5q6 -3 8 -3q1 2 1 3h5q0 3 3 3q7 -3 7 -4v-1l-2 -3q0 -1 3 -2q1 4 3 4h1q2 0 2 -2q-3 -8 -3 -9q3 -1 3 -2q-1 -2 -1 -4q2 0 10 -5h2q0 4 2 4l3 -2h1q0 2 1 4q3 -1 5 -1l1 3 q-4 1 -4 2q3 8 5 8l2 -1l-1 -4q0 -1 12 -8l-4 -6q2 -4 3 -4t10 20q3 2 5 2q8 -2 8 -8v-2q-6 -7 -6 -10q3 -2 6 -2h3q1 7 4 7l2 -2q2 0 2 2v1q-3 0 -3 2t5 10v4q0 2 -8 2q0 -3 -2 -3q-8 5 -10 5v6q-6 1 -6 3l1 3q0 3 -12 7q-2 -3 -3 -8h-1l-3 1l-6 -7l-2 2h-1q0 -1 -1 -4 q4 -1 4 -2q-3 -8 -5 -8l-4 2l-1 -3v-1q4 -1 4 -3q-1 -3 -3 -3q-1 1 -4 1q0 -1 -2 -3h-1q-6 3 -6 5q1 2 1 3q2 0 5 -2q4 8 4 13h-3q0 -2 -2 -3h-1q-1 1 -67 34q-5 -10 -5 -11v-3zM701 705q0 -1 4 -3h5q3 0 5 8h1l4 -2h3v5q0 1 2 2h1q19 -5 19 -10l-5 -5q0 -3 15 -9l2 -2v-2 l-3 -4v-2q0 -2 6 -3q4 7 5 7h1q7 0 16 -8v-1l-4 -5q0 -4 15 -10h2q2 0 4 8h1q5 -3 7 -3h1q1 7 3 7q18 -5 18 -9v-1l-4 -6q0 -3 7 -5q3 8 5 9h3q5 -1 5 -3v-2q-8 -15 -8 -16v-1q2 -4 8 -4v-1q-3 -3 -3 -8q14 -5 22 -11h1l5 8h1l6 -4h1l5 8h1l6 -4q3 0 5 7q0 2 -8 5v1 q6 16 9 16q4 -1 5 -4q-3 -1 -3 -5q0 -6 25 -14q2 -2 2 -3t-9 -14q2 -8 5 -8q5 1 18 37q6 10 15 10q17 -7 17 -19q0 -1 -13 -20v-1q2 -9 15 -9q6 0 7 13q0 4 4 4q6 -4 7 -4q2 1 2 6q-6 0 -6 4v1q0 2 12 22q1 1 1 5q-3 8 -17 8h-2q-1 -9 -3 -9h-1q-8 6 -23 12v2l4 7 q-1 2 -17 7v2q5 4 5 5v1q-14 14 -24 14h-1q-6 0 -7 -11q0 -5 -3 -6h-1q-4 5 -5 5q-3 -2 -9 -16l-1 -1h-2q-5 4 -6 4l-4 -8q4 0 8 -4q-7 -17 -8 -17h-2l-6 4q-5 -2 -5 -6v-3q9 -1 9 -5t-4 -7h-2l-5 4h-2q-4 -8 -5 -8q-2 0 -16 9q3 8 5 8h1l5 -4q3 0 14 25q-5 3 -8 3h-1 q0 -7 -5 -7q-4 2 -143 71v-1q-12 -19 -12 -25v-1zM714 888q0 -2 1 -2h2l3 4h4q0 3 1 3q9 -2 9 -5v-2h-2v-1q8 -4 8 -5l-1 -5h3q0 3 2 3h1q7 -2 7 -4l-2 -3q0 -2 8 -4h1q0 3 1 3l4 -1l1 3h1q8 -2 8 -4l-2 -3v-1l4 -1q1 4 3 4h1q1 0 1 -2v-2q-3 -5 -3 -7l3 -2l-1 -4q2 0 10 -5 h2q1 4 3 4l2 -2h1q0 3 2 3l4 -1l1 2v2q-4 1 -4 2q4 8 5 8l2 -1l-1 -4q0 -2 13 -7v-1q-2 -4 -5 -6q1 -4 3 -4q2 2 9 19q4 3 7 3q7 -3 7 -8v-2q-6 -7 -6 -9q2 -4 9 -4q2 5 2 7l6 -1v3q-3 0 -3 2l6 12q-1 4 -5 4h-4q0 -3 -1 -3h-1l-10 6l1 5q-1 0 -7 1v2l2 3q-5 6 -13 6 q-1 0 -3 -7h-1l-3 1l-5 -7l-4 1l-1 -2v-2q3 0 3 -1q-1 -8 -4 -8l-4 1l-1 -2l4 -4v-1q0 -1 -3 -2l-3 2h-1q0 -5 -2 -5q-7 4 -7 5v1q0 1 3 3l2 -2q1 0 6 12l-3 1q0 -3 -4 -3q-66 33 -67 33q-5 -8 -5 -11v-1zM740 546q1 -21 1 -30v-11q0 -22 19 -40q3 -21 10 -21q10 -6 17 -17 q15 -1 32 -6q4 1 6 1q3 0 27 -6h2q33 26 47 41q8 10 8 20q-3 20 -3 23q1 13 9 26v1q-1 0 -15 8q-30 -60 -33 -62q-31 -27 -53 -27q-12 0 -18 5v1q31 12 43 35q13 34 13 52v4q0 22 -17 35q-4 3 -21 4l-4 -1h-7q-17 0 -44 -15q-5 -10 -19 -20zM765 794q1 0 3 -2h1l1 4l-4 2 q0 -2 -1 -4zM780 786q1 2 1 4h3l2 -2q2 2 2 3q8 -1 8 -3v-2q0 -4 -4 -6q-5 1 -12 6zM780 796v2q0 1 3 2q5 -3 7 -3v-2q0 -2 -2 -2q-8 2 -8 3zM794 869q1 -1 4 -1q1 1 1 3l-4 1zM807 916q18 -10 25 -11q3 6 3 9q-19 11 -24 11q-3 -7 -4 -8v-1zM810 861q1 4 2 4l3 -2q2 0 2 2 v1q0 2 -7 4v3q0 2 1 2h2q7 -4 7 -5q-2 -2 -2 -4q7 -2 7 -3v-3q0 -4 -3 -5h-1q-3 0 -11 6zM815 754q3 0 3 -2v-1l-2 -2q1 -2 1 -3h3q2 13 6 13q2 0 17 -9h1q0 1 1 1q0 2 -5 5l1 4q-3 2 -3 3l2 2v2q-2 0 -8 3q0 -4 -2 -4q-2 1 -5 1q-1 -7 -4 -7l-3 2q-1 -4 -3 -7v-1zM825 775 q2 -3 8 -3v3q-1 0 -3 2l2 3l-2 2h-1q-2 0 -4 -7zM845 822l3 -2q2 1 5 12l2 1h1q3 0 15 -8h1l2 1q0 2 -4 5v4l-3 2q2 3 2 4q-6 3 -8 3q0 -3 -2 -3l-4 1q-2 -7 -4 -7l-4 1q-2 -4 -2 -7q1 0 2 -3q-2 -2 -2 -4zM854 849q1 0 7 -4l2 3l-3 3v1q1 2 1 3t-2 2h-1q-1 0 -4 -8z M870 665q1 0 8 -4q3 4 3 9q-1 0 -6 3zM879 597q1 -3 6 -3h3q1 7 3 7t9 -3q8 15 8 16q0 4 -8 5q-4 -8 -6 -8q-1 0 -5 3h-2q-8 -12 -8 -16v-1zM904 669v2q0 5 3 6h2q14 -6 16 -8v-1l-5 -7q-16 7 -16 8zM905 648q0 8 4 8l6 -4q4 0 6 8q15 -5 16 -7v-3q0 -14 -9 -14q-6 0 -23 12 zM908 824l8 -4q0 1 4 8q-4 2 -9 2zM931 584q7 -10 29 -15h1l4 3q0 8 -30 18q-4 -1 -4 -3v-3zM933 832l8 -3l4 7q-6 4 -9 4q0 -2 -3 -8zM950 803q6 -3 8 -3q3 6 3 7q-6 3 -8 3q-3 -6 -3 -7zM961 170q4 -3 8 -3q6 12 6 16q-4 3 -7 3q-7 -12 -7 -16zM962 558q2 -4 5 -6h3 q5 2 5 7v1q-3 4 -7 4h-2q-2 0 -4 -6zM975 581q8 -2 8 -4v-1l-4 -6q0 -5 6 -7q4 0 8 22q4 5 7 5h2q6 0 31 -17h3l3 2q0 8 -10 10v2l4 5v1l-8 5q4 8 4 9q-11 5 -16 5q-2 -6 -6 -6q-5 4 -7 4q-2 -1 -7 -15q-2 -1 -3 -1q-5 3 -7 3l-8 -13v-3zM980 197q13 0 14 -1q2 5 2 8 q-6 3 -7 3q0 -1 -9 -10zM986 116q5 -3 8 -3q3 5 3 7q-6 3 -8 3q-3 -6 -3 -7zM987 545q0 -3 8 -4v-2v-2q-2 -3 -2 -5t11 -8q0 -4 9 -7q7 0 16 30q4 6 8 6h1q4 0 18 -13h3q2 7 4 7h1l5 -3h2q3 0 4 7q0 2 -16 9v1q3 7 3 8q-7 3 -7 4q3 7 3 8q0 4 -4 5q-3 0 -13 -25l-3 -2h-3 l-5 5h-1q-1 0 -3 -7l-2 -1h-1l-4 4h-2q-4 -8 -5 -8h-2l-4 4h-1q-4 -8 -5 -8h-2q-1 0 -4 3h-3q-2 0 -4 -6zM996 623l17 -7q0 1 3 5v1q0 2 -7 4v1q0 3 3 7q0 4 -4 7h-3q-2 -1 -9 -18zM1003 275q4 -3 7 -3q4 5 4 7q-6 3 -9 3q-2 -6 -2 -7zM1024 516q2 -6 10 -6q2 0 5 7h1l4 -2 h1q5 3 5 6q-1 5 -6 5h-2q-4 -7 -5 -7h-2l-4 3q-5 0 -7 -6zM1048 491q1 -3 5 -3q5 0 6 8h2q5 -4 7 -4q2 3 7 16q2 2 4 2q5 -4 7 -4l8 15q-10 4 -10 5v1q0 3 8 17q-1 3 -3 3h-3q-2 0 -8 -16h-4q-1 0 -10 8h-3q-5 0 -9 -18q0 -2 8 -3v-2q-12 -19 -12 -25zM1067 252 q22 -28 29 -38l2 1h2q6 -2 7 -2q0 3 12 3v1q-11 6 -15 11l2 5l-8 4q-1 -4 -3 -4l-27 19h-1zM1072 177h2l42 14q-1 1 -1 2q3 10 5 14h-1q3 1 3 7q-35 -27 -50 -37zM1077 489q2 -4 7 -4h1q4 2 4 6q-2 5 -7 5h-1q-4 -2 -4 -6v-1zM1083 99l6 -3l5 7l-9 4q-2 -5 -2 -8zM1098 529 q0 -1 3 -3h3q5 0 10 16v1q0 5 -5 5q-11 -8 -11 -18v-1zM1114 239q3 -8 8 -22h1l18 62v1h-1q-1 -3 -26 -40v-1zM1115 41q14 -8 17 -8q3 6 3 8q-14 7 -16 7q0 -1 -4 -7zM1123 214q2 -5 21 -58l1 1l-1 1v6v11v2v12v12q-7 2 -20 13q0 1 6 3q1 0 1 -1l4 1h4q0 -3 -3 -9q7 -3 8 -3 q0 1 4 7q-6 3 -7 3v2q25 0 32 1v-1l1 1h8l4 1v1l-42 11h-3q0 -2 -18 -16v-1zM1149 233q5 -2 8 -2l3 6q-6 4 -8 4q0 -1 -3 -8zM1170 24q6 -3 8 -3q3 6 3 7q-6 4 -8 4q-3 -6 -3 -8zM1212 66q2 0 7 -4q1 0 4 8q-6 3 -9 3q-2 -6 -2 -7zM1216 117q1 -1 8 -5q0 2 3 7v2q-2 0 -8 3 q-3 -6 -3 -7z" />
<glyph unicode="'" horiz-adv-x="346" />
<glyph unicode="(" horiz-adv-x="1800" d="M42 633q780 19 1247 67q186 -55 468 -67q-279 -23 -468 -67q-467 42 -1247 67z" />
<glyph unicode=")" horiz-adv-x="1800" d="M51 633q281 12 466 67q466 -48 1243 -67q-777 -25 -1243 -67q-188 44 -466 67z" />
<glyph unicode="*" horiz-adv-x="727" d="M41 441v1q5 4 10 5q1 0 8 6q16 5 19 9q8 5 19 9q6 6 8 7q3 1 12 3l5 4l12 6q10 4 21 12q10 2 16 6q9 9 22 13q8 3 12 6h3q6 6 16 9q2 1 10 7q5 0 9 3q7 5 16 8q2 0 4 3q4 0 21 10q14 7 20 11q3 0 15 7q3 0 10 5q6 2 6 5q0 1 1 3h-6q-5 -1 -5 -4q-1 -1 -2 -1q-3 0 -3 2v1 h2v2l8 6h1l1 -1q0 2 -10 3h-1v1l-1 -1q-4 3 -5 3q-1 -2 -2 -2h-1q-2 0 -7 3q1 2 1 3q-1 -1 -1 -2l-1 1l-13 -1q-1 0 -3 3q-1 0 -10 2h-2q-2 -1 -3 -1l-10 4q-5 0 -7 -1q-4 2 -4 3h-1h-1v-1v-1q-4 2 -10 3v-1q-1 0 -4 1h-2q-5 -1 -5 -2h-1q0 3 2 4h1q-1 0 -2 1q0 -2 -1 -2 q0 1 -6 2q-2 0 -8 -1q-2 1 -6 7q-1 1 -5 10q-8 14 -8 18q0 5 -6 10v2q-2 0 -6 12q-6 9 -6 10v1h1l1 -1v1q0 1 -1 1h-1q-4 5 -8 16q-6 9 -8 16q-4 6 -7 20q-1 5 -6 12q-3 3 -5 3q-3 11 -7 14q-1 7 -3 8q0 1 -2 2q1 2 1 3q-1 1 -4 6v1h2l-2 2v-2q-2 0 -7 14l-10 17q-3 3 -6 12 q-1 4 -1 7v1h2v-1v-1h2v1q1 0 2 -5q6 -3 6 -4q1 -2 3 -4q-1 -1 -1 -2h3l20 -20q1 -4 13 -12q3 -5 16 -18q3 -5 10 -9q2 -2 3 -6l2 1l8 -9l1 1q2 -5 6 -7q2 -2 7 -9q4 -5 11 -11q2 -4 7 -8q1 0 7 -6h1q1 -2 11 -11q6 -8 9 -9q0 -7 9 -10q2 -2 7 -9h1v-2l2 1q2 -4 9 -9v-3 q1 1 2 1q3 -4 18 -17q6 -9 20 -26q8 -8 19 -15q5 -4 5 -5l-2 -3q3 -4 3 -6h1q0 1 1 1q9 -7 16 -7q3 -2 4 -2h8l2 -2q1 0 3 1l3 -1h1h2q6 -1 8 -4q-7 0 -7 1l1 2h-2v-2q-1 1 -8 1q-2 1 -7 2l-1 1q-1 -1 -2 -1h-3q-2 0 -2 -1v-1q0 -4 11 -5q2 -1 2 -2h-4q-3 0 -3 -3h3 q6 -7 7 -8h2q10 -9 14 -9q19 -1 19 -2v-1h1q3 0 11 -3l8 -1v-1l-2 -1q-7 2 -9 2h-3h-2q-4 3 -11 3l-5 2l-5 -1q5 -6 9 -15q2 -1 7 -5q1 -2 1 -3v-2q4 -2 11 -5q2 -2 3 -7q13 -8 15 -13q0 -13 -4 -30v-4v-1v-1q0 -4 -7 -28v-4v-8q-3 -1 -3 -4v-7q0 -4 -4 -17q0 -5 -1 -11v-1 q0 -9 -3 -19l-3 -17q-1 0 -2 -8q1 -4 1 -7q0 -5 -5 -15q-1 -2 -1 -6v-8l-1 -2v-4q0 -3 -2 -5v-6h-1q-1 -13 -2 -13v-1q0 -2 -1 -6v-3q-1 0 -2 -11q-3 -2 -3 -8h-2q-1 0 -3 12l-4 21l-2 1v5h2q-2 9 -9 54q1 1 1 2q-4 11 -9 53q0 12 -6 50l-1 3l1 2v1q0 1 -2 5q-2 14 -2 20 q-2 9 -2 11q1 10 1 12l-2 1v1q0 1 -1 6q1 2 1 3l-2 8v3h-1v3q0 1 -1 2l1 1l-2 5q1 1 1 4q0 1 -1 3v2q-2 1 -2 6q-4 37 -5 37l-4 10q-5 -1 -10 -14q0 -5 -1 -5h-2l3 -2v1v1l1 -1v-1l1 -7q-4 3 -7 3q-1 -2 -1 -3q2 -3 2 -6q-4 1 -5 1t-5 -8l-1 -1l3 -6l-1 -1l-1 1v-2h-4 q-9 -15 -9 -19h1l2 -15h-1l-2 9q-1 4 -2 4q-3 0 -3 -5q-1 -2 -2 -3v-1v-4l-3 -1l-2 2q-1 0 -2 -7v-2q0 -1 2 -3v-2q0 -13 3 -18q0 -2 -1 -2q2 -3 2 -8q1 0 1 -1q-1 0 -1 -1v-1q1 -1 1 -3v-7q0 -5 3 -13q-1 -1 -2 -3h-1v2h1q0 2 -1 2v-1v1v2l1 -1v2h-1h-1q-1 1 -1 3l1 1l-2 3 h2v1q0 1 -3 5v1q0 2 1 2q-1 4 -3 4v1q1 1 1 2q-1 6 -3 26q-1 1 -2 1q0 -1 -4 -10l3 -2l-1 -7q3 -15 3 -17v-2h-1h-1q0 9 -5 24v1h-1q0 -5 -2 -5q-1 0 -9 -5l-1 1h-1q0 -2 -1 -2q-36 -4 -38 -5v2h-1q0 -5 -8 -5l-1 -1l-4 2l-1 -1l-1 1h-1q-1 0 -5 -3l-3 1q-10 0 -39 -8 q-84 -13 -96 -15q0 -1 -1 -1q-2 1 -3 1q0 -1 -1 -1h-2h-2q-3 -2 -5 -2h-1q-1 0 -3 1q0 -1 -1 -2q-1 1 -2 1l-2 -1h-1h-2h-2q0 -1 -2 -1q-1 0 -1 3zM61 461v1q2 4 5 4h3h1q-3 -5 -9 -5zM102 483q0 3 5 5l9 4q1 -1 1 -2q0 -2 -5 -2v-2l-5 -2q0 -1 -1 -1h-2h-2zM118 492 q4 3 7 3h2q-1 -1 -9 -3zM127 497q4 3 17 9l1 1q0 -1 -2 -4q0 -2 -8 -3q0 -3 -4 -3h-4zM154 509q7 8 16 8v-1l-14 -7h-2zM176 578q5 0 11 6q3 2 7 2v-1h-2q0 -3 -9 -6q-1 0 -3 -2h-2h-1q-1 0 -1 1zM182 570v1q3 4 7 4h2q1 3 8 5q3 2 4 2h1v-1q-5 -4 -15 -9l-2 1q0 -2 -5 -3z M203 783v1q6 -4 6 -5v-2q1 1 2 1q0 -1 7 -9v-1h-1q-4 0 -9 8l-1 1v3q-1 1 -2 1q0 -1 -1 -1zM211 528h1v1h-1v-1zM213 540q0 2 4 2q0 3 10 5q2 2 6 4q3 4 8 4h1q0 -2 -7 -5q-4 -4 -18 -10h-3h-1zM221 468q0 1 1 1l-1 1v-2zM224 469h2q0 2 -1 2t-1 -1v-1zM233 606l10 7 q5 4 9 4v-1q0 -1 -4 -3q0 -1 -9 -4q-4 -3 -5 -4q-1 0 -1 1zM234 616v2q1 1 5 3l3 -1q0 -3 -7 -4h-1zM234 753q3 -2 8 -8v-1q-3 1 -5 3v2h-1h-1q-1 0 -1 4zM245 604q3 3 6 3h2q0 -2 -3 -4q-2 1 -4 1h-1zM271 569q1 3 3 3q4 0 11 6l4 1v-1q-2 -3 -10 -5l-4 -4h-1h-3zM301 503 v1v1v1v2v1v1q1 0 2 -7v-2l6 -38h-1l-1 9q-2 9 -5 27v6v-2h-1zM312 415v3q1 0 1 -1v-1zM315 531v6l1 1q1 -3 5 -28l-1 -1l1 -1l-1 -3h-1q-1 0 -1 12l-2 5l1 1l-1 3q1 2 1 3zM321 424v4q0 1 1 1q1 -2 1 -3v-1v-2q2 -13 2 -14l-1 -1l-1 6q-2 5 -2 10zM322 546q3 -3 3 -9v-1h-1 l-1 2v1q0 2 -1 7zM322 732q0 2 1 5q5 -1 6 -1q-1 2 -1 3q2 3 3 5h3v2q7 5 11 9q1 1 5 7h2q7 6 11 12q2 2 8 5v3q1 0 5 4q1 2 4 2q0 4 4 4l3 5q5 3 11 12q6 3 9 6q0 2 11 11q2 2 6 9l8 4q8 6 14 13q4 1 12 10q3 2 5 2h1v3q3 1 16 15l7 4l3 6q5 2 5 5q6 1 6 3h5q-3 -4 -11 -20 q-10 -14 -10 -17q0 -4 -3 -6q-2 0 -8 -10q-2 -2 -3 -7q0 -4 -6 -9q0 -1 -9 -14q-4 -7 -4 -10v-2q-1 -3 -6 -11l-2 -1v-1q0 -4 -4 -6l-2 -2q1 -1 1 -3q-1 -2 -3 -5q0 -4 -5 -10l-9 -13q-1 -7 -3 -11q-6 -11 -8 -13q-1 -1 -6 -14q-3 -3 -9 -18q0 -1 -8 -11q-11 -20 -11 -23v-2 q-3 -2 -6 -10q-3 -4 -5 -4l2 -2q-1 -5 -9 -14q-3 -4 -3 -5q1 0 1 -1q-7 -10 -8 -14q0 -1 -1 -1q-6 0 -14 14v2q-1 -1 -2 -1q0 1 -5 6v2q2 -1 8 -7q3 -2 4 -2q4 0 4 3v1q-3 3 -11 8l2 1v-1h2v1h-1v1h1v3l6 -2q1 3 1 4q-1 2 -3 2l-1 -2q-2 0 -5 7q-2 1 -2 2t4 2h4q-4 4 -5 7 q-3 0 -3 2q0 1 -4 3v1v1q8 -8 12 -8q-3 26 -5 26q-3 2 -7 5l7 4l-4 4v1q3 2 3 3q-2 23 -4 23q-2 3 -3 3h-3zM323 471v1h1q1 0 3 -13l3 -22h-2l-3 19zM328 564l1 2h-1v-2zM329 434v1h1h1v-1h-1h-1zM333 394h1q3 0 3 -1l-2 -2q1 -3 3 -22l-1 -1q-3 4 -3 7v7v2q0 1 1 2 q-1 2 -2 8zM336 435v5l1 1q1 -4 3 -23h-1q-1 0 -3 17zM336 494l1 1h1q1 0 4 -25q0 -2 -1 -2q-2 0 -2 3zM336 605q0 -3 2 -3q4 0 4 2q-1 1 -2 1h-1v-2q-1 1 -3 2zM337 566h1l2 -15l1 -2h-1q-1 0 -3 17zM338 652q0 -2 4 -2zM339 648q0 -2 2 -2q1 0 1 1t-3 2v-1zM340 655l1 2 h-1v-2zM341 460q0 1 1 3q3 -20 3 -21q-1 2 -2 9q-2 6 -2 9zM345 620h1h1l-1 2zM347 478v3v2q1 1 1 2h1q1 -7 2 -15h-1q1 0 1 -1l-1 -1l2 -3l-1 -1l1 -3l-1 -1q3 -3 3 -9l2 -14q-1 -3 -2 -3q-1 1 -7 44zM348 543q0 2 1 3q1 -11 2 -13h-1zM350 598q3 11 7 11q-1 -10 -5 -10 q0 -1 -2 -1zM353 516q1 0 2 -10q2 -14 2 -15q-1 -3 -2 -3q0 5 -2 28zM354 422l1 4h1q1 0 3 -15l1 -11v-1l1 -2q-1 -1 -1 -2q1 -10 2 -13l-2 -1zM355 338l1 2l-1 9h2q1 0 2 -12l1 -11q0 -3 -1 -3q-2 3 -4 15zM358 590q0 -1 3 -3q0 3 -3 3zM358 697h2v1v1h-2v-2zM360 605 q2 5 5 5q6 0 6 4h3q21 11 29 14q0 4 3 7q6 8 7 15q2 0 3 -3q-3 -1 -9 -15h1q4 0 21 11q5 1 6 2q5 0 5 2q0 3 7 13q1 1 2 4q2 -1 2 -2q0 -2 -6 -9l-1 -1l2 -2q7 1 7 2q7 9 14 9l-1 4l4 1q0 1 -1 2l4 5v-7q0 -1 -2 -3q12 -8 19 -8l1 -1q-1 -2 -1 -3l3 1l27 -15l2 2q3 -2 10 -8 l2 -1l2 2q2 -3 12 -7q5 -5 7 -5v2q3 -2 10 -6q4 0 5 -2q5 -5 13 -8q10 -6 16 -7v-2h1v2l4 -3h1q1 0 5 -3h3q2 0 7 -5q2 -1 4 -1q0 -2 2 -4h3q2 -2 3 -2q2 0 9 -4q3 0 3 -2q1 0 3 1q7 -5 8 -5h2q3 -2 15 -9l2 1q12 -9 15 -9q5 0 11 -8h-1q-17 1 -17 3q-3 0 -8 1q-3 0 -4 1h-3 q-1 -1 -2 -1q-5 3 -12 3h-3q-1 0 -1 1l-1 -1q-1 1 -2 1h-4l-6 3h-2q-1 0 -6 -1q-9 3 -19 4l-8 3l-3 -1q-5 2 -14 2q-4 3 -7 3l-2 -1q0 2 -28 4l-1 3h-9q-4 0 -5 1q1 1 1 2h-3v-2q-3 1 -11 2q-15 4 -23 4q-3 2 -4 2h-2q-10 0 -10 1v2h-2v-2q-8 2 -13 2q-10 0 -22 6 q-19 1 -20 2l-2 1h-4l-4 2h-2l-2 -1q-6 3 -8 3l-11 -1q-2 0 -10 5q-1 0 -10 2l-2 -1q-3 2 -8 2zM364 344l1 1h1l2 -21q1 0 1 -1h-1q-1 0 -3 20q-1 0 -1 1zM366 399l1 1q1 0 3 -19v-1q-1 0 -3 14q0 1 -1 5zM367 322h1q1 0 2 -11q1 -4 2 -11q0 -2 -1 -2q0 1 -2 5q-1 3 -2 19z M372 361v1h1l1 -1v-3q0 -8 4 -30v-4q-2 0 -2 6q0 2 -4 31zM378 290h4q1 0 1 -1q-1 0 -1 -1q3 -5 3 -6l-1 -1q1 -1 1 -2l-1 -1q0 -1 2 -3q-2 -2 -3 -2h-1q-2 0 -2 7q-1 1 -2 10zM378 372h2v1h-2v-1zM382 569h3q1 0 3 -2h5l9 -1q7 0 7 -2v-2v-1q-2 2 -10 2q-12 4 -16 4 q-1 0 -1 2zM386 593v1h3q2 0 9 -2l1 -1v-1q0 -1 -1 -1h-2q-6 0 -10 4zM392 628l9 12v-1l-4 -7q0 -5 -2 -5h-2zM392 641v5q0 2 7 9q-4 -11 -7 -14zM392 659q0 4 4 8l1 1q0 -4 -4 -9h-1zM394 683q0 1 3 5q0 7 6 10h1l1 -1q-4 -7 -9 -15l1 -1l-1 -1q-2 1 -2 3zM397 673q4 9 5 9 h2q0 -4 -4 -10zM405 546v1h2q5 0 13 -3h4q6 0 7 -4q-7 0 -14 4l-1 -1q-7 2 -11 3zM408 674v3l9 12h1q-2 -2 -2 -6q-1 -1 -2 -1v-4l-5 -4h-1zM408 706q0 2 5 11q2 7 7 12l1 5q2 -1 2 -2v-4q-2 -4 -10 -15q0 -1 -5 -7zM416 577v3h1l4 -2v-1h-4h-1zM417 693q2 6 5 6h1v-1 q-1 -6 -3 -6h-2zM418 655q1 3 1 4v2q0 4 4 4v-3q-4 -7 -5 -7zM419 372l1 1l-1 1v-2zM420 640v1q3 10 11 22v-1q-2 -7 -3 -7h-1q1 -2 1 -3q-2 -1 -2 -3t-4 -9h-2zM422 668q3 6 7 10l2 -1q-5 -7 -6 -11h-1q-1 0 -2 2zM425 577h1h3q2 0 8 -2h4h1l1 -1q-1 -1 -3 -1q-8 2 -12 2 h-1q-2 1 -2 2zM425 686v3q0 4 5 10h1h1q-3 -13 -7 -13zM426 558v1q0 2 1 2q17 -2 17 -3v-1q0 -1 -5 -1l-2 1h-1q-1 0 -3 -1v1q1 0 1 1v1h-1v-2h-1q-5 1 -6 1zM427 569h6h2q4 -2 4 -4q0 -1 -1 -1q-4 0 -7 3l-2 -1q-2 1 -2 3zM428 583v1l2 1q0 -1 1 -1v1q0 1 1 1q3 0 5 -2 q3 0 12 -3q7 0 11 -1q-1 -2 -3 -2q-9 2 -19 4h-3h-5q-2 0 -2 1zM431 682q1 5 5 8v-1v-1q0 -3 -2 -4q-1 0 -2 -4q-1 0 -1 2zM431 737q6 12 7 12h1v-1q0 -3 -5 -11q0 -2 -1 -2h-1zM431 753v1q0 6 5 7q0 -1 -2 -5q0 -3 -1 -3h-1h-1zM437 515h1h2q7 -1 7 -2h-1h-2q-1 0 -5 -1z M440 733v3q0 3 7 11v3q0 4 5 11v2q4 5 6 5v-1q0 -4 -6 -12q-2 -3 -4 -9zM442 682l1 2l-1 2l6 10q2 0 2 -1q-1 -2 -3 -5v-2v-2zM444 522h1q9 0 9 -1l1 -1l-1 -1h-4q-4 0 -6 3zM444 670q4 11 9 14v-1q-6 -8 -7 -12q-1 -1 -2 -1zM447 573l1 1h3q6 -2 10 -2q2 0 8 -2q3 0 5 -1h6 l3 -2q-1 -1 -7 -1q-11 3 -17 3q-3 2 -4 2h-5l-2 1q-1 0 -1 1zM452 686q0 1 5 8l-3 -8h-2zM453 564h1q5 0 11 -2v-1h-1h-4h-2q-4 0 -5 3zM453 671v1q5 6 5 10t3 5q3 2 3 6q4 8 13 23q4 11 6 11h1v-1q0 -7 -2 -8q-4 -2 -4 -4v-3q0 -2 -3 -5q-1 -5 -5 -7q-2 -1 -2 -5 q-1 0 -4 -5v-3q-9 -12 -9 -15h-2zM454 545v1q10 0 20 -2q0 -1 4 -1h7q20 -5 25 -5h2v-1v-1h-9q-5 0 -10 2h-3q-1 0 -11 2h-2q-3 2 -8 2q-6 2 -8 2v-2zM457 658v3v2l5 7v-2h1q-2 -2 -2 -3q0 -2 -4 -7zM458 553v1h1q6 -1 20 -2q5 -1 7 -1h5q1 0 8 -3h6q2 0 3 -4q-1 0 -4 2 q-21 2 -24 4h-1h-3h-5q-1 1 -3 1q-7 2 -10 2zM458 700l8 13h1q0 -2 -5 -11q0 -3 -3 -6zM460 720q7 10 9 17q2 6 5 6h1v-4q-4 -2 -10 -17q-3 -6 -4 -7q-1 4 -1 5zM461 510l1 1h6q3 0 3 -2q-1 -2 -2 -2q-7 3 -8 3zM462 671q3 5 9 19q3 3 6 11l1 1h1h1q-1 -8 -3 -8q-1 -1 -2 -4 v-2h-2l1 -2q-3 -2 -10 -17v-1q-1 0 -2 3zM468 716v2v4h2q1 4 4 7q2 1 2 2v2q2 2 5 10q2 2 4 2v-1q-1 -5 -2 -5q-5 -3 -9 -15l-1 -3h-2v-3q-1 -2 -3 -2zM475 533h1h15h2l1 -3h7h1q0 -2 -3 -2q-1 0 -2 2l-2 -1q-3 0 -3 2h-3v-1q-3 0 -12 3h-1h-1zM475 558l1 3q3 0 7 -1 q9 -3 18 -3l11 -4h-8h-1q-4 0 -12 3h-3q-7 2 -8 2h-5zM475 780v4q3 10 9 16v3q4 2 6 6q0 1 1 1v-6l-6 -8q-2 -3 -3 -3q-2 -3 -6 -12zM477 752q2 0 2 4q1 5 5 7q-1 -4 -5 -11h-2zM478 770q2 12 5 15q3 5 5 6h1v-4q0 -5 -6 -11l-4 -6h-1zM482 523v2h1h6q3 -2 4 -2h2l6 -2h-1v1 h1h1q5 0 20 -4q2 0 2 -1v-1q0 -1 -3 -1q-4 0 -8 1h-1l-5 3l-1 -1l-19 3q0 1 -5 2zM482 813q2 4 2 5v2q0 3 4 3v-1q0 -5 -6 -9zM484 766q4 11 9 13l1 -1l-1 -2h-2v-3q0 -4 -5 -8h-1zM491 811v1q1 1 3 6q2 4 3 9h3q-1 -5 -8 -16h-1zM493 882h1v2h-1v-2zM511 560q3 3 7 3h1 q-1 -3 -3 -3h-5zM524 533l3 3q22 -6 32 -6v-1q0 -1 -3 -2h-3q-4 0 -11 3h-2h-2h-1v1l1 1h-2q0 -2 -1 -2h-3q-2 0 -4 3h-4zM524 560l2 1h2q3 0 8 -3h4q0 -1 -2 -2q-3 1 -8 1q-1 1 -1 2h-2v-1q-1 0 -3 2zM525 526v1q9 -3 14 -3v-1q-1 -2 -2 -2q-12 2 -12 5zM533 541v1 q1 0 7 -1q1 1 3 1q8 -2 8 -4h-7l-1 3q-1 0 -1 -1v-2q-9 2 -9 3zM540 548v1h3l16 -3q1 1 2 1v-1v-2h1v2h2h3q0 -4 -4 -4q-3 1 -7 4q-2 -1 -4 -1q-1 0 -8 2l-1 -1q-1 1 -3 2zM556 537v1h6q5 0 10 -3q14 -1 14 -2t7 -2q3 -1 8 -1l1 -1h-1q-25 3 -35 6h-5h-3zM581 542h3 q1 0 3 -1h2h1q6 0 10 -2l1 -1v-1q-10 3 -17 3q-3 0 -3 2zM586 550q5 0 5 -1v-1h1v1q3 -2 8 -2q4 0 4 -1h-1q-16 0 -16 3zM614 553q1 2 3 2t4 -3q3 0 7 -2q0 1 1 1q1 -1 1 -2q-3 0 -6 1q-1 0 -3 -1zM657 543v1h2q18 -1 18 -2t2 -1v-1h-1h-1h-4q-2 0 -12 3h-4z" />
<glyph unicode="+" horiz-adv-x="727" />
<glyph unicode="," horiz-adv-x="557" />
<glyph unicode="-" d="M100 702q0 16 18 23h6q16 0 22 -19v-2l149 11q0 1 56 138q-14 6 -14 22q0 17 20 22h7q19 -4 19 -24q0 -13 -14 -20q56 -137 56 -138l149 -11q0 14 18 21h6q15 0 22 -18v-7q0 -15 -19 -21h-5q-9 0 -16 8q-2 -1 -114 -97q35 -143 35 -144h1h6q15 0 21 -17q1 -3 1 -5v-1 q0 -17 -19 -22q-3 -1 -4 -1q-16 0 -23 18v6q0 4 3 12h-1l-126 78q-119 -74 -126 -79q3 -6 3 -12q0 -16 -18 -22l-5 -1q-23 3 -23 23v1q0 15 17 22h4h6h1l36 145l-114 96q-1 0 -1 -1q-7 -7 -15 -7h-3q-15 0 -21 18z" />
<glyph unicode="." horiz-adv-x="300" d="M23 149v2q0 8 9 11l2 1q9 0 12 -10v-2l75 5q0 2 28 70q-8 3 -8 11t10 11h3q10 -3 10 -11t-6 -11q28 -68 28 -70l74 -5q0 8 8 11l3 1q8 0 11 -10v-3q0 -8 -8 -11h-3q-5 0 -9 3l-56 -47l17 -72h1h2q8 0 11 -9q1 -1 1 -3q0 -8 -10 -11h-2q-8 0 -11 9l-1 2q0 3 2 7l-63 39 q-60 -37 -64 -39q3 -4 3 -7q0 -7 -9 -11h-3q-11 1 -11 11q0 8 7 12h3h3h1l18 72l-58 47q-3 -3 -7 -3h-2q-7 0 -11 10z" />
<glyph unicode="/" horiz-adv-x="569" />
<glyph unicode="0" horiz-adv-x="660" d="M-16 637l1 2q14 4 21 9q26 13 41 59q6 14 10 88q9 104 21 154q21 84 46 135q23 46 55 84q25 26 47 39q45 27 86 27h17q56 0 112 -45q37 -34 55 -65q21 -35 35 -70q21 -49 36 -122q9 -37 17 -137q1 0 1 -1v-1q0 -61 16 -102q16 -37 50 -51q4 -1 3 -3l-2 -2l-12 -6 q-27 -15 -45 -67q-3 0 -5 -102q-3 -61 -8 -104q-13 -90 -25 -127q-16 -63 -37 -106q-74 -156 -203 -156q-124 0 -195 161q-24 51 -45 152q-13 57 -23 175q-5 68 -5 98q-6 23 -14 38q-19 35 -50 45zM265 450q0 -220 18 -282q12 -57 38 -57q37 0 46 110q10 80 10 345 q0 365 -14 443q-9 75 -43 75q-37 0 -45 -105q-10 -98 -10 -286v-243z" />
<glyph unicode="1" horiz-adv-x="366" d="M0 856v155q41 44 60 77q25 40 51 102q3 10 4 10h166q1 -1 1 -2v-473q6 -38 31 -66q21 -20 37 -23v-3q-26 -9 -45 -38q-9 -13 -18 -39q-5 -20 -5 -26v-299q0 -78 15 -85q6 -7 26 -7h20q1 0 1 -1v-137q0 -1 -1 -1h-330q-1 0 -1 1v137q0 1 1 1h26q25 0 31 14q8 13 8 97v250 l-1 1v3q0 76 -48 117q-17 10 -23 12v3q33 10 52 41q20 40 20 72v105h-77q-1 0 -1 2z" />
<glyph unicode="2" horiz-adv-x="600" d="M0 1v165q0 1 31 40q57 73 99 141q53 83 95 177q3 19 3 34v6q0 56 -40 80l1 3q11 0 33 9q27 13 46 40q31 48 31 72q12 72 12 129q0 115 -36 143q-9 5 -16 5q-43 0 -52 -110q-10 -83 -10 -129l-1 -1h-190q-2 0 -2 1v15q0 230 70 316q8 12 34 35q36 27 74 37q45 13 88 13h23 q78 0 138 -48q87 -77 87 -241v-5q0 -74 -18 -157l1 -1q-15 -52 -15 -83v-1q0 -56 41 -79l-2 -2q-28 -3 -61 -31q-30 -29 -39 -61q-110 -257 -208 -362q-6 -7 -7 -8v-8h101q43 0 49 10q8 4 24 49q17 38 32 89h140q1 0 1 -2q-16 -281 -18 -281h-538q-1 0 -1 1z" />
<glyph unicode="3" horiz-adv-x="600" d="M0 318v11q0 1 1 1h186q1 0 1 -1q0 -133 32 -177q18 -27 37 -27h2q50 0 60 118q2 27 2 50q0 98 -20 156q-5 11 -23 27q-17 14 -43 14h-43q-1 0 -1 1v261q0 1 1 1h55q32 0 46 27q9 11 18 42q9 42 9 86v20q0 85 -44 107q-7 3 -11 3h-2q-33 0 -53 -80q-6 -32 -9 -76l-1 -1 h-189q-1 0 -1 1q0 85 22 167q29 92 94 134q63 39 139 39h24q60 0 119 -39q36 -27 53 -48q25 -34 36 -58q26 -54 26 -114v-45q0 -165 -57 -227q-28 -32 -65 -46v-9q1 -1 19 -8q20 -8 49 -32q24 -23 35 -42q41 -71 41 -186v-30q0 -126 -7 -144q-5 -26 -17 -54q-21 -49 -68 -94 q-77 -66 -187 -66q-177 0 -235 123q-9 19 -18 54q-13 50 -13 161z" />
<glyph unicode="4" horiz-adv-x="600" d="M0 263v258q6 16 119 271q136 311 178 405h187q1 0 1 -1v-691h66q1 0 1 -1v-241q0 -1 -1 -1h-66q0 -98 6 -108q9 -18 28 -18h27l2 -1v-134q0 -1 -2 -1h-325q-1 0 -1 1v134q0 1 1 1h30q25 0 30 36v9v76v3v2h-280q-1 0 -1 1zM164 505h134l-1 1v281q0 5 1 11q-1 1 -1 2h1 l-1 1q0 1 1 1q-1 0 -1 1l1 1q-1 1 -1 2l1 1h-1q-3 -8 -133 -302z" />
<glyph unicode="5" horiz-adv-x="556" d="M-9 323h1h177q2 0 2 -6q0 -85 23 -142q15 -33 42 -33q39 0 53 79q11 64 11 125v6q0 150 -29 197q-33 46 -112 46q-53 0 -118 -19q2 61 16 618v7l2 1h393l1 -1q0 -1 1 -12v-97q-16 -19 -38 -36q-35 -26 -72 -26q-47 0 -125 22v-1l-8 -225q34 9 59 9q98 0 155 -87 q17 -23 35 -66q18 -42 33 -122q16 -91 16 -180v-30q0 -90 -44 -200q-22 -49 -48 -84q-70 -90 -159 -90q-113 0 -166 46q-25 20 -37 38q-17 24 -31 59q-33 89 -33 204z" />
<glyph unicode="6" horiz-adv-x="600" d="M-16 622v5q32 8 50 37q24 36 24 106q11 173 23 215q13 55 29 93q20 41 48 74q42 46 106 63q27 7 51 7h18q55 0 108 -38q35 -30 47 -50q23 -32 39 -70q18 -46 26 -88q9 -47 9 -69h-1h-180q-1 0 -3 30q-14 101 -53 101h-4q-37 0 -53 -80q-16 -78 -16 -227v-6q51 58 115 58 h3q93 0 150 -134q16 -32 33 -112q18 -93 18 -181v-44q0 -142 -53 -234q-63 -102 -195 -102q-202 0 -254 275q-18 85 -18 265v10q0 19 -18 55q-7 15 -31 34q-12 6 -18 7zM264 392q2 -181 6 -188q12 -73 52 -73q35 0 46 51q10 68 10 212q0 129 -23 165q-14 16 -32 16h-1 q-41 0 -49 -61q-9 -51 -9 -122z" />
<glyph unicode="7" horiz-adv-x="542" d="M0 836v357q0 1 1 1h490q1 0 1 -1v-189q-2 -9 -74 -250q-12 -38 -12 -43v-10q0 -69 52 -92l-1 -3q-19 -2 -39 -14q-25 -20 -33 -35q-12 -16 -22 -42q-5 -16 -8 -28q-3 -4 -14 -72q-20 -112 -37 -285q-8 -100 -8 -129l-1 -1h-234q-1 0 -1 1q9 103 23 195q33 198 72 344 q1 2 1 5q0 51 -36 81q-7 4 -12 6l1 2q20 1 44 13q25 19 34 34q20 34 20 43q56 169 115 322h-110q-43 0 -58 -67q-20 -93 -20 -144h-1h-132q-1 0 -1 1z" />
<glyph unicode="8" horiz-adv-x="600" d="M0 332q0 163 87 262q26 25 43 33q8 4 9 4v8q-28 15 -55 48q-69 92 -69 207v8q0 126 73 221q14 18 44 42q39 30 84 41q34 8 61 8h20q73 0 138 -42q34 -27 41 -37q24 -28 39 -60q34 -73 34 -156v-11q0 -110 -59 -204q-14 -21 -38 -44q-12 -10 -30 -22v-7q18 -8 41 -27 q55 -50 86 -150q16 -56 16 -101v-29q0 -87 -42 -185q-81 -165 -243 -165q-156 0 -233 144q-47 95 -47 214zM217 362q0 -112 11 -192q12 -52 53 -52q38 0 50 46q7 10 13 152v48q0 138 -38 172q-12 8 -24 8h-3q-50 0 -60 -120q-1 -20 -2 -62zM226 884q0 -107 37 -144 q11 -10 23 -10q62 0 62 152q0 68 -18 156q-13 43 -50 43q-36 0 -49 -44q-5 -28 -5 -84v-69z" />
<glyph unicode="9" horiz-adv-x="568" d="M0 828q0 275 126 354q52 32 108 32h20q71 0 128 -46q28 -25 42 -47q15 -23 29 -59q38 -97 38 -284v-39q0 -36 19 -73q13 -27 45 -38q2 -2 0 -3q-27 -6 -42 -32q-21 -33 -25 -66q-12 -309 -25 -349q-8 -42 -19 -71q-51 -133 -196 -133q-150 0 -204 115q-11 22 -21 61 q-14 66 -14 111l-1 20h1h168q2 0 5 -37q15 -101 52 -101h3q27 0 48 97q18 97 18 212q-2 68 -2 77q-1 0 -1 1l-17 -20q-40 -38 -90 -38q-66 0 -115 45q-28 31 -38 55q-12 22 -24 71q-16 62 -16 185zM180 805q0 -84 15 -136q13 -30 35 -30h5q33 0 46 67q4 24 4 46v158 q0 85 -29 112q-11 14 -24 14q-40 0 -50 -111q-2 -38 -2 -86v-34z" />
<glyph unicode=":" horiz-adv-x="557" />
<glyph unicode=";" horiz-adv-x="557" />
<glyph unicode="&#x3c;" horiz-adv-x="1800" d="M39 742q0 64 59 137q5 3 10 3q12 0 18 -22q-1 -28 -1 -37q0 -26 31 -42q25 -26 25 -44q18 6 31 6q45 0 59 -54q0 -6 2 -15q0 -40 -44 -51q-3 4 -3 6q11 15 11 24q-7 18 -20 18h-6q-36 -6 -36 -32q0 -33 89 -63q69 -17 131 -17h26q177 0 314 98q66 60 81 92q66 69 118 86 q103 50 233 50v2q-10 14 -10 28q2 8 5 8q17 -33 61 -33q33 0 37 20l2 3q-7 28 -28 28q-16 0 -22 -29h-2q-23 19 -23 45q0 48 67 58q46 0 72 -60l3 -20q-2 -20 -27 -69h2q167 -45 359 -204l45 -45v1q-40 77 -106 163q-87 107 -184 179q-91 61 -159 92q-184 76 -325 76 q-96 -2 -107 -40v-5q0 -18 25 -42v-3q0 -3 -3 -3h-5q-60 0 -81 50l-3 18q0 34 31 60h-3q-79 -7 -205 -63q-95 -55 -95 -138q0 -62 52 -94q20 -9 40 -9q48 0 58 37v2q-5 23 -23 23q-5 0 -19 -5l-3 5v8q0 24 37 37h8q35 0 51 -48q4 -14 4 -22q0 -75 -103 -95l-25 -2 q-141 0 -191 128q-11 36 -11 49q-22 -30 -59 -30q-36 2 -40 9v3q14 11 14 21v3q0 14 -28 43q-5 11 -5 18v1q0 15 9 39q-27 0 -61 38q-20 27 -20 64v10q0 63 67 99q18 6 28 6h19q50 0 76 -70v-13q0 -23 -25 -36l-4 7q4 8 4 14q0 19 -31 25q-17 0 -20 -25v-7q0 -27 48 -34 q26 0 128 42q151 49 295 49q276 0 541 -144q180 -108 353 -362q74 -112 117 -203v-4q0 -3 -3 -3h-5q-104 102 -178 148q-188 122 -348 142q-25 6 -65 6h-9q-127 0 -167 -87q-8 -21 -8 -41q1 -14 1 -15q-3 -1 -3 -4l-15 2q-62 0 -83 -84q-2 -6 -2 -17v-16q0 -53 50 -95 q38 -28 78 -28h3q32 0 32 20q-3 27 -17 27q-7 -1 -16 -18h-3q-6 2 -6 14v16q0 32 32 44q13 3 19 3q31 0 55 -39q27 34 62 34h13q54 0 77 -65q4 -16 4 -28q0 -42 -58 -63q-9 -1 -14 -1h-8q-39 0 -53 43l5 3h3q18 -13 29 -14q30 7 30 25q0 27 -40 36q-19 0 -43 -53 q-44 -56 -118 -56q-127 0 -190 154q-8 35 -8 55q0 16 4 34q-146 -115 -358 -115h-10q-210 0 -340 109q-59 60 -59 130zM45 735q0 -101 142 -174q114 -52 247 -52h20q205 0 351 116q26 28 39 28l1 -3q-14 -39 -14 -77q0 -113 105 -173q38 -14 72 -14q62 0 89 31q15 9 40 63 q20 21 41 21q35 0 42 -46q0 -29 -24 -43v-1h4q0 -3 -5 -3v-2h1l16 3v-3q-11 -4 -14 -4l2 -4q-2 0 -2 -1h2q60 14 60 61v1q0 60 -60 81q-17 2 -21 3q-4 0 -31 -6v-1q11 0 11 -3q-15 0 -28 -13h1q3 2 5 2v-3q-13 0 -25 -35h-3q0 44 -40 61q-9 2 -15 2t-23 -5v-2h3l3 2 q3 -2 7 -2v-3q-5 0 -11 -1v-2l7 2h4q21 -4 21 -10l-11 2h-6q-4 0 -14 -3v-2q21 0 25 -9h-3q-5 3 -9 3h-2v-2q30 -13 30 -42q0 -30 -41 -47q-6 -3 -17 -3h-6q-54 0 -109 74q-25 41 -25 78v3q0 69 56 106h1v1q-6 11 -40 19v3q40 0 87 -14v2l-1 9v3q0 73 89 116q42 15 88 15h11 q186 0 425 -153q62 -41 157 -129v2q-22 30 -107 106q-223 196 -495 196q-203 0 -268 -131q-6 -20 -10 -20q-6 10 -6 22l2 11q-74 -83 -105 -102q-159 -104 -320 -104h-6q-73 0 -192 28h-1v-2q12 -6 14 -6v-3q-88 19 -88 75v11q0 32 46 39h1q28 -7 28 -27q-2 -12 -9 -20v-2 q33 15 33 42q-11 39 -39 39q0 2 -10 2h-12q-34 0 -50 -20h-2v1q0 48 -42 66q-18 18 -18 57l1 4v1h-1l-2 -6h-3q0 20 20 44v3q-3 9 -6 9h-3q-55 -65 -55 -136zM197 1230q16 20 20 20v-3q-16 -23 -16 -55q0 -64 102 -79v-3q-10 0 -27 -21h5v-1q-14 -15 -14 -28v-6 q4 -24 20 -24q0 -1 11 -9v1q-2 3 -2 7h2q12 -12 12 -32v-3q0 -28 -25 -39v-1l11 -2h8q59 0 69 75q16 46 53 84q65 50 104 50q0 2 3 2v-3q-25 -7 -73 -52q-47 -57 -47 -104q0 -71 52 -131v1q-6 9 -10 33h4q0 -28 48 -66q40 -20 80 -20h20q58 0 79 69v8q0 40 -34 59 q-6 3 -17 3h-2q-32 -7 -32 -28q8 8 18 8q31 -6 31 -30h2l2 9h3q3 -15 3 -21q0 -33 -66 -44q-10 0 -15 -2q-66 0 -92 77q-5 25 -5 34q0 141 262 198v2h-5q-43 -7 -70 -13v3q73 25 88 25v2h-7q-76 -5 -184 -58q-69 -44 -103 -114h-3q28 83 105 133q95 58 221 58q44 0 114 -11 v-3h-2q-78 0 -106 -64l-1 -16v-6q0 -26 12 -39v17q1 3 3 3q0 -20 35 -37h1v1q-22 17 -22 39q11 50 97 50q9 2 14 2q175 0 389 -106l64 -39v1q-100 70 -208 119q-87 37 -221 68h-5v3h6q158 0 367 -118q0 -2 20 -14h2q-64 50 -153 92q-67 28 -111 40v4q76 -21 143 -49 q58 -27 91 -47h2v2q-271 154 -557 154q-194 0 -381 -81q-17 -8 -41 -8h-6q-44 0 -51 39v7q0 9 6 18v2q-11 -10 -14 -20h-3v1q0 15 22 31v2h-2q-8 -4 -17 -11h-2v2q14 25 35 25h1q35 0 42 -46q-1 -8 -1 -9v-2h1q8 15 8 22v5q0 33 -42 64q-17 6 -28 6q-62 0 -90 -62zM746 1163 h6v1h-6v-1zM1193 955q0 -17 13 -29q0 40 31 53l9 1h10q42 -7 42 -54q0 -2 -2 -13l6 5h4q0 -2 -7 -30q19 24 19 47v11l-1 9l1 3q-23 50 -65 50h-2q-58 -8 -58 -53z" />
<glyph unicode="=" />
<glyph unicode="&#x3e;" horiz-adv-x="1732" d="M0 539v4q43 91 117 203q173 254 353 362q265 144 541 144q144 0 295 -49q102 -42 128 -42q48 7 48 34v7q-3 25 -20 25q-31 -6 -31 -25q0 -6 4 -14l-4 -7q-25 13 -25 36v13q26 70 76 70h19q10 0 28 -6q67 -36 67 -99v-10q0 -37 -20 -64q-34 -38 -61 -38q9 -24 9 -39v-1 q0 -7 -5 -18q-28 -29 -28 -43v-3q0 -10 14 -21v-3q-4 -7 -40 -9q-37 0 -59 30q0 -13 -11 -49q-50 -128 -191 -128l-25 2q-103 20 -103 95q0 8 4 22q16 48 51 48h8q37 -13 37 -37v-8l-3 -5q-14 5 -19 5q-18 0 -23 -23v-2q10 -37 58 -37q20 0 40 9q52 32 52 94q0 83 -95 138 q-126 56 -205 63h-3q31 -26 31 -60l-3 -18q-21 -50 -81 -50h-5q-3 0 -3 3v3q25 24 25 42v5q-11 38 -107 40q-141 0 -325 -76q-68 -31 -159 -92q-97 -72 -184 -179q-66 -86 -106 -163v-1l45 45q192 159 359 204h2q-25 49 -27 69l3 20q26 60 72 60q67 -10 67 -58 q0 -26 -23 -45h-2q-6 29 -22 29q-21 0 -28 -28l2 -3q4 -20 37 -20q44 0 61 33q3 0 5 -8q0 -14 -10 -28v-2q130 0 233 -50q52 -17 118 -86q15 -32 81 -92q137 -98 314 -98h26q62 0 131 17q89 30 89 63q0 26 -36 32h-6q-13 0 -20 -18q0 -9 11 -24q0 -2 -3 -6q-44 11 -44 51 q2 9 2 15q14 54 59 54q13 0 31 -6q0 18 25 44q31 16 31 42q0 9 -1 37q6 22 18 22q5 0 10 -3q59 -73 59 -137q0 -70 -59 -130q-130 -109 -340 -109h-10q-212 0 -358 115q4 -18 4 -34q0 -20 -8 -55q-63 -154 -190 -154q-74 0 -118 56q-24 53 -43 53q-40 -9 -40 -36 q0 -18 30 -25q11 1 29 14h3l5 -3q-14 -43 -53 -43h-8q-5 0 -14 1q-58 21 -58 63q0 12 4 28q23 65 77 65h13q35 0 62 -34q24 39 55 39q6 0 19 -3q32 -12 32 -44v-16q0 -12 -6 -14h-3q-9 17 -16 18q-14 0 -17 -27q0 -20 32 -20h3q40 0 78 28q50 42 50 95v16q0 11 -2 17 q-21 84 -83 84l-15 -2q0 3 -3 4q0 1 1 15q0 20 -8 41q-40 87 -167 87h-9q-40 0 -65 -6q-160 -20 -348 -142q-74 -46 -178 -148h-5q-3 0 -3 3zM19 556q95 88 157 129q239 153 425 153h11q46 0 88 -15q89 -43 89 -116v-3l-1 -9v-2q47 14 87 14v-3q-34 -8 -40 -19v-1h1 q56 -37 56 -106v-3q0 -37 -25 -78q-55 -74 -109 -74h-6q-11 0 -17 3q-41 17 -41 47q0 29 30 42v2h-2q-4 0 -9 -3h-3q4 9 25 9v2q-10 3 -14 3h-6l-11 -2q0 6 21 10h4l7 -2v2q-6 1 -11 1v3q4 0 7 2l3 -2h3v2q-17 5 -23 5t-15 -2q-40 -17 -40 -61h-3q-12 35 -25 35v3q2 0 5 -2 h1q-13 13 -28 13q0 3 11 3v1q-27 6 -31 6q-4 -1 -21 -3q-60 -21 -60 -81v-1q0 -47 60 -61h2q0 1 -2 1l2 4q-3 0 -14 4v3l16 -3h1v2q-5 0 -5 3h4v1q-24 14 -24 43q7 46 42 46q21 0 41 -21q25 -54 40 -63q27 -31 89 -31q34 0 72 14q105 60 105 173q0 38 -14 77l1 3 q13 0 39 -28q146 -116 351 -116h20q133 0 247 52q142 73 142 174q0 71 -55 136h-3q-3 0 -6 -9v-3q20 -24 20 -44h-3l-2 6h-1v-1l1 -4q0 -39 -18 -57q-42 -18 -42 -66v-1h-2q-16 20 -50 20h-12q-10 0 -10 -2q-28 0 -39 -39q0 -27 33 -42v2q-7 8 -9 20q0 20 28 27h1 q46 -7 46 -39v-11q0 -56 -88 -75v3q2 0 14 6v2h-1q-119 -28 -192 -28h-6q-161 0 -320 104q-31 19 -105 102l2 -11q0 -12 -6 -22q-4 0 -10 20q-65 131 -268 131q-272 0 -495 -196q-85 -76 -107 -106v-2zM385 990l64 39q214 106 389 106q5 0 14 -2q86 0 97 -50q0 -22 -22 -39 v-1h1q35 17 35 37q2 0 3 -3v-17q12 13 12 39v6l-1 16q-28 64 -106 64h-2v3q70 11 114 11q126 0 221 -58q77 -50 105 -133h-3q-34 70 -103 114q-108 53 -184 58h-7v-2q15 0 88 -25v-3q-27 6 -70 13h-5v-2q262 -57 262 -198q0 -9 -5 -34q-26 -77 -92 -77q-5 2 -15 2 q-66 11 -66 44q0 6 3 21h3l2 -9h2q0 24 31 30q10 0 18 -8q0 21 -32 28h-2q-11 0 -17 -3q-34 -19 -34 -59v-8q21 -69 79 -69h20q40 0 80 20q48 38 48 66h4q-4 -24 -10 -33v-1q52 60 52 131q0 47 -47 104q-48 45 -73 52v3q3 0 3 -2q39 0 104 -50q37 -38 53 -84q10 -75 69 -75 h8l11 2v1q-25 11 -25 39v3q0 20 12 32h2q0 -4 -2 -7v-1q11 8 11 9q16 0 20 24v6q0 13 -14 28v1h5q-17 21 -27 21v3q102 15 102 79q0 32 -16 55v3q4 0 20 -20q-28 62 -90 62q-11 0 -28 -6q-42 -31 -42 -64v-5q0 -7 8 -22h1v2q0 1 -1 9q7 46 42 46h1q21 0 35 -25v-2h-2 q-9 7 -17 11h-2v-2q22 -16 22 -31v-1h-3q-3 10 -14 20v-2q6 -9 6 -18v-7q-7 -39 -51 -39h-6q-24 0 -41 8q-187 81 -381 81q-286 0 -557 -154v-2h2q33 20 91 47q67 28 143 49v-4q-44 -12 -111 -40q-89 -42 -153 -92h2q20 12 20 14q209 118 367 118h6v-3h-5q-134 -31 -221 -68 q-108 -49 -208 -119v-1zM451 935q0 -23 19 -47q-7 28 -7 30h4l6 -5q-2 11 -2 13q0 47 42 54h10l9 -1q31 -13 31 -53q13 12 13 29q0 45 -58 53h-2q-42 0 -65 -50l1 -3l-1 -9v-11zM1017 1163h6v1h-6v-1z" />
<glyph unicode="?" horiz-adv-x="2200" />
<glyph unicode="@" horiz-adv-x="2019" d="M0 1322q0 8 7 8h21q104 0 237 -79q62 -49 98 -102q20 -27 86 -125q24 -31 60 -65q50 -43 86 -57q40 -29 149 -61q40 -10 54 -10h6q5 9 9 9q33 2 33 5q4 10 10 13q7 3 43 35q54 22 65 22q16 -5 19 -5h17l4 1v-1l25 5q20 -10 30 -13h26q19 -15 19 -22q0 -11 12 -20 q10 -16 13 -17q33 0 38 6q5 2 7 2q4 -6 7 -6t32 2q25 -1 33 -1q97 31 149 63q3 2 54 31q28 18 76 68q40 48 95 134q77 111 152 150q128 68 217 68h15q2 -1 2 -5v-5q0 -16 -41 -31q-96 -46 -137 -74q-24 -14 -68 -60q-47 -55 -101 -138q-8 -9 -54 -78q-32 -44 -54 -68 q-70 -71 -76 -71q-26 -24 -187 -92l-42 -14q-1 -4 -1 -5l1 -5l-36 -18q-3 -18 -11 -18v-1v-18q0 -7 9 -8q8 -4 16 -26q2 0 3 -20q3 0 4 -11q0 -4 -4 -14v-10l-4 -28q0 -13 -5 -28q-1 -14 -1 -27q0 -1 1 -4q-8 -19 -22 -24q-8 -3 -15 -6q-1 0 -11 2q-8 0 -8 -10q-4 0 -9 -19 q-1 0 -5 -5v-39q0 -11 -5 -39q0 -15 7 -29q-2 -42 -7 -42q-2 -4 -14 -15q0 -5 -14 -8q0 -4 -5 -4q-4 0 -12 -17q-6 -11 -9 -24q-6 0 -8 -39q-1 0 -2 -8q1 -9 1 -15v-10q0 -4 -1 -7l4 -50v-31q0 -6 -5 -6q-1 -2 -1 -3l1 -9q0 -7 -9 -11h-8q-1 0 -1 1q-16 -8 -19 -8h-5 q-6 0 -13 1q-12 0 -24 -9q-3 0 -4 14v3q6 4 13 12h10q18 2 18 6q0 3 8 5q6 36 6 38v10v26q0 6 -4 29q0 3 2 16q-2 0 -6 7q-4 0 -5 3v12q0 2 -1 2h-4q0 -9 -6 -9v-5q0 -11 -4 -11l-3 2v-12q0 -4 -5 -8h-1q-5 2 -10 11q-4 2 -4 4v12q0 11 -8 23h-3q-8 -1 -8 -3q0 -11 -2 -24 q2 -5 2 -12q-6 0 -8 -9l-5 -3q-2 0 -9 12q-3 0 -10 11q0 12 -5 12q-3 1 -5 1q0 -4 -8 -33q0 -8 -3 -23q3 -13 3 -23v-1q0 -8 -1 -19q3 -20 10 -31q0 -1 10 -8q0 -1 4 -4h13q5 -8 9 -12q0 -2 12 -7v-7h-1q-36 0 -52 -3q-24 28 -26 29l1 4q0 2 -7 4v3q0 4 -1 12h-4v-7 q0 -3 -5 -3q-2 0 -4 11l2 31l-2 35q1 42 3 48q-5 31 -13 33q-1 3 -1 7v6q-8 6 -13 17q-6 0 -7 9q-14 19 -26 25v14q0 2 8 23v22q1 6 12 29l-6 6v14q-3 0 -7 5v18l7 9v8l5 4v4q-19 2 -19 6q0 9 -7 15q-25 6 -37 11q-5 0 -17 17q-9 9 -9 13v1q0 24 -9 38q5 27 5 30v2 q-3 0 -5 31q0 16 7 24q0 6 10 10q5 10 16 23q2 4 2 5q-1 25 -1 37q-4 0 -6 8q-3 0 -15 12v3l1 4h-2q-37 0 -179 65q-44 16 -88 56q-71 71 -75 81q-27 36 -129 183q-61 90 -135 132q-47 27 -148 71q-10 8 -10 20zM144 1259q0 -7 49 -20q15 -5 42 -33q45 -43 65 -71 q110 -155 147 -202q44 -50 62 -60q53 -39 134 -65q84 -26 84 -32q0 -1 25 -25v1q-8 13 -8 24v8q-7 0 -14 14q-6 3 -7 5v2l15 16v1q-6 10 -10 10q-96 16 -220 104q-64 53 -86 96q-28 50 -116 149q-84 88 -159 88q-3 -4 -3 -8v-2zM766 497q5 -16 9 -23l14 -10q0 -3 10 -5h12 q9 16 13 16t7 2v26q0 1 5 4h1q2 0 4 -9q4 0 6 -16q7 0 12 -14h15q1 0 6 -9q4 0 4 -7v-8q7 0 7 -9v-4q4 -5 7 -10q12 -3 12 -4v-4q0 -1 -2 -1h-2q-12 0 -12 5q-2 0 -7 9h-1q-2 0 -3 -6q-4 -2 -6 -5l1 -8v-27q6 0 8 -14q5 0 6 -15q3 0 10 -10q2 0 2 -2q-1 -11 -1 -20 q0 -4 -3 -5q-4 0 -7 19q-2 4 -10 9q0 6 -5 9q-2 5 -4 5h-9l-1 -4v-24q0 -3 9 -9q13 -16 13 -48q6 0 6 -24q5 -2 5 -7v-28q0 -5 5 -8q2 -6 2 -14q-4 0 -7 -19v-5v-34v-6l4 1q1 -2 2 -2q-1 -8 -1 -12v-8q0 -9 3 -9l2 2h1q1 -4 1 -5q0 -4 -1 -25q0 -20 4 -20t4 -10v-3 q0 -1 8 -5q0 -1 3 -10h6q9 -8 10 -8q2 0 5 2q14 -3 16 -3l1 1v3h-8q-6 7 -13 10q-17 15 -17 21q-6 0 -6 15v17q0 7 1 17l-2 7q5 21 9 57h2l-5 25q-4 0 -4 13q1 44 2 48q-1 2 -2 35q0 5 7 6v17q0 7 -3 29q2 5 2 6q-6 2 -6 4v22q11 6 11 10q1 5 1 10v5q-12 14 -14 21 q-4 0 -6 16l-5 5v21q0 17 -6 17q-14 6 -14 8v8l-6 6v6q0 5 4 6q2 0 5 -12q5 0 5 -11q8 -7 11 -7q0 1 3 3q5 -2 5 -3q0 -2 -2 -11q0 -22 7 -22h1l-1 -9v-7q0 -4 7 -7q1 -2 1 -3l-1 -4q0 -4 6 -7q0 -3 8 -9q0 -6 1 -13q0 -13 -12 -18q-2 -2 -2 -11q3 -12 6 -12q-1 -2 -1 -8 q2 -33 8 -33v-17q0 -4 6 -9v-10q8 -4 8 -14q0 -6 17 -14q2 -5 4 -5q0 2 9 9v134q0 41 -3 150q-3 0 -3 2v9q6 7 6 9q-3 52 -5 52q-4 0 -8 13q-6 0 -6 14q0 3 -6 8v10q0 1 1 1h10q2 0 2 -1v-7q0 -18 10 -23h2v31q0 6 -6 9v77q0 2 7 4h2q4 0 6 -16q6 0 6 -28v-3q0 -10 -7 -13 h-1v-80q5 -53 7 -53q31 -11 32 -13q9 -19 18 -26q0 -17 26 -24q18 12 27 12h1q2 0 7 -8v-2l-1 -1q5 -1 5 -3q-1 -1 -2 -1q-7 0 -7 5q0 4 -4 6q-25 -6 -25 -20q0 -3 -7 -5v-13q0 -2 -3 -4h-1q-2 0 -2 2v28v2q0 4 -10 10q-6 9 -7 15q-10 9 -15 22q-6 -3 -9 -3h-3q-2 0 -6 11 q-10 3 -12 3q-1 0 -9 -7v-114q1 -138 5 -138q1 0 1 -5v-24v-5h3q4 3 20 24q3 1 6 10q7 0 12 22q2 2 4 2q0 1 -1 29q0 3 1 23q6 0 6 13q0 14 4 14h1q2 0 4 -6q0 -30 -6 -30h-2v-35q6 -4 6 -5v-66q-3 -5 -7 -5v-30q1 -71 6 -71q1 -2 1 -4v-3q0 -11 -2 -25l9 -15q9 2 9 6 q0 3 1 5l-7 16q3 18 4 18q-4 10 -4 11q0 15 9 76q9 33 11 33q6 0 11 7l4 2v19q0 1 4 4h9v2q-7 14 -7 17q0 11 -6 15v12q6 2 6 8q0 2 3 2v1q-6 20 -9 26q0 1 -8 8v4l1 2q9 0 17 -15h7q0 2 1 3q-3 0 -8 16q-3 0 -10 10v32q13 11 13 22q4 9 20 18l11 13v12q0 1 -5 4h-3 q-8 0 -8 -7l-1 -1q-9 0 -9 8q4 0 9 8l5 2q15 0 23 -24q1 0 5 9q4 0 5 27q-8 9 -19 9q-3 5 -3 7q0 4 12 6q6 4 12 17q4 0 15 32q5 12 19 21q3 8 9 8q0 2 2 11q-4 7 -7 17q-2 5 -13 14q-9 14 -15 39q-5 4 -7 4q-4 0 -8 -12q-4 1 -4 3q7 23 11 23l24 8q-14 23 -15 29q6 1 10 1 h22l10 1v2q-19 15 -19 16l15 9q-11 9 -31 18q0 7 -3 13h-8q-11 13 -15 13q-27 2 -37 2q-3 -5 -3 -6v-7q0 -2 1 -3q-2 -4 -2 -6h-2q-12 10 -12 26q-5 25 -11 25q-20 19 -21 27h-13q-5 -3 -19 -23h-3q-2 0 -2 1v6l7 8v8q0 1 6 3l-2 13h-16l-7 7l-33 -4h-10q-5 -6 -20 -6 q-4 10 -13 10h-8q-11 -15 -15 -15q-30 -4 -30 -9q-1 0 -6 -7v-5q21 0 21 -7q0 -3 11 -3h5q2 -1 2 -2v-5q0 -2 -2 -2h-23l-5 9h-31q-3 0 -5 -9q-5 0 -18 -14q-12 -6 -28 -6v-2l-1 -6q3 0 14 -10h16l18 15h13q0 -3 1 -5q0 -4 -12 -5q-3 -4 -15 -14h-25q-5 6 -13 6h-10v-1 q5 0 5 -2l-21 -9q0 -2 2 -2h4q1 0 12 4q6 -5 9 -5q5 -6 5 -9v-4q0 -2 -2 -2h-4l-7 8h-7q-9 -6 -11 -7v-1q9 0 9 -6q13 -21 21 -21q1 0 8 -7v-17q0 -12 -13 -12q-4 -8 -13 -20q0 -8 -6 -14v-26q0 -13 -14 -26q0 -9 -5 -13q5 -7 5 -10v-9q9 0 9 -8q3 -1 9 -1h5v-1q9 0 9 10 q0 11 8 33q4 17 10 23q1 24 1 38l2 1h7q1 0 11 -11v-9q-9 -10 -9 -12q-2 0 -9 -16q-6 0 -14 -28h1q7 0 10 -14q4 0 25 -24q5 0 28 -9l4 5q18 -15 23 -30l-3 -2q-1 0 -16 22h-1q-4 -3 -6 -3q-17 10 -20 10h-8q-14 13 -25 18q-2 10 -9 15h-3v-14q0 -13 -11 -21v-1q0 -4 -1 -15 q13 -19 21 -20h8q3 -1 3 -6q0 -2 -2 -2h-8q-4 -7 -9 -10q0 -4 -7 -8v-16q0 -6 -9 -6q-3 0 -6 -8h-7q-6 8 -11 10q0 5 -5 8q0 7 -7 7q-2 -1 -2 -2zM841 279q2 -7 10 -17l1 -4h4q1 13 3 13q5 0 5 -9h5q0 8 7 11v1q0 17 -6 20q-11 15 -15 16q0 14 -6 14q-3 -6 -3 -7v-15z M884 206q8 -6 8 -27q0 3 4 9l-1 8v7l-5 4v9l-1 5h-2q-3 0 -3 -10v-5zM1015 13q5 2 5 3h6h6q14 0 24 8l2 1q1 0 6 -2q6 0 6 39l-2 1q-3 0 -6 -2q-2 0 -2 12h-4v-11q0 -3 1 -8q0 -14 -7 -19q-2 0 -4 -10q-4 -3 -8 -3h-16l-7 -6v-3zM1074 580v5q0 1 9 3q5 0 10 -8q1 -1 12 -2 q0 7 21 20q0 4 12 6q19 26 19 29q3 7 3 10v6q-8 11 -26 21q-13 1 -13 4v29q1 2 2 2h3q3 0 5 -24q15 -5 40 -28q3 -6 16 -13q2 -11 12 -23l-2 -4q-12 3 -12 12q-1 0 -9 11l-5 1h-1v-11q-6 -2 -9 -14q-2 -9 -22 -19l-9 -10v-12q0 -2 -5 -4q-5 2 -5 12h-1q-8 -3 -8 -12v-6v-8 v-6q0 -2 -6 -2v-5q-2 -4 -7 -4h-1q-3 0 -3 18v1l6 7v1q0 1 -4 4h-3l-8 -1q-2 6 -11 14zM1128 354q0 -6 6 -6l2 -20h2q1 0 1 1q0 5 -1 16q1 7 1 9q-5 0 -5 12v2l6 7v19q-1 2 -5 2h-3q-4 -3 -4 -7v-35zM1134 294l2 -1h4v1q0 2 -1 3q1 5 1 8v4h-6q0 -1 1 -5zM1180 477 q0 -2 1 -2h2l8 1l2 -3v-5h4q0 8 4 8l8 -1q5 10 5 43q5 11 8 39q1 0 1 1q-1 3 -2 3h-3v-14l-6 -7v-15q0 -20 -5 -20q0 -6 -8 -9q0 -6 -6 -6v-3q0 -4 -3 -5h-10v-5zM1199 799q0 -2 8 -2l3 1q0 2 -11 5v-4zM1201 813h1l2 1v1h-3v-2zM1268 791q7 -2 11 -5q20 7 22 7l6 -11 q11 0 81 35q42 20 140 109q43 43 62 75q19 29 80 132q24 39 45 63q60 58 72 60q50 27 66 41q6 6 6 12l-2 6q-81 -21 -140 -74q-45 -43 -64 -72q-31 -44 -68 -109q-71 -92 -143 -141q-45 -32 -82 -50q-33 -15 -82 -29q0 -2 -6 -9q0 -1 16 -17v-1q-10 -9 -10 -14q-7 -7 -10 -7 v-1z" />
<glyph unicode="A" horiz-adv-x="744" d="M0 1v139q0 2 1 2h10q30 0 42 28q13 32 32 176l23 156q0 54 -22 98q-8 12 -23 26l-7 4v5q6 0 13 1q25 8 41 31q16 24 37 90q37 251 37 256q0 31 -22 31h-36h-1v152q0 1 1 1h468q1 0 1 -1v-152h-1h-34q-24 0 -24 -30q36 -275 38 -282q13 -42 28 -64q7 -12 28 -27 q20 -10 31 -10v-3q-19 -12 -27 -27q-19 -32 -22 -65q-3 -16 -4 -55q-1 0 -1 -1q32 -242 39 -284q7 -32 14 -42q9 -12 27 -12h12q1 -1 1 -2v-139q0 -1 -1 -1h-307q-2 0 -2 1v139q1 2 2 2h11q30 0 35 9q3 9 3 23q0 38 -12 109h-192v-1q-12 -83 -12 -85v-11q0 -35 18 -42 q6 -2 15 -2h6q1 -1 1 -2v-139q0 -1 -1 -1h-263q-1 0 -1 1zM276 541q1 0 1 -1q1 0 1 1q32 -1 46 -1h68l1 1l-54 395h-5q-50 -339 -58 -395z" />
<glyph unicode="B" horiz-adv-x="673" d="M1 1v134q0 1 1 1h40q17 0 25 18q7 18 7 70v293q0 40 -25 81q-18 27 -46 35v4q33 10 50 38q8 11 16 39q5 25 5 36v214q0 70 -13 79q-7 8 -21 8h-38q-1 0 -1 1v147q0 1 1 1h298q107 0 182 -37q113 -59 113 -225q0 -86 -29 -203q-16 -39 -48 -69q-29 -24 -51 -27 q-13 -2 -14 -3v-19q23 -7 55 -24q21 -12 41 -30q20 -20 30 -39q47 -85 47 -237v-24q0 -54 -22 -121q-13 -33 -30 -56q-36 -47 -109 -69q-52 -12 -70 -12q-33 -5 -157 -5h-236q-1 0 -1 1zM280 805q0 -25 1 -76h44q34 0 56 82q7 26 7 100q0 6 1 12q0 101 -49 122q-16 7 -37 7 h-23v-247zM281 135h42q46 0 65 111q5 33 5 67v4q0 108 -34 133q-21 19 -58 19h-20v-334z" />
<glyph unicode="C" horiz-adv-x="741" d="M-21 644v3q5 1 12 4q35 15 51 53q6 12 10 60q16 112 35 171q23 73 53 130q21 42 60 86q31 33 58 48q51 29 98 29h17q71 0 139 -50q38 -31 54 -53q31 -39 58 -96q53 -127 53 -282l-1 -1h-231q-2 0 -2 12q0 101 -14 227q-5 37 -13 47q-22 36 -49 36q-38 0 -51 -34 q-7 -14 -15 -60q-5 -34 -9 -196q0 -42 16 -83q8 -18 27 -35q18 -12 29 -14l-1 -2q1 0 -11 -5q-34 -14 -53 -64q-5 -15 -8 -32v-9q0 -67 16 -270q16 -125 66 -125h2q55 0 68 262q1 35 1 67v14q1 1 2 1h249q1 0 1 -1v-8q0 -126 -44 -264q-30 -85 -95 -154q-74 -76 -189 -76 q-85 0 -158 60q-63 60 -92 131q-17 35 -36 103q-15 45 -29 142q-10 86 -10 133q-9 51 -28 69q-15 20 -36 26z" />
<glyph unicode="D" horiz-adv-x="735" d="M-17 633v4l18 8q19 11 28 25q29 36 29 124v169q0 80 -14 83q-6 7 -19 7h-28q-1 0 -1 1v144q0 2 1 2h327q116 0 194 -54q33 -26 41 -39q20 -22 36 -58q14 -25 27 -73q10 -36 18 -104q9 -98 9 -144q6 -28 14 -43q17 -34 53 -47q3 -1 4 -2l-2 -3q-25 -6 -44 -31 q-12 -18 -20 -41q-2 -8 -4 -18q0 -133 -25 -293q-12 -54 -26 -84q-41 -89 -128 -128q-28 -13 -58 -21q-62 -17 -176 -17h-236q-3 0 -3 55q-1 9 -2 81l1 1h28q21 0 27 20q6 19 6 70v188q0 113 -6 130q-6 24 -14 40q-6 14 -22 30q-18 16 -33 18zM262 199q0 -54 17 -63 q9 -4 17 -4q78 0 96 111q12 80 12 301q0 9 -14 41q-8 18 -31 36q-16 11 -24 13v2q34 10 52 41q8 12 16 42q0 4 1 4q-1 6 -1 10q0 189 -16 252q-15 42 -45 59q-21 9 -40 9h-6q-26 0 -30 -30q-4 -18 -4 -41v-286q8 -23 23 -37q15 -16 37 -23v-2q-5 -2 -12 -4q-31 -16 -48 -59 v-372z" />
<glyph unicode="E" horiz-adv-x="639" d="M3 625v3q32 9 53 38q24 40 24 99v181q0 86 -9 93q-10 9 -23 9h-42q-1 0 -1 1v152q0 1 1 1h567q1 0 1 -1v-411q0 -1 -1 -1h-147q-2 0 -2 56q-4 164 -6 164q-5 18 -12 25q-8 12 -36 12h-28q-24 0 -33 -6q-14 -10 -14 -34v-173v-26q0 -21 -1 -70h139l1 -1q-1 -169 -1 -257 l-3 -1h-136q-1 0 -1 -1v-288q0 -2 -1 -8q0 -30 17 -39q3 -3 15 -3h16q45 0 56 15q9 10 14 29q11 29 11 67q7 98 7 174h1h142q1 0 1 -1v-422q0 -1 -1 -1h-565q-1 0 -1 1v141h1h40q23 0 29 24q5 17 5 75v236q0 119 -73 147z" />
<glyph unicode="F" horiz-adv-x="614" d="M2 623v3q34 9 54 37q25 40 25 99v180q0 86 -10 92q-9 10 -22 10h-43h-1v152q0 1 1 1h572q1 0 1 -1v-409q0 -1 -1 -1h-148q-2 0 -2 56q-4 163 -7 163q-5 18 -11 25q-9 12 -36 12h-29q-25 0 -33 -6q-14 -10 -14 -34v-173v-26q0 -26 -1 -69h139l1 -1q-1 -168 -1 -256l-2 -1 h-137q-1 0 -1 -1v-272q0 -45 16 -56q8 -5 18 -5h107q1 0 1 -1v-140q0 -1 -1 -1h-431q-1 0 -1 1v140q0 1 1 1h41q22 0 28 22q6 18 6 79v232q0 119 -74 146q-3 1 -5 2z" />
<glyph unicode="G" horiz-adv-x="800" d="M0 628v3q3 1 15 4q33 15 49 52q8 18 12 55q0 23 15 109q17 74 41 134q29 70 63 119q26 38 57 66q56 44 124 44h20q61 0 128 -36q16 -7 47 -34q0 -1 7 -7q5 46 6 60l2 2h133q2 -1 2 -2v-426q0 -1 -2 -1h-239q-1 0 -1 1q0 158 -34 242q-18 36 -40 36h-2q-37 0 -54 -42 q-15 -50 -29 -192q-2 -23 -2 -39v-5q0 -107 54 -132q13 -6 15 -6v-2q-3 -1 -11 -4q-35 -15 -54 -63q-9 -27 -9 -38q0 -105 13 -270q18 -125 82 -125q25 0 56 30q6 7 13 37q12 71 12 110v74q0 44 -9 55q-6 8 -41 8h-6q-1 0 -1 2v149q0 1 1 1h334q1 0 1 -1v-22v-129 q-16 -5 -24 -21q-10 -22 -10 -45q2 -263 2 -383h-2h-141q-2 0 -5 37q-2 10 -6 53h-6q-19 -29 -34 -46q-62 -73 -162 -73q-108 0 -175 82q-30 34 -48 65q-19 32 -37 80q-17 45 -31 120q-11 53 -18 140l-5 89q-7 32 -22 54l-9 13q-10 12 -35 18z" />
<glyph unicode="H" horiz-adv-x="775" d="M1 635v2q31 9 51 36q23 40 23 96v210q0 62 -18 68q-7 4 -18 4h-35q-2 0 -2 1v149q1 1 2 1h315q2 0 2 -1v-149q0 -1 -2 -1h-3q-22 0 -28 -17q-7 -19 -7 -51q-1 -160 -1 -217h142v215q0 53 -14 64q-8 6 -23 6h-2q-1 0 -1 1v149q0 1 1 1h317q1 0 1 -1v-149q0 -1 -1 -1h-36 q-24 0 -30 -18t-6 -60v-204q0 -68 31 -106q23 -21 43 -26v-2q-3 -1 -11 -3q-32 -15 -51 -61q-12 -26 -12 -94v-263q0 -58 13 -70q8 -7 20 -7h39q1 0 1 -1v-135q0 -1 -1 -1h-318v6v129q0 1 1 2h7q21 0 27 22q5 18 5 48v296l1 1h-2h-140v-294q0 -54 14 -68q8 -5 18 -5h6 q2 0 2 -1v-135q0 -1 -2 -1h-315q-2 0 -2 1v135q1 1 2 1h39q24 0 28 31q4 15 4 43v266q0 77 -17 104q-15 36 -47 51q-6 3 -10 3z" />
<glyph unicode="I" horiz-adv-x="400" d="M2 1v134q0 1 1 1h39q19 0 26 20q6 19 6 52v296q0 65 -36 106q-19 18 -32 21l-4 2v2l12 5q29 11 46 47q14 36 14 71v221q0 50 -12 63q-8 7 -25 7h-34q-1 0 -1 1v149q0 1 1 1h348q1 0 1 -1v-149q0 -1 -1 -1h-35q-21 0 -28 -14q-8 -18 -8 -57v-240q0 -29 21 -67 q18 -26 49 -35v-3q-27 -8 -47 -36q-23 -41 -23 -70v-316q0 -62 17 -71q7 -4 16 -4h38q1 0 1 -1v-134q0 -1 -1 -1h-348q-1 0 -1 1z" />
<glyph unicode="J" horiz-adv-x="429" d="M0 -1v192h1q19 -56 45 -56h2q27 0 35 34q7 38 7 108v213q0 33 -8 67q-15 48 -43 66q-16 10 -24 9v2q1 0 15 5q60 28 60 138v183q0 78 -14 84q-7 6 -22 6h-34q-1 0 -1 2v148q0 2 1 2h336q1 0 1 -2v-148q0 -2 -1 -2h-26q-23 0 -29 -19t-6 -61v-187q0 -120 63 -144 q5 -2 11 -4v-2q-29 -8 -48 -36q-25 -41 -25 -93v-3l-1 -1v-163q0 -238 -64 -309q-14 -20 -52 -42q-41 -23 -66 -23q-41 3 -55 8q-16 2 -57 27z" />
<glyph unicode="K" horiz-adv-x="736" d="M-10 627v2q32 9 52 38q23 39 23 95v204q0 64 -14 74q-8 6 -22 6h-25q-2 0 -2 1v148q1 2 2 2h314q1 0 1 -2v-148q0 -1 -1 -1h-10q-27 0 -34 -35q-3 -11 -3 -52v-228q92 221 122 291v10q0 14 -21 14h-7q-1 0 -1 1v148q0 2 1 2h301q1 0 1 -2v-148q0 -1 -1 -1h-15 q-49 0 -89 -59q-39 -47 -78 -161v-2q24 -113 48 -146q21 -30 51 -41q16 -5 21 -5v-2q-49 -23 -49 -94v-1q0 -5 63 -256q23 -79 47 -114q16 -22 31 -26q4 0 4 -2v-140q0 -1 -1 -1h-336q-1 0 -1 1v134q0 1 1 1h17q11 0 18 20q2 9 2 17q0 30 -27 129q-51 177 -51 179h-1 q-50 -101 -50 -103v-127q0 -86 12 -100q8 -15 20 -15h6q2 0 2 -1v-134q0 -1 -2 -1h-305q-2 0 -2 1v134q1 1 2 1h29q24 0 29 33q3 17 3 48v257q0 76 -16 103q-18 39 -48 52q-10 2 -11 2z" />
<glyph unicode="L" horiz-adv-x="600" d="M0 631v2l18 6q27 13 42 46q15 36 15 70v222q0 55 -16 64q-8 5 -21 5h-35q-1 0 -1 1v148q0 2 1 2h352q1 0 1 -2v-148q0 -1 -1 -1h-37q-23 0 -29 -18q-6 -17 -6 -57v-234q0 -26 18 -63q17 -27 45 -38q7 -3 9 -3v-2q-30 -8 -49 -35q-20 -33 -23 -65v-6v-214l1 -2v-121 q0 -36 15 -47q6 -3 16 -3h14q39 0 51 13q13 10 20 43q5 11 10 106q1 0 4 119q0 7 1 7h136q1 0 1 -1v-424q0 -1 -1 -1h-548q-1 0 -1 1v134q0 1 1 1h40q22 0 28 26q4 21 4 43v289v3v3v4q0 68 -41 109q-24 17 -34 18z" />
<glyph unicode="M" horiz-adv-x="900" d="M0 634v1q15 4 33 17q21 19 28 39q13 36 13 67v217q0 63 -17 70q-7 4 -20 4h-35q-1 0 -1 1v149q0 1 1 1h313q2 0 14 -62q3 -13 80 -389h8q83 432 87 451h323q2 0 2 -1v-149q0 -1 -2 -1h-35q-21 0 -28 -14q-8 -14 -8 -67v-200q0 -67 31 -106q19 -18 33 -23q7 -2 10 -3v-2 l-14 -5q-31 -15 -49 -60q-11 -27 -11 -91v-258q0 -67 14 -77q8 -7 18 -7h39q2 0 2 -1v-134q0 -1 -2 -1h-332q-1 0 -1 1v134q0 1 1 1h24q23 0 28 30q4 18 4 62v479h-6v-1l-112 -582l-6 -27l-1 -1h-90q-2 0 -9 39q-3 9 -120 571q0 2 -6 5v-485q0 -79 17 -84q6 -6 15 -6h24 q1 0 1 -1v-134q0 -1 -1 -1h-255q-1 0 -1 1v134q0 1 1 1h40q26 0 30 38q2 20 2 37v296q0 57 -32 100q-13 13 -27 21q-14 6 -15 6z" />
<glyph unicode="N" horiz-adv-x="800" d="M-14 630v1q30 10 45 35q11 15 18 38q13 51 13 73v170q0 78 -10 87q-8 10 -23 10h-27h-2v151q0 2 2 2h315q2 0 16 -53q149 -525 152 -534q0 -4 23 -83h5v443q0 55 -11 66q-9 8 -23 8h-26h-2v151q1 2 2 2h289q1 -1 1 -2v-151h-1h-26q-23 0 -29 -20q-6 -16 -6 -64v-190 q5 -45 15 -76q16 -40 41 -56l20 -7v-2q-10 0 -33 -19q-20 -23 -26 -44q-7 -15 -16 -58q-1 -8 -1 -11v-496q0 -1 -1 -1h-260q-2 0 -12 36l-160 564q0 2 -12 43h-6v-390q0 -90 8 -99q6 -12 31 -12h22q1 -1 1 -2v-139q0 -1 -1 -1h-289q-2 0 -2 1v139q0 2 2 2h23q23 0 30 15 q7 16 7 83v255q0 20 -16 73q-10 28 -36 51q-13 8 -24 11z" />
<glyph unicode="O" horiz-adv-x="735" d="M-31 638v2q4 0 14 3q14 6 27 18q21 18 31 61q8 78 20 138q19 88 42 146q58 143 151 193q52 26 93 26h15q58 0 125 -47q34 -28 46 -44q36 -43 66 -112q23 -51 40 -123q13 -46 26 -152q3 -32 9 -47q15 -41 48 -57q8 -4 18 -5v-3q-30 -8 -47 -34q-10 -16 -16 -37 q-4 -8 -6 -59q0 -53 -19 -172q-18 -90 -41 -151q-25 -60 -54 -101q-18 -26 -50 -53q-72 -61 -154 -61q-85 0 -161 68q-41 42 -56 71q-20 30 -43 90q-19 53 -35 129q-11 56 -19 147q-1 31 -3 31l1 3v5q-1 100 -64 126q-2 1 -4 1zM272 533q0 -155 15 -300q6 -32 13 -47 q16 -34 47 -34h3q51 0 65 120q4 34 4 81q-1 158 -1 221q-17 43 -49 58q-7 2 -11 3v2q30 9 49 35q11 19 11 24q0 223 -9 256q-13 87 -61 87q-49 0 -61 -89q-8 -26 -14 -233v-12l-1 -8q7 -18 15 -30q16 -24 47 -31v-2q-29 -9 -47 -35q-13 -21 -15 -31v-35z" />
<glyph unicode="P" horiz-adv-x="627" d="M0 630v2q33 8 51 35q8 13 15 32q5 17 8 51v4v220q0 53 -15 63q-8 6 -22 6h-34q-1 0 -1 1v148q0 1 1 1q177 1 299 1q77 0 151 -28q85 -37 131 -129q37 -78 37 -165v-28q0 -91 -42 -209q-24 -63 -63 -105q-27 -26 -45 -35q-29 -16 -69 -26q-39 -10 -106 -10h-17v-241 q0 -65 14 -76q8 -7 18 -7h40q1 0 1 -1v-133q0 -1 -1 -1h-348q-1 0 -1 1v133q0 1 1 1h39q22 0 28 27q4 20 4 44v288v2v2v5q0 60 -33 101q-21 21 -41 26zM279 631h15q32 0 50 36q34 68 34 181v5q0 108 -37 168q-17 25 -43 25h-19v-415z" />
<glyph unicode="Q" horiz-adv-x="775" d="M0 640l1 3q8 1 15 4q32 15 48 54q7 14 12 77q16 108 35 175q16 54 41 105q26 56 64 98q31 32 53 44q56 34 105 34h15q53 0 116 -42q27 -19 39 -33q30 -34 47 -65q26 -42 53 -118q21 -59 40 -182l9 -80q8 -30 32 -53q20 -15 35 -17v-2l-15 -7q-21 -14 -33 -31 q-16 -30 -16 -54q0 -78 -20 -204q-17 -87 -40 -148q-20 -52 -45 -90q-12 -20 -34 -45q-79 -86 -167 -86v-12q22 -23 53 -60q44 -48 68 -48h1q24 0 42 34q2 4 6 16q66 -65 67 -68q-22 -79 -45 -122q-31 -63 -73 -63q-43 0 -103 77q-51 54 -83 54q-29 0 -41 -32v-2h-1 q-5 5 -67 81q8 46 11 46q13 30 35 58q22 24 44 37l5 3v9q-113 49 -176 195q-22 50 -39 122q-11 47 -21 128q-8 94 -8 132q-8 30 -18 45q-15 26 -46 32zM305 595q0 -224 15 -365q6 -29 12 -44q17 -37 49 -37h1q43 0 58 73q13 41 13 131v228q-14 40 -46 57q-12 5 -14 5v2 q36 9 52 39q8 15 8 18q0 250 -20 303q-16 52 -54 52q-40 0 -55 -57q-14 -56 -14 -103q-4 -90 -4 -206v-1q14 -30 46 -43q7 -3 8 -3v-2q-21 -4 -37 -21q-14 -16 -18 -26z" />
<glyph unicode="R" d="M-12 633v2q37 10 53 40q20 38 20 82v208q0 72 -14 79q-5 7 -30 7h-17q-1 0 -1 1v146q0 2 1 2h336q71 0 139 -40q42 -30 55 -49q74 -89 74 -221q0 -155 -65 -262q-13 -20 -38 -44v-10q0 -2 70 -283q23 -90 45 -127q15 -21 31 -26q3 0 3 -1v-134q0 -1 -2 -1h-301v138h2 q22 0 28 32q2 7 2 15v3q0 35 -46 209q-8 34 -10 41h-1h-1h-1h-50h-1h-3v-205q0 -82 14 -90q7 -7 19 -7h6q2 0 2 -1v-134q0 -1 -2 -1h-305q-1 0 -1 1v134q0 1 1 1h30q24 0 29 36q2 19 2 50v298q0 31 -22 73q-9 14 -26 27q-15 9 -25 11zM267 1051q1 -49 1 -75v-311v-29h5 q33 0 58 39q37 59 37 204q0 132 -64 165q-17 7 -37 7z" />
<glyph unicode="S" horiz-adv-x="659" d="M0 -5v329q0 1 1 1h216q2 -1 2 -4q0 -60 24 -135q21 -54 47 -54q47 0 62 105q2 20 2 40v3q0 100 -110 204q-60 61 -138 61h-2q-15 0 -27 -4l-3 3q22 22 22 54q0 33 -25 66q-56 82 -70 224q-2 15 -2 31q0 124 103 227q10 14 46 41q72 44 165 44h24q70 0 125 -32h132 q1 0 1 -1v-338q0 -1 -1 -1h-222q-2 0 -2 2q0 69 -10 146q-2 12 -8 22q-17 23 -36 23t-40 -33q-20 -41 -20 -91v-4q0 -2 -1 -4q1 -2 1 -5v-2q0 -65 29 -100q27 -38 66 -79q42 -38 93 -38h12h6h3q3 0 16 1l13 3l3 -3l-9 -9l-7 -12q-7 -18 -7 -34q0 -37 44 -85q31 -35 51 -78 q36 -76 36 -162v-25q0 -48 -11 -104q-10 -30 -24 -52q-16 -30 -61 -74q-104 -91 -215 -91q-74 0 -132 24h-161h-1z" />
<glyph unicode="T" d="M0 1196l1 1h651l1 -1q2 -243 2 -411h-1h-135q-1 0 -1 1q-9 224 -20 244q-9 19 -48 19h-22v-281q0 -64 28 -104q20 -22 48 -29v-3q-14 -3 -35 -19q-24 -25 -33 -58q-8 -24 -8 -75v-245q0 -74 9 -84q8 -10 29 -10h32h1v-140q0 -1 -1 -1h-344q-1 0 -1 1v140h1h33q26 0 32 19 q5 21 5 53v287q-4 40 -16 70q-14 36 -41 52l-15 5q-2 2 0 5l11 4q16 7 33 32q17 31 17 40q5 13 11 57v284h-24q-39 0 -46 -21q-7 -16 -11 -89q-2 -56 -4 -154h-135h-2z" />
<glyph unicode="U" horiz-adv-x="730" d="M-14 635v3l13 5q31 13 48 51q12 34 12 58v227q0 54 -14 65q-8 6 -22 6h-25q-1 0 -1 1v147q0 2 1 2h325q2 -1 2 -2v-147q0 -1 -2 -1h-25q-24 0 -29 -18q-6 -18 -6 -57v-208q0 -64 29 -102q18 -21 44 -27v-2q-28 -7 -46 -33q-11 -17 -18 -36q-9 -33 -9 -50q0 -172 32 -232 q22 -46 64 -46h3q38 0 66 79q21 67 21 194v13q0 34 -22 75q-7 12 -27 28q-13 8 -24 10v1q13 3 36 20q22 18 32 60q6 20 6 72v190q0 51 -13 62q-8 7 -22 7h-25q-1 0 -1 1v147q0 2 1 2h289q1 -1 1 -2v-147q0 -1 -1 -1h-24q-26 0 -31 -19q-6 -20 -6 -58v-226q0 -30 19 -68 q19 -31 53 -40v-1q-29 -8 -48 -36q-11 -16 -17 -38q-7 -25 -7 -36v-26q0 -236 -62 -385q-63 -140 -179 -140q-147 0 -220 115q-24 32 -45 85q-12 30 -24 81q-13 59 -22 151q-6 70 -6 95l-1 7q-2 104 -73 124z" />
<glyph unicode="V" d="M0 1047v149q0 1 1 1h329q2 0 2 -1v-149q0 -1 -2 -1h-24q-12 0 -15 -21v-4q0 -11 8 -53q2 -13 71 -378h11l65 402q2 8 2 18v9q0 23 -15 26q-7 1 -16 1h-8q-1 0 -1 1v149q0 1 1 1h254q1 0 1 -1v-149q0 -1 -1 -1h-18q-24 0 -33 -14q-6 -7 -13 -28q-16 -62 -43 -248 q-2 -9 -2 -25q1 -76 55 -95v-3q-29 -6 -45 -22q-21 -18 -33 -44q-11 -19 -14 -51q-77 -475 -84 -515l-1 -1h-180q-2 0 -9 42q-68 360 -89 476q-13 43 -25 62q-24 36 -51 45q-16 5 -21 5v3q53 20 53 90q0 34 -17 114q-26 151 -43 189q-7 12 -20 17q-7 3 -28 3h-1q-1 0 -1 1z " />
<glyph unicode="W" horiz-adv-x="1100" d="M0 1050v149q0 1 1 1h350q2 0 2 -1v-149h-2h-6q-36 0 -41 -7q-4 -6 -4 -14v-4q0 -25 40 -229q3 -10 33 -167h8q2 0 6 30q62 382 84 525q3 16 4 16h152q2 0 11 -51q1 -7 95 -506h7q1 0 4 27q55 324 55 355q0 25 -18 25h-41h-2v149q0 1 2 1h292q2 0 2 -1v-149h-2h-13 q-25 0 -34 -17q-24 -49 -55 -263q-3 -23 -3 -40q1 -73 53 -92v-3q-16 -1 -41 -17q-28 -24 -37 -44q-7 -7 -11 -42q-81 -508 -86 -532h-184q-2 0 -10 52q-1 2 -83 439h-7q-87 -483 -89 -491h-186q-2 0 -8 42q-4 19 -89 502q-12 31 -26 50q-21 29 -57 39h-7v3q53 21 53 91 q0 55 -40 242q-12 43 -24 61q-16 20 -39 20h-8h-1z" />
<glyph unicode="X" d="M0 1048v148q0 1 1 1h322q1 0 1 -1v-148q0 -1 -1 -1h-11q-14 0 -14 -28v-1q0 -19 18 -78l30 -96q41 128 50 163q2 8 2 13v10q-2 17 -13 17h-12q-2 0 -2 1v148q1 1 2 1h261q1 0 1 -1v-148q0 -1 -1 -1h-19q-23 0 -35 -22q-18 -31 -44 -118q-46 -141 -46 -156q-4 -16 -4 -35 q0 -58 52 -77l21 -4v-4q-24 0 -42 -13q-20 -17 -20 -47q0 -27 29 -120q53 -184 80 -268q19 -47 39 -47h27q1 0 1 -1v-134q0 -1 -1 -1h-335v1v134v1h11q9 0 13 19q1 7 1 16q0 26 -46 178q-1 1 -6 18h-1q-44 -147 -50 -169q-4 -17 -4 -27v-9q0 -16 12 -25q1 -1 3 -1h14 q1 0 1 -1v-134q0 -1 -1 -1h-282q-1 0 -1 1v134q0 1 1 1h26q37 0 52 54q5 11 28 79q7 20 75 241l-2 1q3 15 3 34v2q0 61 -50 79q-22 6 -29 6v3q5 1 12 3q27 15 27 51v9q0 23 -9 48q-70 236 -85 281q-5 13 -13 18q-9 2 -18 2h-18q-1 0 -1 1z" />
<glyph unicode="Y" horiz-adv-x="681" d="M0 1051v148q0 1 1 1h324q2 0 2 -1v-148q0 -1 -2 -1h-19q-18 0 -18 -24q0 -19 29 -151l41 -180h4q2 0 6 27q35 182 40 228q14 70 14 80v1q0 19 -12 19h-28q-1 0 -1 1v148q0 1 1 1h248q2 0 2 -1v-148q0 -1 -2 -1h-16q-28 0 -41 -55q-19 -72 -47 -222q-3 -25 -3 -44 q0 -70 51 -90v-3q-33 -5 -50 -23q-32 -28 -48 -87q-44 -217 -44 -222v-73q0 -78 11 -84q8 -11 19 -11h34q1 0 1 -1v-134q0 -1 -1 -1h-333q-1 0 -1 1v134q0 1 1 1h32q19 0 27 22q5 16 5 44v99q-2 12 -54 218q-7 26 -18 48q-27 50 -66 64q-10 3 -21 5v2q47 21 47 82 q0 39 -18 104q-36 150 -54 199q-13 27 -41 27h-1q-1 0 -1 1z" />
<glyph unicode="Z" horiz-adv-x="644" d="M0 1v200q11 29 170 420q3 18 3 36q0 47 -36 68l1 2h3q64 0 103 75q77 191 77 193q-77 1 -110 2q-35 0 -44 -21q-6 -7 -10 -55q-14 -156 -15 -163h-136q-2 0 -2 1v434q1 1 2 1h573q1 0 1 -1v-170l-101 -254q-14 -40 -14 -67v-3q-2 -43 35 -66v-2h-2q-62 0 -108 -79 q-144 -354 -149 -367h133q35 0 44 21q6 6 10 54q6 45 15 164h1h135h1v-423q0 -1 -1 -1h-578q-1 0 -1 1z" />
<glyph unicode="[" horiz-adv-x="1300" />
<glyph unicode="\" horiz-adv-x="569" />
<glyph unicode="]" horiz-adv-x="1014" />
<glyph unicode="^" horiz-adv-x="1024" />
<glyph unicode="_" />
<glyph unicode="a" horiz-adv-x="630" d="M0 101v119q0 1 1 1h8q26 0 36 25q11 27 28 150l19 134q0 45 -18 83q-7 11 -20 22l-6 4v4q5 0 11 2q21 6 35 26t32 77q31 214 31 219q0 26 -18 26h-31q-1 0 -1 1v130h1h400h1v-130q0 -1 -1 -1h-29q-20 0 -20 -25q30 -236 32 -241q11 -37 24 -55q6 -11 24 -24q17 -8 27 -8 v-3q-17 -10 -23 -23q-17 -27 -19 -56q-3 -13 -4 -46q-1 0 -1 -2q28 -207 34 -242q6 -27 12 -36q7 -11 23 -11h10q1 0 1 -1v-119q0 -1 -1 -1h-263q-1 0 -1 1v119l1 1h10q26 0 30 8q2 8 2 19q0 33 -10 94h-164v-1q-10 -70 -10 -73v-9q0 -30 15 -36q5 -2 13 -2h5q1 0 1 -1v-119 q0 -1 -1 -1h-225q-1 0 -1 1zM236 563q1 0 1 -1q1 0 1 1q27 -1 39 -1h58l1 1l-46 338h-4q-43 -290 -50 -338z" />
<glyph unicode="b" horiz-adv-x="558" d="M0 101v115h1h34q14 0 21 15q6 16 6 60v250q0 34 -21 69q-15 23 -39 30v3q28 8 42 32q7 10 14 34q4 21 4 31v182q0 60 -11 67q-6 8 -18 8h-32h-1v126h1h254q91 0 155 -32q97 -50 97 -191q0 -74 -25 -174q-14 -32 -41 -58q-25 -20 -44 -23q-11 -2 -12 -3v-15q20 -7 47 -21 q18 -11 35 -26q17 -17 26 -33q40 -73 40 -202v-21q0 -46 -19 -103q-11 -28 -25 -47q-31 -41 -93 -59q-45 -11 -60 -11q-28 -4 -134 -4h-201q-1 0 -1 1zM238 787q0 -22 1 -65h37q29 0 48 70q6 22 6 85q0 5 1 10q0 86 -42 105q-14 5 -31 5h-20v-210zM239 216h36q39 0 55 94 q4 28 4 57v4q0 91 -29 113q-18 16 -49 16h-17v-284z" />
<glyph unicode="c" horiz-adv-x="600" d="M0 641v3q4 0 10 3q30 13 43 45q5 10 9 51q13 94 29 144q20 62 45 110q18 35 51 73q26 28 49 41q43 24 83 24h14q60 0 117 -42q33 -27 46 -45q26 -33 49 -81q45 -108 45 -239l-1 -1h-195q-2 0 -2 11q0 85 -12 192q-4 31 -11 39q-18 30 -41 30q-32 0 -43 -28 q-6 -12 -13 -51q-4 -29 -7 -166q0 -35 13 -70q7 -15 23 -30q15 -10 24 -11v-2l-10 -4q-28 -12 -45 -54q-4 -13 -6 -27v-8q0 -57 13 -228q14 -105 56 -105h2q46 0 57 221q1 30 1 57v11q1 1 2 1h210q1 0 1 -1v-6q0 -107 -37 -223q-26 -72 -80 -131q-63 -64 -160 -64 q-72 0 -134 51q-53 50 -78 110q-14 30 -30 88q-13 38 -24 119q-9 73 -9 113q-8 43 -24 59q-12 16 -30 21z" />
<glyph unicode="d" horiz-adv-x="638" d="M0 640v4l15 6q17 10 24 22q25 30 25 106v143q0 69 -12 72q-5 6 -16 6h-24h-1v124q0 1 1 1h279q99 0 166 -46q28 -22 35 -33q17 -19 30 -49q12 -22 23 -63q9 -31 16 -89q7 -84 7 -123q6 -24 12 -36q15 -29 46 -40q2 -1 3 -2l-2 -3q-21 -5 -37 -26q-11 -16 -17 -35 q-2 -7 -4 -16q0 -113 -21 -250q-10 -46 -22 -72q-35 -75 -110 -109q-23 -11 -49 -18q-53 -14 -150 -14h-202q-2 0 -2 47q-1 7 -2 69l1 1h24q18 0 23 17t5 59v161q0 96 -5 111q-5 21 -12 35q-5 11 -19 25q-15 13 -28 15zM238 270q0 -47 15 -54q7 -3 14 -3q67 0 82 95 q10 67 10 257q0 7 -12 35q-6 15 -26 30q-14 10 -21 11v2q29 9 45 34q7 11 13 37q0 3 1 3q-1 5 -1 8q0 162 -13 216q-13 35 -39 50q-18 8 -34 8h-5q-22 0 -25 -26q-4 -15 -4 -35v-244q7 -19 20 -32t31 -19v-2q-4 -1 -10 -4q-26 -13 -41 -50v-317z" />
<glyph unicode="e" horiz-adv-x="516" d="M14 632v3q27 8 45 32q21 34 21 84v154q0 74 -8 80q-9 7 -20 7h-35q-1 0 -1 1v130q0 1 1 1h482q1 0 1 -1v-350q0 -1 -1 -1h-125q-1 0 -1 48q-4 140 -6 140q-4 15 -10 21q-7 10 -30 10h-24q-21 0 -28 -5q-12 -8 -12 -29v-148v-21q0 -19 -1 -60h118l1 -1q-1 -144 -1 -219 l-2 -1h-116h-1v-246q0 -2 -1 -7q0 -26 15 -33q2 -3 12 -3h14q38 0 48 13q7 9 12 25q9 24 9 57q6 83 6 148h1h121q1 0 1 -1v-359q0 -1 -1 -1h-481q-1 0 -1 1v120h1h34q19 0 24 20q5 15 5 64v202q0 101 -63 124z" />
<glyph unicode="f" horiz-adv-x="520" d="M0 633v3q29 7 46 32q22 34 22 84v154q0 74 -9 80q-8 7 -19 7h-37v1v130v1h490q1 0 1 -1v-351h-1h-127q-1 0 -1 48q-4 140 -6 140q-5 15 -10 21q-7 10 -31 10h-24q-22 0 -29 -5q-12 -9 -12 -29v-148v-22v-60h119v-220h-2h-117q-1 0 -1 -1v-233q0 -39 13 -48q7 -5 16 -5h91 h1v-120q0 -1 -1 -1h-369v1v120h36q18 0 23 20q6 15 6 67v199q0 101 -64 125q-2 1 -4 1z" />
<glyph unicode="g" horiz-adv-x="667" d="M0 638v3q3 0 13 3q28 13 42 45q7 15 10 46q0 20 13 94q14 63 35 114q25 60 54 101q22 33 48 57q48 38 106 38h17q52 0 110 -31q13 -6 40 -29q0 -1 6 -6q4 39 5 51l2 2h113q2 -1 2 -2v-364q0 -1 -2 -1h-204q-1 0 -1 1q0 135 -29 207q-15 31 -34 31h-2q-31 0 -46 -36 q-13 -43 -25 -164q-1 -19 -1 -33v-4q0 -92 46 -113q11 -6 13 -6v-1q-3 -1 -10 -4q-30 -12 -46 -53q-8 -23 -8 -33q0 -90 11 -231q16 -106 71 -106q21 0 47 25q5 6 11 32q11 61 11 94v63q0 37 -8 47q-5 7 -35 7h-5q-1 0 -1 1v128q0 1 1 1h285q1 0 1 -1v-19v-110 q-14 -5 -20 -18q-9 -19 -9 -38q2 -225 2 -327h-2h-120q-2 0 -5 31q-1 8 -5 46h-5q-16 -26 -29 -40q-53 -63 -138 -63q-93 0 -150 70q-26 30 -41 56q-16 28 -31 69q-15 38 -27 102q-9 45 -15 120l-5 76q-6 27 -18 46l-8 11q-9 10 -30 15z" />
<glyph unicode="h" horiz-adv-x="616" d="M3 641v1q26 8 43 32q20 33 20 81v179q0 53 -15 58q-6 3 -16 3h-29q-2 0 -2 1v127q1 1 2 1h268q2 0 2 -1v-127q0 -1 -2 -1h-3q-18 0 -24 -14q-6 -16 -6 -44v-184h121v182q0 45 -12 55q-7 5 -20 5h-2q-1 0 -1 1v127q0 1 1 1h270q1 0 1 -1v-127q0 -1 -1 -1h-30 q-21 0 -26 -15t-5 -51v-174q0 -58 26 -90q20 -19 37 -23v-1l-9 -3q-28 -12 -44 -51q-10 -23 -10 -81v-223q0 -50 11 -60q7 -7 17 -7h33h1v-115q0 -1 -1 -1h-271v5v110q0 1 1 1h6q18 0 23 20q5 15 5 40v252v1h-1h-120v-250q0 -46 12 -58q7 -5 16 -5h5h2v-115q0 -1 -2 -1h-268 q-2 0 -2 1v115h2h33q20 0 24 27q3 13 3 37v227q0 65 -14 88q-13 31 -40 43q-6 3 -9 3z" />
<glyph unicode="i" horiz-adv-x="320" d="M2 101v114q0 1 1 1h33q16 0 22 17q5 16 5 44v252q0 56 -30 91q-17 15 -28 18q-1 0 -3 1v1l10 5q25 10 39 40q12 30 12 61v188q0 42 -10 53q-7 7 -21 7h-29h-1v127q0 1 1 1h296q1 0 1 -1v-127h-1h-30q-18 0 -23 -13q-7 -15 -7 -49v-203q0 -25 18 -57q15 -23 41 -31v-2 q-23 -7 -40 -31q-19 -35 -19 -59v-270q0 -52 14 -59q6 -4 14 -4h32q1 0 1 -1v-114q0 -1 -1 -1h-296q-1 0 -1 1z" />
<glyph unicode="j" horiz-adv-x="331" d="M0 92v164h1q16 -48 38 -48h2q23 0 30 30q6 32 6 92v183q0 28 -7 57q-13 41 -37 56q-13 8 -20 8v2q1 0 13 4q51 24 51 118v157q0 66 -12 72q-6 5 -19 5h-29q-1 0 -1 2v127q0 1 1 1h288q1 0 1 -1v-127q0 -2 -1 -2h-22q-20 0 -25 -16q-5 -17 -5 -53v-160q0 -103 54 -124 q4 -1 9 -2v-3q-25 -6 -41 -30q-22 -35 -22 -80v-2v-2v-139q0 -204 -55 -264q-12 -17 -45 -37q-35 -19 -56 -19q-35 2 -47 6q-14 3 -49 24z" />
<glyph unicode="k" horiz-adv-x="620" d="M0 638v2q27 8 45 32q19 34 19 81v175q0 54 -12 63q-7 5 -19 5h-21h-2v127q1 1 2 1h269q1 0 1 -1v-127h-1h-9q-23 0 -29 -30q-2 -10 -2 -45v-194q78 189 104 249v8q0 12 -18 12h-6h-1v127q0 1 1 1h258q1 0 1 -1v-127h-1h-13q-42 0 -76 -50q-34 -41 -67 -138v-2 q20 -96 41 -125q18 -25 44 -34q13 -4 18 -4v-2q-42 -20 -42 -80v-2q0 -4 54 -218q19 -68 40 -98q14 -17 26 -21q4 0 4 -1v-120q0 -1 -1 -1h-288q-1 0 -1 1v115q0 1 1 1h15q9 0 15 16q2 7 2 14q0 26 -23 111q-44 150 -44 152h-1q-42 -86 -42 -87v-109q0 -73 10 -86 q7 -11 17 -11h5q2 0 2 -1v-115q0 -1 -2 -1h-261q-2 0 -2 1v115q1 1 2 1h25q20 0 25 26q2 15 2 42v218q0 66 -13 89q-16 34 -42 44q-8 2 -9 2z" />
<glyph unicode="l" horiz-adv-x="500" d="M0 640v1l15 6q23 10 36 39q13 30 13 60v189q0 48 -14 56q-6 4 -18 4h-29h-1v127q0 2 1 2h301v-2v-127h-32q-20 0 -25 -16q-5 -15 -5 -49v-200q0 -22 15 -54q15 -23 39 -32q6 -3 8 -3v-1q-26 -7 -42 -30q-17 -29 -20 -56v-5v-183l1 -1v-104q0 -31 13 -41q5 -2 13 -2h12 q34 0 44 11q11 9 17 37q4 9 9 91l3 102q0 5 1 5h116h1v-363q0 -1 -1 -1h-468q-1 0 -1 1v114q0 1 1 1h34q19 0 24 23q3 17 3 36v247v3v2v4q0 58 -35 93q-20 15 -29 16z" />
<glyph unicode="m" horiz-adv-x="736" d="M0 641v2q13 2 28 14q18 16 24 34q11 30 11 57v185q0 54 -14 60q-6 3 -17 3h-30q-1 0 -1 1v127q0 1 1 1h267q2 0 12 -53q3 -11 68 -332h7q71 369 75 385h275q2 0 2 -1v-127q0 -1 -2 -1h-29q-18 0 -24 -12q-7 -12 -7 -57v-171q0 -58 26 -90q16 -16 28 -20l9 -3v-1l-12 -4 q-26 -13 -42 -52q-9 -23 -9 -78v-220q0 -57 12 -66q7 -6 15 -6h33q2 0 2 -1v-114q0 -1 -2 -1h-283q-1 0 -1 1v114q0 1 1 1h20q20 0 24 26q4 15 4 53v409h-5v-1l-96 -497l-5 -23l-1 -1h-77q-2 0 -8 33q-2 8 -102 488q0 2 -5 4v-414q0 -67 14 -72q5 -5 13 -5h21v-1v-114v-1 h-218q-1 0 -1 1v114q0 1 1 1h34q22 0 26 33q1 16 1 31v253q0 49 -27 85q-11 12 -23 19q-12 4 -13 4z" />
<glyph unicode="n" horiz-adv-x="660" d="M0 640v1q26 9 39 30q9 13 15 33q11 43 11 62v146q0 67 -8 74q-7 9 -20 9h-23h-2v130q0 1 2 1h270q1 0 13 -45q128 -450 131 -458q0 -3 20 -71h4v380q0 47 -10 56q-7 7 -19 7h-23h-1v130l1 1h248q1 0 1 -1v-130h-1h-22q-20 0 -25 -17q-5 -14 -5 -55v-163q4 -39 13 -65 q13 -34 35 -48l17 -6v-2q-9 0 -28 -16q-17 -20 -23 -37q-6 -13 -13 -50q-1 -7 -1 -10v-425q0 -1 -1 -1h-223q-2 0 -10 31l-137 483q0 2 -11 37h-5v-334q0 -78 7 -85q5 -10 27 -10h18q1 -1 1 -2v-119q0 -1 -1 -1h-247q-2 0 -2 1v119q0 2 2 2h19q20 0 26 12q6 14 6 72v218 q0 17 -14 63q-8 24 -30 44q-12 7 -21 9z" />
<glyph unicode="o" horiz-adv-x="661" d="M0 642v2q3 0 12 3q12 5 23 15q17 15 26 51q7 66 17 117q16 74 35 123q49 121 128 163q44 22 78 22h13q49 0 105 -40q29 -23 39 -36q31 -37 56 -96q19 -42 34 -103q11 -39 22 -129q2 -26 7 -39q13 -34 41 -48q7 -3 15 -5v-2q-25 -7 -40 -29q-8 -13 -13 -31q-4 -7 -5 -50 q0 -45 -16 -145q-16 -76 -35 -127q-21 -51 -46 -86q-15 -21 -42 -45q-61 -51 -130 -51q-72 0 -136 57q-34 36 -47 61q-17 25 -36 76q-16 44 -30 108q-9 48 -16 124q-1 27 -2 27v2v4q0 85 -54 107h-3zM256 554q0 -131 13 -253q5 -27 10 -40q14 -29 40 -29h3q43 0 55 102 q3 28 3 68q-1 133 -1 186q-14 37 -41 49q-6 2 -10 3v2q26 7 42 29q9 17 9 20q0 189 -7 217q-11 73 -52 73t-51 -75q-7 -22 -12 -196v-11l-1 -6q6 -16 13 -26q13 -20 39 -26v-2q-24 -7 -39 -29q-11 -18 -13 -27v-29z" />
<glyph unicode="p" horiz-adv-x="540" d="M0 639v2q28 7 44 30q7 12 13 28q4 15 6 44v3v188q0 46 -12 55q-7 5 -19 5h-29h-1v127q0 1 1 1q151 1 256 1q66 0 129 -24q73 -32 112 -110q32 -68 32 -142v-24q0 -78 -36 -179q-21 -54 -54 -90q-23 -23 -39 -30q-24 -14 -59 -23q-33 -8 -90 -8h-15v-207q0 -55 12 -65 q7 -5 15 -5h35q1 0 1 -1v-114q0 -1 -1 -1h-298q-1 0 -1 1v114q0 1 1 1h33q19 0 24 23q3 17 3 37v247v2v1v5q0 51 -28 86q-18 18 -35 22zM239 641h13q27 0 43 30q29 58 29 155v5q0 92 -32 143q-14 22 -37 22h-16v-355z" />
<glyph unicode="q" horiz-adv-x="656" d="M0 640l1 2q7 1 13 3q27 13 40 46q6 12 11 66q13 92 29 149q14 46 35 89q23 48 55 84q26 27 45 37q48 29 89 29h13q45 0 99 -36q23 -16 33 -28q26 -29 40 -55q22 -36 45 -100q18 -51 34 -156l8 -67q7 -26 27 -46q17 -12 30 -15v-1l-13 -6q-18 -11 -28 -27q-13 -25 -13 -45 q0 -66 -18 -174q-14 -74 -34 -126q-17 -44 -38 -77q-10 -16 -29 -38q-67 -73 -142 -73v-11q19 -19 45 -50q38 -41 58 -41h1q20 0 36 29q1 4 5 14q56 -56 57 -58q-19 -68 -39 -104q-26 -54 -62 -54t-87 65q-44 46 -71 46q-25 0 -35 -27v-1h-1q-4 3 -57 69q7 39 10 39 q11 25 29 49q19 21 38 32q4 2 4 3v7q-96 42 -150 166q-19 42 -33 104q-9 40 -18 109q-7 80 -7 112q-6 25 -15 38q-13 22 -39 27zM260 601q0 -190 12 -311q6 -24 11 -38q14 -31 41 -31h1q37 0 50 63q11 35 11 111v194q-12 35 -40 48q-10 5 -11 5v2q30 7 44 33q7 13 7 15 q0 213 -17 258q-14 45 -46 45q-34 0 -47 -49q-12 -48 -12 -88q-3 -76 -3 -175v-1q11 -26 39 -37l6 -2v-2q-17 -4 -31 -18q-12 -13 -15 -22z" />
<glyph unicode="r" horiz-adv-x="571" d="M0 637v3q32 8 45 34q17 32 17 70v176q0 62 -12 68q-4 6 -25 6h-15h-1v125q0 2 1 2h286q61 0 119 -35q36 -25 47 -41q63 -76 63 -189q0 -132 -56 -223q-11 -17 -32 -37v-8q0 -3 60 -242q19 -76 38 -108q13 -18 26 -22l3 -1v-114q0 -1 -2 -1h-256v118h2q18 0 23 27 q2 5 2 13v2q0 30 -39 178q-7 29 -9 35h-1h-1h-43h-1h-2v-175q0 -70 12 -76q6 -7 16 -7h5h2v-114q0 -1 -2 -1h-260q-1 0 -1 1v114h1h26q20 0 24 31q2 17 2 43v254q0 27 -19 62q-7 12 -22 23q-12 8 -21 9zM238 994q1 -42 1 -64v-265v-25h4q28 0 49 33q32 51 32 174 q0 113 -55 140q-14 7 -31 7z" />
<glyph unicode="s" horiz-adv-x="531" d="M0 105v278q0 1 1 1h185q1 -1 1 -3q0 -52 21 -115q18 -46 40 -46q40 0 53 89q2 17 2 34v2q0 85 -94 172q-52 53 -118 53h-2q-13 0 -23 -4l-3 3q19 17 19 46q0 28 -21 55q-48 70 -60 190q-1 13 -1 26q0 105 87 191q9 13 40 35q61 37 141 37h20q60 0 107 -27h113q1 0 1 -1 v-285h-1h-190q-2 0 -2 1q0 58 -8 123q-2 10 -7 19q-15 19 -31 19t-34 -28q-17 -35 -17 -77v-3q0 -2 -1 -3q1 -3 1 -5v-2q0 -54 25 -84q23 -33 56 -67q36 -32 80 -32h10h5h3q2 0 13 1l11 2l3 -2l-8 -8l-6 -10q-6 -16 -6 -29q0 -31 38 -72q26 -29 43 -65q31 -65 31 -137v-21 q0 -42 -9 -88q-9 -26 -21 -45q-13 -24 -52 -62q-89 -77 -184 -77q-63 0 -112 20h-138q-1 0 -1 1z" />
<glyph unicode="t" horiz-adv-x="583" d="M0 1122l1 1h558l1 -1q1 -207 1 -351h-116q-1 0 -1 1q-8 191 -17 208q-8 16 -41 16h-19v-240q0 -54 24 -89q17 -19 41 -25v-3q-12 -2 -30 -15q-21 -21 -28 -49q-7 -21 -7 -64v-211q0 -62 8 -71q6 -8 24 -8h28q1 0 1 -1v-119q0 -1 -1 -1h-295q-1 0 -1 1v119q0 1 1 1h28 q23 0 28 16q4 18 4 45v246q-3 33 -14 60q-12 30 -35 43l-13 5q-1 1 0 3l10 4q13 6 28 27q15 27 15 35q4 11 9 48v243h-21q-33 0 -39 -18q-6 -13 -9 -75q-2 -48 -4 -132h-116h-1z" />
<glyph unicode="u" horiz-adv-x="618" d="M0 643v2l11 4q27 12 41 44q10 30 10 50v193q0 46 -12 56q-6 5 -18 5h-22q-1 0 -1 1v126q0 1 1 1h278l1 -1v-126q0 -1 -1 -1h-22q-20 0 -24 -15q-6 -16 -6 -49v-177q0 -55 25 -87q16 -18 38 -24v-1q-24 -6 -40 -28q-9 -15 -15 -31q-8 -28 -8 -43q0 -147 28 -198 q18 -39 54 -39h3q32 0 56 67q18 57 18 166v11q0 29 -19 64q-6 11 -23 23q-11 8 -20 9v2q11 2 31 16q18 16 27 52q5 16 5 61v162q0 44 -11 53q-7 6 -19 6h-21q-1 0 -1 1v126q0 1 1 1h246l1 -1v-126q0 -1 -1 -1h-20q-22 0 -26 -16q-6 -17 -6 -50v-193q0 -25 17 -58 q16 -26 45 -33v-2q-25 -6 -41 -30q-10 -14 -15 -33q-6 -21 -6 -31v-22q0 -201 -53 -329q-53 -119 -152 -119q-126 0 -188 98q-21 28 -38 73q-11 26 -21 69q-11 51 -19 129q-5 59 -5 81l-1 6q-1 89 -62 106z" />
<glyph unicode="v" horiz-adv-x="583" d="M0 997v128q0 1 1 1h282q2 0 2 -1v-128h-2h-21q-10 0 -13 -19v-3q0 -10 7 -46q2 -10 61 -324h9l56 345q2 7 2 16v7q0 20 -13 23q-6 1 -14 1h-7v128v1h218q1 0 1 -1v-128h-1h-15q-21 0 -29 -13q-5 -6 -11 -24q-13 -53 -37 -212q-1 -8 -1 -21q1 -66 47 -82v-3 q-25 -5 -39 -18q-18 -16 -28 -38q-9 -16 -12 -43q-66 -408 -72 -442l-1 -1h-154q-2 0 -8 36q-58 309 -76 408q-11 36 -21 53q-21 31 -44 38q-14 5 -18 5v2q45 18 45 77q0 30 -14 98q-23 130 -37 162q-6 10 -17 15q-6 3 -24 3h-1h-1z" />
<glyph unicode="w" horiz-adv-x="900" d="M0 995v127h1h298h2v-127q0 -1 -2 -1h-5q-31 0 -35 -5q-3 -5 -3 -13v-3q0 -21 34 -194q2 -9 28 -143h7q1 0 5 26q53 325 71 447q3 13 4 13h129q2 0 10 -43q0 -6 81 -431h6l3 23q47 276 47 303q0 20 -16 20h-34q-2 0 -2 1v127h2h248h2v-127q0 -1 -2 -1h-11q-21 0 -29 -14 q-20 -41 -47 -224q-2 -19 -2 -34q1 -62 45 -79v-2q-14 -1 -35 -14q-24 -21 -31 -38q-6 -6 -10 -35q-69 -433 -73 -454h-157q-2 0 -8 44q-1 2 -71 374h-6q-74 -412 -76 -418h-158q-2 0 -7 36q-4 16 -76 428q-10 26 -22 42q-18 24 -49 33q-3 1 -6 1v2q45 18 45 77 q0 47 -34 206q-10 37 -20 52q-14 17 -33 17h-7q-1 0 -1 1z" />
<glyph unicode="x" horiz-adv-x="600" d="M0 997v127h1h275h1v-127q0 -1 -1 -1h-9q-12 0 -12 -24v-1q0 -16 15 -66l26 -83q35 110 43 140q2 7 2 11v8q-2 15 -11 15h-11q-1 0 -1 1v127h1h224v-127v-1h-17q-19 0 -30 -19q-15 -26 -37 -101q-40 -121 -40 -134q-3 -13 -3 -29q0 -50 44 -66l18 -4v-3q-20 0 -36 -11 q-17 -14 -17 -40q0 -23 25 -103q46 -157 69 -229q16 -41 33 -41h23q1 0 1 -1v-114q0 -1 -1 -1h-287v1v114v1h10q8 0 11 17q1 5 1 13q0 23 -40 153l-5 15h-1q-37 -126 -42 -144q-4 -15 -4 -24v-7q0 -14 11 -22q0 -1 2 -1h12q1 0 1 -1v-114q0 -1 -1 -1h-241q-1 0 -1 1v114 q0 1 1 1h22q32 0 44 47q5 9 24 67q6 17 65 206l-2 1q2 14 2 29v2q0 52 -42 67q-19 6 -25 6v2q4 1 10 3q23 13 23 44v7q0 20 -7 42q-60 202 -73 240q-4 11 -11 15q-8 2 -16 2h-15q-1 0 -1 1z" />
<glyph unicode="y" horiz-adv-x="554" d="M0 994v127q0 1 1 1h276q1 0 1 -1v-127h-1h-17q-15 0 -15 -20q0 -17 25 -129l35 -153h3q2 0 5 23q30 155 34 194q12 59 12 68v1q0 16 -10 16h-24h-1v127q0 1 1 1h211q2 0 2 -1v-127h-2h-13q-24 0 -35 -47q-16 -61 -40 -189q-3 -21 -3 -38q0 -59 44 -76v-2q-28 -5 -43 -20 q-27 -24 -41 -74q-37 -185 -37 -189v-62q0 -66 9 -72q7 -9 16 -9h29q1 0 1 -1v-114q0 -1 -1 -1h-283q-1 0 -1 1v114q0 1 1 1h27q16 0 23 18q4 14 4 38v84q-1 10 -46 186q-6 22 -15 41q-23 42 -56 54q-9 3 -18 4v2q40 18 40 69q0 34 -15 90q-31 127 -46 169q-11 23 -35 23h-1 h-1z" />
<glyph unicode="z" horiz-adv-x="521" d="M2 101v172q9 24 146 360q3 16 3 29q0 42 -31 60v2h3q55 0 89 65q66 164 66 165q-66 1 -95 2q-30 0 -38 -18q-5 -6 -8 -47q-12 -134 -13 -140h-117q-2 0 -2 1v372q1 1 2 1h492q1 0 1 -1v-146l-87 -218q-12 -34 -12 -57v-3q-1 -36 30 -56v-2q-54 0 -94 -68 q-124 -304 -128 -315h114q30 0 38 17q5 6 8 48q6 38 13 140h1h116h1v-363q0 -1 -1 -1h-496q-1 0 -1 1z" />
<glyph unicode="&#xad;" d="M100 702q0 16 18 23h6q16 0 22 -19v-2l149 11q0 1 56 138q-14 6 -14 22q0 17 20 22h7q19 -4 19 -24q0 -13 -14 -20q56 -137 56 -138l149 -11q0 14 18 21h6q15 0 22 -18v-7q0 -15 -19 -21h-5q-9 0 -16 8q-2 -1 -114 -97q35 -143 35 -144h1h6q15 0 21 -17q1 -3 1 -5v-1 q0 -17 -19 -22q-3 -1 -4 -1q-16 0 -23 18v6q0 4 3 12h-1l-126 78q-119 -74 -126 -79q3 -6 3 -12q0 -16 -18 -22l-5 -1q-23 3 -23 23v1q0 15 17 22h4h6h1l36 145l-114 96q-1 0 -1 -1q-7 -7 -15 -7h-3q-15 0 -21 18z" />
<glyph unicode="&#x2000;" horiz-adv-x="719" />
<glyph unicode="&#x2001;" horiz-adv-x="1438" />
<glyph unicode="&#x2002;" horiz-adv-x="719" />
<glyph unicode="&#x2003;" horiz-adv-x="1438" />
<glyph unicode="&#x2004;" horiz-adv-x="479" />
<glyph unicode="&#x2005;" horiz-adv-x="359" />
<glyph unicode="&#x2006;" horiz-adv-x="239" />
<glyph unicode="&#x2007;" horiz-adv-x="239" />
<glyph unicode="&#x2008;" horiz-adv-x="179" />
<glyph unicode="&#x2009;" horiz-adv-x="287" />
<glyph unicode="&#x200a;" horiz-adv-x="79" />
<glyph unicode="&#x2010;" d="M100 702q0 16 18 23h6q16 0 22 -19v-2l149 11q0 1 56 138q-14 6 -14 22q0 17 20 22h7q19 -4 19 -24q0 -13 -14 -20q56 -137 56 -138l149 -11q0 14 18 21h6q15 0 22 -18v-7q0 -15 -19 -21h-5q-9 0 -16 8q-2 -1 -114 -97q35 -143 35 -144h1h6q15 0 21 -17q1 -3 1 -5v-1 q0 -17 -19 -22q-3 -1 -4 -1q-16 0 -23 18v6q0 4 3 12h-1l-126 78q-119 -74 -126 -79q3 -6 3 -12q0 -16 -18 -22l-5 -1q-23 3 -23 23v1q0 15 17 22h4h6h1l36 145l-114 96q-1 0 -1 -1q-7 -7 -15 -7h-3q-15 0 -21 18z" />
<glyph unicode="&#x2011;" d="M100 702q0 16 18 23h6q16 0 22 -19v-2l149 11q0 1 56 138q-14 6 -14 22q0 17 20 22h7q19 -4 19 -24q0 -13 -14 -20q56 -137 56 -138l149 -11q0 14 18 21h6q15 0 22 -18v-7q0 -15 -19 -21h-5q-9 0 -16 8q-2 -1 -114 -97q35 -143 35 -144h1h6q15 0 21 -17q1 -3 1 -5v-1 q0 -17 -19 -22q-3 -1 -4 -1q-16 0 -23 18v6q0 4 3 12h-1l-126 78q-119 -74 -126 -79q3 -6 3 -12q0 -16 -18 -22l-5 -1q-23 3 -23 23v1q0 15 17 22h4h6h1l36 145l-114 96q-1 0 -1 -1q-7 -7 -15 -7h-3q-15 0 -21 18z" />
<glyph unicode="&#x2012;" d="M100 702q0 16 18 23h6q16 0 22 -19v-2l149 11q0 1 56 138q-14 6 -14 22q0 17 20 22h7q19 -4 19 -24q0 -13 -14 -20q56 -137 56 -138l149 -11q0 14 18 21h6q15 0 22 -18v-7q0 -15 -19 -21h-5q-9 0 -16 8q-2 -1 -114 -97q35 -143 35 -144h1h6q15 0 21 -17q1 -3 1 -5v-1 q0 -17 -19 -22q-3 -1 -4 -1q-16 0 -23 18v6q0 4 3 12h-1l-126 78q-119 -74 -126 -79q3 -6 3 -12q0 -16 -18 -22l-5 -1q-23 3 -23 23v1q0 15 17 22h4h6h1l36 145l-114 96q-1 0 -1 -1q-7 -7 -15 -7h-3q-15 0 -21 18z" />
<glyph unicode="&#x2013;" horiz-adv-x="1204" d="M100 702q0 16 35 23h12q32 0 44 -19v-2l293 11q0 1 110 138q-27 6 -27 22q0 17 39 22h14q37 -4 37 -24q0 -13 -27 -20q110 -137 110 -138l293 -11q0 14 36 21h12q29 0 43 -18v-7q0 -15 -37 -21h-10q-18 0 -32 8q-4 -1 -224 -97q69 -143 69 -144h2h11q30 0 42 -17 q2 -3 2 -5v-1q0 -17 -38 -22q-6 -1 -8 -1q-31 0 -45 18v6q0 4 6 12h-2l-248 78q-234 -74 -248 -79q6 -6 6 -12q0 -16 -36 -22l-10 -1q-45 3 -45 23v1q0 15 34 22h8h11h2l71 145l-224 96q-2 0 -2 -1q-14 -7 -30 -7h-6q-29 0 -41 18z" />
<glyph unicode="&#x2014;" horiz-adv-x="2228" d="M100 702q0 16 71 23h24q63 0 86 -19v-2l587 11q0 1 221 138q-56 6 -56 22q0 17 79 22h28q75 -4 75 -24q0 -13 -56 -20q221 -137 221 -138l587 -11q0 14 71 21h23q59 0 87 -18v-7q0 -15 -75 -21h-20q-35 0 -63 8q-7 -1 -449 -97q138 -143 138 -144h4h24q59 0 83 -17 q4 -3 4 -5v-1q0 -17 -75 -22q-12 -1 -16 -1q-63 0 -91 18v6q0 4 12 12h-4l-496 78q-469 -74 -496 -79q12 -6 12 -12q0 -16 -71 -22l-20 -1q-91 3 -91 23v1q0 15 67 22h16h24h4l141 145l-449 96q-3 0 -3 -1q-28 -7 -60 -7h-11q-59 0 -83 18z" />
<glyph unicode="&#x202f;" horiz-adv-x="287" />
<glyph unicode="&#x205f;" horiz-adv-x="359" />
</font>
</defs>
</svg>
