<?xml version="1.0" standalone="no"?>
<!DOCTYPE svg PUBLIC "-//W3C//DTD SVG 1.1//EN" "http://www.w3.org/Graphics/SVG/1.1/DTD/svg11.dtd" >
<svg xmlns="http://www.w3.org/2000/svg" xmlns:xlink="http://www.w3.org/1999/xlink" version="1.1">
<metadata></metadata>
<defs>
<font id="irish_pennyregular" horiz-adv-x="2048" >
<font-face units-per-em="2048" ascent="1638" descent="-410" />
<missing-glyph horiz-adv-x="512" />
<glyph horiz-adv-x="0" />
<glyph unicode="&#xd;" />
<glyph horiz-adv-x="0" />
<glyph horiz-adv-x="0" />
<glyph unicode="&#x9;" />
<glyph unicode="&#xa;" />
<glyph />
<glyph />
<glyph />
<glyph />
<glyph />
<glyph />
<glyph />
<glyph unicode=" "  horiz-adv-x="512" />
<glyph unicode="&#x09;" horiz-adv-x="512" />
<glyph unicode="&#xa0;" horiz-adv-x="512" />
<glyph unicode="!" horiz-adv-x="499" d="M102 117q0 61 43 104t105 43q61 0 104 -43t43 -104t-43 -104.5t-104 -43.5t-104.5 43t-43.5 105zM113 1487q-10 74 30.5 118t106.5 44t106.5 -44t30.5 -118q-6 -51 -12 -128t-10.5 -167t-8.5 -186.5t-8 -185.5t-8 -164.5t-8 -125.5q-4 -35 -8.5 -56t-10.5 -33.5 t-14 -18.5l-16 -12q-23 -12 -50 -17q-25 -4 -42 9.5t-19 43.5q-4 53 -7 137.5t-8 181.5t-9.5 201.5t-9.5 202t-12 180.5t-13 138z" />
<glyph unicode="&#x22;" horiz-adv-x="679" d="M63 1554q-10 47 25 81t88 34q55 0 89 -34t24 -81l-74 -368q-8 -23 -22 -25q-6 -2 -17.5 -1t-17.5 1q-10 2 -14.5 6t-8.5 21zM391 1554q-10 47 25 81t88 34q55 0 88.5 -34t23.5 -81l-73 -368q-8 -23 -23 -25q-6 -2 -17 -1t-18 1q-10 2 -14 6t-8 21z" />
<glyph unicode="#" horiz-adv-x="1140" d="M82 381q0 4 2 10q0 8 4 25q2 14 6 33q2 10 7 17t22 7h160q18 0 22 16l64 304q2 10 -3.5 13t-9.5 3h-163q-8 0 -16.5 6t-4.5 21l12 69q6 25 29 25h164q10 0 14 3t6 15l60 295q2 20 28 25h84q25 -2 21 -25l-58 -295q-6 -18 15 -18h178q18 0 20 14l62 297q0 27 29 27h82 q16 0 19 -9.5t1 -15.5l-57 -299q0 -14 10 -14h145q23 0 23 -23l-12 -78q-4 -20 -29 -20h-148q-16 0 -22 -21l-60 -301q0 -14 17 -14h143q16 0 20.5 -9t0.5 -18l-11 -67q-4 -29 -26 -29h-146q-23 0 -28 -22l-62 -312q0 -12 -8 -21t-22 -7h-84q-23 2 -21 28q4 23 10 50 q4 23 10.5 51t12.5 57q14 68 31 158q4 10 2 14t-15 4h-176q-23 0 -28 -22l-62 -310q-2 -14 -7 -22t-24 -8h-84q-10 2 -15 7t-5 21l63 316q2 10 0 14t-16 4h-156q-16 0 -19 10.5t-1 20.5zM440 475q2 -2 15 -2h180q16 0 20 16l62 304q2 8 -4 12t-8 4h-187q-14 0 -18 -21 l-60 -301q-2 -10 0 -12z" />
<glyph unicode="$" horiz-adv-x="915" d="M61.5 188.5q1.5 10.5 10.5 20.5l116 119q20 16 27 -4q23 -66 71 -114t105 -65q6 -2 18.5 0t12.5 25l2 358q0 12 -1 21.5t-11 17.5q-2 2 -4 3t-5 3q-43 33 -92 74t-88 77t-65.5 75t-41 82t-14.5 98t22.5 105.5t62.5 90t93.5 67.5t116.5 36q14 0 21 4q8 6 8 27v45 q0 14 20 14h41q20 0 21 -14v-47q0 -27 20 -33q6 0 9 -2q72 -10 133 -42t102 -83q12 -16 11 -24.5t-11 -20.5l-115 -115q-16 -16 -24 6q-14 41 -39 66.5t-53 42.5q-4 2 -10.5 4t-10.5 2q-10 -2 -11 -8t-1 -17l-2 -288q0 -12 1 -21.5t11 -17.5l8 -4q10 -10 21.5 -18.5 t25.5 -18.5q53 -41 100.5 -84t83.5 -91t56.5 -103.5t20.5 -121.5q0 -55 -23 -108t-62.5 -98.5t-95 -78t-121.5 -46.5q-12 0 -20 -7q-8 -4 -8 -26v-43q0 -23 -21 -23h-41q-20 0 -20 23v41q0 20 -9.5 24t-15.5 7q-98 10 -182 56t-143 128q-12 14 -10.5 24.5zM332 983 q0 -74 59 -129q6 -6 19 -10q14 -4 14 16l2 219q0 25 -10 24t-21 -7q-29 -18 -46 -48t-17 -65zM504 186q0 -20 11 -19t20 7q33 23 51 57.5t18 75.5q0 47 -19.5 87t-49.5 73q-4 2 -8.5 5t-8.5 7q-10 4 -11 -2t-1 -18z" />
<glyph unicode="%" horiz-adv-x="1665" d="M51 895q0 80 23.5 149.5t66.5 122t103.5 83t134.5 30.5t134 -30.5t103 -83t67 -122t24 -149.5t-24 -149.5t-67 -122t-103 -83t-134 -30.5t-134.5 30.5t-103.5 83t-66.5 122t-23.5 149.5zM215 895q0 -49 11.5 -95t33 -82t52 -57.5t67.5 -21.5q39 0 69.5 21.5t52 57.5 t32 82t10.5 95t-10.5 95t-32 82t-52 57.5t-69.5 21.5q-41 0 -70.5 -21.5t-51 -57.5t-32 -82t-10.5 -95zM416 29q10 25 24 41q12 16 18.5 25t12.5 20q66 117 139.5 251t146 270t141.5 266t128 239q12 23 17.5 44t11.5 44q8 25 17 33t36 10q14 0 49 1t51 -1q25 -4 30 -20.5 t-9 -39.5q-6 -10 -9 -13t-12 -13q-4 -6 -10 -13.5t-12 -17.5q-8 -10 -21.5 -32.5t-27.5 -45.5q-55 -96 -121 -216t-134.5 -247t-136 -255t-129.5 -242q-12 -23 -19 -47.5t-11 -46.5q-4 -23 -15.5 -29t-31.5 -6h-97q-12 0 -24 8t-2 33zM938 354q0 80 23.5 149.5t66.5 122 t103.5 83t134.5 30.5t134 -30.5t103 -83t66.5 -122t23.5 -149.5t-23.5 -149.5t-66.5 -121.5t-103.5 -83t-133.5 -31q-74 0 -134.5 31t-103.5 83t-66.5 121.5t-23.5 149.5zM1102 354q0 -49 11 -95t32.5 -82t52.5 -57.5t68 -21.5q39 0 69.5 21.5t52 57.5t32 82t10.5 95 t-10.5 95.5t-32 82t-52 57t-69.5 21.5q-41 0 -71 -21.5t-51.5 -57t-31.5 -82t-10 -95.5z" />
<glyph unicode="&#x26;" horiz-adv-x="1067" d="M82 616q0 74 25.5 135.5t69.5 105.5t105.5 68.5t133.5 24.5q37 0 66.5 -6t54.5 -16q16 -6 16 0v18q0 27 -2 55.5t-2 49.5q0 23 5 28.5t21 5.5l136 2q10 0 20 -8t10 -24q-2 -37 -3 -89.5t-2 -105.5t-1 -101v-79q0 -18 1 -46t1 -55.5t1 -50t1 -30.5q0 -18 4.5 -24.5 t20.5 -6.5h43q16 0 39 2q33 2 53.5 2t63.5 2q20 -2 22 -20q2 -43 1 -70t-7 -53q-6 -23 -24.5 -32t-41.5 -9l-145 -2q-16 0 -22.5 -6.5t-6.5 -24.5v-231q-6 -25 -20 -25q-12 0 -36 -1t-48.5 -1t-47 1t-36.5 1t-21 25q2 10 6.5 36.5t4.5 69.5l2 125q2 18 -5.5 24.5t-19.5 6.5 q-35 -4 -115 0q-72 2 -130 29.5t-101 71.5t-66.5 103.5t-23.5 124.5zM276 616q0 -27 11.5 -52t30 -45.5t43 -34t53.5 -15.5q23 -2 53.5 -2h46.5q31 0 31 27q2 10 2 38.5v57.5q0 27 -7.5 58.5t-23.5 57t-41.5 43t-64.5 17.5q-37 0 -62.5 -14.5t-41 -37t-23 -48t-7.5 -50.5z " />
<glyph unicode="'" horiz-adv-x="352" d="M63 1554q-10 47 25 81t88 34q55 0 89 -34t24 -81l-74 -368q-8 -23 -22 -25q-6 -2 -17.5 -1t-17.5 1q-10 2 -14.5 6t-8.5 21z" />
<glyph unicode="(" horiz-adv-x="509" d="M20 643q0 145 21.5 276.5t63.5 255t101.5 241.5t135.5 235q10 12 18.5 17t24.5 7q18 0 45 1t41 -1q28 -3 16 -26q-113 -240 -177 -491t-64 -513q0 -260 60.5 -509t170.5 -486q16 -35 -12 -37q-16 -2 -41 -2t-43 2q-27 2 -45 33q-84 123 -143.5 240.5t-97.5 237.5 t-56.5 248t-18.5 271z" />
<glyph unicode=")" horiz-adv-x="509" d="M23 1649q-8 23 16 26q16 2 43 1t45 -1q27 -2 41 -24q76 -117 136.5 -235t101 -241.5t62 -255t21.5 -276.5q0 -143 -17 -271t-56 -248t-98.5 -237.5t-141.5 -240.5q-23 -31 -45 -33q-18 -2 -44 -2t-42 2q-27 2 -12 37q113 238 173 486.5t60 508.5q0 262 -65.5 513 t-177.5 491z" />
<glyph unicode="*" horiz-adv-x="763" d="M82 1023.5q4 20.5 22 25.5q49 8 99.5 23t79.5 26q6 4 12 7t6 7q0 6 -12 12q-82 37 -185 56q-18 4 -22 24.5t6 36.5l37 64q10 16 29.5 23t31.5 -7q35 -41 69 -75t71 -58q10 -10 16 -6q4 4 2 18q-4 43 -14.5 89t-28.5 97q-6 18 10.5 32t34.5 14h72q18 0 34.5 -14.5 t10.5 -31.5q-35 -92 -45 -182q-2 -14 2 -18t16 6q35 29 70 60.5t72 68.5q12 12 31.5 6t29.5 -22l37 -64q10 -16 5 -36.5t-24 -24.5q-45 -12 -93 -26.5t-83 -29.5q0 -2 -6 -4t-8 -6q0 -4 14 -10q41 -16 85 -29.5t91 -25.5q18 -4 23.5 -25t-4.5 -37l-37 -63 q-10 -16 -29.5 -22.5t-31.5 5.5q-35 35 -70 67t-70 60l-7 7t-9 -1q-2 -2 2 -18q6 -43 16.5 -88t22.5 -92q4 -18 -11.5 -31.5t-33.5 -13.5h-72q-18 0 -33.5 13t-11.5 32q12 47 22.5 90t16.5 88q2 14 -4 20q-4 4 -14 -6q-35 -25 -68 -55.5t-68 -71.5q-12 -14 -31.5 -7 t-29.5 24l-37 63q-10 16 -6 36.5z" />
<glyph unicode="+" horiz-adv-x="1144" d="M113 588q0 41 2 63q0 12 3 18.5t19 6.5h316q29 0 28 31v213q0 55 -4 91t-4 52q0 8 5 15t16 7q27 2 74.5 2t76.5 -2q10 0 14.5 -3t4.5 -17v-358q0 -18 5 -24.5t19 -6.5h322q20 -3 22 -21q2 -43 1 -67.5t-7 -50.5q-6 -23 -24.5 -32t-40.5 -9h-269q-16 0 -22 -6.5t-6 -24.5 v-354q-6 -25 -21 -25q-27 -2 -70 -2t-71 2q-14 0 -21 25v354q0 18 -5 24.5t-17 6.5h-320q-16 0 -20 4t-4 20q-2 27 -2 68z" />
<glyph unicode="," horiz-adv-x="462" d="M82 115q0 61 43 104t104 43q39 0 68 -17.5t47 -45t27.5 -61t9.5 -68.5q0 -61 -20.5 -114.5t-57.5 -93.5t-87 -65.5t-110 -32.5q-23 -4 -22 15v6q0 14 18 20q53 16 92 53.5t39 96.5q0 16 -10 16h-10q-23 0 -46.5 11.5t-42 30t-30.5 45t-12 57.5z" />
<glyph unicode="-" horiz-adv-x="630" d="M72 518v129q0 10 8 20.5t24 10.5q29 0 75 -2t92 -3t87 -2t60 -1q41 0 63.5 4t38.5 4t27.5 -8t11.5 -25v-123q0 -16 -12 -22t-29 -6q-31 0 -80 2t-99 3t-92 2t-57 1q-27 0 -45 -5t-39 -5q-23 0 -28.5 6t-5.5 20z" />
<glyph unicode="." horiz-adv-x="458" d="M82 117q0 61 43 104t104 43t104.5 -43t43.5 -104q0 -59 -43 -103.5t-105 -44.5q-61 0 -104 44t-43 104z" />
<glyph unicode="/" horiz-adv-x="741" d="M23 -309q29 104 65.5 237t76.5 282.5t83 307.5t85 313.5t80 301t70 270.5q6 20 11.5 49t9.5 57.5t6 53t2 36.5q0 25 11.5 33t21.5 8h155q14 0 19.5 -13.5t-0.5 -33.5q-33 -115 -71 -252t-79 -286.5t-83 -307t-83 -311t-79.5 -297t-69.5 -266.5q-12 -51 -17.5 -104.5 t-5.5 -65.5q0 -20 -10 -35.5t-26 -15.5h-152q-10 0 -17.5 10t-2.5 29z" />
<glyph unicode="0" horiz-adv-x="1218" d="M92 631q0 137 37 257t105.5 210t164 142t211.5 52q115 0 210 -52t163 -142t105.5 -210t37.5 -257t-36.5 -257t-104 -209t-163 -141.5t-212.5 -52.5t-212 52.5t-162.5 141.5t-105.5 209t-38 257zM328 631q0 -86 18.5 -171t54 -152.5t89 -109.5t120.5 -42q72 0 124 42 t87 109.5t52.5 152.5t17.5 171t-16.5 172t-51.5 153.5t-88 109.5t-125 42t-125 -42t-88 -110.5t-52 -153.5t-17 -171z" />
<glyph unicode="1" horiz-adv-x="577" d="M102 1192v47q0 20 21 21q55 4 122.5 4t123.5 -4q20 0 20 -27l4 -1219q0 -10 -5 -12t-15 -2h-183q-20 0 -20 20l4 1024q0 27 -11 45.5t-24.5 35t-25 33t-11.5 34.5z" />
<glyph unicode="2" horiz-adv-x="1052" d="M100 78q20 31 46 62.5t58 66.5t70.5 76t90.5 90q72 70 132 129t104 115.5t68.5 115t24.5 125.5q0 117 -60.5 183.5t-156.5 66.5q-61 0 -119.5 -44t-81.5 -112q-4 -16 -19 -18t-28 10l-108 109q-16 16 -9 31.5t21 37.5q25 37 62.5 68t85 53.5t98.5 34.5t104 12 q102 0 185.5 -30.5t141.5 -88t89 -136.5t31 -177q0 -84 -35 -163t-87 -149.5t-115.5 -134t-121.5 -116.5q-23 -18 -43 -40t-34 -40q-23 -33 18 -33h156q41 0 71.5 2t58 6.5t56.5 10.5t64 16q18 4 25 -8.5t7 -26.5q0 -6 -3 -24.5t-8 -41t-9 -43t-6 -28.5q-10 -29 -26.5 -40 t-39.5 -9q-14 0 -52 1t-90 2t-115.5 1h-127.5h-332q-92 0 -41 78z" />
<glyph unicode="3" horiz-adv-x="1009" d="M82 1221q-2 25 20 36q10 6 25 9q20 -4 76.5 -5t129.5 -2.5t153.5 -1.5h154.5h132h83q23 0 33 -19t0 -36q-10 -18 -44 -66.5t-77 -107.5t-87 -119.5t-75 -101.5q-10 -10 -11 -22.5t15 -16.5q154 -49 225.5 -152.5t71.5 -248.5q0 -80 -33.5 -152t-97 -127t-156 -87 t-206.5 -32q-70 0 -135.5 14.5t-112.5 41.5q-23 14 -34 29.5t-11 43.5l-2 119q0 16 10 23.5t21 -2.5q33 -29 65.5 -46.5t60.5 -25.5q25 -6 57 -10t56 -4q59 0 110.5 19t89.5 52t59.5 78t21.5 96q0 104 -71 174t-193 86q-37 4 -56 35q-33 49 -4 84q27 35 50.5 63.5t48 59.5 t52 66.5t64.5 83.5q10 12 7 22t-25 10h-183q-51 0 -90 -9t-80 -36q-23 -14 -38 -1.5t-19 22.5q-10 25 -27.5 73t-23.5 91z" />
<glyph unicode="4" horiz-adv-x="1036" d="M30 394q-3 16 17 44q133 193 240 350q45 68 89 132.5t81 119t60.5 90t29.5 46.5q12 25 32.5 54.5t45.5 29.5t41 1t31.5 1t33 -1t43.5 -1q23 0 23 -27l-4 -119l2 -616q0 -25 5 -34t27 -9q47 0 78 2t66 6q20 2 26.5 -8.5t6.5 -24.5q0 -4 1 -20.5t1 -35t-1 -34.5t-4 -25 q-10 -29 -27.5 -40t-39.5 -9q-27 2 -51.5 4t-55.5 2q-20 0 -26 -7t-6 -27v-47t1 -57t2 -58.5t1 -52.5q0 -23 -25 -23q-41 -4 -91 -4t-91 4q-20 0 -21 29l4 209q0 35 -38 34h-414q-10 0 -22.5 10.5t-23.5 26t-20.5 29.5t-13.5 24q-10 16 -13 32zM302 463q7 -10 50 -10l199 2 q31 -1 31 32q2 90 1 168t-1 181q0 57 -8.5 56t-38.5 -54q-23 -37 -53.5 -82t-62.5 -91.5t-60.5 -88t-47.5 -72.5q-16 -31 -9 -41z" />
<glyph unicode="5" horiz-adv-x="1038" d="M104.5 129.5q-8.5 13.5 1.5 24.5q12 14 31 32.5t27 24.5q10 8 23.5 16.5t23.5 -2.5q31 -29 84 -49q25 -10 64.5 -17t68.5 -7q57 0 106.5 18t85 50t56 78t20.5 101t-21.5 100.5t-57 77t-85 49t-104.5 17.5q-49 0 -99 -14.5t-85 -40.5q-10 -8 -15.5 -9t-15.5 3 q-12 4 -28.5 10t-26.5 16q-4 4 -9.5 10.5t-3.5 20.5q4 43 11.5 111.5t15.5 149.5t17.5 166t15.5 159q2 23 24 30q8 4 23 2h96t100.5 -1t95.5 -1h81q39 0 66.5 1t50 2.5t41 2.5t36.5 1q33 0 33 -45q0 -27 1 -75t-1 -79q-2 -10 -10 -15.5t-17 -3.5q-47 4 -82.5 16.5 t-80.5 12.5h-252q-16 0 -23.5 -11t-9.5 -28q-2 -23 -6 -55.5t-8.5 -66t-7.5 -63.5t-5 -42q-2 -10 3 -12t26 4q39 14 102 14q125 0 211 -41t140.5 -102.5t79 -135t24.5 -141.5q0 -80 -34 -155.5t-96.5 -136t-150.5 -96.5t-198 -36q-111 0 -190 36t-144 101q-10 10 -18.5 23.5 z" />
<glyph unicode="6" horiz-adv-x="1173" d="M102 618q2 117 43 237t115 217t175.5 158.5t226.5 61.5q92 0 159.5 -24.5t114.5 -67.5q18 -18 29.5 -44t11.5 -60q0 -23 -10.5 -37.5t-32.5 -14.5q-8 0 -23.5 5.5t-21.5 9.5q-41 23 -92.5 36t-114.5 13q-92 0 -157.5 -50t-106.5 -126t-59.5 -165t-18.5 -169 q0 -74 14.5 -151.5t46 -143t84 -107.5t129.5 -42q39 0 78 16t70 48t51.5 77t20.5 100q0 47 -15.5 91t-44.5 78t-67.5 53.5t-85.5 19.5q-10 0 -18.5 -1t-18.5 -3q-39 -6 -39 41q2 55 48 89t124 34t143.5 -33t113.5 -89.5t73.5 -130t23.5 -155.5q-2 -98 -41 -176t-102.5 -132 t-145.5 -83t-170 -29q-102 0 -195 48.5t-164 134.5t-112 204.5t-39 261.5z" />
<glyph unicode="7" horiz-adv-x="948" d="M42 1148q-3 28 1 75q0 14 7 21t18 11q10 4 24 5q23 0 85.5 -1.5t139 -1.5h156.5h137q68 0 110 1.5t81 5.5q25 4 51.5 -26t54.5 -71q10 -12 10.5 -18t0.5 -16q0 -6 -10.5 -26t-26 -47.5t-34 -61t-36.5 -70.5q-29 -59 -66.5 -148.5t-78.5 -186.5t-81 -190.5t-73 -156.5 q-25 -47 -40 -94.5t-32 -118.5q-10 -33 -45 -33h-44.5h-54.5h-54.5h-46.5q-6 0 -13.5 4t-12.5 11.5t-6 17.5t7 20q31 49 58.5 100.5t50.5 92.5q39 74 88 173t99 207.5t96 218t83 204.5q10 27 -20 26h-308q-53 0 -111.5 -11t-99.5 -28q-25 -10 -45 -3t-18 52q2 35 -1 63z" />
<glyph unicode="8" horiz-adv-x="1081" d="M102 338q0 207 183 332q18 10 17 18t-19 23q-57 45 -87 112.5t-30 147.5q0 76 31.5 135t86 100t123 62.5t142.5 21.5q76 0 143.5 -21.5t118.5 -63.5t82 -102.5t31 -137.5q0 -41 -11.5 -81t-31 -75t-44 -62.5t-51.5 -44.5q-8 -4 -10 -8t10 -12q100 -66 146.5 -146.5 t46.5 -199.5q0 -86 -35 -153.5t-95.5 -116t-143 -73t-181.5 -24.5q-86 0 -162.5 27t-134 75t-91.5 115.5t-34 151.5zM299 338q0 -37 17.5 -72t48 -62.5t71.5 -45t88 -17.5t87 15.5t70 41t47 58.5t17 70q0 53 -28.5 97t-85.5 91q-16 14 -42 29.5t-52 29.5q-14 6 -36 6.5 t-42 -14.5q-66 -41 -113 -96t-47 -131zM401 948q0 -53 39 -100t105 -82q25 -14 56.5 0t59 45t47 68.5t19.5 68.5q0 33 -14.5 63.5t-38 53t-53 37t-62.5 14.5q-31 0 -59.5 -14.5t-50 -37t-35 -53t-13.5 -63.5z" />
<glyph unicode="9" horiz-adv-x="1173" d="M102 860q0 96 37 176t100.5 136.5t147.5 88t176 31.5q96 0 188.5 -45t163 -130t113.5 -206.5t43 -277.5q0 -117 -39 -235.5t-111.5 -214t-176 -155t-234.5 -59.5q-43 0 -98.5 9.5t-104.5 32t-81.5 60.5t-32.5 93q0 23 10 37t35 14q8 0 21 -5t22 -9q53 -25 101 -36 t107 -11q92 0 157 44t107 114.5t61.5 160.5t19.5 182q0 63 -12.5 142.5t-43 148t-84 114.5t-135.5 46q-49 0 -89 -21.5t-69.5 -56.5t-45 -80t-15.5 -90t15.5 -87t44 -74.5t67.5 -53t88 -20.5q10 0 21.5 1t21.5 1q18 0 24.5 -11.5t6.5 -27.5q0 -35 -16.5 -58.5t-41 -39 t-55.5 -21.5t-59 -6q-80 0 -145.5 33.5t-111.5 90t-72 128t-26 147.5z" />
<glyph unicode=":" horiz-adv-x="458" d="M82 117q0 61 43 104t104 43t104.5 -43t43.5 -104q0 -59 -43 -103.5t-105 -44.5q-61 0 -104 44t-43 104zM82 827q0 61 43 104.5t104 43.5t104.5 -43.5t43.5 -104.5q0 -59 -43 -103t-105 -44q-61 0 -104 44t-43 103z" />
<glyph unicode=";" horiz-adv-x="462" d="M82 115q0 61 43 104t104 43q39 0 68 -17.5t47 -45t27.5 -61t9.5 -68.5q0 -61 -20.5 -114.5t-57.5 -93.5t-87 -65.5t-110 -32.5q-23 -4 -22 15v6q0 14 18 20q53 16 92 53.5t39 96.5q0 16 -10 16h-10q-23 0 -46.5 11.5t-42 30t-30.5 45t-12 57.5zM82 827q0 61 43 104.5 t104 43.5t104.5 -43.5t43.5 -104.5q0 -59 -43 -103t-105 -44q-61 0 -104 44t-43 103z" />
<glyph unicode="&#x3c;" horiz-adv-x="1067" d="M102 539v96q0 20 9.5 32.5t38.5 26.5l759 355q29 14 42.5 8t13.5 -39v-125q0 -27 -10.5 -38t-39.5 -15q-41 -8 -87 -25.5t-68 -28.5l-418 -188q-23 -10 0 -20l416 -187q37 -16 76.5 -28.5t80.5 -20.5q29 -6 39.5 -16.5t10.5 -36.5v-152q0 -41 -66 -10l-745 352 q-29 12 -40.5 24.5t-11.5 35.5z" />
<glyph unicode="=" horiz-adv-x="1212" d="M143 268v117q0 16 13.5 24.5t29.5 6.5q199 -4 421 -3t421 3q41 0 41 -31v-117q0 -14 -7 -22t-30 -8q-141 2 -253.5 2h-212h-192.5t-194 -2q-37 0 -37 30zM143 766v119q0 31 33 30q395 -8 856 0q37 0 37 -30v-119q0 -31 -37 -31q-135 2 -242.5 2h-205h-193.5t-209 -2 q-39 0 -39 31z" />
<glyph unicode="&#x3e;" horiz-adv-x="1067" d="M102 137v152q0 27 11.5 37t38.5 16q41 8 80.5 20.5t76.5 28.5l418 187q20 10 0 20l-418 188q-25 10 -69.5 27.5t-85.5 26.5q-29 4 -40.5 15t-11.5 38v125q0 33 13.5 39t42.5 -8l760 -355q29 -14 38 -26.5t9 -32.5v-96q0 -23 -11.5 -35t-40.5 -25l-745 -352 q-66 -31 -66 10z" />
<glyph unicode="?" horiz-adv-x="989" d="M82 1464.5q2 12.5 12 24.5q74 82 163 121t226 39q92 0 170 -31t134.5 -83t88 -121.5t31.5 -149.5q0 -133 -58 -231.5t-187 -192.5l-127 -95q-43 -33 -69 -58t-38 -54t-13 -62.5t5 -81.5q4 -27 -8.5 -48t-28.5 -31q-27 -16 -53 -17q-12 0 -26.5 5t-24.5 22 q-78 150 -52.5 264.5t142.5 200.5l145 106q92 66 124 127.5t32 130.5q0 102 -60.5 161.5t-144.5 59.5q-66 0 -117 -36q-29 -20 -49 -50t-29 -57q-8 -18 -22.5 -21t-30.5 11l-127 125q-10 10 -8 22.5zM236 117q0 61 43 104t104 43q59 0 103 -43t44 -104q0 -59 -44 -103.5 t-103 -44.5q-61 0 -104 44t-43 104z" />
<glyph unicode="@" horiz-adv-x="1980" d="M102 547q0 195 72 361.5t197 288.5t294 190.5t361 68.5q168 0 321.5 -68.5t271.5 -183t188.5 -268.5t70.5 -322q0 -109 -35 -217t-101.5 -197t-161.5 -144.5t-218 -55.5q-76 0 -156 33t-127 94q-14 20 -32 2q-51 -51 -123 -91t-152 -40q-92 0 -154.5 36t-101.5 95 t-55.5 136t-16.5 159q0 111 45.5 228.5t123 214t182 158.5t225.5 62q66 0 115 -25.5t90 -68.5q16 -14 28 -2t23 25q10 10 21.5 20.5t21.5 20.5q14 12 30.5 20t28.5 6q23 -2 55.5 -6t43.5 -8q16 -10 16 -19.5t-10 -25.5q-41 -63 -84 -139t-92 -201q-23 -57 -41.5 -112.5 t-30.5 -102.5t-19.5 -84t-7.5 -57q0 -82 51.5 -130t129.5 -48q86 0 152.5 45t111.5 114.5t68.5 152.5t23.5 159q0 143 -58.5 274t-159 229.5t-231.5 156.5t-274 58q-160 0 -298 -62.5t-239.5 -170t-159 -248.5t-57.5 -299q0 -162 57.5 -306t160 -254t241.5 -173.5t305 -63.5 q139 0 268.5 43t245.5 136q14 10 22.5 9t16.5 -9q14 -16 25 -31q12 -20 -11 -39q-139 -119 -289.5 -170t-326.5 -51q-180 0 -340 73.5t-279.5 197.5t-190.5 286t-71 340zM672 324q0 -31 5 -59.5t16.5 -51.5t30.5 -36t48 -13q49 0 88 33.5t78 87.5q41 57 55 110 q23 90 50.5 172t72.5 185q6 14 8 30.5t2 26.5q0 12 -3 31.5t-14 38t-31.5 32t-55.5 13.5q-72 0 -135.5 -66.5t-111.5 -161t-75.5 -197t-27.5 -175.5z" />
<glyph unicode="A" horiz-adv-x="1480" d="M82 631q0 143 48 264t132 209t196.5 138t241.5 50q125 0 213 -42t150 -91q16 -14 28.5 -11t22.5 19q10 14 24.5 30.5t26.5 29.5q33 33 59 44q19 8 46 8q10 0 20 -1q10 -2 23.5 -6t19.5 -8q10 -8 12.5 -16.5t0.5 -24.5q-29 -70 -46.5 -130.5t-27.5 -121.5 q-10 -72 -16 -155q-5 -70 -4 -142v-26q1 -85 8.5 -162.5t19.5 -135.5q23 -104 66 -182t108 -125q14 -8 15 -18.5t-7 -18.5q-12 -12 -20 -16q-10 -8 -38 -14.5t-52 -6.5q-39 0 -68 5.5t-54.5 20.5t-49 43t-54.5 75q-10 16 -19 20t-26 -12q-59 -57 -153 -104.5t-228 -47.5 q-129 0 -241.5 50.5t-196.5 138.5t-132 209.5t-48 263.5zM326 631q0 -92 27.5 -179t77.5 -153t118.5 -105.5t150.5 -39.5q111 0 199 49t135 123q10 12 11 21.5t-3 25.5q-10 66 -14 137.5t-4 140t4 132t10 112.5q4 23 -6 49q-43 66 -131 115t-201 49q-86 0 -155.5 -40 t-118.5 -106.5t-74.5 -152.5t-25.5 -178z" />
<glyph unicode="B" horiz-adv-x="1419" d="M82 657q0 96 17.5 183.5t49 171.5t77.5 168t102 176q23 39 33 75.5t10 77.5q0 18 -5.5 44t-11.5 44q-6 23 6.5 31t38.5 10q51 4 115 4t109 -4q23 -2 28.5 -14t5.5 -29q0 -16 -9 -42.5t-23.5 -57.5t-32 -61.5t-31.5 -55.5q-115 -193 -178.5 -363.5t-63.5 -352.5 q0 -123 33 -218.5t88.5 -160t126 -97t144.5 -32.5q84 0 153.5 38.5t120.5 105.5t79 157t28 192q0 100 -32 183t-85 143.5t-123 93.5t-143 33q-43 0 -73 -4t-56 -15q-18 -6 -25.5 8.5t-5.5 34.5q6 41 33 80q25 35 65 53q23 10 51.5 17.5t63.5 7.5q92 0 194.5 -43t186.5 -124 t139 -199.5t55 -268.5q0 -145 -50 -270t-136 -215t-199.5 -141.5t-242.5 -51.5q-125 0 -239 45t-200 132t-137 215t-51 296z" />
<glyph unicode="C" horiz-adv-x="1286" d="M82 631q0 133 50 253t138 211t206 144t251 53q137 0 258 -50t193 -128q20 -23 6 -37l-133 -131q-12 -10 -21.5 -9t-19.5 17q-14 33 -39 60.5t-72 54.5q-29 16 -77 27.5t-95 11.5q-72 0 -143.5 -34t-129 -97.5t-92 -151.5t-34.5 -194q0 -102 30.5 -190.5t90 -153 t144.5 -101t193 -36.5q106 0 192.5 23.5t170.5 76.5q20 14 31 -8l61 -107q10 -23 -10 -33q-96 -66 -209 -99.5t-266 -33.5q-141 0 -264 48.5t-213.5 136.5t-143.5 209.5t-53 267.5z" />
<glyph unicode="D" horiz-adv-x="1464" d="M82 625q0 154 51 275.5t136 205.5t195.5 129t227.5 45q92 0 175 -26.5t130 -73.5q12 -12 16.5 -21.5t-3.5 -21.5q-4 -8 -15.5 -23.5t-24 -33t-24.5 -34t-20 -26.5q-12 -16 -24.5 -25.5t-27.5 13.5q-25 39 -75.5 63.5t-106.5 24.5q-61 0 -125.5 -32t-118 -93.5t-87 -148.5 t-33.5 -197q0 -96 29.5 -181.5t83 -150t126 -101t156.5 -38.5h12q77 0 143 24q72 26 124.5 80.5t81 141.5t28.5 208v367v101.5v113.5t-1 110.5t-3 92.5q-4 51 -15.5 109.5t-25.5 94.5q-3 9 -3 16q0 25 40 25q20 0 47 1t55.5 1t55 -1t45.5 -1q31 0 30 -30v-1364q0 -20 2 -52 t4.5 -65t4.5 -63t4 -44q2 -8 -1 -14t-20 -6h-196q-23 0 -23 27v49q0 45 -27 20q-63 -59 -162.5 -93t-197.5 -34q-129 0 -244.5 50.5t-205 137.5t-141.5 206.5t-52 261.5z" />
<glyph unicode="E" horiz-adv-x="1359" d="M82 647q0 133 46 251t128 205t192.5 138t237.5 51t235.5 -51t187.5 -137t124 -202t45 -245q0 -31 -29 -30h-899q-18 0 -18 -21q0 -86 25.5 -168t78.5 -146.5t134 -103t192 -38.5q100 0 185 19t171 62q33 14 47 -12l41 -80q8 -18 1 -30.5t-19 -20.5q-98 -59 -202.5 -89 t-250.5 -30q-141 0 -260 48.5t-207 136.5t-137 214t-49 279zM362 829q-6 -18 15 -18h618q19 0 15 20q-14 49 -42 99.5t-68 89.5t-93 63.5t-121 24.5t-121 -24.5t-93 -63.5t-67.5 -89t-42.5 -102z" />
<glyph unicode="F" horiz-adv-x="1144" d="M113 1229q0 10 8 21.5t18 11.5q41 0 89 -17.5t106 -40.5q16 -6 29.5 2t25.5 15q53 29 128 50t165 21q43 0 95 -8t103.5 -23.5t100.5 -37t86 -49.5q8 -6 20.5 -19t2.5 -31q-20 -33 -34 -50t-25 -32.5t-24.5 -33t-33.5 -47.5q-10 -16 -29.5 -6t-30.5 26q-12 23 -36.5 44.5 t-58.5 38.5t-73.5 28.5t-82.5 11.5q-68 0 -119 -15.5t-87 -58.5t-55.5 -118.5t-21.5 -198.5q-2 -55 -2 -118v-128.5v-131v-124.5q0 -31 29 -29l526 2q25 0 24 -24v-135q0 -25 -24 -25h-524q-27 0 -27 -31q0 -82 3 -161.5t7 -141.5v-8q0 -37 -37 -37h-170q-41 0 -41 45 q0 12 2 52t2 96l7 1161q0 102 -20.5 162.5t-20.5 91.5z" />
<glyph unicode="G" horiz-adv-x="1040" d="M61 1104q0 8 3.5 26.5t7.5 38t8 38t8 28.5q6 16 20.5 27.5t30.5 9.5q23 -2 65 -4t88 -3t88 -2t62 -1h594q25 0 25 -25q0 -68 -35 -111q-16 -20 -50 -32.5t-77 -12.5l-321 -2q-29 0 -39.5 -5t-26.5 -27q-72 -102 -102.5 -186.5t-30.5 -162.5q0 -76 27.5 -140t99.5 -122 l211 -166q96 -76 160.5 -158.5t64.5 -199.5q0 -55 -22.5 -110.5t-65.5 -100.5t-106.5 -72.5t-145.5 -27.5q-109 0 -197 44t-153 132q-14 20 -2 35l137 139q25 18 35 -8q23 -78 63.5 -119t100.5 -41q61 0 95 42t34 85q0 41 -17.5 72.5t-64.5 70.5l-291 230q-98 78 -143 176 t-45 215q0 90 29.5 177t103.5 198q20 31 -8 30q-45 0 -97.5 -1t-87.5 -3q-20 -2 -26.5 7.5t-6.5 21.5z" />
<glyph unicode="H" horiz-adv-x="1462" d="M113 1608q0 31 30 30q39 2 98.5 2t98.5 -2q23 -2 34 -10t9 -31q0 -18 -1 -75.5t-1 -126v-134v-96.5q0 -20 9 -23t22 7q68 59 162 95t196 36q113 0 217.5 -44t185 -128t129 -204t48.5 -269v-604q0 -31 -25 -31h-174q-31 0 -31 31q0 14 1 39.5t2 55.5t1 61.5v58.5v368 q0 115 -30.5 205t-83 151.5t-122 93.5t-149.5 32q-61 0 -125.5 -22.5t-117 -59.5t-85 -84t-32.5 -96v-590q0 -61 1 -125t3 -99q0 -20 -21 -20h-202q-16 0 -19.5 6t-1.5 14q2 14 4 44t4.5 63t4.5 64.5t2 52.5v1106q0 37 -6.5 73.5t-14.5 71.5t-14 64.5t-6 48.5z" />
<glyph unicode="I" horiz-adv-x="536" d="M123 1223q0 23 9 31t32 10q39 4 94 4t94 -4q16 -2 26.5 -11.5t10.5 -25.5l4 -1207q0 -20 -20 -20h-193q-20 0 -20 20l4 977q0 45 -6 79t-14.5 59.5t-14.5 46t-6 41.5z" />
<glyph unicode="J" horiz-adv-x="526" d="M-20 -375q0 14 2 23q6 31 34 53q57 47 95.5 117.5t38.5 181.5l4 1020q0 76 -20.5 125t-20.5 80q0 23 9 31t32 10q39 2 96 2t98 -2q27 -4 31 -31l4 -1192q0 -104 -38 -182t-94 -131.5t-119.5 -84t-113.5 -42.5q-39 -10 -38 22z" />
<glyph unicode="K" horiz-adv-x="1150" d="M113 1608q0 31 30 30q45 2 103.5 2t93.5 -2q23 -2 34 -10t9 -31q0 -12 -1 -67t-1 -134v-170v-172v-143.5v-83.5q0 -14 10 -20t21 4q70 72 129 137.5t129 138.5q33 35 53 56.5t34.5 37t25 28t22.5 24.5q16 18 28.5 22.5t34.5 6.5q48 4 106 5h22q43 0 73 -3q37 -4 44 -18.5 t-9 -28.5q-18 -14 -58 -44t-81 -69q-47 -45 -100.5 -98.5t-104.5 -106.5t-97.5 -101t-76.5 -81q-18 -23 -8 -39q31 -55 74.5 -122t92 -131.5t96.5 -120.5t87 -91q39 -37 70 -37h4q32 2 83 17q16 4 29.5 -0.5t24 -13.5t16.5 -19.5t10 -16.5q8 -12 6 -28.5t-20 -32.5 q-14 -10 -29.5 -25.5t-31.5 -27.5q-8 -6 -25.5 -16.5t-38 -19.5t-41 -16.5t-37.5 -7.5q-35 0 -72.5 16.5t-95.5 65.5q-29 25 -76 80t-101 123t-105.5 138.5t-83.5 125.5q-16 20 -25.5 13t-9.5 -31v-256q0 -61 1 -125t3 -99q0 -20 -21 -20h-202q-16 0 -19.5 6t-1.5 14 q2 14 4 44t4.5 63t4.5 64.5t2 52.5v1106q0 49 -6.5 82.5t-14.5 61.5t-14 53.5t-6 60.5z" />
<glyph unicode="L" horiz-adv-x="917" d="M92 553q0 102 25.5 213t50.5 217q14 59 28.5 118.5t25.5 114t18.5 101.5t7.5 84q0 66 -13.5 118t-13.5 83q0 16 7.5 26t29.5 10q25 0 53.5 1t57 1t56.5 -1t46 -1q25 -2 36 -18t11 -59q0 -37 -13 -108t-32.5 -153.5t-41 -166.5t-36.5 -148q-27 -111 -52.5 -231.5 t-25.5 -225.5q0 -96 25 -166.5t66 -117.5t97 -70.5t120 -23.5q61 0 122.5 20t110.5 57q10 8 20.5 7t14.5 -11l37 -55q10 -16 7 -31.5t-19 -36.5q-51 -61 -130 -96t-178 -35q-102 0 -196.5 35t-166 107.5t-113.5 182t-42 259.5z" />
<glyph unicode="M" horiz-adv-x="2050" d="M113 1231q0 31 26 31q18 0 45 1t55.5 1t56.5 -1t48 -1t27.5 -6.5t7.5 -28.5v-47q0 -41 24 -11q51 53 130 88t147 35q125 0 213 -53t149 -141q10 -16 21 -2q78 96 172 146t215 50q117 0 208 -44t152.5 -128t94 -203.5t32.5 -269.5v-616q0 -31 -20 -31h-180q-27 0 -27 31 q0 14 1 39.5t2 55.5t1 61.5v58.5v385q0 129 -20.5 220t-58.5 148.5t-91 83t-119 25.5q-51 0 -99 -22.5t-86 -59.5t-60.5 -84t-22.5 -96v-815q0 -31 -20 -31h-176q-27 0 -27 31v315v285q0 129 -20.5 220t-58.5 148.5t-91 83t-119 25.5q-51 0 -99 -22.5t-86 -59.5t-60.5 -84 t-22.5 -96v-602q0 -61 1 -125t3 -99q0 -20 -19 -20h-204q-20 0 -17 20q2 14 4 44t4.5 63t3.5 64.5t1 52.5v729q0 49 -6.5 83t-14.5 61.5t-14 53t-6 60.5z" />
<glyph unicode="N" horiz-adv-x="1462" d="M113 1231q0 31 30 31q18 0 44 1t53.5 1t54.5 -1t45 -1q41 0 41 -41v-47q-2 -23 3 -26t28 15q68 59 163 94t195 35q113 0 217.5 -44t185 -128t129 -203.5t48.5 -269.5v-616q0 -31 -25 -31h-174q-31 0 -31 31q0 14 1 39.5t2 55.5t1 61.5v58.5v381q0 117 -30.5 206t-83 150 t-122 93t-149.5 32q-61 0 -125.5 -22.5t-117 -59.5t-85 -84t-32.5 -96v-602q0 -61 1 -125t3 -99q0 -20 -21 -20h-202q-16 0 -19.5 6t-1.5 14q2 14 4 44t4.5 63t4.5 64.5t2 52.5v729q0 49 -6.5 83t-14.5 61.5t-14 53t-6 60.5z" />
<glyph unicode="O" horiz-adv-x="1454" d="M82 631q0 141 50 263t138 210t206 138t251 50t251 -50t205 -138t138 -209t51 -264t-51 -264t-138 -209t-205 -138.5t-251 -50.5t-251 50.5t-206 138.5t-138 208.5t-50 264.5zM328 631q0 -94 28.5 -180t80.5 -153t126 -105.5t164 -38.5q94 0 169 38.5t126 105.5t77.5 153 t26.5 180t-26.5 180t-76.5 151.5t-125 105.5t-171 40q-94 0 -169 -40t-126 -105.5t-77.5 -152.5t-26.5 -179z" />
<glyph unicode="P" horiz-adv-x="1488" d="M113 1040q0 20 26 21q20 2 45 2t41 -2q10 -2 18.5 -3t16.5 -3q10 -2 18.5 -1t16.5 13q37 51 92 93t120.5 71t137.5 45t143 16q135 0 249 -51t196 -141t128 -214.5t46 -271.5q0 -135 -48 -251.5t-126 -202.5t-180.5 -135.5t-208.5 -49.5q-35 0 -87 7.5t-81 17.5 q-25 10 -50.5 27.5t-41.5 35.5t-28.5 44t-14.5 51q-2 20 5 36.5t25 6.5q35 -18 92.5 -32.5t100.5 -14.5q76 0 147.5 30.5t127 90t89 145.5t33.5 194q0 111 -28.5 202t-81 155.5t-126 100.5t-161.5 36q-80 0 -150.5 -28.5t-122 -79t-81 -121t-29.5 -152.5v-146.5t1 -167.5 t2 -177.5t1 -172.5q2 -195 6 -397q0 -23 -7 -34t-30 -11l-170 4q-41 0 -41 45q0 12 2 52t2 96l7 1018q0 76 -20.5 125t-20.5 79z" />
<glyph unicode="Q" horiz-adv-x="1488" d="M82 614q0 141 52 264t139 215.5t203 145.5t245 53q143 0 260 -54t197 -155q8 -8 17 -13t26 -1q29 6 67.5 12t67.5 11q20 2 20 -21q0 -31 -20.5 -80t-20.5 -125l4 -942q0 -55 9.5 -102t9.5 -66q0 -23 -7.5 -29t-19.5 -16q-18 -16 -43.5 -36.5t-51.5 -44t-49.5 -46 t-41.5 -41.5q-16 -18 -31.5 -6t-15.5 35q2 225 4 438q0 90 1 186.5t2 188.5t2 176t1 152q0 82 -29.5 154.5t-82 126t-124 84t-153.5 30.5q-84 0 -155.5 -41t-124 -109.5t-82 -157.5t-29.5 -186q0 -109 32.5 -194.5t88 -145t127 -90t149.5 -30.5q43 0 99.5 15t93.5 32 q18 8 25 -7.5t5 -35.5q-4 -29 -14 -51.5t-25 -38.5q-16 -18 -43.5 -38t-50.5 -30q-12 -4 -31.5 -9t-43 -8t-48 -5.5t-43.5 -2.5q-106 0 -208.5 49.5t-182.5 135.5t-128 202.5t-48 251.5z" />
<glyph unicode="R" horiz-adv-x="1298" d="M113 1231q0 31 30 31q18 0 44 1t53.5 1t54.5 -1t45 -1q20 0 28.5 -7.5t11.5 -18.5t2 -25.5t-1 -28.5q0 -6 4 -10.5t12 2.5q74 59 164 87.5t182 28.5q88 0 163 -25.5t128 -72.5t84 -116.5t31 -157.5q0 -80 -27.5 -145.5t-72.5 -115t-103.5 -82t-120.5 -45.5q-27 -4 -8 -26 q31 -39 66 -81t71.5 -81t72.5 -74t67 -59q29 -23 61 -23h5q36 2 81 16q25 6 39.5 -7.5t30.5 -38.5q20 -33 -4 -58q-10 -10 -35 -30.5t-56.5 -43t-65.5 -39t-60 -16.5q-35 0 -69 13.5t-69 44.5q-49 45 -114.5 115.5t-133 151.5t-131 164t-108.5 152q-8 12 -4 25.5t20 13.5 q20 -1 40 -1q66 0 125 10q77 14 134.5 44.5t90 83t32.5 129.5q0 84 -57.5 142.5t-143.5 58.5q-47 0 -103 -19.5t-105.5 -54t-82 -82t-32.5 -104.5q0 -199 2 -418t2 -418q0 -20 -21 -20h-202q-14 0 -17.5 5t-3.5 15q0 55 7.5 111.5t7.5 112.5v729q0 68 -20.5 130t-20.5 128z " />
<glyph unicode="S" horiz-adv-x="929" d="M63 192.5q3 14.5 13 26.5l119 119q12 12 23 10t15 -16q29 -78 89.5 -130t128.5 -52q35 0 65.5 13t54 35.5t38 52.5t14.5 62q0 66 -42 112t-96 87q-31 25 -73.5 58.5t-89.5 72.5q-51 41 -91.5 77t-68 73.5t-43 82t-15.5 99.5q0 63 28 120.5t77 101.5t114.5 69.5 t139.5 25.5q104 0 192 -34.5t146 -106.5q14 -16 13 -28.5t-15 -26.5l-117 -119q-14 -14 -24.5 -8t-14.5 20q-23 61 -65.5 92t-90.5 31q-27 0 -51 -11t-43.5 -29.5t-31 -42t-11.5 -50.5q0 -57 40 -94t104 -84q29 -20 52 -38t54 -40q55 -43 103.5 -85t85 -90t58 -103 t21.5 -123t-30.5 -131.5t-84 -112.5t-126 -79t-158.5 -30q-119 0 -221.5 48.5t-173.5 144.5q-14 16 -11 30.5z" />
<glyph unicode="T" horiz-adv-x="1081" d="M41 1104q0 6 3 22.5t6 36t7 37t6 25.5q10 29 26.5 39t39.5 8q53 -4 117.5 -7t124.5 -3h686q24 0 24 -25q0 -70 -37 -113q-23 -27 -59.5 -35t-79.5 -8l-325 -4q-10 0 -15.5 -2t-15.5 -18q-98 -156 -140 -290t-42 -241q0 -190 89 -283t232 -93q70 0 135.5 20t114.5 57 q10 8 20.5 7t14.5 -11l37 -55q10 -16 7 -31.5t-20 -36.5q-51 -61 -132 -96t-191 -35q-111 0 -207 35t-169 104.5t-115 174t-42 243.5q0 113 45 249t138 278q18 29 -19 28q-61 0 -119.5 -1t-111.5 -5q-20 -4 -26.5 6.5t-6.5 22.5z" />
<glyph unicode="U" horiz-adv-x="1462" d="M113 614v617q0 31 24 31q18 0 42 1t48.5 1t46 -1t37.5 -1q31 0 31 -31q0 -14 -1 -40t-2 -55.5t-1 -61.5v-58v-381q0 -117 30.5 -206t83 -150.5t122 -93t149.5 -31.5q61 0 124.5 22.5t116 59t86 84t33.5 96.5v602q0 61 -1 124.5t-3 98.5q0 20 21 21q39 2 101.5 2t101.5 -2 q16 0 19 -6.5t1 -14.5q-2 -16 -4 -45t-4 -61.5t-4 -64.5t-2 -52v-729q0 -49 6 -83t14 -61.5t14.5 -54t6.5 -59.5q0 -31 -31 -31h-197q-41 0 -41 41v47q2 23 -6 22t-24 -18q-55 -51 -151.5 -87t-207.5 -36q-113 0 -217 44t-185 128t-129 203t-48 270z" />
<glyph unicode="V" horiz-adv-x="1191" d="M10 1231q-4 31 27 31q20 0 49 1t59.5 1t60.5 -1t50 -1t20 -21q4 -115 21 -184q27 -109 61.5 -224.5t71.5 -226t76 -206t76 -160.5q10 -14 14 -15q6 0 14 15q37 66 76 161t76 205.5t70.5 227t62.5 223.5q10 37 15 82t5 102q0 20 23 21q20 0 50 1t60.5 1t59.5 -1t49 -1 q31 0 25 -31q-16 -90 -44 -197.5t-65 -222.5t-80 -229.5t-88 -218t-92 -190.5t-92 -142q-16 -20 -25.5 -25.5t-23.5 -5.5h-150q-16 0 -25.5 7t-21.5 24q-74 100 -145.5 250.5t-135 316.5t-111.5 333t-73 300z" />
<glyph unicode="W" horiz-adv-x="1878" d="M20 1231q-4 31 27 31q20 0 50 1t60.5 1t59.5 -1t49 -1t21 -21q0 -41 4 -92t10 -92q18 -109 43 -224.5t54.5 -226t62.5 -206t69 -160.5q10 -14 15 -15q6 0 14 15q37 66 72 161t66.5 205.5t58 226t45.5 224.5q6 37 14 87t8 87q0 18 14.5 24.5t24.5 6.5q31 2 79 2t77 -2 q10 0 23.5 -4.5t13.5 -20.5q0 -35 8 -87t14 -93q18 -109 45 -224.5t58.5 -226t66.5 -206t72 -160.5q10 -14 14 -15q6 0 15 15q37 66 69.5 161t62 205.5t54.5 226t43 224.5q6 37 10 91t4 93q0 20 23 21q20 0 50 1t60.5 1t59 -1t49.5 -1q31 0 25 -31q-16 -90 -40 -197.5 t-53.5 -222.5t-64.5 -229.5t-74 -218t-81 -190.5t-87 -142q-16 -20 -25.5 -25.5t-23.5 -5.5h-149q-16 0 -25.5 7t-22.5 24q-33 45 -67.5 114.5t-68.5 152.5t-64.5 175t-57.5 180q-4 18 -10 19q-6 0 -12 -21q-27 -90 -56.5 -180t-63.5 -173t-69.5 -152.5t-72.5 -114.5 q-16 -18 -25.5 -24.5t-23.5 -6.5h-150q-16 0 -25.5 7t-21.5 24q-74 100 -136.5 250.5t-113.5 316.5t-90 333t-64 300z" />
<glyph unicode="X" horiz-adv-x="1236" d="M23.5 18.5q-7.5 16.5 9.5 28.5q18 16 49 42t78 85q20 25 49 57.5t57 77.5q47 72 99.5 150t93.5 137q10 16 8 25.5t-8 19.5q-86 133 -179.5 273.5t-199.5 302.5q-16 23 -20.5 33t24.5 12q14 0 41 1t56.5 1h55t39.5 -2q31 -2 48 -27q61 -92 131.5 -199.5t134.5 -204.5 q10 -14 16 -12t12 12q10 16 37 56.5t56 81.5q33 49 69 106q31 49 51.5 77t36 45t26.5 25.5t26 16.5q23 14 41 17.5t40 5.5q37 2 65 2t60 -2q37 -2 44.5 -18.5t-9.5 -29.5q-18 -16 -70.5 -60t-99.5 -114q-41 -59 -77.5 -116.5t-86.5 -128.5q-16 -25 -28.5 -43.5t-22.5 -32.5 t-19 -28.5t-22 -33.5q-14 -18 -4 -36q23 -31 58.5 -86.5t78.5 -119t88 -126t86 -109.5q35 -41 72 -46t60 7q14 10 28.5 -2t14.5 -30q0 -33 -9 -50q-8 -16 -24.5 -33.5t-42.5 -27.5q-27 -10 -48.5 -14t-50.5 -4q-37 0 -79.5 15t-79.5 48q-18 16 -35 32.5t-35 38t-40.5 52.5 t-53.5 76q-29 43 -59.5 88t-59.5 86q-12 18 -27 -2q-14 -20 -25 -37t-32 -47q-10 -16 -33.5 -51t-52.5 -76t-58.5 -84t-54.5 -74q-20 -27 -48.5 -35t-51.5 -10q-39 -2 -76 -2t-73 2q-37 2 -44.5 18.5z" />
<glyph unicode="Y" horiz-adv-x="1462" d="M113 614v617q0 31 24 31h174q31 0 31 -31q0 -14 -1 -40t-2 -55.5t-1 -61.5v-58v-381q0 -117 30.5 -206t83 -150.5t122 -93t149.5 -31.5q61 0 124.5 22.5t116 59t86 84t33.5 96.5v602q0 61 -1 124.5t-3 98.5q0 20 21 21h203q16 0 19 -6.5t1 -14.5q-2 -16 -4 -45t-4 -61.5 t-4 -64.5t-2 -52l2 -1071q0 -43 4 -68.5t10 -44t10 -35t4 -41.5q0 -23 -7 -28.5t-19 -16.5q-18 -16 -45 -37.5t-54.5 -44t-53 -46t-44.5 -42.5q-16 -18 -32.5 -6t-14.5 35q2 51 4 119.5t4 140.5t3 139.5t1 116.5q0 29 -30 4q-70 -59 -164 -91t-195 -32q-113 0 -217 44 t-185 128t-129 203t-48 270z" />
<glyph unicode="Z" horiz-adv-x="1116" d="M61 27q0 70 37 112q98 156 178 278t155 226.5t149.5 201.5t158.5 208q12 16 8 22t-16 6h-385q-61 0 -119.5 -1t-111.5 -5q-20 -4 -26.5 6.5t-6.5 22.5q0 6 3 22.5t6 36t7 37t6 25.5q10 29 26.5 39t39.5 8q53 -4 117.5 -7t124.5 -3h510q20 0 40.5 -8.5t28.5 -22.5 q12 -20 23.5 -44t19.5 -46q6 -16 0 -33.5t-16 -32.5q-94 -115 -169 -209t-144.5 -191t-140 -206t-156.5 -252q-12 -23 -10.5 -29t18.5 -6h108.5t114.5 -1t101 -1h67q61 0 133 7.5t125 11.5q18 2 24.5 -8.5t6.5 -24.5q0 -6 -3 -23.5t-8.5 -38t-9.5 -40t-6 -25.5 q-16 -48 -56 -48q-4 0 -9 1q-53 4 -118 7t-124 3h-676q-25 0 -25 25z" />
<glyph unicode="[" horiz-adv-x="593" d="M164 1638q0 27 29 31q82 2 185 2t187 -2q29 -4 29 -31l-6 -84q-2 -12 -6 -19t-21 -7h-18q-61 0 -96 -10.5t-52.5 -35t-22.5 -65.5t-7 -100q-2 -123 -3.5 -285t-1.5 -338t1 -358t4 -348q0 -51 5 -93t22.5 -73t50 -47.5t87.5 -16.5h31q18 0 24.5 -10t8.5 -20l-4 -58 q-2 -18 -13.5 -34.5t-39.5 -16.5h-328q-12 0 -25.5 8t-13.5 31q2 168 4 385t2 456.5t-1 487.5t-3 475q0 45 -4 89t-4 87z" />
<glyph unicode="\" horiz-adv-x="743" d="M23 1591q-4 20 1 33.5t17 13.5h156q10 0 21 -8t11 -33q0 -12 2 -36.5t6.5 -53t9.5 -57.5t11 -49q33 -125 72 -270.5t80 -300t84 -313.5t83.5 -307.5t77.5 -281.5t66 -237q4 -18 -3 -28.5t-18 -10.5h-151q-16 0 -27.5 15.5t-11.5 35.5q0 12 -4 65.5t-19 104.5 q-47 184 -107.5 411.5t-123.5 461t-123.5 454.5t-109.5 391z" />
<glyph unicode="]" horiz-adv-x="593" d="M0 -272q0 10 6 20t27 10h28q55 0 88 16.5t50.5 47.5t22.5 73t5 93q2 166 4 348t2 358t-2 338t-4 285q0 59 -5 100t-22.5 65.5t-53 35t-97.5 10.5h-16q-16 0 -20.5 7t-6.5 19l-6 84q-4 27 29 31q84 2 186 2t186 -2q29 -4 29 -31q-2 -43 -5 -87t-3 -89q-2 -227 -3 -475 t-1 -487.5t1 -456.5t5 -385q0 -23 -13.5 -31t-25.5 -8h-328q-29 0 -40 16.5t-13 34.5z" />
<glyph unicode="^" horiz-adv-x="759" d="M63 980q-4 13 0 30q16 37 35 80q16 35 35 82t41 94q49 113 109 256q20 45 43 45q29 4 55.5 5t48.5 -3q29 -2 45 -45q49 -117 92 -215q18 -43 37 -86t36 -82t30.5 -71t21.5 -50q10 -23 2 -38t-26 -15h-86q-14 0 -25.5 13t-19.5 34l-138 327q-4 10 -8 19.5t-10 9.5 q-10 0 -11 -6t-10 -25q-12 -33 -30.5 -77.5t-38 -91t-36.5 -88.5t-30 -70q-20 -45 -47 -45h-86q-25 0 -29 13z" />
<glyph unicode="_" horiz-adv-x="1175" d="M0 -244q0 16 12.5 28.5t28.5 12.5q102 -4 237.5 -7t283 -3t296 3t277.5 7q16 0 28.5 -12t12.5 -29v-61q0 -18 -12.5 -29.5t-28.5 -11.5h-1094q-16 0 -28.5 11t-12.5 30v61z" />
<glyph unicode="`" horiz-adv-x="681" d="M1 1257.5q-3 8.5 1 17.5t10 15l123 107q37 33 78 16l352 -172q25 -12 19 -31.5t-21 -17.5q-29 4 -76 9t-96 11.5t-93 10.5t-67 8q-63 8 -104 10t-84 -2q-18 -2 -28.5 4t-13.5 14.5z" />
<glyph unicode="a" horiz-adv-x="1298" d="M72 539q0 117 43 220t116.5 181t173 123t211.5 45q111 0 187 -37t131 -80q16 -12 26.5 -12t24.5 16q16 18 23.5 26.5t17.5 18.5q14 14 32.5 25.5t33.5 15.5q20 4 38.5 3t28.5 -5q35 -12 27 -43q-25 -59 -41.5 -116.5t-26.5 -110.5q-10 -59 -14 -125t-4 -132.5t6 -129 t18 -113.5q20 -90 56.5 -154.5t89.5 -103.5q16 -10 17 -23.5t-9 -23.5q-8 -10 -18 -16q-10 -8 -36 -13.5t-48 -5.5q-35 0 -62 5.5t-49.5 18.5t-44 37.5t-47.5 65.5q-6 10 -10.5 12.5t-14.5 -6.5q-53 -51 -134 -92t-198 -41q-113 0 -212 45t-172.5 122t-116.5 181.5 t-43 221.5zM305 539q0 -72 22.5 -141.5t63.5 -125t98.5 -90.5t126.5 -35q94 0 166 41t113 103q6 10 7 15.5t-1 17.5q-17 111 -17 220v12q1 116 13 202q2 20 -4 37q-37 53 -110.5 94t-166.5 41q-74 0 -131 -35t-97 -90t-61.5 -125t-21.5 -141z" />
<glyph unicode="b" horiz-adv-x="1253" d="M72 578q0 168 57 309t154 299q36 56 36 123q0 18 -4 39.5t-8 35.5q-10 29 7.5 38.5t39.5 11.5q45 4 100.5 4t92.5 -4q25 -2 32 -16.5t7 -31.5q0 -16 -8.5 -40.5t-21.5 -51t-27.5 -53.5t-26.5 -47q-98 -166 -152.5 -311.5t-54.5 -302.5q0 -104 27.5 -184.5t73.5 -134.5 t104.5 -81.5t120.5 -27.5q70 0 129 30.5t103 87t69.5 134t25.5 169.5q0 86 -28.5 153t-74.5 114t-104.5 71.5t-119.5 24.5q-37 0 -61.5 -3t-47.5 -11t-33 8t-6 39q6 43 31 75q23 31 59 48q23 10 49.5 12t55.5 2q94 0 187 -38t165 -108.5t117 -169t45 -217.5 q0 -131 -46 -241.5t-123 -190.5t-178.5 -124t-213.5 -44q-111 0 -210.5 39t-174 116t-119.5 189.5t-45 260.5z" />
<glyph unicode="c" horiz-adv-x="1124" d="M72 539q0 117 44 220t120.5 181t179 123t219.5 45q121 0 225.5 -43t167.5 -113q25 -25 6 -47l-114 -110q-14 -16 -27.5 -12.5t-24.5 20.5q-10 27 -30.5 49t-59.5 45q-25 14 -64.5 23.5t-78.5 9.5q-59 0 -118.5 -28t-107 -78t-77 -122.5t-29.5 -162.5q0 -78 25.5 -150 t74 -127t120 -88t163.5 -33t170 22.5t135 63.5q14 10 24.5 5t16.5 -15l53 -90q8 -27 -12 -43q-92 -59 -186 -87t-228 -28q-123 0 -230 43t-186 119t-125 180.5t-46 227.5z" />
<glyph unicode="d" horiz-adv-x="1286" d="M72 541q0 131 43 236.5t115.5 179t170 112.5t205.5 39q86 0 155.5 -23.5t112.5 -64.5q12 -10 17.5 -21.5t-4.5 -27.5q-4 -6 -13.5 -19.5t-19.5 -29t-21.5 -29.5t-17.5 -23q-6 -6 -11 -12t-13 -10q-18 -12 -35 12q-27 33 -64 51.5t-86 18.5q-57 0 -111.5 -28t-97.5 -78 t-68.5 -122.5t-25.5 -160.5q0 -82 25.5 -153t69.5 -123t104.5 -81.5t130.5 -31.5q70 0 129 21.5t103 67.5t68.5 118.5t24.5 175.5v317v85v97t-1 95.5t-3 80.5q-2 43 -12 93.5t-22 80.5q-10 29 5 38.5t36 11.5q37 2 90 2t86 -2q35 0 34 -37v-1178q0 -18 1.5 -45t3.5 -54.5 t4 -53t4 -37.5q2 -10 -2 -19.5t-25 -9.5h-170q-27 0 -26 27v49q0 10 -8.5 12t-18.5 -8q-45 -45 -129 -76t-170 -31q-113 0 -214.5 42t-179 118t-123.5 180.5t-46 227.5z" />
<glyph unicode="e" horiz-adv-x="1200" d="M72 539q0 117 41 220t112.5 180t169 122t209.5 45q113 0 209 -46t166 -123t109.5 -178t39.5 -212q0 -37 -34 -37h-785q-6 0 -6 -6q0 -66 22.5 -130.5t67.5 -115.5t113.5 -83t165.5 -32q86 0 159.5 17.5t145.5 52.5q16 8 30.5 5t22.5 -19l37 -70q8 -20 0 -34.5t-20 -22.5 q-86 -53 -178.5 -78t-219.5 -25q-125 0 -230.5 43t-182 119t-120.5 180.5t-44 227.5zM330 692q0 -4 2 -4h547q4 0 2 6q-10 43 -34 85t-58.5 75t-80.5 53.5t-104 20.5q-55 0 -101 -20.5t-81 -53.5t-57.5 -75t-34.5 -87z" />
<glyph unicode="f" horiz-adv-x="1005" d="M102 1040q0 10 8.5 24.5t24.5 14.5q18 0 38 -4t42 -10q20 -8 43 -16.5t47 -18.5q8 -2 17 0q6 4 11 7t11 5q47 25 111.5 44.5t142.5 19.5q39 0 84 -7t90 -20.5t87 -33t75 -44.5q2 -2 4 -3t4 -3l6 -6l6 -6q4 -6 6 -16.5t-4 -20.5q-18 -29 -29.5 -44t-21.5 -28 q-10 -14 -20.5 -28.5t-28.5 -40.5q-12 -18 -34.5 -9t-33.5 27q-20 35 -77.5 68t-128.5 33q-55 0 -97.5 -12.5t-72 -47.5t-45 -99.5t-17.5 -168.5q-3 -75 -3 -156v-42q1 -103 1 -205q0 -16 14 -17l451 2q12 0 21.5 -8t9.5 -23v-116q0 -14 -9.5 -22.5t-21.5 -8.5h-448 q-14 0 -15 -16q0 -72 4 -141.5t6 -123.5q2 -20 -8 -34.5t-33 -14.5h-145q-23 0 -34 13.5t-11 35.5q0 10 1 45t3 84l4 975q0 43 -5 77t-11 61q-4 14 -7 24t-5 21q-6 20 -7 34z" />
<glyph unicode="g" horiz-adv-x="909" d="M53 942q0 8 2 24.5t6.5 34t7.5 33t7 25.5q6 16 22.5 27.5t32.5 9.5q18 0 54 -2t76 -3t75 -2.5t53 -1.5h508q12 0 21.5 -8t9.5 -22q0 -61 -33 -103q-16 -20 -47 -31.5t-70 -11.5h-274q-23 0 -30 -4t-17 -20q-61 -88 -87 -156.5t-26 -128.5q0 -53 22.5 -107.5t84.5 -103.5 l178 -143q41 -33 76.5 -67t62.5 -71.5t42 -81.5t15 -96q0 -49 -19.5 -99t-57 -90t-94 -65.5t-128.5 -25.5q-96 2 -174 41t-135 117q-16 23 0 40l117 123q16 10 28.5 6t18.5 -18q37 -131 131 -131q47 0 73.5 33t26.5 67q0 31 -13 57.5t-54 57.5l-248 199q-86 70 -125 161 t-39 179q0 66 24.5 142.5t90.5 172.5q6 12 -6 12q-39 0 -80 -1t-70 -5q-23 -2 -31 10.5t-8 26.5z" />
<glyph unicode="h" horiz-adv-x="1288" d="M102 1397q0 37 37 37q33 2 85 2t83 -2q47 0 47 -42q0 -16 -1 -72q-1 -52 -1 -115.5v-123v-86.5q0 -10 4 -13t11 3q59 59 141 90t170 31q98 0 190.5 -39t163 -112.5t112.5 -178t42 -235.5v-504q0 -14 -7.5 -25.5t-25.5 -11.5h-149q-16 0 -26.5 10t-8.5 27v33.5t1 48 t1 53.5v49v301q0 98 -25.5 174t-68.5 127t-101.5 78t-124.5 27q-53 0 -106 -19.5t-96 -50.5t-71 -69.5t-28 -77.5v-490q0 -53 1 -108.5t3 -83.5q2 -14 -6 -21.5t-20 -7.5h-174q-20 0 -25.5 9t-3.5 20q2 12 4 37.5t4 53t3 55.5t1 46v953q0 31 -5 62.5t-11 61.5q-4 16 -7 29.5 t-5 26.5q-6 25 -7 43z" />
<glyph unicode="i" horiz-adv-x="479" d="M102 1042q0 25 11.5 34t33.5 11q22 1 52 1h31q50 -1 79 -1q18 0 30.5 -12t12.5 -28l4 -1018q0 -29 -28 -29h-164q-29 0 -29 29l4 821q0 39 -6 65.5t-12 49.5q-4 10 -6 20t-6 21q-6 18 -7 36z" />
<glyph unicode="j" horiz-adv-x="462" d="M-16 -317q0 45 34 73q47 39 77 97.5t30 152.5l4 860q0 31 -5 56.5t-11 48.5q-4 10 -6.5 19t-6.5 20q-6 14 -6 32q0 45 45 45q33 2 85 3h14q42 0 69 -3q35 0 35 -36l4 -1008q0 -92 -33.5 -160.5t-83 -117t-103.5 -76t-97 -37.5q-18 -4 -31.5 4t-13.5 27z" />
<glyph unicode="k" horiz-adv-x="1011" d="M102 1397q0 37 37 37q27 2 79 2t89 -2q23 -2 36 -11.5t11 -33.5q0 -10 -1 -59.5t-1 -118v-148.5v-151.5v-126v-72.5q0 -10 3 -9t5 3l57.5 57.5t52.5 52t53.5 52t58.5 59.5q27 27 45 46t30.5 34.5t22.5 27t20 21.5t17.5 15l13.5 9q6 2 14 2t15 2q39 2 93 2t83 -2 q33 0 47 -18t-12 -39q-8 -6 -21.5 -17.5t-27.5 -21.5q-12 -10 -26.5 -19t-27.5 -22q-41 -41 -90 -89t-97 -95t-90 -88t-67 -66q-10 -10 -4 -20q25 -47 63 -102.5t78.5 -109.5t81.5 -100.5t74 -76.5q16 -16 29.5 -21.5t27.5 -7.5q6 0 13.5 1t17.5 3q8 2 17.5 4t19.5 6 q18 4 31.5 -1t23.5 -13q12 -12 17 -18q2 -4 4 -7.5t4 -7.5q10 -14 7 -32.5t-21 -34.5q-6 -4 -12.5 -10.5t-12.5 -10.5l-14 -14t-15 -10q-6 -6 -21 -14.5t-33.5 -17.5t-38 -15.5t-34.5 -6.5q-31 0 -65.5 15.5t-83.5 58.5q-25 20 -66 66.5t-87 103.5t-90 116.5t-73 106.5 q-6 8 -9 4t-3 -14v-211q0 -53 1 -107.5t3 -82.5q0 -29 -28 -29h-172q-20 0 -25.5 9t-3.5 20q2 12 4 37.5t4 53t3 54.5t1 45v955q0 41 -5 70.5t-11 51.5q-4 12 -7 23.5t-5 23.5q-6 25 -7 54z" />
<glyph unicode="l" horiz-adv-x="802" d="M82 487q0 45 6 90.5t16 92.5t21.5 94t21.5 94q10 53 22.5 103.5t23.5 97.5q22 96 22 153q0 34 -3 57t-7 46q-4 12 -5 21.5t-3 19.5t-3 18t-1 17q0 16 9 27.5t31 13.5q41 4 94.5 4t88.5 -4q49 -6 49 -78q0 -35 -11.5 -95.5t-27.5 -132.5t-34.5 -143.5t-31.5 -126.5 q-12 -47 -23 -98t-22 -103q-10 -51 -16 -98t-6 -92q0 -80 20.5 -139.5t54 -98.5t80 -58t97.5 -19t101 16t91 47q10 10 24.5 9t20.5 -15l33 -47q6 -11 6 -23q0 -22 -20 -47q-43 -55 -113 -86t-156 -31q-90 0 -171.5 31t-143 94.5t-98.5 160.5t-37 228z" />
<glyph unicode="m" horiz-adv-x="1802" d="M102 1049q0 16 8.5 26t24.5 10t40 1t48.5 1t48 -1t41.5 -1q20 0 29.5 -7t9.5 -31v-35q0 -23 17 -6q39 45 102.5 73.5t122.5 28.5q113 0 194.5 -47t135.5 -125q2 -2 2 0q68 84 151.5 128t190.5 44q104 0 184 -39t135 -112.5t84 -178t29 -233.5v-508q0 -12 -6 -24.5 t-23 -12.5h-155q-16 0 -24.5 10t-8.5 27q0 12 1 33.5t2 47t1 53.5v50v309q0 111 -17.5 187t-49 124t-76 68.5t-97.5 20.5q-43 0 -83 -18.5t-71.5 -49.5t-50 -69.5t-18.5 -77.5l2 -678q0 -14 -6 -25.5t-23 -11.5h-153q-14 0 -23.5 10t-9.5 27v258v235q0 111 -17.5 187 t-48 124t-74.5 68.5t-98 20.5q-43 0 -82.5 -18.5t-71.5 -49.5t-50.5 -69.5t-18.5 -77.5v-496q2 -53 2 -107.5t2 -82.5q0 -29 -24 -29h-178q-18 0 -21.5 10t-3.5 19q2 12 3 37.5t3 53t3 54.5t1 45v604q0 41 -5 70t-11 51q-4 12 -7 24.5t-5 22.5q-6 25 -7 58z" />
<glyph unicode="n" horiz-adv-x="1288" d="M102 1049q0 33 37 36q39 5 87 5h9q42 0 72 -5q25 -2 36 -11t9 -34v-30v-13q2 -18 9.5 -14t11.5 8q127 115 305 115q98 0 190.5 -39t163 -111.5t112.5 -177t42 -235.5v-506q0 -14 -7.5 -25.5t-25.5 -11.5h-149q-16 0 -26.5 10t-8.5 27v33.5t1 47t1 53.5v50v303 q0 98 -25.5 174t-68.5 126t-101.5 77t-124.5 27q-53 0 -106 -19.5t-96 -50.5t-71 -68.5t-28 -76.5v-494q0 -53 1 -107.5t3 -82.5q2 -14 -6 -21.5t-20 -7.5h-174q-20 0 -25.5 9t-3.5 20q2 12 4 37.5t4 53t3 54.5t1 45v602q0 41 -5 70t-11 51q-4 12 -7 24.5t-5 22.5 q-4 12 -5.5 28.5t-1.5 31.5z" />
<glyph unicode="o" horiz-adv-x="1271" d="M72 539q0 117 44 220t120.5 181t180 123t220.5 45t219 -45t179 -123t121 -181t44 -220t-44 -221.5t-121 -181.5t-179 -122t-219 -45t-220.5 45t-180 122t-120.5 181.5t-44 221.5zM303 539q0 -72 24.5 -141.5t68.5 -125t105.5 -90.5t135.5 -35q78 0 139.5 35t104.5 90.5 t65.5 125t22.5 141.5t-22.5 141.5t-64.5 124.5t-103.5 90t-141.5 35q-78 0 -140.5 -35t-105.5 -90t-65.5 -126t-22.5 -140z" />
<glyph unicode="p" horiz-adv-x="1308" d="M102 879q0 14 11.5 20t21.5 8h74q8 -2 14 -3t15 -3q14 -2 26 14q31 43 78 78t103.5 60.5t120 39t126.5 13.5q125 0 225.5 -45t171 -124t109.5 -186.5t39 -230.5q0 -117 -42 -218t-110.5 -175t-158.5 -117t-189 -43q-33 0 -77 8.5t-70 18.5q-23 10 -43.5 23.5t-32.5 29.5 q-14 16 -26.5 41t-12.5 47q0 27 8.5 42.5t28.5 4.5q33 -16 81 -28.5t83 -12.5q63 0 122.5 24.5t105.5 73t74 119t28 162.5q0 96 -28 172t-74 128t-106.5 80t-125.5 28q-68 0 -127.5 -23.5t-102.5 -64.5t-67.5 -100.5t-24.5 -129.5v-125.5t1 -142.5t2 -148.5t3 -144.5 q2 -162 6 -332q0 -20 -9 -34.5t-34 -14.5l-145 4q-23 0 -34 13.5t-11 35.5q0 10 2 45t2 82l4 854q0 33 -5 57.5t-11 47.5q-4 10 -6 19.5t-6 19.5q-6 18 -7 33z" />
<glyph unicode="q" horiz-adv-x="1308" d="M72 524q0 123 46 230.5t122.5 185.5t178 123t214.5 45q125 0 227.5 -47t173.5 -137q6 -4 11.5 -7.5t15.5 -1.5q25 4 58.5 10.5t58.5 8.5q16 4 22 -6.5t6 -20.5q0 -18 -6 -33q-2 -16 -12 -38q-6 -23 -11.5 -47.5t-5.5 -57.5l5 -792q0 -47 8 -87t8 -57q0 -16 -8 -33 q-6 -6 -19 -14q-16 -12 -37.5 -30.5t-44 -39t-43 -40t-34.5 -35.5q-25 -25 -41.5 -5.5t-16.5 37.5q2 174 4 342q0 72 1 149t2 151.5t1 144.5v127q0 94 -25.5 165.5t-69.5 120t-103.5 72t-126.5 23.5q-70 0 -130.5 -33t-104.5 -88t-68.5 -129t-24.5 -156q0 -92 26.5 -162.5 t73 -119.5t106.5 -74t126 -25q35 0 80 11.5t82 29.5q23 10 33 -4t6 -45q-2 -25 -11.5 -44t-21.5 -36q-12 -16 -35 -33.5t-43 -27.5q-29 -10 -73 -17.5t-85 -7.5q-98 0 -188 43t-157.5 119t-108.5 177.5t-41 215.5z" />
<glyph unicode="r" horiz-adv-x="1140" d="M102 1049q0 37 37 36q33 2 85 2t83 -2q39 0 45 -28q2 -10 1 -26.5t-1 -26.5q-2 -10 3 -12.5t14 5.5q66 55 137.5 82t146.5 27q78 0 143.5 -22.5t113.5 -63.5t75 -100.5t27 -135.5q0 -70 -23.5 -127t-63.5 -99t-91.5 -69.5t-106.5 -37.5q-8 0 -2 -7q51 -68 116.5 -136 t119.5 -111q23 -18 50 -16.5t68 12.5q27 6 42.5 -8.5t27.5 -34.5q10 -16 10 -33t-14 -31q-8 -8 -29.5 -26.5t-50.5 -38t-59.5 -34t-55.5 -14.5q-33 0 -63.5 11.5t-59.5 40.5q-43 39 -99 99t-113.5 130t-111.5 140.5t-93 129.5q-8 12 -8.5 29.5t28.5 15.5h24q62 1 116 9 q64 10 110.5 34.5t73 66.5t26.5 103t-46 107.5t-116 46.5q-41 0 -87 -16.5t-87 -46t-67.5 -69.5t-26.5 -85q0 -172 2 -346t2 -346q0 -27 -26 -27h-174q-29 0 -29 27q0 47 6 96t6 96v602q0 43 -10 84t-18 82q-4 14 -5.5 30.5t-1.5 31.5z" />
<glyph unicode="s" horiz-adv-x="804" d="M63 168.5q3 15.5 13 28.5l98 100q14 14 29.5 11t19.5 -21q8 -31 25.5 -56.5t40 -46t48 -32t50.5 -11.5q53 0 90 38t37 91q0 49 -29.5 88t-74.5 74q-27 20 -63 48t-75 61q-84 68 -133 130t-49 160q0 55 24.5 105.5t65.5 88.5t97.5 60.5t119.5 22.5q88 0 164 -29.5 t125 -89.5q12 -17 12 -32q0 -16 -14 -29l-98 -99q-16 -18 -29.5 -9t-17.5 22q-14 45 -48 69.5t-75 24.5t-70 -29.5t-29 -70.5q0 -43 29 -78q8 -8 16.5 -15.5t18.5 -15.5q10 -10 22.5 -18.5t24.5 -18.5q25 -18 44.5 -32.5t43.5 -32.5q45 -35 86 -72t73 -79t50 -90.5 t18 -107.5t-26.5 -114.5t-72.5 -98.5t-108.5 -68.5t-134.5 -25.5q-207 0 -329 166q-12 18 -9 33.5z" />
<glyph unicode="t" horiz-adv-x="950" d="M37 940q0 6 2 20.5t5 32t6 32.5t5 22q16 48 58 48q5 0 10 -1q45 -4 100.5 -6.5t104.5 -2.5h592q30 1 30 -30q0 -63 -35 -105q-23 -25 -56.5 -32t-67.5 -7l-285 -4q-8 0 -19 -12q-80 -121 -116.5 -243t-36.5 -203q0 -80 21.5 -137.5t58.5 -93.5t85 -53.5t101 -17.5 q66 0 118 17.5t93 48.5q10 10 24.5 8t20.5 -14l33 -47q6 -12 6 -25q0 -23 -21 -45q-43 -49 -118.5 -83t-167.5 -34t-176 29t-148.5 87t-103.5 147.5t-39 212.5q0 49 12 106t32.5 116.5t49.5 118t64 107.5q4 4 2 9t-11 5q-53 0 -102 -1t-94 -5q-23 -4 -30 9.5t-7 25.5z" />
<glyph unicode="u" horiz-adv-x="1288" d="M102 537v514q0 14 7.5 25t23.5 11q14 0 34.5 1.5t41 1.5t40 -1.5t34.5 -1.5q37 0 36 -36q0 -12 -1 -34t-2 -47.5t-1 -53v-50.5v-311q0 -98 26 -174t70 -126t102 -76.5t124 -26.5q51 0 104.5 19t96.5 50t70.5 69t27.5 77v501q0 53 -1 107.5t-3 83.5q0 29 29 28q35 3 87 3 h15q42 0 72 -3q20 0 24 -9t2 -19q-2 -12 -4 -38t-4 -53.5t-3 -54t-1 -45.5v-610q0 -41 6 -69.5t12 -51.5q4 -12 6.5 -24.5t6.5 -22.5q2 -12 4 -25.5t2 -27.5q0 -16 -10.5 -26.5t-26.5 -10.5h-170q-45 0 -45 45v18q0 2 1 7.5t1 7.5q-4 23 -25 4q-59 -51 -134 -80t-167 -29 q-98 0 -190 39t-163 112t-113 177.5t-42 235.5z" />
<glyph unicode="v" horiz-adv-x="1042" d="M8 1049q-6 39 33 38q18 0 44 1.5t52.5 1.5t51 -1.5t40.5 -1.5q25 0 29 -26q2 -23 2 -45.5t4 -40.5q2 -20 4 -37.5t6 -34.5q25 -92 54.5 -189.5t60.5 -188.5t63.5 -170t63.5 -134q2 -4 4 -4q4 0 6 4q31 55 64 134t63.5 171t60 189.5t54.5 189.5q4 14 6 31.5t4 38.5 q2 18 3 40.5t3 45.5q4 27 29 26q18 0 43 1.5t51.5 1.5t51 -1.5t42.5 -1.5q37 1 31 -38q-20 -115 -63 -260.5t-98.5 -290t-117 -269.5t-118.5 -198q-23 -31 -49 -31h-129q-29 0 -49 31q-61 88 -124 215t-117 266t-96 280.5t-63 256.5z" />
<glyph unicode="w" horiz-adv-x="1644" d="M18 1049q-6 39 33 38q18 0 43 1.5t51.5 1.5t51 -1.5t43.5 -1.5q29 0 28 -26q4 -47 5 -85t8 -73q16 -92 36.5 -189.5t45 -188.5t53 -170t59.5 -134q2 -6 6 -6t8 6q31 55 61 134t56.5 170t48 188.5t37.5 189.5q6 31 11.5 67t9.5 83q2 23 17 28.5t26 5.5q24 3 66 3h12 q34 0 55 -3q14 0 27.5 -6t15.5 -24q4 -47 9 -83t11 -71q16 -92 38 -189.5t48.5 -188.5t56 -170t60.5 -134q2 -6 8 -6q4 0 8 6q31 55 58.5 134t52.5 170t45.5 188.5t36.5 189.5q4 33 6 72t6 86q0 27 29 26q18 0 44 1.5t52.5 1.5t51 -1.5t40.5 -1.5q39 1 33 -38 q-23 -115 -57.5 -260.5t-79.5 -290t-99.5 -269.5t-111.5 -198q-14 -18 -24.5 -24.5t-26.5 -6.5h-129q-16 0 -26.5 7t-22.5 24q-27 37 -54.5 93t-54.5 122.5t-53.5 139.5t-48.5 140q-8 18 -11 19q-2 0 -10 -19q-47 -150 -102.5 -283.5t-116.5 -211.5q-14 -18 -24.5 -24.5 t-26.5 -6.5h-129q-29 0 -49 31q-63 88 -117.5 215t-100 267t-79 280.5t-54.5 255.5z" />
<glyph unicode="x" horiz-adv-x="1083" d="M22.5 20.5q-14.5 18.5 12.5 36.5q8 6 17 14.5t24 20.5q12 10 28.5 27.5t36.5 42.5q16 23 41 52.5t49 66.5q41 59 86 123.5t80 115.5q6 10 5 14.5t-5 12.5q-74 111 -153.5 229.5t-171.5 253.5q-4 6 -6.5 10t-4.5 9q-8 8 -8 14q-2 8 3 14t28 8q12 0 34.5 1t48.5 1h48.5 t34.5 -2q35 -4 47 -26q53 -82 109.5 -167t113.5 -167q12 -16 19 -2q10 16 32.5 48t44.5 67q27 39 58 86q27 41 44 65.5t30.5 38.5t24.5 21.5t24 15.5q20 12 37.5 16t35.5 4q33 2 56.5 1t52.5 -3q33 -2 47 -20.5t-12 -38.5q-8 -4 -22.5 -13.5t-35.5 -27.5q-20 -18 -43.5 -45 t-44.5 -55q-35 -49 -66.5 -96.5t-72.5 -110.5q-29 -43 -43 -63.5t-35 -51.5q-6 -8 -7 -11t3 -7q20 -27 50 -74t67 -100t76 -108.5t73 -92.5q27 -29 54.5 -34t48.5 5q16 8 32.5 -4t16.5 -35q0 -10 -1 -23.5t-5 -23.5q-20 -37 -62 -55q-25 -10 -45 -13t-45 -3q-35 0 -72.5 14 t-72.5 43q-16 14 -30.5 28.5t-30 34t-35 46t-45.5 65.5q-27 35 -50.5 69.5t-46.5 69.5q-8 12 -18 -2q-4 -4 -8 -10t-11 -16q-6 -10 -12 -19.5t-14 -19.5q-10 -16 -29.5 -46t-44.5 -65t-50.5 -69.5t-45.5 -61.5q-20 -25 -46 -34t-46 -9q-34 -2 -66.5 -2t-62.5 2 q-33 2 -47.5 20.5z" />
<glyph unicode="y" horiz-adv-x="1290" d="M102 535v516q0 14 7.5 25t23.5 11q14 0 34.5 1.5t41 1.5t40 -1.5t34.5 -1.5q37 0 36 -36q-2 -27 -3 -83.5t-1 -103.5v-311q0 -98 26 -174t70 -127t102 -78t124 -27q51 0 104.5 19.5t96.5 50.5t70.5 69t27.5 76v504q0 53 -1 108.5t-3 84.5q0 29 29 28q16 0 39.5 1.5 t48 1.5t47 -1.5t39.5 -1.5q20 0 24 -9t2 -19q-2 -12 -4 -38t-4 -53.5t-3 -55t-1 -46.5l2 -882q0 -63 13.5 -103.5t13.5 -79.5q0 -16 -9 -32q-6 -6 -18 -15q-16 -12 -38.5 -31.5t-46.5 -41t-47.5 -42t-37.5 -36.5q-12 -12 -22.5 -12.5t-18.5 7t-12 17.5t-4 20q2 43 4 101.5 t3 120t2 119t1 100.5q0 14 -6 15t-13 -5q-59 -55 -137 -87t-168 -32q-98 0 -190 39t-163 113t-113 178t-42 238z" />
<glyph unicode="z" horiz-adv-x="974" d="M51 33q0 61 35 102q90 145 159.5 248.5t130 186.5t119 157t130.5 162q14 23 -13 22h-307q-53 0 -102 -1t-97 -5q-23 -4 -29.5 9.5t-6.5 25.5q0 6 2 20.5t5 32t6 32.5t5 22q16 48 58 48q5 0 10 -1q45 -4 100 -6.5t104 -2.5h437q18 0 38.5 -7t30.5 -23q25 -41 37 -80 q6 -18 0 -35.5t-16 -30.5q-76 -86 -136.5 -160.5t-119 -154.5t-120.5 -174t-142 -221q-10 -14 -5 -18.5t19 -4.5h315h27q41 0 87 4q60 6 106 10q23 4 30.5 -10t7.5 -26q0 -6 -3 -21.5t-7 -34t-7 -36t-5 -23.5q-10 -27 -27.5 -38t-40.5 -9q-47 4 -101 6t-103 2h-580 q-31 0 -31 33z" />
<glyph unicode="{" horiz-adv-x="555" d="M-1 663.5q1 14.5 15 20.5q59 25 99.5 47.5t65 52t34.5 70.5t10 104q0 45 -7 99.5t-16.5 110t-16.5 108.5t-7 100q0 61 24.5 111.5t67.5 88.5t99.5 62.5t121.5 32.5q23 4 31 -2t12 -22q2 -14 1 -41t-1 -45q0 -23 -30 -31q-43 -12 -67.5 -30.5t-38 -43t-17.5 -54.5t-4 -63 q0 -78 14 -177t21 -177q8 -123 -48.5 -203t-187.5 -106q-16 -4 -16 -12.5t16 -12.5q63 -14 108.5 -33.5t73 -50t39 -76t6.5 -108.5q-6 -98 -14 -191.5t-16 -191.5q-4 -82 20.5 -147.5t108.5 -92.5q16 -4 23 -10t9 -22q2 -18 2.5 -46t-2.5 -44q-2 -25 -34 -19 q-66 10 -125.5 42t-104.5 77t-71.5 100.5t-26.5 114.5q0 47 6 101.5t13.5 110.5t13.5 109.5t6 100.5q0 57 -10.5 96t-34 67.5t-60 52t-90.5 50.5q-16 8 -15 22.5z" />
<glyph unicode="|" horiz-adv-x="593" d="M205 1608q0 10 7 18t21 10q25 2 65 2t62 -2q14 -2 21.5 -7t7.5 -21v-1925q0 -18 -8 -23.5t-23 -7.5q-27 -4 -57.5 -4t-54.5 2q-12 2 -22.5 9t-12.5 22v1708q0 39 -2 102t-4 117z" />
<glyph unicode="}" horiz-adv-x="555" d="M-1 1605.5q-1 26.5 3 41.5q2 31 41 24q66 -8 123 -32.5t99 -62.5t66.5 -88t24.5 -112q0 -47 -7 -100t-15 -108.5t-15.5 -109.5t-7.5 -100q0 -63 10.5 -104t35 -70.5t63.5 -52t98 -47.5q16 -6 16 -20.5t-16 -22.5q-53 -27 -90 -50.5t-59.5 -52t-32.5 -67.5t-10 -96 q0 -47 6 -100.5t12 -109.5t12 -110.5t6 -101.5q0 -59 -26.5 -114.5t-71.5 -100.5t-104.5 -77t-124.5 -42q-33 -6 -33 19q-2 16 -2 43.5t2 46.5q0 16 7 22t24 10q84 27 109.5 92.5t19.5 147.5q-6 98 -15.5 191.5t-15.5 191.5q-4 63 7.5 108.5t39 76t72.5 50t110 33.5 q16 4 16.5 12.5t-16.5 12.5q-133 27 -189 106.5t-46 202.5q6 78 19.5 177.5t13.5 176.5q0 33 -4 63t-17.5 54.5t-38 43t-67.5 30.5q-29 10 -29 31q-2 18 -3 44.5z" />
<glyph unicode="~" horiz-adv-x="1349" d="M102 561q8 41 30 90t57.5 91t87 71t118.5 29q74 0 151 -22.5t152 -51.5q35 -14 70 -26.5t70 -20.5q68 -18 116 -19q59 0 93 30t49 77q4 16 13 23.5t32 7.5h73q37 0 31 -29q-6 -45 -26.5 -95t-57.5 -93t-90 -71t-127 -28q-72 0 -147.5 21.5t-149.5 50.5q-35 12 -69.5 24.5 t-69.5 22.5q-35 8 -63.5 13.5t-55.5 5.5q-51 0 -84 -31t-51 -72q-8 -16 -14.5 -24.5t-32.5 -8.5h-70q-41 0 -35 35z" />
<glyph />
<glyph unicode="&#xa1;" horiz-adv-x="499" d="M102 1501q0 61 43 104.5t105 43.5q61 0 104 -43.5t43 -104.5t-43 -104t-104 -43t-104.5 43t-43.5 104zM113 131q6 51 12 128t10 167t8 186.5t8.5 185.5t8.5 164.5t8 124.5q6 70 19.5 90.5t29.5 30.5q23 12 49 17q25 4 42.5 -9.5t19.5 -44.5q4 -55 7 -138t8 -180t9 -201.5 t9.5 -202t11.5 -180.5t14 -138q10 -74 -31 -118t-106 -44q-66 0 -107 44t-30 118z" />
<glyph unicode="&#xa2;" horiz-adv-x="1124" d="M72 539q0 117 44 220t120.5 181t179 123t219.5 45h22q4 0 12.5 3t12.5 19l8 50q2 12 9.5 21t19.5 9h37q12 0 21 -9t7 -21l-12 -68q-4 -16 5 -19t16 -6q72 -20 133 -55t102 -80q25 -25 6 -47l-114 -110q-14 -16 -27.5 -12.5t-24.5 20.5q-10 27 -30.5 49t-59.5 45 q-8 6 -16 8q-4 2 -12.5 1t-12.5 -17l-119 -715q-4 -20 4.5 -24.5t14.5 -4.5q12 -2 24.5 -3t24.5 -1q92 0 170 22.5t135 63.5q14 10 24.5 5t16.5 -15l53 -90q8 -27 -12 -43q-92 -59 -186 -87t-228 -28h-26t-27 2q-4 0 -12 -2t-10 -18l-9 -41q-4 -12 -10 -21.5t-18 -9.5h-37 q-12 0 -21.5 9.5t-7.5 21.5l8 59q2 16 -5 20.5t-11 6.5q-88 27 -161.5 78t-127 121.5t-83 157.5t-29.5 186zM303 539q0 -111 50 -206t149 -147q6 -4 14 -3t12 20l117 704q4 14 -1 18.5t-9 4.5q-59 0 -118.5 -28t-107 -78t-77 -122.5t-29.5 -162.5z" />
<glyph unicode="&#xa3;" horiz-adv-x="954" d="M84 59q-4 31 3 49.5t30 32.5q27 16 56.5 36t52 48.5t38 66.5t15.5 91q0 31 -6.5 73t-14.5 70q-2 6 -6 18.5t-21 8.5q-23 -2 -55.5 -5t-50.5 -3q-23 0 -29 5t-6 21v115q0 10 8 20.5t25 10.5q16 -2 26.5 -3t32.5 -1q12 0 13.5 8t-0.5 12q-18 57 -33 111.5t-15 128.5 q0 72 30 131t81 101t118.5 64.5t145.5 22.5q104 0 193.5 -46t130.5 -118q16 -29 18 -41t-10 -28l-102 -103q-10 -12 -26.5 -10t-20.5 19q-23 72 -70 109.5t-111 37.5q-66 0 -115 -47t-49 -119q0 -57 9.5 -103t31.5 -110q4 -16 11.5 -20t23.5 -4q41 0 84 3t60 3q16 0 27 -7.5 t11 -23.5v-109q0 -2 -1 -4t-1 -4q0 -4 -2 -4q-10 -20 -36 -16q-23 0 -36.5 1t-56.5 1q-16 0 -20 -9.5t0 -17.5q12 -35 17 -68.5t5 -64.5q0 -51 -22.5 -101t-67.5 -85q-14 -10 -13 -19.5t22 -9.5h55h72.5t71.5 1t50 3q33 2 56.5 5t44 7.5t40 9.5t44.5 13q18 6 25 -8.5 t7 -26.5q0 -6 -3 -24.5t-8 -41t-9 -42t-6 -27.5q-10 -29 -27.5 -39t-40.5 -8q-14 0 -47 1t-79 2t-99 1h-107h-276q-49 0 -65.5 13.5t-20.5 45.5z" />
<glyph unicode="&#xa4;" horiz-adv-x="1304" d="M104.5 181.5q-0.5 11.5 10.5 21.5l164 166q10 12 10 24.5t-4 18.5q-25 45 -40.5 93t-15.5 101t14.5 103.5t41.5 95.5q4 4 5 14t-11 25l-168 168q-18 20 0 43l92 92q20 18 43 0l166 -166q16 -16 28.5 -13t18.5 7q45 27 94 41t100 14q53 0 102.5 -15.5t94.5 -39.5 q4 -4 15.5 -6t25.5 12l168 168q20 20 43 0l92 -92q8 -8 8 -20.5t-8 -22.5l-172 -170q-10 -10 -10 -19.5t4 -13.5q29 -47 44 -99.5t15 -105.5q0 -106 -57 -198q-4 -4 -6 -13.5t10 -21.5l170 -170q23 -23 0 -45l-92 -90q-8 -10 -20.5 -10.5t-22.5 10.5l-168 170 q-14 14 -23.5 10t-15.5 -8q-45 -25 -94 -40.5t-103 -15.5q-53 0 -103 14.5t-95 41.5q-4 4 -16.5 6t-26.5 -15l-162 -163q-23 -18 -45 0l-90 92q-10 10 -10.5 21.5zM401 606q0 -53 19.5 -98t53.5 -80t80 -54.5t99 -19.5q51 0 97.5 19.5t81 54.5t54 80t19.5 98t-19.5 99.5 t-54 80t-82 53t-100.5 19.5t-98 -19.5t-78 -54t-52.5 -81t-19.5 -97.5z" />
<glyph unicode="&#xa5;" horiz-adv-x="1112" d="M61 1243q-2 14 23 19q18 2 46 2h55.5h55t46.5 -2q18 -4 18 -13q6 -66 21 -104q27 -59 52 -118.5t51 -113t54.5 -100.5t61.5 -84q6 -8 12 -8t12 8q63 72 114.5 183.5t102.5 232.5q14 39 21 104q2 10 20 13q18 0 45 1t54.5 1t55.5 -1t46 -1q25 -5 23 -19 q-14 -49 -37 -107.5t-51.5 -120t-61.5 -123t-67 -116.5q-4 -6 -4.5 -13t16.5 -7h84q31 4 31 -27v-102q0 -27 -31 -27q-66 0 -108 1t-93 1q-16 0 -22.5 -5t-10.5 -9q-16 -10 -18 -26.5t-6 -37.5v-39q0 -4 4 -9t14 -5h120t116 2q35 0 35 -27v-104q0 -12 -5.5 -19.5t-25.5 -7.5 q-76 2 -127 2h-111q-12 0 -15 -5t-3 -9q2 -55 4 -109.5t4 -89.5q2 -23 4 -40t2 -33q0 -18 -6 -24.5t-18 -6.5h-181q-10 0 -18 7t-8 22q8 47 9 123.5t1 148.5q-2 4 -5 11t-13 7q-74 -2 -131.5 -2t-133.5 -2q-31 0 -30 27v104q0 14 10 20.5t26 6.5q66 -2 123.5 -3t128.5 -1 q14 0 16.5 8t2.5 12q-2 12 -2 20.5v18.5q0 29 -21 47q-6 4 -14 13q-4 4 -10 9t-23 5q-53 0 -96 -1t-109 -1q-33 0 -32 27v102q0 29 28 27h90q16 0 16.5 7t-3.5 11q-76 117 -135.5 243t-88.5 226z" />
<glyph unicode="&#xa6;" horiz-adv-x="593" d="M205 506q0 10 7 18t21 11q25 2 65 2t62 -2q14 -2 21.5 -7.5t7.5 -21.5v-823q0 -18 -8 -23.5t-23 -7.5q-27 -4 -57.5 -4t-54.5 2q-12 2 -22.5 9t-12.5 22v606q0 39 -2 102.5t-4 116.5zM205 1608q0 10 7 18t21 10q25 2 65 2t62 -2q14 -2 21.5 -7t7.5 -21v-824q0 -18 -8 -23 t-23 -7q-27 -4 -57.5 -4t-54.5 2q-12 2 -22.5 9t-12.5 21v607q0 39 -2 102t-4 117z" />
<glyph unicode="&#xa7;" horiz-adv-x="937" d="M72 641q0 86 36.5 152.5t102.5 126.5q12 10 14 15t-6 17q-29 41 -44 91.5t-15 99.5q0 84 24.5 140t71.5 97q39 35 94.5 53.5t126.5 18.5q84 0 163 -35t114 -92q20 -33 17 -53.5t-28 -44.5l-79 -76q-16 -16 -33 -8t-19 28q-2 23 -11 40.5t-17 31.5q-12 23 -44 39t-63 16 q-61 0 -98 -34.5t-37 -104.5q0 -33 16.5 -76t47.5 -73q45 -45 114 -101q35 -27 68 -51t65 -49q115 -90 158 -152q55 -79 55 -194q0 -86 -39 -158t-108 -137q-10 -10 -9 -17.5t5 -11.5q70 -98 69 -207q0 -72 -29.5 -136t-76.5 -103q-45 -37 -102.5 -53.5t-135.5 -16.5 q-86 0 -161.5 36t-110.5 93q-23 33 -19.5 53.5t29.5 44.5l80 76q16 16 32.5 8t18.5 -28q2 -23 11.5 -40.5t17.5 -31.5q12 -23 43 -39t63 -16q33 0 59.5 5t49.5 21q25 16 38 46t13 65q0 41 -18.5 87t-69.5 95q-10 10 -32.5 28.5t-51.5 41.5q-45 37 -93 72.5t-101 81.5 q-68 57 -109 129q-57 90 -57 190zM246 672q0 -33 6 -62.5t29 -64.5q18 -29 38.5 -50.5t42.5 -37.5l228 -178q14 -10 16 -9q4 0 8 4l4 2q74 68 74 162q0 53 -13 86t-58 74q-18 18 -84 68q-47 35 -81 61.5t-57 44.5q-43 33 -55 43q-8 8 -13 9t-16 -9q-70 -57 -69 -143z" />
<glyph unicode="&#xa8;" horiz-adv-x="983" d="M104 1331q0 47 33 81t80 34t80 -34t33 -81t-33 -79.5t-80 -32.5t-80 32.5t-33 79.5zM477 1331q0 47 33 81t80 34t79.5 -34t32.5 -81t-32.5 -79.5t-79.5 -32.5t-80 32.5t-33 79.5z" />
<glyph unicode="&#xa9;" horiz-adv-x="1736" d="M123 717q0 154 58.5 290t159.5 237.5t237.5 159.5t289.5 58q154 0 290 -58t237.5 -159.5t160 -237.5t58.5 -290t-58.5 -290t-160 -237.5t-237.5 -160t-290 -58.5t-290 58.5t-237 160t-159.5 237.5t-58.5 290zM229 717q0 -131 50.5 -248t136.5 -205t202.5 -140t249.5 -52 t250 52t203 140t136 205t50 248t-50 248.5t-137 206t-204 140.5t-248 52q-133 0 -248.5 -52t-202.5 -140.5t-137.5 -206t-50.5 -248.5zM393 725q0 94 37 179t101.5 150.5t151.5 104.5t185 39q102 0 189.5 -35t140.5 -92q8 -10 10 -20.5t-6 -18.5l-96 -96q-23 -23 -43 8 q-10 23 -26.5 41.5t-49.5 38.5q-20 10 -53 18.5t-66 8.5q-49 0 -100 -22.5t-91 -64.5t-65.5 -102.5t-25.5 -136.5q0 -63 19.5 -124.5t57 -111t95 -79t135.5 -29.5q72 0 139.5 32.5t106.5 75.5q10 10 19 5t16 -13l51 -57q8 -16 -11 -35q-61 -63 -147 -107t-197 -44 q-98 0 -184 37.5t-151.5 103t-103.5 155t-38 191.5z" />
<glyph unicode="&#xaa;" horiz-adv-x="1011" d="M61 854q0 88 30 166t83 136t126 91t159 33q41 0 73.5 -8t59.5 -21q23 -12 47 -28q10 -8 21.5 -15.5t21.5 -17.5q10 -8 15 -8t16 10q10 14 16 20.5t14 14.5q10 10 25.5 19t28.5 14q29 6 55 -3q31 -10 22 -40q-39 -90 -51 -170q-16 -88 -14 -183.5t18 -171.5 q33 -137 109 -190q14 -10 15 -22.5t-9 -22.5q-6 -8 -14 -15q-10 -6 -29.5 -10t-38.5 -4q-53 0 -85 18.5t-73 79.5q-4 8 -8 4q-41 -39 -93 -70.5t-142 -31.5q-86 0 -159 33t-126 90t-83 135t-30 168zM250 854q0 -53 14.5 -103.5t41 -89t65.5 -62.5t88 -24q70 0 112.5 30 t71.5 75q6 8 4 20q-14 88 -13 166t11 144q0 16 -4 22q-27 41 -71 71t-111 30q-53 0 -92 -24t-66 -62.5t-39 -89t-12 -103.5z" />
<glyph unicode="&#xab;" horiz-adv-x="1062" d="M55.5 533.5q-0.5 21.5 16.5 44.5l114 155q20 29 42 57.5t38.5 51t26.5 36.5l10 13q23 29 45.5 48t61.5 19h75q35 0 43.5 -21.5t-8.5 -45.5q-18 -29 -41 -57q-18 -27 -40.5 -58t-47.5 -65q-57 -80 -129 -181l266 -370q20 -29 5 -43.5t-44 -14.5h-81q-57 0 -99 58l-237 325 q-16 27 -16.5 48.5zM508 533.5q0 21.5 16 44.5l115 155q20 29 41.5 57.5t38 51t27.5 36.5l10 13q23 29 45 48t61 19h76q35 0 43 -21.5t-8 -45.5q-18 -29 -41 -57q-18 -27 -41 -58t-47 -65q-57 -80 -129 -181l266 -370q20 -29 5 -43.5t-44 -14.5h-82q-57 0 -98 58l-238 325 q-16 27 -16 48.5z" />
<glyph unicode="&#xac;" horiz-adv-x="1198" d="M102 848v88q0 29 12.5 39t41.5 10h450h451q39 0 39 -45v-547q0 -45 -41 -45h-111q-16 -4 -30.5 9.5t-14.5 35.5v375q0 23 -6 29t-29 6h-700q-20 -4 -41 9t-21 36z" />
<glyph unicode="&#xad;" horiz-adv-x="630" d="M72 518v129q0 10 8 20.5t24 10.5q29 0 75 -2t92 -3t87 -2t60 -1q41 0 63.5 4t38.5 4t27.5 -8t11.5 -25v-123q0 -16 -12 -22t-29 -6q-31 0 -80 2t-99 3t-92 2t-57 1q-27 0 -45 -5t-39 -5q-23 0 -28.5 6t-5.5 20z" />
<glyph unicode="&#xae;" horiz-adv-x="1736" d="M123 717q0 154 58.5 290t159.5 237.5t237.5 159.5t289.5 58q154 0 290 -58t237.5 -159.5t160 -237.5t58.5 -290t-58.5 -290t-160 -237.5t-237.5 -160t-290 -58.5t-290 58.5t-237 160t-159.5 237.5t-58.5 290zM229 717q0 -131 50.5 -248t136.5 -205t202.5 -140t249.5 -52 t250 52t203 140t136 205t50 248t-50 248.5t-137 206t-204 140.5t-248 52q-133 0 -248.5 -52t-202.5 -140.5t-137.5 -206t-50.5 -248.5zM473 1151q0 23 23 23h141q29 0 30 -18.5t1 -41.5q0 -12 12 -6q111 88 252 88q129 0 212 -70.5t83 -193.5q0 -57 -19.5 -103.5t-52.5 -81 t-76 -57t-88 -31.5q-20 -4 -6 -18q43 -57 99.5 -115.5t101.5 -95.5q23 -18 44 -14t50 16q16 8 28.5 1t28.5 -23q8 -10 1 -26.5t-15 -27.5q-8 -10 -23.5 -26.5t-35 -32.5t-41 -28.5t-39.5 -12.5q-53 0 -101 41q-37 33 -84 84t-96 109.5t-95 118t-79 110.5q-6 10 -3 19.5 t15 6.5q63 -2 120 6.5t97.5 30t65.5 58.5t25 92t-43 96t-105 41q-35 0 -76 -14.5t-76.5 -40t-59 -61t-23.5 -76.5q0 -143 2 -291t2 -293q0 -14 -17 -14q-25 -2 -62.5 -3.5t-84.5 0.5q-18 0 -19 19q0 20 2.5 36.5t5.5 34t5 39t2 50.5v508q0 49 -14.5 95t-14.5 93z" />
<glyph unicode="&#xaf;" horiz-adv-x="1296" d="M33 1241v68q0 31 33 30q100 -2 173.5 -3t146.5 -1t155 1t198 3q37 1 37 -30v-38t-1 -15.5t-2 -5.5t-3 -9q-4 -16 -11 -23.5t-26 -7.5q-90 2 -153.5 3t-111.5 1h-88t-83 -1t-96.5 -2t-128.5 -1q-39 0 -39 31z" />
<glyph unicode="&#xb0;" horiz-adv-x="659" d="M61 991q0 55 21.5 104.5t57.5 85.5t85 57.5t105 21.5q55 0 104 -21.5t85 -57.5t57.5 -85.5t21.5 -104.5t-21.5 -104t-57.5 -85t-85 -57.5t-104 -21.5t-104.5 21.5t-85.5 57.5t-57.5 85t-21.5 104zM193 991q0 -57 39.5 -97t97.5 -40q57 0 97 40t40 97t-40 97t-97 40 t-97 -39.5t-40 -97.5z" />
<glyph unicode="&#xb1;" horiz-adv-x="1103" d="M113 27v127q0 31 32 30q100 -2 195.5 -3t193 -1t201 1t219.5 3q37 1 37 -30q0 -53 -1 -82t-5 -45t-11 -23.5t-26 -7.5q-135 2 -234.5 2h-186.5h-175t-200 -2q-39 0 -39 31zM113 750q0 41 2 63q0 12 3 18.5t19 6.5h295q29 0 29 30v193q0 55 -4 91t-4 52q0 8 5 15.5t15 7.5 q27 2 75 2t77 -2q10 0 14 -3t4 -18v-338q0 -18 5 -24t20 -6h301q20 -3 22 -21q2 -43 1 -67.5t-7 -51.5q-6 -23 -24.5 -32t-40.5 -9h-248q-16 0 -22.5 -6t-6.5 -24v-334q-6 -25 -20 -25q-27 -2 -70 -2t-72 2q-14 0 -20 25v334q0 18 -5 24t-18 6h-299q-16 0 -20 4.5t-4 20.5 q-2 27 -2 68z" />
<glyph unicode="&#xb2;" horiz-adv-x="690" d="M75 536.5q-7 16.5 9 41.5q12 18 36.5 43.5t51.5 51t48.5 46t31.5 29.5q43 39 80 73q18 16 33.5 32.5t27.5 33.5q27 33 40 64.5t13 68.5q0 66 -34.5 99.5t-89.5 33.5q-35 0 -67 -22.5t-44 -57.5q-4 -16 -18.5 -17t-24.5 9l-64 61q-10 10 -6 21.5t15 28.5q31 45 91 72.5 t126 27.5q129 0 202.5 -69.5t73.5 -186.5q0 -49 -20.5 -94t-53 -87t-72.5 -79t-77 -68q-12 -10 -23.5 -20t-19.5 -21q-6 -10 8 -10h94q45 0 76 6q16 2 31.5 6t38.5 9q18 4 24 -8.5t6 -20.5q0 -4 -2 -15.5t-5 -24.5t-5 -25.5t-4 -16.5q-14 -37 -49 -33q-8 0 -30.5 1t-55.5 1 h-71h-77h-202q-35 0 -42 16.5z" />
<glyph unicode="&#xb3;" horiz-adv-x="630" d="M72 1231q-2 16 16 29q8 4 18 6q20 -4 79 -5t126 -1h209q18 0 26.5 -14.5t0.5 -28.5q-6 -10 -26.5 -38t-45.5 -61t-50.5 -66.5t-43.5 -58.5q-6 -4 -5 -6t3 -4q92 -29 136 -95.5t44 -144.5q0 -47 -22.5 -91t-61.5 -76.5t-92 -52t-115 -17.5q-84 0 -143 33q-31 14 -31 49 l-2 67q0 10 9.5 20.5t23.5 -1.5q37 -31 78 -43q10 -2 21.5 -3t25.5 -1q59 0 105 37.5t46 97.5q0 53 -33.5 87t-113.5 54q-10 4 -19.5 9.5t-17.5 15.5q-23 31 -2 59q31 39 57.5 67.5t69.5 82.5q2 6 -4 6h-94q-29 0 -51.5 -5t-45.5 -20q-18 -10 -29.5 0t-15.5 17 q-6 14 -16 41.5t-14 54.5z" />
<glyph unicode="&#xb4;" horiz-adv-x="681" d="M0 1209.5q-6 19.5 18 31.5l353 172q41 16 78 -16l122 -107q6 -6 10.5 -15t1.5 -17.5t-13.5 -14.5t-28.5 -4q-43 4 -84 2t-105 -10q-23 -4 -66.5 -8t-93 -10.5t-96.5 -11.5t-76 -9q-14 -2 -20 17.5z" />
<glyph unicode="&#xb5;" horiz-adv-x="1228" d="M82 -199q0 16 8 55.5t8 86.5l2 923q0 18 -1 46t-3 55.5t-4 53.5t-4 38q-2 10 2 19t25 9h174q29 0 28 -28q-2 -29 -3 -84t-1 -109v-504q0 -39 27 -76.5t70 -68.5t96 -50.5t106 -19.5q66 0 124.5 27t102.5 78t69.5 127t25.5 174v311q0 47 -2 103.5t-2 83.5q-2 16 8 26 t27 10h149q18 0 25.5 -11t7.5 -25v-516q0 -133 -42 -237.5t-112.5 -178.5t-163 -113t-190.5 -39q-178 0 -313 90q-10 8 -11 6q0 -43 1 -98t2 -113.5t3.5 -116t4.5 -100.5q0 -10 -5.5 -20t-12.5 -17.5t-17 -7.5t-23 13l-36.5 36.5t-43 42t-44 41t-35.5 31.5q-12 8 -19 15 q-8 10 -8 32z" />
<glyph unicode="&#xb6;" horiz-adv-x="1351" d="M123 1020q0 104 40 182t105.5 129t149.5 77t172 26h606q33 0 33 -27v-111q0 -16 -11.5 -22t-21.5 -6h-84q-20 -2 -24.5 -8.5t-4.5 -22.5v-1587q0 -10 -7 -19.5t-21 -9.5h-135q-10 0 -19.5 7t-9.5 26v1583q0 14 -6 22.5t-25 8.5h-96q-29 0 -29 -29v-1583q0 -35 -28 -35 h-138q-20 0 -24 8.5t-4 24.5v958q-84 0 -159 30t-133.5 83t-92 128t-33.5 167z" />
<glyph unicode="&#xb7;" horiz-adv-x="450" d="M82 575q0 61 43 104.5t104 43.5t104.5 -43.5t43.5 -104.5q0 -59 -43 -103t-105 -44q-61 0 -104 44t-43 103z" />
<glyph unicode="&#xb8;" horiz-adv-x="1132" d="M487 -330q0 14 15 15q47 2 75.5 22.5t28.5 61.5q0 27 -22.5 49t-65.5 18q-14 -2 -20 7.5t0 21.5l51 129q4 10 9 13t17 3h54q14 0 15 -3t-1 -13l-22 -64q-4 -10 -1 -12t11 -6q35 -12 67.5 -49t32.5 -96q0 -76 -53 -122t-170 -55q-20 0 -21 15v65z" />
<glyph unicode="&#xb9;" horiz-adv-x="374" d="M72 1221v28q0 12 16 13h160q12 0 12 -17l2 -706q0 -14 -16 -15h-117q-6 0 -11 6.5t-5 12.5l2 590q0 14 -7.5 26t-14.5 21.5t-14 18.5t-7 22z" />
<glyph unicode="&#xba;" horiz-adv-x="946" d="M61 864q0 88 31 165t86 132.5t130 87t165 31.5t166 -31.5t130 -87t85 -132.5t31 -165q0 -90 -31 -165.5t-85 -131t-130 -87t-166 -31.5t-165 31.5t-130 87t-86 131t-31 165.5zM248 864q0 -53 14 -102t43 -86t71 -58.5t97 -21.5q57 0 100 21.5t71 58.5t41 86t13 102 t-13 101.5t-41 85t-71 59.5t-100 23t-100 -23t-71 -59.5t-41 -86t-13 -100.5z" />
<glyph unicode="&#xbb;" horiz-adv-x="1062" d="M76.5 116.5q-15.5 14.5 5.5 43.5l266 370l-260 361q-16 25 -7 46t44 21h76q39 0 61.5 -19t44.5 -48l230 -313q31 -44 2 -93l-238 -325q-41 -57 -98 -58h-82q-29 0 -44.5 14.5zM529 116.5q-15 14.5 6 43.5l266 370l-260 361q-16 25 -7 46t44 21h75q39 0 61.5 -19t45.5 -48 l229 -313q31 -44 2 -93l-237 -325q-41 -57 -99 -58h-82q-29 0 -44 14.5z" />
<glyph unicode="&#xbc;" horiz-adv-x="1214" d="M72 1221v28q0 12 16 13h160q12 0 12 -17l2 -706q0 -14 -16 -15h-117q-6 0 -11 6.5t-5 12.5l2 590q0 14 -7.5 26t-14.5 21.5t-14 18.5t-7 22zM106 29q10 25 25 41q12 16 18.5 25t12.5 20q66 117 139.5 251t146 269t141 265t124.5 241q12 23 17 44t11 44q8 25 17.5 33 t36.5 10q14 0 49 1t51 -1q25 -4 29.5 -20.5t-9.5 -39.5q-6 -10 -9 -13t-11 -13q-4 -6 -10 -13.5t-13 -17.5q-8 -10 -21 -32.5t-28 -45.5q-55 -96 -119.5 -216t-132 -247t-135 -255t-129.5 -242q-12 -23 -19 -47.5t-12 -46.5q-4 -23 -15 -29t-32 -6h-96q-12 0 -24.5 8 t-2.5 33zM571 233q0 14 11 31q74 111 135 201q27 39 51.5 76t45 67.5t33.5 51t17 26.5q8 16 22.5 33.5t31.5 17.5q29 2 43 2t45 -2q12 0 16 -8t4 -16l-2 -68v-352q2 -14 12 -14q29 0 43.5 1t34.5 3q16 2 21.5 -7.5t5.5 -19.5q0 -4 1 -13.5t1 -19.5v-21.5t-4 -15.5 q-6 -20 -18.5 -27t-28.5 -5q-16 0 -26.5 1t-29.5 1q-8 0 -9 -1t-1 -12v-58.5t2 -64.5q0 -20 -22 -20q-25 -2 -54.5 -3t-56.5 3q-23 0 -18 25l2 118q0 12 -13 13h-233q-14 0 -30.5 22.5t-22.5 34.5q-4 8 -9 20zM745 293q-10 -16 17 -17l112 3q9 0 9 8v182q0 16 -3 14t-14 -18 q-27 -41 -62.5 -89t-58.5 -83z" />
<glyph unicode="&#xbd;" horiz-adv-x="1286" d="M72 1221v28q0 12 16 13h160q12 0 12 -17l2 -706q0 -14 -16 -15h-117q-6 0 -11 6.5t-5 12.5l2 590q0 14 -7.5 26t-14.5 21.5t-14 18.5t-7 22zM106 29q10 25 25 41q12 16 18.5 25t12.5 20q66 117 139.5 251t145 270t140 266t126.5 239q12 23 17 44t11 44q8 25 17.5 33 t36.5 10q14 0 49 1t51 -1q25 -4 29.5 -20.5t-9.5 -39.5q-6 -10 -9 -13t-11 -13q-4 -6 -10 -13.5t-13 -17.5q-8 -10 -21 -32.5t-28 -45.5q-55 -96 -119.5 -216t-132 -247t-135 -255t-129.5 -242q-12 -23 -19 -47.5t-12 -46.5q-4 -23 -15 -29t-32 -6h-96q-12 0 -24.5 8 t-2.5 33zM671 14.5q-7 16.5 9 40.5q12 18 36.5 44t51.5 51.5t48.5 46t31.5 30.5q23 18 42 37t38 35q18 16 33.5 32.5t27.5 33.5q27 33 40 64.5t13 68.5q0 66 -35.5 100.5t-88.5 34.5q-35 0 -67 -23.5t-44 -58.5q-4 -16 -18.5 -17.5t-24.5 9.5l-64 61q-10 12 -6 23.5t15 27.5 q31 43 91 71t126 28q129 0 202.5 -70t73.5 -186q0 -49 -20.5 -94.5t-53 -87.5t-72.5 -78.5t-77 -67.5q-12 -10 -23.5 -20.5t-19.5 -20.5q-6 -10 8 -10q16 0 39 1t55 1h42.5t33.5 4q16 2 31.5 6t38.5 8q18 4 24 -8t6 -20q0 -4 -2 -15.5t-5 -25t-5 -25.5t-4 -16 q-14 -37 -49 -33q-8 0 -30.5 1t-55.5 1h-71h-77h-202q-35 0 -42 16.5z" />
<glyph unicode="&#xbe;" horiz-adv-x="1425" d="M72 1233q-2 16 16 29q8 4 18 6q20 -4 79 -5t126 -1h209q18 0 26.5 -14.5t0.5 -28.5q-6 -10 -26.5 -38t-45.5 -61t-50.5 -66.5t-43.5 -58.5q-6 -4 -5 -6t3 -4q92 -29 136 -95.5t44 -144.5q0 -47 -22.5 -91t-61.5 -76.5t-92 -52t-115 -17.5q-84 0 -143 33q-31 14 -31 49 l-2 67q0 10 9.5 20.5t23.5 -1.5q37 -31 78 -43q10 -2 21.5 -3t25.5 -1q59 0 105 38t46 97q0 53 -33.5 87t-113.5 54q-10 4 -19.5 9.5t-17.5 15.5q-23 31 -2 59q31 39 57.5 67.5t69.5 82.5q2 6 -4 6h-94q-29 0 -51.5 -5t-45.5 -20q-18 -10 -29.5 0t-15.5 17q-6 14 -16 41.5 t-14 54.5zM326 29q10 25 24 41q12 16 18.5 25t12.5 20q66 117 139.5 251t146 271t141.5 266t124 238q12 23 17 44t12 44q8 25 17 33t36 10q14 0 49 1t51 -1q25 -4 30 -20.5t-9 -39.5q-6 -10 -9.5 -13t-11.5 -13q-4 -6 -10 -13.5t-12 -17.5q-8 -10 -21.5 -32.5t-28.5 -45.5 q-55 -96 -119.5 -216t-132 -247t-135 -255t-129.5 -242q-12 -23 -19 -47.5t-11 -46.5q-4 -23 -15.5 -29t-31.5 -6h-97q-12 0 -24.5 8t-1.5 33zM784 233q0 14 11 31q74 111 135 201q25 39 50.5 76t46 67.5t33.5 51t17 26.5q8 16 21.5 33.5t29.5 17.5q29 2 43.5 2t47.5 -2 q10 0 15 -8t5 -16l-4 -68l2 -352q0 -14 12 -14q27 0 41.5 1t34.5 3q16 2 22.5 -7.5t6.5 -19.5v-33v-21.5t-2 -15.5q-6 -20 -18.5 -27t-28.5 -5q-16 0 -27.5 1t-28.5 1q-10 0 -11 -1t-1 -12q0 -23 1 -58.5t1 -64.5q0 -20 -20 -20q-25 -2 -55.5 -3t-55.5 3q-20 0 -21 25l3 118 q0 8 -1.5 10.5t-11.5 2.5h-231q-14 0 -31.5 22.5t-23.5 34.5l-4.5 9t-2.5 11zM956 293q-10 -16 19 -17l110 3q9 0 9 8v47v40.5v43v51.5q0 16 -2 14t-13 -18q-29 -41 -64.5 -89t-58.5 -83z" />
<glyph unicode="&#xbf;" horiz-adv-x="989" d="M82 356q0 66 14.5 122.5t44 107.5t75.5 98t110 94l127 94q43 33 69.5 59.5t38.5 54.5t13 61.5t-5 80.5q-4 29 7.5 49.5t27.5 30.5q29 16 53 17q14 0 28.5 -5.5t23.5 -21.5q80 -150 54 -264.5t-145 -200.5l-145 -106q-90 -66 -122 -127.5t-32 -128.5q0 -104 59.5 -162.5 t143.5 -58.5q66 0 119 34q29 20 49.5 50t28.5 59q8 16 22.5 20t30.5 -12l127 -125q10 -10 8 -22.5t-12 -22.5q-74 -84 -163 -123t-228 -39q-90 0 -168 31t-134.5 84t-88 124t-31.5 148zM459 1501q0 61 44 104.5t103 43.5q61 0 104.5 -43.5t43.5 -104.5t-43 -104t-105 -43 q-59 0 -103 43t-44 104z" />
<glyph unicode="&#xc0;" horiz-adv-x="1480" d="M82 631q0 143 48 264t132 209t196.5 138t241.5 50q125 0 213 -42t150 -91q16 -14 28.5 -11t22.5 19q10 14 24.5 30.5t26.5 29.5q33 33 59.5 44t65.5 7q10 -2 23.5 -6t19.5 -8q10 -8 12.5 -16.5t0.5 -24.5q-29 -70 -46.5 -130.5t-27.5 -121.5q-10 -72 -15.5 -155 t-4.5 -168t8.5 -162.5t19.5 -135.5q23 -104 66 -182t108 -125q14 -8 15 -18.5t-7 -18.5q-12 -12 -20 -16q-10 -8 -38 -14.5t-52 -6.5q-39 0 -68 5.5t-54.5 20.5t-49 43t-54.5 75q-10 16 -19 20t-26 -12q-59 -57 -153 -104.5t-228 -47.5q-129 0 -241.5 50.5t-196.5 138.5 t-132 209.5t-48 263.5zM326 631q0 -92 27.5 -179t77.5 -153t118.5 -105.5t150.5 -39.5q111 0 199 49t135 123q10 12 11 21.5t-3 25.5q-10 66 -14 137.5t-4 140t4 132t10 112.5q4 23 -6 49q-43 66 -131 115t-201 49q-86 0 -155.5 -40t-118.5 -106.5t-74.5 -152.5t-25.5 -178z M370 1442q-3 8 1 17t10 16l121 106q18 16 39.5 21.5t40.5 -5.5l352 -172q25 -12 18.5 -31.5t-20.5 -17.5q-29 4 -76 9.5t-96 11.5t-93 10t-67 8q-63 10 -104 11t-84 -3q-18 -2 -28.5 4.5t-13.5 14.5z" />
<glyph unicode="&#xc1;" horiz-adv-x="1480" d="M82 631q0 143 48 264t132 209t196.5 138t241.5 50q125 0 213 -42t150 -91q16 -14 28.5 -11t22.5 19q10 14 24.5 30.5t26.5 29.5q33 33 59.5 44t65.5 7q10 -2 23.5 -6t19.5 -8q10 -8 12.5 -16.5t0.5 -24.5q-29 -70 -46.5 -130.5t-27.5 -121.5q-10 -72 -15.5 -155 t-4.5 -168t8.5 -162.5t19.5 -135.5q23 -104 66 -182t108 -125q14 -8 15 -18.5t-7 -18.5q-12 -12 -20 -16q-10 -8 -38 -14.5t-52 -6.5q-39 0 -68 5.5t-54.5 20.5t-49 43t-54.5 75q-10 16 -19 20t-26 -12q-59 -57 -153 -104.5t-228 -47.5q-129 0 -241.5 50.5t-196.5 138.5 t-132 209.5t-48 263.5zM326 631q0 -92 27.5 -179t77.5 -153t118.5 -105.5t150.5 -39.5q111 0 199 49t135 123q10 12 11 21.5t-3 25.5q-10 66 -14 137.5t-4 140t4 132t10 112.5q4 23 -6 49q-43 66 -131 115t-201 49q-86 0 -155.5 -40t-118.5 -106.5t-74.5 -152.5t-25.5 -178z M495.5 1391.5q-6.5 19.5 18.5 31.5l352 172q18 10 40 5t40 -21l121 -106q6 -6 10 -15.5t1 -17.5t-13 -14.5t-29 -4.5q-43 4 -84 3t-104 -11q-23 -4 -67 -8t-93 -10t-96 -11.5t-76 -9.5q-14 -2 -20.5 17.5z" />
<glyph unicode="&#xc2;" horiz-adv-x="1480" d="M82 631q0 143 48 264t132 209t196.5 138t241.5 50q125 0 213 -42t150 -91q16 -14 28.5 -11t22.5 19q10 14 24.5 30.5t26.5 29.5q33 33 59.5 44t65.5 7q10 -2 23.5 -6t19.5 -8q10 -8 12.5 -16.5t0.5 -24.5q-29 -70 -46.5 -130.5t-27.5 -121.5q-10 -72 -15.5 -155 t-4.5 -168t8.5 -162.5t19.5 -135.5q23 -104 66 -182t108 -125q14 -8 15 -18.5t-7 -18.5q-12 -12 -20 -16q-10 -8 -38 -14.5t-52 -6.5q-39 0 -68 5.5t-54.5 20.5t-49 43t-54.5 75q-10 16 -19 20t-26 -12q-59 -57 -153 -104.5t-228 -47.5q-129 0 -241.5 50.5t-196.5 138.5 t-132 209.5t-48 263.5zM326 631q0 -92 27.5 -179t77.5 -153t118.5 -105.5t150.5 -39.5q111 0 199 49t135 123q10 12 11 21.5t-3 25.5q-10 66 -14 137.5t-4 140t4 132t10 112.5q4 23 -6 49q-43 66 -131 115t-201 49q-86 0 -155.5 -40t-118.5 -106.5t-74.5 -152.5t-25.5 -178z M424 1389.5q-8 17.5 14 33.5l260 199q16 14 37 14q14 0 37 -14l260 -199q23 -16 14.5 -33.5t-22.5 -15.5q-29 4 -62.5 14.5t-65.5 22.5t-62.5 22.5t-53.5 14.5q-12 2 -20 4t-25 2q-16 0 -24.5 -2t-20.5 -4q-23 -4 -53.5 -14.5t-62 -22.5t-65.5 -22.5t-63 -14.5 q-14 -2 -22 15.5z" />
<glyph unicode="&#xc3;" horiz-adv-x="1480" d="M82 631q0 143 48 264t132 209t196.5 138t241.5 50q125 0 213 -42t150 -91q16 -14 28.5 -11t22.5 19q10 14 24.5 30.5t26.5 29.5q33 33 59.5 44t65.5 7q10 -2 23.5 -6t19.5 -8q10 -8 12.5 -16.5t0.5 -24.5q-29 -70 -46.5 -130.5t-27.5 -121.5q-10 -72 -15.5 -155 t-4.5 -168t8.5 -162.5t19.5 -135.5q23 -104 66 -182t108 -125q14 -8 15 -18.5t-7 -18.5q-12 -12 -20 -16q-10 -8 -38 -14.5t-52 -6.5q-39 0 -68 5.5t-54.5 20.5t-49 43t-54.5 75q-10 16 -19 20t-26 -12q-59 -57 -153 -104.5t-228 -47.5q-129 0 -241.5 50.5t-196.5 138.5 t-132 209.5t-48 263.5zM326 631q0 -92 27.5 -179t77.5 -153t118.5 -105.5t150.5 -39.5q111 0 199 49t135 123q10 12 11 21.5t-3 25.5q-10 66 -14 137.5t-4 140t4 132t10 112.5q4 23 -6 49q-43 66 -131 115t-201 49q-86 0 -155.5 -40t-118.5 -106.5t-74.5 -152.5t-25.5 -178z M342 1405q6 35 19.5 70.5t36 64.5t56 47.5t76.5 18.5q47 0 98.5 -15.5t98.5 -34.5q23 -10 45.5 -19t44.5 -15q45 -16 76 -17q72 0 90 74q6 25 29 25h47q22 0 20 -25q-4 -37 -17 -74t-37 -65.5t-58.5 -47t-81.5 -18.5t-95.5 14.5t-95.5 34.5q-23 10 -45 18.5t-45 14.5 q-45 16 -78 17q-63 0 -86 -70q-4 -12 -9 -19.5t-21 -7.5h-45q-27 0 -23 29z" />
<glyph unicode="&#xc4;" horiz-adv-x="1480" d="M82 631q0 143 48 264t132 209t196.5 138t241.5 50q125 0 213 -42t150 -91q16 -14 28.5 -11t22.5 19q10 14 24.5 30.5t26.5 29.5q33 33 59.5 44t65.5 7q10 -2 23.5 -6t19.5 -8q10 -8 12.5 -16.5t0.5 -24.5q-29 -70 -46.5 -130.5t-27.5 -121.5q-10 -72 -15.5 -155 t-4.5 -168t8.5 -162.5t19.5 -135.5q23 -104 66 -182t108 -125q14 -8 15 -18.5t-7 -18.5q-12 -12 -20 -16q-10 -8 -38 -14.5t-52 -6.5q-39 0 -68 5.5t-54.5 20.5t-49 43t-54.5 75q-10 16 -19 20t-26 -12q-59 -57 -153 -104.5t-228 -47.5q-129 0 -241.5 50.5t-196.5 138.5 t-132 209.5t-48 263.5zM326 631q0 -92 27.5 -179t77.5 -153t118.5 -105.5t150.5 -39.5q111 0 199 49t135 123q10 12 11 21.5t-3 25.5q-10 66 -14 137.5t-4 140t4 132t10 112.5q4 23 -6 49q-43 66 -131 115t-201 49q-86 0 -155.5 -40t-118.5 -106.5t-74.5 -152.5t-25.5 -178z M416 1489q0 47 32.5 80t79.5 33t80 -33t33 -80t-33 -80t-80 -33t-79.5 33t-32.5 80zM788 1489q0 47 33 80t80 33t80 -33t33 -80t-33 -80t-80 -33t-80 33t-33 80z" />
<glyph unicode="&#xc5;" horiz-adv-x="1480" d="M82 631q0 143 48 264t132 209t196.5 138t241.5 50q125 0 213 -42t150 -91q16 -14 28.5 -11t22.5 19q10 14 24.5 30.5t26.5 29.5q33 33 59.5 44t65.5 7q10 -2 23.5 -6t19.5 -8q10 -8 12.5 -16.5t0.5 -24.5q-29 -70 -46.5 -130.5t-27.5 -121.5q-10 -72 -15.5 -155 t-4.5 -168t8.5 -162.5t19.5 -135.5q23 -104 66 -182t108 -125q14 -8 15 -18.5t-7 -18.5q-12 -12 -20 -16q-10 -8 -38 -14.5t-52 -6.5q-39 0 -68 5.5t-54.5 20.5t-49 43t-54.5 75q-10 16 -19 20t-26 -12q-59 -57 -153 -104.5t-228 -47.5q-129 0 -241.5 50.5t-196.5 138.5 t-132 209.5t-48 263.5zM326 631q0 -92 27.5 -179t77.5 -153t118.5 -105.5t150.5 -39.5q111 0 199 49t135 123q10 12 11 21.5t-3 25.5q-10 66 -14 137.5t-4 140t4 132t10 112.5q4 23 -6 49q-43 66 -131 115t-201 49q-86 0 -155.5 -40t-118.5 -106.5t-74.5 -152.5t-25.5 -178z M528 1554q0 76 53.5 129.5t131.5 53.5t132 -53.5t54 -129.5t-54 -129t-132 -53t-131.5 53.5t-53.5 128.5zM631 1554q0 -35 23.5 -58t58.5 -23t59.5 23t24.5 58t-24.5 58.5t-59.5 23.5t-58.5 -23.5t-23.5 -58.5z" />
<glyph unicode="&#xc6;" horiz-adv-x="2197" d="M82 631q0 133 44 253t124 211t189.5 144t240.5 53q61 0 106 -9t81 -24.5t65 -36t59 -44.5q33 -27 45 8q6 16 14.5 31.5t16.5 29.5q14 23 47 36t74 9q10 -2 23.5 -4t23.5 -6q14 -6 22.5 -15.5t-2.5 -23.5q-10 -16 -17 -39.5t-11 -40.5q-2 -10 3 -13t13 7q39 53 121 94 t180 41q127 0 232.5 -51t180.5 -137t117 -202t42 -245q0 -31 -29 -30h-852q-18 0 -18 -21q4 -70 30.5 -149.5t77.5 -148t125 -113.5t170 -45q100 0 176 19t160 62q33 14 47 -12l41 -80q8 -18 1 -30.5t-20 -20.5q-98 -59 -194 -89t-219 -30q-109 0 -202 34t-153 114 q-14 20 -26 19t0 -34q12 -35 23.5 -57t11.5 -41q0 -10 -7.5 -16t-13.5 -11q-23 -8 -71 -8q-39 0 -64 11.5t-40 29t-23.5 39t-14.5 43.5q-6 18 -9 21.5t-19 -13.5q-61 -59 -140.5 -95t-183.5 -36q-129 0 -238.5 53.5t-189.5 143.5t-125 211t-45 254zM326 631q0 -84 24.5 -169 t70.5 -153.5t111.5 -111.5t147.5 -43q106 0 180 50t113 122q8 12 10 21t-2 26q-10 66 -13 137.5t-2 140t7 132t12 112.5q6 29 -2 49q-43 66 -116.5 115t-186.5 49q-86 0 -152.5 -43t-111.5 -111.5t-67.5 -153.5t-22.5 -169zM1247 829q-6 -18 15 -18h571q18 0 14 20 q-14 49 -36.5 99.5t-58.5 89.5t-85 63.5t-117 24.5t-120 -25.5t-89.5 -66.5t-61.5 -90t-32 -97z" />
<glyph unicode="&#xc7;" horiz-adv-x="1286" d="M82 631q0 133 50 253t138 211t206 144t251 53q137 0 258 -50t193 -128q20 -23 6 -37l-133 -131q-12 -10 -21.5 -9t-19.5 17q-14 33 -39 60.5t-72 54.5q-29 16 -77 27.5t-95 11.5q-72 0 -143.5 -34t-129 -97.5t-92 -151.5t-34.5 -194q0 -102 30.5 -190.5t90 -153 t144.5 -101t193 -36.5q106 0 192.5 23.5t170.5 76.5q20 14 31 -8l61 -107q10 -23 -10 -33q-96 -66 -209 -100.5t-266 -32.5h-2l-13 -39q-4 -10 -1 -12t12 -6q35 -12 67.5 -49t32.5 -96q0 -76 -53.5 -122t-169.5 -55q-20 0 -21 15v65q0 14 15 15q47 2 75.5 22.5t28.5 61.5 q0 27 -22.5 49t-65.5 18q-14 -2 -20.5 7.5t-0.5 21.5l46 110q-125 14 -230.5 68.5t-183.5 140.5t-123 200t-45 247z" />
<glyph unicode="&#xc8;" horiz-adv-x="1359" d="M82 647q0 133 46 251t128 205t192.5 138t237.5 51t235.5 -51t187.5 -137t124 -202t45 -245q0 -31 -29 -30h-899q-18 0 -18 -21q0 -86 25.5 -168t78.5 -146.5t134 -103t192 -38.5q100 0 185 19t171 62q33 14 47 -12l41 -80q8 -18 1 -30.5t-19 -20.5q-98 -59 -202.5 -89 t-250.5 -30q-141 0 -260 48.5t-207 136.5t-137 214t-49 279zM359 1440q-3 8 1.5 17t10.5 16l121 106q41 35 79 14l353 -170q12 -6 15 -15t2 -17.5t-7 -13.5t-12 -3q-29 4 -76 9.5t-96.5 11.5t-93.5 10t-66 8q-63 8 -105.5 10t-83.5 -2q-18 -2 -28.5 4.5t-13.5 14.5zM362 829 q-6 -18 15 -18h618q19 0 15 20q-14 49 -42 99.5t-68 89.5t-93 63.5t-121 24.5t-121 -24.5t-93 -63.5t-67.5 -89t-42.5 -102z" />
<glyph unicode="&#xc9;" horiz-adv-x="1359" d="M82 647q0 133 46 251t128 205t192.5 138t237.5 51t235.5 -51t187.5 -137t124 -202t45 -245q0 -31 -29 -30h-899q-18 0 -18 -21q0 -86 25.5 -168t78.5 -146.5t134 -103t192 -38.5q100 0 185 19t171 62q33 14 47 -12l41 -80q8 -18 1 -30.5t-19 -20.5q-98 -59 -202.5 -89 t-250.5 -30q-141 0 -260 48.5t-207 136.5t-137 214t-49 279zM362 829q-6 -18 15 -18h618q19 0 15 20q-14 49 -42 99.5t-68 89.5t-93 63.5t-121 24.5t-121 -24.5t-93 -63.5t-67.5 -89t-42.5 -102zM447.5 1391.5q-7.5 19.5 17.5 31.5l354 172q16 10 38 5t40 -21l121 -106 q6 -6 10 -15.5t1 -17.5t-13 -14.5t-29 -4.5q-41 4 -83 3t-105 -11q-23 -4 -67 -8t-93 -10t-96 -11.5t-76 -9.5q-12 -2 -19.5 17.5z" />
<glyph unicode="&#xca;" horiz-adv-x="1359" d="M82 647q0 133 46 251t128 205t192.5 138t237.5 51t235.5 -51t187.5 -137t124 -202t45 -245q0 -31 -29 -30h-899q-18 0 -18 -21q0 -86 25.5 -168t78.5 -146.5t134 -103t192 -38.5q100 0 185 19t171 62q33 14 47 -12l41 -80q8 -18 1 -30.5t-19 -20.5q-98 -59 -202.5 -89 t-250.5 -30q-141 0 -260 48.5t-207 136.5t-137 214t-49 279zM362 829q-6 -18 15 -18h618q19 0 15 20q-14 49 -42 99.5t-68 89.5t-93 63.5t-121 24.5t-121 -24.5t-93 -63.5t-67.5 -89t-42.5 -102zM379 1390.5q-8 18.5 14 34.5l260 199q18 12 37 12q18 0 37 -12l260 -199 q23 -16 14.5 -34.5t-22.5 -14.5q-29 2 -62.5 13.5t-65.5 23.5t-62.5 22.5t-53.5 14.5q-12 2 -20 3t-25 1q-16 0 -24.5 -1t-20.5 -3q-23 -4 -53.5 -14.5t-62 -22.5t-65.5 -23.5t-63 -13.5q-14 -4 -22 14.5z" />
<glyph unicode="&#xcb;" horiz-adv-x="1359" d="M82 647q0 133 46 251t128 205t192.5 138t237.5 51t235.5 -51t187.5 -137t124 -202t45 -245q0 -31 -29 -30h-899q-18 0 -18 -21q0 -86 25.5 -168t78.5 -146.5t134 -103t192 -38.5q100 0 185 19t171 62q33 14 47 -12l41 -80q8 -18 1 -30.5t-19 -20.5q-98 -59 -202.5 -89 t-250.5 -30q-141 0 -260 48.5t-207 136.5t-137 214t-49 279zM362 829q-6 -18 15 -18h618q19 0 15 20q-14 49 -42 99.5t-68 89.5t-93 63.5t-121 24.5t-121 -24.5t-93 -63.5t-67.5 -89t-42.5 -102zM389 1487q0 47 33 79.5t80 32.5t80.5 -32.5t33.5 -79.5t-33.5 -80t-80.5 -33 t-80 33t-33 80zM762 1487q0 47 32.5 79.5t79.5 32.5t81 -32.5t34 -79.5t-33.5 -80t-81.5 -33q-47 0 -79.5 33t-32.5 80z" />
<glyph unicode="&#xcc;" horiz-adv-x="536" d="M-52 1440q-3 8 1 17t10 16l123 106q16 14 37.5 19.5t40.5 -5.5l352 -170q12 -6 16 -15t2 -17.5t-8 -13.5t-12 -3q-29 4 -76 9.5t-96 11.5t-93 10t-67 8q-63 8 -104 10t-84 -2q-18 -2 -28.5 4.5t-13.5 14.5zM123 1223q0 23 9 31t32 10q39 4 94 4t94 -4q16 -2 26.5 -11.5 t10.5 -25.5l4 -1207q0 -20 -20 -20h-193q-20 0 -20 20l4 977q0 45 -6 79t-14.5 59.5t-14.5 46t-6 41.5z" />
<glyph unicode="&#xcd;" horiz-adv-x="536" d="M-4 1392.5q-6 20.5 18 30.5l353 172q18 10 39.5 5t37.5 -21l123 -106q6 -6 10.5 -15.5t1 -17.5t-13.5 -14.5t-28 -4.5q-43 4 -84 3t-105 -11q-23 -4 -66.5 -8t-93 -10t-96.5 -11.5t-76 -9.5q-14 -2 -20 18.5zM123 1223q0 23 9 31t32 10q39 4 94 4t94 -4q16 -2 26.5 -11.5 t10.5 -25.5l4 -1207q0 -20 -20 -20h-193q-20 0 -20 20l4 977q0 45 -6 79t-14.5 59.5t-14.5 46t-6 41.5z" />
<glyph unicode="&#xce;" horiz-adv-x="536" d="M-53 1389.5q-8 17.5 14 33.5l260 199q18 14 37 14q14 0 37 -14l260 -199q23 -16 14.5 -33.5t-22.5 -15.5q-29 4 -62.5 14.5t-65.5 22.5t-62.5 22.5t-53.5 14.5q-12 2 -20.5 4t-24.5 2t-24.5 -2t-20.5 -4q-23 -4 -53.5 -14.5t-62 -22.5t-65.5 -22.5t-63 -14.5 q-14 -2 -22 15.5zM123 1223q0 23 9 31t32 10q39 4 94 4t94 -4q16 -2 26.5 -11.5t10.5 -25.5l4 -1207q0 -20 -20 -20h-193q-20 0 -20 20l4 977q0 45 -6 79t-14.5 59.5t-14.5 46t-6 41.5z" />
<glyph unicode="&#xcf;" horiz-adv-x="536" d="M-45 1489q0 47 32.5 80t80.5 33q47 0 80.5 -33t33.5 -80t-33.5 -80t-80.5 -33t-80 33t-33 80zM123 1223q0 23 9 31t32 10q39 4 94 4t94 -4q16 -2 26.5 -11.5t10.5 -25.5l4 -1207q0 -20 -20 -20h-193q-20 0 -20 20l4 977q0 45 -6 79t-14.5 59.5t-14.5 46t-6 41.5z M328 1489q0 47 32.5 80t79.5 33t81 -33t34 -80t-34 -80t-81 -33t-79.5 33t-32.5 80z" />
<glyph unicode="&#xd0;" horiz-adv-x="1445" d="M82 614q0 125 47 240t130 204t198.5 141t253.5 50q10 2 12 9.5t-8 13.5q-51 41 -111 76q-16 16 -41 2l-47 -25q-47 -23 -97 -45.5t-91 -44.5q-37 -20 -70 14q-4 6 -13 15.5t-19.5 18.5t-18.5 17.5t-10 12.5q-4 10 -3 20t17 17q45 14 91 29.5t93 39.5l13 6q14 4 12 10.5 t-8 8.5q-18 4 -37 12t-35 12q-63 14 -106.5 9.5t-79.5 -0.5q-4 0 -10.5 2t-12.5 4q-23 6 -10 45q6 16 14 38.5t17.5 47t18.5 47t17 41.5q4 8 15.5 14t21.5 4q111 -23 216.5 -61.5t203.5 -91.5q8 -4 18.5 -8.5t30.5 6.5l146 75q33 16 64.5 22.5t60.5 -7.5q23 -10 40 -18.5 t29 -37.5q10 -18 -10 -28l-188 -90q-16 -8 -14.5 -17.5t7.5 -13.5q106 -76 197.5 -166t165.5 -192q33 -45 63.5 -99.5t55 -116t39 -127t14.5 -135.5q0 -133 -49 -250.5t-135 -205.5t-203 -138.5t-250 -50.5t-251 50.5t-206 138.5t-138 205.5t-50 250.5zM328 614 q0 -84 27.5 -166.5t79.5 -148.5t125 -105.5t163 -39.5q94 0 168 39.5t124 105.5t76.5 148.5t26.5 166.5q0 82 -25.5 164t-75.5 146.5t-124 104.5t-170 40q-94 0 -168 -40t-124 -104.5t-76.5 -146.5t-26.5 -164z" />
<glyph unicode="&#xd1;" horiz-adv-x="1462" d="M113 1231q0 31 30 31q18 0 44 1t53.5 1t54.5 -1t45 -1q41 0 41 -41v-47q-2 -23 3 -26t28 15q68 59 163 94t195 35q113 0 217.5 -44t185 -128t129 -203.5t48.5 -269.5v-616q0 -31 -25 -31h-174q-31 0 -31 31q0 14 1 39.5t2 55.5t1 61.5v58.5v381q0 117 -30.5 206t-83 150 t-122 93t-149.5 32q-61 0 -125.5 -22.5t-117 -59.5t-85 -84t-32.5 -96v-602q0 -61 1 -125t3 -99q0 -20 -21 -20h-202q-16 0 -19.5 6t-1.5 14q2 14 4 44t4.5 63t4.5 64.5t2 52.5v729q0 49 -6.5 83t-14.5 61.5t-14 53t-6 60.5zM340 1403q6 35 19.5 70.5t36 64.5t56 47.5 t76.5 18.5q47 0 98.5 -15.5t98.5 -34.5q23 -10 45.5 -18t44.5 -16q41 -14 76 -15q74 0 90 72q6 25 29 25h47q22 0 20 -25q-4 -37 -17 -74t-37 -65.5t-58.5 -47t-81.5 -18.5t-95.5 15.5t-95.5 33.5q-23 10 -45 18.5t-45 16.5q-23 6 -42 10t-36 4q-66 0 -86 -69 q-4 -12 -9 -19.5t-21 -7.5h-46q-27 0 -22 29z" />
<glyph unicode="&#xd2;" horiz-adv-x="1454" d="M82 631q0 141 50 263t138 210t206 138t251 50t251 -50t205 -138t138 -209t51 -264t-51 -264t-138 -209t-205 -138.5t-251 -50.5t-251 50.5t-206 138.5t-138 208.5t-50 264.5zM328 631q0 -94 28.5 -180t80.5 -153t126 -105.5t164 -38.5q94 0 169 38.5t126 105.5t77.5 153 t26.5 180t-26.5 180t-76.5 151.5t-125 105.5t-171 40q-94 0 -169 -40t-126 -105.5t-77.5 -152.5t-26.5 -179zM384 1444q-3 8 1 17t10 16l123 106q37 35 78 14l352 -170q25 -12 19 -31.5t-21 -17.5q-29 4 -76 9.5t-96 11.5t-93 10t-67 8q-63 8 -104 10.5t-84 -2.5 q-18 -2 -28.5 4.5t-13.5 14.5z" />
<glyph unicode="&#xd3;" horiz-adv-x="1454" d="M82 631q0 141 50 263t138 210t206 138t251 50t251 -50t205 -138t138 -209t51 -264t-51 -264t-138 -209t-205 -138.5t-251 -50.5t-251 50.5t-206 138.5t-138 208.5t-50 264.5zM328 631q0 -94 28.5 -180t80.5 -153t126 -105.5t164 -38.5q94 0 169 38.5t126 105.5t77.5 153 t26.5 180t-26.5 180t-76.5 151.5t-125 105.5t-171 40q-94 0 -169 -40t-126 -105.5t-77.5 -152.5t-26.5 -179zM489.5 1392.5q-6.5 20.5 18.5 30.5l352 172q18 10 40 5t38 -21l123 -106q6 -6 10 -15.5t1 -17.5t-13 -14.5t-29 -4.5q-43 4 -84 3t-104 -11q-23 -4 -67 -8t-93 -10 t-96 -11.5t-76 -9.5q-14 -2 -20.5 18.5z" />
<glyph unicode="&#xd4;" horiz-adv-x="1454" d="M82 631q0 141 50 263t138 210t206 138t251 50t251 -50t205 -138t138 -209t51 -264t-51 -264t-138 -209t-205 -138.5t-251 -50.5t-251 50.5t-206 138.5t-138 208.5t-50 264.5zM328 631q0 -94 28.5 -180t80.5 -153t126 -105.5t164 -38.5q94 0 169 38.5t126 105.5t77.5 153 t26.5 180t-26.5 180t-76.5 151.5t-125 105.5t-171 40q-94 0 -169 -40t-126 -105.5t-77.5 -152.5t-26.5 -179zM416 1387.5q-8 17.5 14 33.5l260 199q8 8 18.5 11t18.5 3q6 0 16.5 -3t20.5 -11l260 -199q23 -16 13.5 -33.5t-21.5 -15.5q-29 4 -62.5 14.5t-65.5 22.5 t-62.5 22.5t-53.5 14.5q-12 2 -20.5 4t-24.5 2t-25.5 -2t-19.5 -4q-23 -4 -53.5 -14.5t-62 -22.5t-65.5 -22.5t-63 -14.5q-14 -2 -22 15.5z" />
<glyph unicode="&#xd5;" horiz-adv-x="1454" d="M82 631q0 141 50 263t138 210t206 138t251 50t251 -50t205 -138t138 -209t51 -264t-51 -264t-138 -209t-205 -138.5t-251 -50.5t-251 50.5t-206 138.5t-138 208.5t-50 264.5zM328 631q0 -94 28.5 -180t80.5 -153t126 -105.5t164 -38.5q94 0 169 38.5t126 105.5t77.5 153 t26.5 180t-26.5 180t-76.5 151.5t-125 105.5t-171 40q-94 0 -169 -40t-126 -105.5t-77.5 -152.5t-26.5 -179zM352 1405q6 35 19.5 69.5t36 63.5t56.5 47.5t77 18.5q47 0 98 -14.5t98 -35.5q23 -10 45.5 -18t44.5 -16q23 -6 41.5 -10.5t34.5 -4.5q74 0 90 72q4 16 9.5 20.5 t19.5 4.5h47q23 0 21 -23q-4 -37 -17.5 -74t-37 -66.5t-58.5 -47t-82 -17.5t-95 14.5t-95 32.5q-23 10 -45.5 18.5t-45.5 16.5q-23 6 -42 10t-35 4q-66 0 -86 -67q-4 -14 -9.5 -21.5t-21.5 -7.5h-45q-27 0 -23 31z" />
<glyph unicode="&#xd6;" horiz-adv-x="1454" d="M82 631q0 141 50 263t138 210t206 138t251 50t251 -50t205 -138t138 -209t51 -264t-51 -264t-138 -209t-205 -138.5t-251 -50.5t-251 50.5t-206 138.5t-138 208.5t-50 264.5zM328 631q0 -94 28.5 -180t80.5 -153t126 -105.5t164 -38.5q94 0 169 38.5t126 105.5t77.5 153 t26.5 180t-26.5 180t-76.5 151.5t-125 105.5t-171 40q-94 0 -169 -40t-126 -105.5t-77.5 -152.5t-26.5 -179zM430 1489q0 47 33 80t80 33t79.5 -33t32.5 -80t-32.5 -81t-79.5 -34t-80 34t-33 81zM803 1489q0 47 32.5 80t79.5 33t80 -33t33 -80t-32.5 -81t-80.5 -34 q-47 0 -79.5 34t-32.5 81z" />
<glyph unicode="&#xd7;" horiz-adv-x="1138" d="M154 289.5q2 9.5 12 21.5l268 264q16 16 -2 35l-268 267q-23 16 0 41q16 16 41.5 40.5t42.5 40.5q27 23 37 5q25 -27 60.5 -64t73.5 -75l74.5 -74.5l61.5 -61.5q4 -4 11 -8t18 6l268 272q8 8 18.5 10.5t22.5 -8.5q18 -16 45 -44t43 -46q6 -8 4 -18t-10 -19l-266 -264 q-10 -10 -9.5 -19t9.5 -16l266 -266q10 -10 8 -22.5t-10 -22.5q-16 -16 -40 -39.5t-34 -36.5q-10 -10 -24.5 -11t-24.5 9q-27 27 -62.5 63t-71.5 72.5t-70 71.5t-58 60q-16 16 -33 0l-264 -267q-10 -10 -22.5 -10t-22.5 8q-16 16 -42 41t-42 43q-10 12 -8 21.5z" />
<glyph unicode="&#xd8;" horiz-adv-x="1454" d="M82 631q0 143 50 264t138 209t206 138t251 50q113 0 215 -37q4 -2 11.5 -2t11.5 11q10 27 17 44t13 38q8 29 16.5 39t18.5 10q23 -4 49.5 -17.5t40.5 -21.5q18 -12 4 -41q-14 -27 -24 -47.5t-27 -53.5q-6 -12 -2 -18t8 -8q66 -43 120 -103.5t92 -133t59.5 -154.5 t21.5 -166q0 -143 -51 -264t-138 -209t-205 -138.5t-251 -50.5q-104 0 -197 31q-4 2 -13 2t-15 -12l-6 -13q-18 -37 -29.5 -76.5t-13.5 -50.5q-4 -16 -14.5 -27t-20.5 -7q-23 6 -48.5 17t-41.5 24q-8 2 -11.5 10t5.5 22q20 35 34.5 61.5t30.5 61.5l12 27q6 12 1 16t-9 8 q-141 86 -225 232.5t-84 335.5zM328 631q0 -51 10 -103.5t30.5 -102.5t48 -95t64.5 -78q4 -4 11.5 -5t13.5 9q94 195 185 408t177 395q6 12 2 17t-8 7q-61 25 -135 25q-94 0 -169 -40t-126 -105.5t-77.5 -151.5t-26.5 -180zM601 179.5q7 -5.5 11 -7.5q51 -18 115 -18 q94 0 169 39.5t126 105.5t77.5 153t26.5 179q0 49 -9 100t-26.5 100.5t-44 93.5t-59.5 76q-4 4 -8 5.5t-12 -11.5q-92 -193 -183.5 -400.5t-181.5 -393.5q-8 -16 -1 -21.5z" />
<glyph unicode="&#xd9;" horiz-adv-x="1462" d="M113 614v617q0 31 24 31q18 0 42 1t48.5 1t46 -1t37.5 -1q31 0 31 -31q0 -14 -1 -40t-2 -55.5t-1 -61.5v-58v-381q0 -117 30.5 -206t83 -150.5t122 -93t149.5 -31.5q61 0 124.5 22.5t116 59t86 84t33.5 96.5v602q0 61 -1 124.5t-3 98.5q0 20 21 21q39 2 101.5 2t101.5 -2 q16 0 19 -6.5t1 -14.5q-2 -16 -4 -45t-4 -61.5t-4 -64.5t-2 -52v-729q0 -49 6 -83t14 -61.5t14.5 -54t6.5 -59.5q0 -31 -31 -31h-197q-41 0 -41 41v47q2 23 -6 22t-24 -18q-55 -51 -151.5 -87t-207.5 -36q-113 0 -217 44t-185 128t-129 203t-48 270zM378 1440q-3 8 1 17 t10 16l123 106q37 35 78 14l352 -170q25 -12 18.5 -31.5t-20.5 -17.5q-29 4 -76 9.5t-96 11.5t-93 10t-67 8q-63 8 -104 10t-84 -2q-18 -2 -28.5 4.5t-13.5 14.5z" />
<glyph unicode="&#xda;" horiz-adv-x="1462" d="M113 614v617q0 31 24 31q18 0 42 1t48.5 1t46 -1t37.5 -1q31 0 31 -31q0 -14 -1 -40t-2 -55.5t-1 -61.5v-58v-381q0 -117 30.5 -206t83 -150.5t122 -93t149.5 -31.5q61 0 124.5 22.5t116 59t86 84t33.5 96.5v602q0 61 -1 124.5t-3 98.5q0 20 21 21q39 2 101.5 2t101.5 -2 q16 0 19 -6.5t1 -14.5q-2 -16 -4 -45t-4 -61.5t-4 -64.5t-2 -52v-729q0 -49 6 -83t14 -61.5t14.5 -54t6.5 -59.5q0 -31 -31 -31h-197q-41 0 -41 41v47q2 23 -6 22t-24 -18q-55 -51 -151.5 -87t-207.5 -36q-113 0 -217 44t-185 128t-129 203t-48 270zM442.5 1389.5 q-6.5 19.5 18.5 31.5l352 170q41 20 78 -14l123 -107q6 -6 10 -15t1 -17t-13.5 -14.5t-28.5 -4.5q-43 4 -84 2t-104 -10q-23 -4 -67 -8t-93 -10.5t-96 -11.5t-76 -9q-14 -2 -20.5 17.5z" />
<glyph unicode="&#xdb;" horiz-adv-x="1462" d="M113 614v617q0 31 24 31q18 0 42 1t48.5 1t46 -1t37.5 -1q31 0 31 -31q0 -14 -1 -40t-2 -55.5t-1 -61.5v-58v-381q0 -117 30.5 -206t83 -150.5t122 -93t149.5 -31.5q61 0 124.5 22.5t116 59t86 84t33.5 96.5v602q0 61 -1 124.5t-3 98.5q0 20 21 21q39 2 101.5 2t101.5 -2 q16 0 19 -6.5t1 -14.5q-2 -16 -4 -45t-4 -61.5t-4 -64.5t-2 -52v-729q0 -49 6 -83t14 -61.5t14.5 -54t6.5 -59.5q0 -31 -31 -31h-197q-41 0 -41 41v47q2 23 -6 22t-24 -18q-55 -51 -151.5 -87t-207.5 -36q-113 0 -217 44t-185 128t-129 203t-48 270zM385.5 1387.5 q-8.5 17.5 13.5 33.5l260 199q16 14 37 14q20 0 37 -14l260 -199q23 -16 14.5 -33.5t-22.5 -15.5q-29 4 -62.5 14.5t-65.5 22.5t-62.5 22.5t-53.5 14.5q-12 2 -20 4t-25 2q-16 0 -24 -2t-21 -4q-23 -4 -53.5 -14.5t-62 -22.5t-65.5 -22.5t-62 -14.5q-14 -2 -22.5 15.5z" />
<glyph unicode="&#xdc;" horiz-adv-x="1462" d="M113 614v617q0 31 24 31q18 0 42 1t48.5 1t46 -1t37.5 -1q31 0 31 -31q0 -14 -1 -40t-2 -55.5t-1 -61.5v-58v-381q0 -117 30.5 -206t83 -150.5t122 -93t149.5 -31.5q61 0 124.5 22.5t116 59t86 84t33.5 96.5v602q0 61 -1 124.5t-3 98.5q0 20 21 21q39 2 101.5 2t101.5 -2 q16 0 19 -6.5t1 -14.5q-2 -16 -4 -45t-4 -61.5t-4 -64.5t-2 -52v-729q0 -49 6 -83t14 -61.5t14.5 -54t6.5 -59.5q0 -31 -31 -31h-197q-41 0 -41 41v47q2 23 -6 22t-24 -18q-55 -51 -151.5 -87t-207.5 -36q-113 0 -217 44t-185 128t-129 203t-48 270zM399 1489q0 47 33 80 t80 33t80 -33t33 -80t-33 -80t-80 -33t-80 33t-33 80zM772 1489q0 47 33 80t80 33t79.5 -33t32.5 -80t-32.5 -80t-79.5 -33t-80 33t-33 80z" />
<glyph unicode="&#xdd;" horiz-adv-x="1462" d="M113 614v617q0 31 24 31h174q31 0 31 -31q0 -14 -1 -40t-2 -55.5t-1 -61.5v-58v-381q0 -117 30.5 -206t83 -150.5t122 -93t149.5 -31.5q61 0 124.5 22.5t116 59t86 84t33.5 96.5v602q0 61 -1 124.5t-3 98.5q0 20 21 21h203q16 0 19 -6.5t1 -14.5q-2 -16 -4 -45t-4 -61.5 t-4 -64.5t-2 -52l2 -1071q0 -43 4 -68.5t10 -44t10 -35t4 -41.5q0 -23 -7 -28.5t-19 -16.5q-18 -16 -45 -37.5t-54.5 -44t-53 -46t-44.5 -42.5q-16 -18 -32.5 -6t-14.5 35q2 51 4 119.5t4 140.5t3 139.5t1 116.5q0 29 -30 4q-70 -59 -164 -91t-195 -32q-113 0 -217 44 t-185 128t-129 203t-48 270zM451.5 1390.5q-7.5 20.5 17.5 30.5l352 172q18 10 40 5t40 -19l121 -109q6 -6 10 -15t1 -17t-13 -14.5t-29 -4.5q-41 4 -83 3t-105 -11q-23 -4 -67 -8t-93 -10.5t-96 -11.5t-76 -9q-12 -2 -19.5 18.5z" />
<glyph unicode="&#xde;" horiz-adv-x="1488" d="M113 1608q0 31 30 30q18 0 45 1t54.5 1t53.5 -1t44 -1q45 0 43 -41q0 -18 -1 -72.5t-1 -120v-128v-92.5q0 -12 7 -18.5t20 -0.5q76 57 169 88t197 31q139 0 256 -49t201 -137t130 -207t46 -260q0 -158 -52 -280t-136 -205t-188.5 -127t-211.5 -44q-35 0 -81 8.5t-74 20.5 q-47 18 -84 59q-16 18 -26.5 44t-12.5 51q-2 20 6 36.5t24 6.5q35 -18 92.5 -32.5t100.5 -14.5q76 0 147.5 31.5t127 91t89 147.5t33.5 201q0 96 -29.5 182t-82 150.5t-124 101.5t-155.5 37q-90 0 -161.5 -29t-123 -80t-78 -120.5t-26.5 -149.5v-148t1 -166t2 -174t1 -170 q2 -193 6 -393q0 -23 -7 -34t-30 -11l-170 4q-41 0 -41 45q0 12 1 52t3 96q4 123 6.5 309t2.5 428q0 211 -1 411.5t-1 383.5q0 37 -6.5 73.5t-14.5 71.5t-14 64.5t-6 48.5z" />
<glyph unicode="&#xdf;" horiz-adv-x="1099" d="M102 39q2 37 9.5 65.5t9.5 85.5q2 84 3 204t1 248t-1 250t-1 208q0 76 19.5 140.5t63.5 112.5t113.5 74.5t167.5 26.5q88 0 169 -23.5t140.5 -68.5t95.5 -111.5t36 -152.5q0 -90 -38 -163t-85 -99q-14 -8 -14 -21q0 -10 16 -14q104 -51 162.5 -151.5t58.5 -217.5 q0 -80 -30.5 -157.5t-90 -138t-144.5 -98.5t-192 -38h-112q-41 0 -41 27v131q0 12 9 21t26 7l41 -2q152 -8 227.5 62.5t75.5 185.5q0 125 -83 196.5t-235 71.5h-28q-20 0 -26.5 6.5t-6.5 22.5v119q0 35 37 35q121 0 183 51t62 162q0 68 -48 122t-165 54q-80 0 -115.5 -50.5 t-37.5 -140.5v-32.5t-1 -47t-1 -45v-28.5q-6 -332 0 -660q2 -72 3 -125t1 -106q0 -35 -29 -37h-172q-20 0 -26.5 11.5t-6.5 27.5z" />
<glyph unicode="&#xe0;" horiz-adv-x="1298" d="M72 539q0 117 43 220t116.5 181t173 123t211.5 45q111 0 187 -37t131 -80q16 -12 26.5 -12t24.5 16q16 18 23.5 26.5t17.5 18.5q14 14 32.5 25.5t33.5 15.5q20 4 38.5 3t28.5 -5q35 -12 27 -43q-25 -59 -41.5 -116.5t-26.5 -110.5q-10 -59 -14 -125t-4 -132.5t6 -129 t18 -113.5q20 -90 56.5 -154.5t89.5 -103.5q16 -10 17 -23.5t-9 -23.5q-8 -10 -18 -16q-10 -8 -36 -13.5t-48 -5.5q-35 0 -62 5.5t-49.5 18.5t-44 37.5t-47.5 65.5q-6 10 -10.5 12.5t-14.5 -6.5q-53 -51 -134 -92t-198 -41q-113 0 -212 45t-172.5 122t-116.5 181.5 t-43 221.5zM288 1257.5q-3 8.5 1 17.5t10 15l123 107q37 33 78 16l352 -172q25 -12 18.5 -31.5t-20.5 -17.5q-29 4 -76 9t-96 11.5t-93 10.5t-67 8q-63 8 -104 10t-84 -2q-18 -2 -28.5 4t-13.5 14.5zM305 539q0 -72 22.5 -141.5t63.5 -125t98.5 -90.5t126.5 -35q94 0 166 41 t113 103q6 10 7 15.5t-1 17.5q-18 117 -17 232.5t13 201.5q2 20 -4 37q-37 53 -110.5 94t-166.5 41q-74 0 -131 -35t-97 -90t-61.5 -125t-21.5 -141z" />
<glyph unicode="&#xe1;" horiz-adv-x="1298" d="M72 539q0 117 43 220t116.5 181t173 123t211.5 45q111 0 187 -37t131 -80q16 -12 26.5 -12t24.5 16q16 18 23.5 26.5t17.5 18.5q14 14 32.5 25.5t33.5 15.5q20 4 38.5 3t28.5 -5q35 -12 27 -43q-25 -59 -41.5 -116.5t-26.5 -110.5q-10 -59 -14 -125t-4 -132.5t6 -129 t18 -113.5q20 -90 56.5 -154.5t89.5 -103.5q16 -10 17 -23.5t-9 -23.5q-8 -10 -18 -16q-10 -8 -36 -13.5t-48 -5.5q-35 0 -62 5.5t-49.5 18.5t-44 37.5t-47.5 65.5q-6 10 -10.5 12.5t-14.5 -6.5q-53 -51 -134 -92t-198 -41q-113 0 -212 45t-172.5 122t-116.5 181.5 t-43 221.5zM305 539q0 -72 22.5 -141.5t63.5 -125t98.5 -90.5t126.5 -35q94 0 166 41t113 103q6 10 7 15.5t-1 17.5q-18 117 -17 232.5t13 201.5q2 20 -4 37q-37 53 -110.5 94t-166.5 41q-74 0 -131 -35t-97 -90t-61.5 -125t-21.5 -141zM379 1209.5q-6 19.5 18 31.5l353 172 q41 16 77 -16l123 -107q6 -6 10.5 -15t1 -17.5t-13.5 -14.5t-28 -4q-43 4 -84 2t-105 -10q-23 -4 -66.5 -8t-93 -10.5t-96.5 -11.5t-76 -9q-14 -2 -20 17.5z" />
<glyph unicode="&#xe2;" horiz-adv-x="1298" d="M72 539q0 117 43 220t116.5 181t173 123t211.5 45q111 0 187 -37t131 -80q16 -12 26.5 -12t24.5 16q16 18 23.5 26.5t17.5 18.5q14 14 32.5 25.5t33.5 15.5q20 4 38.5 3t28.5 -5q35 -12 27 -43q-25 -59 -41.5 -116.5t-26.5 -110.5q-10 -59 -14 -125t-4 -132.5t6 -129 t18 -113.5q20 -90 56.5 -154.5t89.5 -103.5q16 -10 17 -23.5t-9 -23.5q-8 -10 -18 -16q-10 -8 -36 -13.5t-48 -5.5q-35 0 -62 5.5t-49.5 18.5t-44 37.5t-47.5 65.5q-6 10 -10.5 12.5t-14.5 -6.5q-53 -51 -134 -92t-198 -41q-113 0 -212 45t-172.5 122t-116.5 181.5 t-43 221.5zM305 539q0 -72 22.5 -141.5t63.5 -125t98.5 -90.5t126.5 -35q94 0 166 41t113 103q6 10 7 15.5t-1 17.5q-18 117 -17 232.5t13 201.5q2 20 -4 37q-37 53 -110.5 94t-166.5 41q-74 0 -131 -35t-97 -90t-61.5 -125t-21.5 -141zM307.5 1207.5q-8.5 17.5 14.5 33.5 l260 199q18 14 36 14q14 0 37 -14l260 -199q23 -16 15 -33.5t-23 -15.5q-29 4 -62.5 14.5t-65 22.5t-62.5 22.5t-53 14.5q-12 2 -20.5 4t-25.5 2q-16 0 -24 -2t-21 -4q-23 -4 -53.5 -14.5t-62 -22.5t-65.5 -22.5t-62 -14.5q-14 -2 -22.5 15.5z" />
<glyph unicode="&#xe3;" horiz-adv-x="1298" d="M72 539q0 117 43 220t116.5 181t173 123t211.5 45q111 0 187 -37t131 -80q16 -12 26.5 -12t24.5 16q16 18 23.5 26.5t17.5 18.5q14 14 32.5 25.5t33.5 15.5q20 4 38.5 3t28.5 -5q35 -12 27 -43q-25 -59 -41.5 -116.5t-26.5 -110.5q-10 -59 -14 -125t-4 -132.5t6 -129 t18 -113.5q20 -90 56.5 -154.5t89.5 -103.5q16 -10 17 -23.5t-9 -23.5q-8 -10 -18 -16q-10 -8 -36 -13.5t-48 -5.5q-35 0 -62 5.5t-49.5 18.5t-44 37.5t-47.5 65.5q-6 10 -10.5 12.5t-14.5 -6.5q-53 -51 -134 -92t-198 -41q-113 0 -212 45t-172.5 122t-116.5 181.5 t-43 221.5zM254 1221q6 35 19.5 69.5t36 63t56 47t76.5 18.5q47 0 97.5 -14t97.5 -33q49 -23 90 -35q45 -16 76 -16q39 0 60.5 16.5t31.5 57.5q4 14 8 19t21 5h47q22 1 20 -24q-4 -37 -17 -74t-37 -66.5t-58.5 -47t-81.5 -17.5t-96.5 14.5t-96.5 32.5q-49 23 -90 35 q-45 16 -76 16q-63 0 -88 -69q-4 -12 -8 -19.5t-20 -7.5h-48q-27 0 -20 29zM305 539q0 -72 22.5 -141.5t63.5 -125t98.5 -90.5t126.5 -35q94 0 166 41t113 103q6 10 7 15.5t-1 17.5q-18 117 -17 232.5t13 201.5q2 20 -4 37q-37 53 -110.5 94t-166.5 41q-74 0 -131 -35 t-97 -90t-61.5 -125t-21.5 -141z" />
<glyph unicode="&#xe4;" horiz-adv-x="1298" d="M72 539q0 117 43 220t116.5 181t173 123t211.5 45q111 0 187 -37t131 -80q16 -12 26.5 -12t24.5 16q16 18 23.5 26.5t17.5 18.5q14 14 32.5 25.5t33.5 15.5q20 4 38.5 3t28.5 -5q35 -12 27 -43q-25 -59 -41.5 -116.5t-26.5 -110.5q-10 -59 -14 -125t-4 -132.5t6 -129 t18 -113.5q20 -90 56.5 -154.5t89.5 -103.5q16 -10 17 -23.5t-9 -23.5q-8 -10 -18 -16q-10 -8 -36 -13.5t-48 -5.5q-35 0 -62 5.5t-49.5 18.5t-44 37.5t-47.5 65.5q-6 10 -10.5 12.5t-14.5 -6.5q-53 -51 -134 -92t-198 -41q-113 0 -212 45t-172.5 122t-116.5 181.5 t-43 221.5zM305 539q0 -72 22.5 -141.5t63.5 -125t98.5 -90.5t126.5 -35q94 0 166 41t113 103q6 10 7 15.5t-1 17.5q-18 117 -17 232.5t13 201.5q2 20 -4 37q-37 53 -110.5 94t-166.5 41q-74 0 -131 -35t-97 -90t-61.5 -125t-21.5 -141zM319 1305q0 47 34 80.5t81 33.5 t80 -33.5t33 -80.5t-33 -80t-80 -33t-81 32.5t-34 80.5zM692 1305q0 47 34 80.5t81 33.5t80 -33.5t33 -80.5t-33 -80t-80 -33t-81 32.5t-34 80.5z" />
<glyph unicode="&#xe5;" horiz-adv-x="1298" d="M72 539q0 117 43 220t116.5 181t173 123t211.5 45q111 0 187 -37t131 -80q16 -12 26.5 -12t24.5 16q16 18 23.5 26.5t17.5 18.5q14 14 32.5 25.5t33.5 15.5q20 4 38.5 3t28.5 -5q35 -12 27 -43q-25 -59 -41.5 -116.5t-26.5 -110.5q-10 -59 -14 -125t-4 -132.5t6 -129 t18 -113.5q20 -90 56.5 -154.5t89.5 -103.5q16 -10 17 -23.5t-9 -23.5q-8 -10 -18 -16q-10 -8 -36 -13.5t-48 -5.5q-35 0 -62 5.5t-49.5 18.5t-44 37.5t-47.5 65.5q-6 10 -10.5 12.5t-14.5 -6.5q-53 -51 -134 -92t-198 -41q-113 0 -212 45t-172.5 122t-116.5 181.5 t-43 221.5zM305 539q0 -72 22.5 -141.5t63.5 -125t98.5 -90.5t126.5 -35q94 0 166 41t113 103q6 10 7 15.5t-1 17.5q-18 117 -17 232.5t13 201.5q2 20 -4 37q-37 53 -110.5 94t-166.5 41q-74 0 -131 -35t-97 -90t-61.5 -125t-21.5 -141zM434 1374q0 76 54.5 129t132.5 53 t131 -53t53 -129t-53.5 -129t-130.5 -53q-78 0 -132.5 53t-54.5 129zM537 1374q0 -35 24.5 -58.5t59.5 -23.5t59.5 23.5t24.5 58.5t-25 58.5t-59 23.5q-35 0 -59.5 -23.5t-24.5 -58.5z" />
<glyph unicode="&#xe6;" horiz-adv-x="1923" d="M72 539q0 117 39 219t109.5 179t167.5 121t212 44q94 0 162.5 -26.5t109.5 -74.5q10 -10 14.5 -8t8.5 11q6 16 13 29.5t14 25.5q14 29 45.5 38t68.5 5q10 -2 21.5 -4t19.5 -6q16 -8 24.5 -19.5t-1.5 -28.5q-4 -8 -12.5 -25.5t-12.5 -27.5q-4 -12 0 -14t10 6q45 53 117 86 t144 33q113 0 204.5 -45t156.5 -121t99.5 -176t34.5 -213q0 -37 -35 -37h-723q-18 0 -16 -21q12 -74 40 -136t72 -108t104 -72t136 -26q86 0 147.5 16.5t133.5 53.5q14 8 29.5 5t23.5 -19l35 -70q10 -20 2 -33.5t-23 -23.5q-86 -51 -168.5 -77t-191.5 -26q-94 0 -176 32 t-141 99q-10 10 -12.5 6t1.5 -16q4 -10 10.5 -20.5t10.5 -20.5l8 -20t4 -21q0 -12 -8 -20t-17 -10q-23 -8 -61 -9q-66 0 -96 37q-14 16 -20.5 33.5t-10.5 34.5q-8 29 -29 4q-41 -47 -116.5 -78t-153.5 -31q-115 0 -211 44t-166.5 121t-110.5 180.5t-40 220.5zM303 539 q0 -72 20.5 -141.5t59.5 -124t94 -88t123 -33.5q88 0 149.5 42t94.5 101q6 10 7 15t-1 18q-18 117 -13 227.5t17 196.5q2 25 -2 36q-37 53 -98.5 94.5t-153.5 41.5q-72 0 -127 -34t-93 -88t-57.5 -123t-19.5 -140zM1095 695.5q1 -7.5 13 -7.5h477q16 1 12 19 q-10 37 -29.5 75.5t-49 69.5t-72.5 51.5t-98 20.5t-99.5 -20.5t-77 -52.5t-51 -69t-24.5 -69q-2 -10 -1 -17.5z" />
<glyph unicode="&#xe7;" horiz-adv-x="1124" d="M72 539q0 117 44 220t120.5 181t179 123t219.5 45q121 0 225.5 -43t167.5 -113q25 -25 6 -47l-114 -110q-14 -16 -27.5 -12.5t-24.5 20.5q-10 27 -30.5 49t-59.5 45q-25 14 -64.5 23.5t-78.5 9.5q-59 0 -118.5 -28t-107 -78t-77 -122.5t-29.5 -162.5q0 -78 25.5 -150 t74 -127t120 -88t163.5 -33t170 22.5t135 63.5q14 10 24.5 5t16.5 -15l53 -90q8 -27 -12 -43q-90 -59 -183 -86t-220 -29l-13 -39q-4 -10 -1 -12t12 -6q35 -12 67.5 -49t32.5 -96q0 -76 -53 -122t-170 -55q-20 0 -21 15v65q0 14 15 15q47 2 75.5 22.5t28.5 61.5 q0 27 -22.5 49t-65.5 18q-14 -2 -20.5 7.5t0.5 21.5l45 108q-109 14 -202 61.5t-160.5 122t-106.5 172t-39 210.5z" />
<glyph unicode="&#xe8;" horiz-adv-x="1200" d="M72 539q0 117 41 220t112.5 180t169 122t209.5 45q113 0 209 -46t166 -123t109.5 -178t39.5 -212q0 -37 -34 -37h-785q-6 0 -6 -6q0 -66 22.5 -130.5t67.5 -115.5t113.5 -83t165.5 -32q86 0 159.5 17.5t145.5 52.5q16 8 30.5 5t22.5 -19l37 -70q8 -20 0 -34.5t-20 -22.5 q-86 -53 -178.5 -78t-219.5 -25q-125 0 -230.5 43t-182 119t-120.5 180.5t-44 227.5zM288 1257.5q-3 8.5 1 17.5t10 15l123 107q37 33 78 16l352 -172q25 -12 18.5 -31.5t-20.5 -17.5q-29 4 -76 9t-96 11.5t-93 10.5t-67 8q-63 8 -104 10t-84 -2q-18 -2 -28.5 4t-13.5 14.5z M330 692q0 -4 2 -4h547q4 0 2 6q-10 43 -34 85t-58.5 75t-80.5 53.5t-104 20.5q-55 0 -101 -20.5t-81 -53.5t-57.5 -75t-34.5 -87z" />
<glyph unicode="&#xe9;" horiz-adv-x="1200" d="M72 539q0 117 41 220t112.5 180t169 122t209.5 45q113 0 209 -46t166 -123t109.5 -178t39.5 -212q0 -37 -34 -37h-785q-6 0 -6 -6q0 -66 22.5 -130.5t67.5 -115.5t113.5 -83t165.5 -32q86 0 159.5 17.5t145.5 52.5q16 8 30.5 5t22.5 -19l37 -70q8 -20 0 -34.5t-20 -22.5 q-86 -53 -178.5 -78t-219.5 -25q-125 0 -230.5 43t-182 119t-120.5 180.5t-44 227.5zM330 692q0 -4 2 -4h547q4 0 2 6q-10 43 -34 85t-58.5 75t-80.5 53.5t-104 20.5q-55 0 -101 -20.5t-81 -53.5t-57.5 -75t-34.5 -87zM356.5 1209.5q-6.5 19.5 18.5 31.5l352 172 q41 16 78 -16l123 -107q6 -6 10 -15t1 -17.5t-13.5 -14.5t-28.5 -4q-43 4 -84 2t-104 -10q-23 -4 -67 -8t-93 -10.5t-96 -11.5t-76 -9q-14 -2 -20.5 17.5z" />
<glyph unicode="&#xea;" horiz-adv-x="1200" d="M72 539q0 117 41 220t112.5 180t169 122t209.5 45q113 0 209 -46t166 -123t109.5 -178t39.5 -212q0 -37 -34 -37h-785q-6 0 -6 -6q0 -66 22.5 -130.5t67.5 -115.5t113.5 -83t165.5 -32q86 0 159.5 17.5t145.5 52.5q16 8 30.5 5t22.5 -19l37 -70q8 -20 0 -34.5t-20 -22.5 q-86 -53 -178.5 -78t-219.5 -25q-125 0 -230.5 43t-182 119t-120.5 180.5t-44 227.5zM301.5 1207.5q-8.5 17.5 13.5 33.5l260 199q20 14 37 14q14 0 37 -14l260 -199q23 -16 14.5 -33.5t-22.5 -15.5q-29 4 -62.5 14.5t-65.5 22.5t-62.5 22.5t-53.5 14.5q-12 2 -20 4t-25 2 q-16 0 -24 -2t-21 -4q-23 -4 -53.5 -14.5t-62 -22.5t-65.5 -22.5t-62 -14.5q-14 -2 -22.5 15.5zM330 692q0 -4 2 -4h547q4 0 2 6q-10 43 -34 85t-58.5 75t-80.5 53.5t-104 20.5q-55 0 -101 -20.5t-81 -53.5t-57.5 -75t-34.5 -87z" />
<glyph unicode="&#xeb;" horiz-adv-x="1200" d="M72 539q0 117 41 220t112.5 180t169 122t209.5 45q113 0 209 -46t166 -123t109.5 -178t39.5 -212q0 -37 -34 -37h-785q-6 0 -6 -6q0 -66 22.5 -130.5t67.5 -115.5t113.5 -83t165.5 -32q86 0 159.5 17.5t145.5 52.5q16 8 30.5 5t22.5 -19l37 -70q8 -20 0 -34.5t-20 -22.5 q-86 -53 -178.5 -78t-219.5 -25q-125 0 -230.5 43t-182 119t-120.5 180.5t-44 227.5zM313 1307q0 47 34 80.5t81 33.5t80 -33.5t33 -80.5t-33 -80t-80 -33t-81 33t-34 80zM330 692q0 -4 2 -4h547q4 0 2 6q-10 43 -34 85t-58.5 75t-80.5 53.5t-104 20.5q-55 0 -101 -20.5 t-81 -53.5t-57.5 -75t-34.5 -87zM686 1307q0 47 34 80.5t81 33.5t79.5 -33.5t32.5 -80.5t-32.5 -80t-79.5 -33t-81 33t-34 80z" />
<glyph unicode="&#xec;" horiz-adv-x="479" d="M-95 1257.5q-3 8.5 1 17.5t10 15l123 107q37 33 78 16l352 -172q25 -12 18.5 -31.5t-20.5 -17.5q-29 4 -76 9t-96 11.5t-93 10.5t-67 8q-63 8 -104 10t-84 -2q-18 -2 -28.5 4t-13.5 14.5zM102 1042q0 45 45 45q33 2 81 1t81 -1q18 0 30.5 -12t12.5 -28l4 -1018 q0 -29 -28 -29h-164q-29 0 -29 29l4 821q0 39 -6 65.5t-12 49.5q-4 10 -6 20t-6 21q-6 18 -7 36z" />
<glyph unicode="&#xed;" horiz-adv-x="479" d="M-30.5 1209.5q-6.5 19.5 18.5 31.5l352 172q41 16 78 -16l123 -107q6 -6 10 -15t1 -17.5t-13.5 -14.5t-28.5 -4q-43 4 -84 2t-104 -10q-23 -4 -67 -8t-93 -10.5t-96.5 -11.5t-75.5 -9q-14 -2 -20.5 17.5zM102 1042q0 45 45 45q33 2 81 1t81 -1q18 0 30.5 -12t12.5 -28 l4 -1018q0 -29 -28 -29h-164q-29 0 -29 29l4 821q0 39 -6 65.5t-12 49.5q-4 10 -6 20t-6 21q-6 18 -7 36z" />
<glyph unicode="&#xee;" horiz-adv-x="479" d="M-59.5 1207.5q-8.5 17.5 14.5 33.5l244 201q14 14 34 14q6 0 15.5 -3t19.5 -11l244 -201q20 -16 12 -33.5t-20 -15.5q-29 4 -59.5 14.5t-61.5 22.5t-59.5 23.5t-49.5 15.5q-10 2 -17 3t-24 1q-16 0 -24 -1t-19 -3q-23 -4 -50 -15.5t-58 -23.5t-62.5 -22.5t-58.5 -14.5 q-12 -2 -20.5 15.5zM102 1042q0 45 45 45q33 2 81 1t81 -1q18 0 30.5 -12t12.5 -28l4 -1018q0 -29 -28 -29h-164q-29 0 -29 29l4 821q0 39 -6 65.5t-12 49.5q-4 10 -6 20t-6 21q-6 18 -7 36z" />
<glyph unicode="&#xef;" horiz-adv-x="479" d="M-61 1311q0 47 32.5 80.5t79.5 33.5t80 -33.5t33 -80.5t-33 -80t-80 -33t-79.5 33t-32.5 80zM102 1042q0 45 45 45q33 2 81 1t81 -1q18 0 30.5 -12t12.5 -28l4 -1018q0 -29 -28 -29h-164q-29 0 -29 29l4 821q0 39 -6 65.5t-12 49.5q-4 10 -6 20t-6 21q-6 18 -7 36z M311 1311q0 47 33 80.5t80 33.5t80 -33.5t33 -80.5t-33 -80t-80 -33t-80 33t-33 80z" />
<glyph unicode="&#xf0;" horiz-adv-x="1265" d="M72 537q0 111 41 212t113.5 178t174 123t222.5 46q4 0 -2 4q-45 35 -97 65q-10 10 -26 0l-39 -20q-41 -20 -85 -39t-79 -39q-37 -20 -70 14q-2 4 -10 13q-6 4 -18 16q-23 23 -25 29q-4 10 -3 22.5t19 18.5q39 14 69 27.5t73 29.5l22 8q6 4 6 7t-4 3q-16 4 -38.5 8.5 t-41.5 6.5q-41 4 -71.5 3t-63.5 3q-4 2 -10 3t-10 3q-29 10 -15 49q10 29 28 74t32 78q4 8 16.5 15t24.5 3q96 -18 187 -52t177 -81q4 -2 7.5 -4t7.5 -2q4 -2 20 4l125 66q29 16 58.5 21t56.5 -7q10 -4 18 -8t19 -11q18 -10 28 -34q10 -25 -14 -35l-162 -78q-8 -4 -7 -7 t3 -5q92 -66 171 -146t144 -168q57 -78 103.5 -186t46.5 -231q0 -117 -43 -220.5t-119 -180.5t-177 -122t-218 -45t-220.5 45t-180 122t-120.5 180.5t-44 220.5zM301 537q0 -72 23.5 -142.5t66.5 -126t104.5 -89.5t137.5 -34q80 0 141.5 34t103.5 89.5t63.5 126t21.5 142.5 q0 70 -21.5 139t-62.5 123.5t-103.5 88.5t-142.5 34t-141.5 -34t-103.5 -88.5t-64.5 -124t-22.5 -138.5z" />
<glyph unicode="&#xf1;" horiz-adv-x="1288" d="M102 1049q0 33 37 36q39 4 87 4.5t81 -4.5q25 -2 36 -11t9 -34v-30v-13q2 -18 9.5 -14t11.5 8q127 115 305 115q98 0 190.5 -39t163 -111.5t112.5 -177t42 -235.5v-506q0 -14 -7.5 -25.5t-25.5 -11.5h-149q-16 0 -26.5 10t-8.5 27v33.5t1 47t1 53.5v50v303 q0 98 -25.5 174t-68.5 126t-101.5 77t-124.5 27q-53 0 -106 -19.5t-96 -50.5t-71 -68.5t-28 -76.5v-494q0 -53 1 -107.5t3 -82.5q2 -14 -6 -21.5t-20 -7.5h-174q-20 0 -25.5 9t-3.5 20q2 12 4 37.5t4 53t3 54.5t1 45v602q0 41 -5 70t-11 51q-4 12 -7 24.5t-5 22.5 q-4 12 -5.5 28.5t-1.5 31.5zM264 1221q6 35 19.5 69.5t36 63t55.5 47t76 18.5q47 0 98 -14t98 -33q49 -23 90 -35q45 -16 76 -16q37 0 59.5 16.5t30.5 57.5q6 25 29 24h47q22 1 20 -24q-4 -37 -17 -74t-36.5 -66.5t-58.5 -47t-82 -17.5t-95 14.5t-96 32.5q-49 23 -90 35 q-45 16 -75 16q-63 0 -89 -69q-4 -12 -9 -19.5t-21 -7.5h-45q-27 0 -21 29z" />
<glyph unicode="&#xf2;" horiz-adv-x="1271" d="M72 539q0 117 44 220t120.5 181t180 123t220.5 45t219 -45t179 -123t121 -181t44 -220t-44 -221.5t-121 -181.5t-179 -122t-219 -45t-220.5 45t-180 122t-120.5 181.5t-44 221.5zM303 539q0 -72 24.5 -141.5t68.5 -125t105.5 -90.5t135.5 -35q78 0 139.5 35t104.5 90.5 t65.5 125t22.5 141.5t-22.5 141.5t-64.5 124.5t-103.5 90t-141.5 35q-78 0 -140.5 -35t-105.5 -90t-65.5 -126t-22.5 -140zM324 1257.5q-2 8.5 1 17.5t9 15l123 107q16 16 38.5 20t39.5 -4l352 -172q27 -12 19.5 -31.5t-21.5 -17.5q-29 4 -76 9t-96 11.5t-93.5 10.5t-66.5 8 q-63 8 -104 10t-84 -2q-18 -2 -28.5 4t-12.5 14.5z" />
<glyph unicode="&#xf3;" horiz-adv-x="1271" d="M72 539q0 117 44 220t120.5 181t180 123t220.5 45t219 -45t179 -123t121 -181t44 -220t-44 -221.5t-121 -181.5t-179 -122t-219 -45t-220.5 45t-180 122t-120.5 181.5t-44 221.5zM303 539q0 -72 24.5 -141.5t68.5 -125t105.5 -90.5t135.5 -35q78 0 139.5 35t104.5 90.5 t65.5 125t22.5 141.5t-22.5 141.5t-64.5 124.5t-103.5 90t-141.5 35q-78 0 -140.5 -35t-105.5 -90t-65.5 -126t-22.5 -140zM392.5 1209.5q-7.5 19.5 19.5 31.5l352 172q16 8 38.5 4t39.5 -20l123 -107q6 -6 9 -15t1 -17.5t-12.5 -14.5t-28.5 -4q-43 4 -85 2t-104 -10 q-23 -4 -66.5 -8t-92.5 -10.5t-96.5 -11.5t-75.5 -9q-14 -2 -21.5 17.5z" />
<glyph unicode="&#xf4;" horiz-adv-x="1271" d="M72 539q0 117 44 220t120.5 181t180 123t220.5 45t219 -45t179 -123t121 -181t44 -220t-44 -221.5t-121 -181.5t-179 -122t-219 -45t-220.5 45t-180 122t-120.5 181.5t-44 221.5zM303 539q0 -72 24.5 -141.5t68.5 -125t105.5 -90.5t135.5 -35q78 0 139.5 35t104.5 90.5 t65.5 125t22.5 141.5t-22.5 141.5t-64.5 124.5t-103.5 90t-141.5 35q-78 0 -140.5 -35t-105.5 -90t-65.5 -126t-22.5 -140zM330 1207.5q-8 17.5 14 33.5l260 199q18 14 37 14q14 0 37 -14l260 -199q23 -16 14.5 -33.5t-22.5 -15.5q-29 4 -62.5 14.5t-65.5 22.5t-62.5 22.5 t-53.5 14.5q-12 2 -20.5 4t-24.5 2t-24.5 -2t-20.5 -4q-23 -4 -53.5 -14.5t-62 -22.5t-65.5 -22.5t-63 -14.5q-14 -2 -22 15.5z" />
<glyph unicode="&#xf5;" horiz-adv-x="1271" d="M72 539q0 117 44 220t120.5 181t180 123t220.5 45t219 -45t179 -123t121 -181t44 -220t-44 -221.5t-121 -181.5t-179 -122t-219 -45t-220.5 45t-180 122t-120.5 181.5t-44 221.5zM260 1221q6 35 19.5 69.5t36 63t56.5 47t77 18.5q47 0 97 -14t97 -33q25 -10 47.5 -19.5 t44.5 -15.5q45 -16 74 -16q39 0 60.5 16.5t31.5 57.5q6 25 29 24h47q22 1 20 -24q-4 -37 -17 -74t-36.5 -66.5t-58.5 -47t-82 -17.5t-95.5 14.5t-95.5 32.5q-25 10 -46 19.5t-44 15.5q-45 16 -78 16q-63 0 -88 -69q-4 -12 -8 -19.5t-20 -7.5h-45q-27 0 -23 29zM303 539 q0 -72 24.5 -141.5t68.5 -125t105.5 -90.5t135.5 -35q78 0 139.5 35t104.5 90.5t65.5 125t22.5 141.5t-22.5 141.5t-64.5 124.5t-103.5 90t-141.5 35q-78 0 -140.5 -35t-105.5 -90t-65.5 -126t-22.5 -140z" />
<glyph unicode="&#xf6;" horiz-adv-x="1271" d="M72 539q0 117 44 220t120.5 181t180 123t220.5 45t219 -45t179 -123t121 -181t44 -220t-44 -221.5t-121 -181.5t-179 -122t-219 -45t-220.5 45t-180 122t-120.5 181.5t-44 221.5zM303 539q0 -72 24.5 -141.5t68.5 -125t105.5 -90.5t135.5 -35q78 0 139.5 35t104.5 90.5 t65.5 125t22.5 141.5t-22.5 141.5t-64.5 124.5t-103.5 90t-141.5 35q-78 0 -140.5 -35t-105.5 -90t-65.5 -126t-22.5 -140zM338 1331q0 47 32.5 81t80.5 34q47 0 79.5 -34t32.5 -81t-32.5 -79.5t-79.5 -32.5t-80 32.5t-33 79.5zM711 1331q0 47 32.5 81t79.5 34t80 -34 t33 -81t-33 -79.5t-80 -32.5t-79.5 32.5t-32.5 79.5z" />
<glyph unicode="&#xf7;" horiz-adv-x="1150" d="M113 522v129q0 31 32 31q395 -8 856 0q37 0 37 -31q0 -53 -1 -82.5t-5 -46.5q-4 -16 -11 -23t-26 -7q-135 2 -241.5 2h-202.5h-191.5t-207.5 -2q-39 0 -39 30zM428 219q0 61 43 104.5t104 43.5t104.5 -43.5t43.5 -104.5q0 -59 -43 -103t-105 -44q-61 0 -104 44t-43 103z M428 950q0 61 43 104.5t104 43.5t104.5 -43.5t43.5 -104.5q0 -59 -43 -103t-105 -44q-61 0 -104 44t-43 103z" />
<glyph unicode="&#xf8;" horiz-adv-x="1271" d="M72 539q0 117 44 220t120.5 181t180 123t220.5 45q98 0 184 -31q4 -2 12.5 -3t12.5 11q12 25 18 42.5t13 37.5q6 25 13 34t17 9q20 -4 43 -15t35 -19q16 -6 4 -35q-14 -27 -24.5 -47.5t-26.5 -51.5q-6 -12 -2 -17t8 -7q117 -78 186.5 -204t69.5 -273q0 -117 -44 -221.5 t-121 -181.5t-179 -122t-219 -45q-92 0 -178 29q-4 2 -13.5 3t-13.5 -15l-2 -6q-16 -33 -23.5 -58.5t-9.5 -36.5q-4 -14 -12 -23t-18 -5q-18 4 -41 14t-37 20q-6 2 -10.5 10.5t4.5 18.5q16 31 28.5 54.5t28.5 52.5l4 8q6 10 -1 15t-11 9q-117 78 -188.5 203t-71.5 277z M303 539q0 -82 31 -159t84 -134q4 -4 12 -7t16 9q78 164 154 320.5t150 314.5q8 16 3 21t-10 7q-49 18 -106 19q-78 0 -140.5 -35t-105.5 -90t-65.5 -126t-22.5 -140zM527.5 172.5q7.5 -6.5 13.5 -8.5q49 -16 96 -17q78 0 139.5 35t104.5 90.5t65.5 125t22.5 141.5 q0 82 -29 160.5t-84 136.5q-4 4 -10 6t-12 -13q-78 -164 -153 -319.5t-151 -312.5q-10 -18 -2.5 -24.5z" />
<glyph unicode="&#xf9;" horiz-adv-x="1288" d="M102 537v514q0 14 7.5 25t23.5 11q14 0 34.5 1.5t41 1.5t40 -1.5t34.5 -1.5q37 0 36 -36q0 -12 -1 -34t-2 -47.5t-1 -53v-50.5v-311q0 -98 26 -174t70 -126t102 -76.5t124 -26.5q51 0 104.5 19t96.5 50t70.5 69t27.5 77v501q0 53 -1 107.5t-3 83.5q0 29 29 28 q35 2 87 2.5t87 -2.5q20 0 24 -9t2 -19q-2 -12 -4 -38t-4 -53.5t-3 -54t-1 -45.5v-610q0 -41 6 -69.5t12 -51.5q4 -12 6.5 -24.5t6.5 -22.5q2 -12 4 -25.5t2 -27.5q0 -16 -10.5 -26.5t-26.5 -10.5h-170q-45 0 -45 45v18q0 2 1 7.5t1 7.5q-4 23 -25 4q-59 -51 -134 -80 t-167 -29q-98 0 -190 39t-163 112t-113 177.5t-42 235.5zM301 1257.5q-2 8.5 1 17.5t9 15l123 107q37 33 78 16l352 -172q25 -12 19 -31.5t-21 -17.5q-29 4 -76 9t-96 11.5t-93 10.5t-67 8q-63 8 -104 10t-84 -2q-18 -2 -28.5 4t-12.5 14.5z" />
<glyph unicode="&#xfa;" horiz-adv-x="1288" d="M102 537v514q0 14 7.5 25t23.5 11q14 0 34.5 1.5t41 1.5t40 -1.5t34.5 -1.5q37 0 36 -36q0 -12 -1 -34t-2 -47.5t-1 -53v-50.5v-311q0 -98 26 -174t70 -126t102 -76.5t124 -26.5q51 0 104.5 19t96.5 50t70.5 69t27.5 77v501q0 53 -1 107.5t-3 83.5q0 29 29 28 q35 2 87 2.5t87 -2.5q20 0 24 -9t2 -19q-2 -12 -4 -38t-4 -53.5t-3 -54t-1 -45.5v-610q0 -41 6 -69.5t12 -51.5q4 -12 6.5 -24.5t6.5 -22.5q2 -12 4 -25.5t2 -27.5q0 -16 -10.5 -26.5t-26.5 -10.5h-170q-45 0 -45 45v18q0 2 1 7.5t1 7.5q-4 23 -25 4q-59 -51 -134 -80 t-167 -29q-98 0 -190 39t-163 112t-113 177.5t-42 235.5zM373 1209.5q-6 19.5 18 31.5l352 172q41 16 80 -16l121 -107q6 -6 10 -15t1 -17.5t-13 -14.5t-29 -4q-41 4 -83 2t-105 -10q-23 -4 -67 -8t-93 -10.5t-96 -11.5t-76 -9q-14 -2 -20 17.5z" />
<glyph unicode="&#xfb;" horiz-adv-x="1288" d="M102 537v514q0 14 7.5 25t23.5 11q14 0 34.5 1.5t41 1.5t40 -1.5t34.5 -1.5q37 0 36 -36q0 -12 -1 -34t-2 -47.5t-1 -53v-50.5v-311q0 -98 26 -174t70 -126t102 -76.5t124 -26.5q51 0 104.5 19t96.5 50t70.5 69t27.5 77v501q0 53 -1 107.5t-3 83.5q0 29 29 28 q35 2 87 2.5t87 -2.5q20 0 24 -9t2 -19q-2 -12 -4 -38t-4 -53.5t-3 -54t-1 -45.5v-610q0 -41 6 -69.5t12 -51.5q4 -12 6.5 -24.5t6.5 -22.5q2 -12 4 -25.5t2 -27.5q0 -16 -10.5 -26.5t-26.5 -10.5h-170q-45 0 -45 45v18q0 2 1 7.5t1 7.5q-4 23 -25 4q-59 -51 -134 -80 t-167 -29q-98 0 -190 39t-163 112t-113 177.5t-42 235.5zM293 1207.5q-8 17.5 14 33.5l260 199q20 14 37 14q18 0 37 -14l260 -199q23 -16 14.5 -33.5t-22.5 -15.5q-29 4 -62.5 14.5t-65.5 22.5t-62.5 22.5t-53.5 14.5q-12 2 -20 4t-25 2q-16 0 -24.5 -2t-20.5 -4 q-23 -4 -53.5 -14.5t-62 -22.5t-65.5 -22.5t-63 -14.5q-14 -2 -22 15.5z" />
<glyph unicode="&#xfc;" horiz-adv-x="1288" d="M102 537v514q0 14 7.5 25t23.5 11q14 0 34.5 1.5t41 1.5t40 -1.5t34.5 -1.5q37 0 36 -36q0 -12 -1 -34t-2 -47.5t-1 -53v-50.5v-311q0 -98 26 -174t70 -126t102 -76.5t124 -26.5q51 0 104.5 19t96.5 50t70.5 69t27.5 77v501q0 53 -1 107.5t-3 83.5q0 29 29 28 q35 2 87 2.5t87 -2.5q20 0 24 -9t2 -19q-2 -12 -4 -38t-4 -53.5t-3 -54t-1 -45.5v-610q0 -41 6 -69.5t12 -51.5q4 -12 6.5 -24.5t6.5 -22.5q2 -12 4 -25.5t2 -27.5q0 -16 -10.5 -26.5t-26.5 -10.5h-170q-45 0 -45 45v18q0 2 1 7.5t1 7.5q-4 23 -25 4q-59 -51 -134 -80 t-167 -29q-98 0 -190 39t-163 112t-113 177.5t-42 235.5zM305 1305q0 47 34 80.5t81 33.5t79.5 -33.5t32.5 -80.5t-32.5 -80t-79.5 -33t-81 32.5t-34 80.5zM678 1305q0 47 33.5 80.5t81.5 33.5q47 0 79.5 -33.5t32.5 -80.5t-32.5 -80t-79.5 -33t-81 32.5t-34 80.5z" />
<glyph unicode="&#xfd;" horiz-adv-x="1290" d="M102 535v516q0 14 7.5 25t23.5 11q14 0 34.5 1.5t41 1.5t40 -1.5t34.5 -1.5q37 0 36 -36q-2 -27 -3 -83.5t-1 -103.5v-311q0 -98 26 -174t70 -127t102 -78t124 -27q51 0 104.5 19.5t96.5 50.5t70.5 69t27.5 76v504q0 53 -1 108.5t-3 84.5q0 29 29 28q16 0 39.5 1.5 t48 1.5t47 -1.5t39.5 -1.5q20 0 24 -9t2 -19q-2 -12 -4 -38t-4 -53.5t-3 -55t-1 -46.5l2 -882q0 -63 13.5 -103.5t13.5 -79.5q0 -16 -9 -32q-6 -6 -18 -15q-16 -12 -38.5 -31.5t-46.5 -41t-47.5 -42t-37.5 -36.5q-12 -12 -22.5 -12.5t-18.5 7t-12 17.5t-4 20q2 43 4 101.5 t3 120t2 119t1 100.5q0 14 -6 15t-13 -5q-59 -55 -137 -87t-168 -32q-98 0 -190 39t-163 113t-113 178t-42 238zM366.5 1208.5q-6.5 20.5 18.5 30.5l352 172q18 10 40 5t38 -21l123 -107q6 -6 9 -15t1 -17.5t-12 -14.5t-29 -4q-43 4 -84 3t-104 -11q-23 -4 -67 -8t-93 -10.5 t-96 -11.5t-76 -9q-14 -2 -20.5 18.5z" />
<glyph unicode="&#xfe;" horiz-adv-x="1308" d="M102 1389q0 45 45 45q33 2 81 1t81 -1q18 0 30.5 -12.5t12.5 -28.5l2 -357q0 -23 7.5 -24.5t19.5 8.5q61 41 138 63.5t159 22.5q119 0 221 -43t178 -120t118 -182.5t42 -228.5q0 -133 -50 -237.5t-127 -177t-167 -111.5t-170 -39q-33 0 -72 8.5t-65 18.5 q-23 10 -42.5 23.5t-33.5 29.5q-33 37 -37 88q-2 23 8.5 40.5t30.5 6.5q31 -16 80 -28.5t84 -12.5q63 0 122.5 27t105.5 77t74 122.5t28 164.5q0 82 -25 154t-69 126t-104 85t-130 31q-68 0 -127 -22.5t-103.5 -66.5t-70 -107.5t-25.5 -145.5q0 -117 1 -265.5t3 -283.5 q2 -158 6 -320q0 -20 -9 -34.5t-34 -14.5l-145 4q-23 0 -34 13.5t-11 35.5q0 10 2 45t2 82q0 70 1 169.5t2 207t2 211t1 182.5v130v159v159v130q0 39 -6 65.5t-12 49.5q-4 10 -6 20t-6 21q-6 18 -7 37z" />
<glyph unicode="&#xff;" horiz-adv-x="1290" d="M102 535v516q0 14 7.5 25t23.5 11q14 0 34.5 1.5t41 1.5t40 -1.5t34.5 -1.5q37 0 36 -36q-2 -27 -3 -83.5t-1 -103.5v-311q0 -98 26 -174t70 -127t102 -78t124 -27q51 0 104.5 19.5t96.5 50.5t70.5 69t27.5 76v504q0 53 -1 108.5t-3 84.5q0 29 29 28q16 0 39.5 1.5 t48 1.5t47 -1.5t39.5 -1.5q20 0 24 -9t2 -19q-2 -12 -4 -38t-4 -53.5t-3 -55t-1 -46.5l2 -882q0 -63 13.5 -103.5t13.5 -79.5q0 -16 -9 -32q-6 -6 -18 -15q-16 -12 -38.5 -31.5t-46.5 -41t-47.5 -42t-37.5 -36.5q-12 -12 -22.5 -12.5t-18.5 7t-12 17.5t-4 20q2 43 4 101.5 t3 120t2 119t1 100.5q0 14 -6 15t-13 -5q-59 -55 -137 -87t-168 -32q-98 0 -190 39t-163 113t-113 178t-42 238zM313 1305q0 47 33 80.5t80 33.5t80 -33.5t33 -80.5t-33 -80t-80 -33t-80 32.5t-33 80.5zM686 1305q0 47 33 80.5t80 33.5t79.5 -33.5t32.5 -80.5t-32.5 -80 t-79.5 -33t-80 32.5t-33 80.5z" />
<glyph unicode="&#x152;" horiz-adv-x="2289" d="M82 631q0 143 47 264t131 209t198.5 138t248.5 50q154 0 272.5 -66.5t198.5 -181.5q10 -12 14 -11t14 14q74 104 184.5 174.5t245.5 70.5q127 0 232.5 -51t180.5 -137t117 -202t42 -245q0 -31 -29 -30h-858q-18 0 -18 -21q2 -86 25.5 -168t71.5 -146.5t125 -103 t187 -38.5q100 0 176 19t160 62q33 14 47 -12l41 -80q8 -18 1 -30.5t-19 -20.5q-49 -31 -96.5 -52.5t-97.5 -36.5t-108.5 -22.5t-129.5 -7.5q-164 0 -286 66.5t-196 183.5q-18 31 -43 -6q-76 -104 -194.5 -174t-259.5 -70q-133 0 -248 50.5t-199 138.5t-131 208.5t-47 264.5 zM328 631q0 -92 25.5 -179t73.5 -153t118.5 -105.5t161.5 -39.5q94 0 164.5 39.5t118.5 105.5t71.5 153t23.5 179q0 90 -23.5 176t-70.5 152.5t-117.5 107.5t-166.5 41q-94 0 -165 -40t-119 -105.5t-71.5 -152.5t-23.5 -179zM1333 829q-6 -18 15 -18h577q18 0 14 20 q-14 49 -37.5 99.5t-60.5 89.5t-87 63.5t-118 24.5t-118 -24.5t-86.5 -63.5t-60 -89t-38.5 -102z" />
<glyph unicode="&#x153;" horiz-adv-x="1974" d="M72 539q0 117 41 220t113.5 181t173 123t216.5 45q117 0 212.5 -53.5t166.5 -136.5q16 -20 24.5 -20.5t22.5 20.5q66 92 150 140t207 48q113 0 206 -46t158.5 -123t102.5 -178t37 -212q0 -37 -35 -37h-729q-12 0 -16.5 -9t-4.5 -14q0 -61 18.5 -122.5t60.5 -110.5 t107.5 -80t161.5 -31q86 0 149.5 17.5t135.5 52.5q16 8 30.5 5t22.5 -19l37 -70q8 -20 0 -34.5t-20 -22.5q-43 -27 -84 -46.5t-85 -31.5t-94.5 -18.5t-113.5 -6.5q-276 0 -402 187q-10 18 -19 17t-22 -17q-66 -86 -168 -136.5t-217 -50.5q-117 0 -217 45t-172.5 122 t-113.5 181.5t-41 221.5zM303 539q0 -72 21.5 -141.5t61.5 -125t98.5 -90.5t131.5 -35q78 0 136.5 35t97.5 90.5t58.5 125t19.5 141.5t-19.5 141.5t-57.5 124.5t-96.5 90t-138.5 35q-78 0 -137 -35t-98 -90t-58.5 -126t-19.5 -140zM1145 707q0 -2 1 -10.5t11 -8.5h485 q12 0 13.5 8.5t-0.5 12.5q-10 41 -29.5 79.5t-51.5 69.5t-75 50.5t-100 19.5q-55 0 -98.5 -19.5t-74 -50.5t-50 -70.5t-31.5 -80.5z" />
<glyph unicode="&#x178;" horiz-adv-x="1462" d="M113 614v617q0 31 24 31h174q31 0 31 -31q0 -14 -1 -40t-2 -55.5t-1 -61.5v-58v-381q0 -117 30.5 -206t83 -150.5t122 -93t149.5 -31.5q61 0 124.5 22.5t116 59t86 84t33.5 96.5v602q0 61 -1 124.5t-3 98.5q0 20 21 21h203q16 0 19 -6.5t1 -14.5q-2 -16 -4 -45t-4 -61.5 t-4 -64.5t-2 -52l2 -1071q0 -43 4 -68.5t10 -44t10 -35t4 -41.5q0 -23 -7 -28.5t-19 -16.5q-18 -16 -45 -37.5t-54.5 -44t-53 -46t-44.5 -42.5q-16 -18 -32.5 -6t-14.5 35q2 51 4 119.5t4 140.5t3 139.5t1 116.5q0 29 -30 4q-70 -59 -164 -91t-195 -32q-113 0 -217 44 t-185 128t-129 203t-48 270zM391 1489q0 47 33 80t80 33t79.5 -33t32.5 -80t-32.5 -80t-79.5 -33t-80 33t-33 80zM764 1489q0 47 32.5 80t80.5 33q47 0 79.5 -33t32.5 -80t-32.5 -80t-79.5 -33t-80 33t-33 80z" />
<glyph unicode="&#x2c6;" horiz-adv-x="1034" d="M229.5 1207.5q-8.5 17.5 14.5 33.5l260 199q20 14 37 14q14 0 37 -14l260 -199q23 -16 14.5 -33.5t-23.5 -15.5q-29 4 -62.5 14.5t-65 22.5t-62.5 22.5t-53 14.5q-12 2 -20.5 4t-24.5 2t-24.5 -2t-20.5 -4q-23 -4 -53.5 -14.5t-62.5 -22.5t-65.5 -22.5t-62.5 -14.5 q-14 -2 -22.5 15.5z" />
<glyph unicode="&#x2dc;" horiz-adv-x="1296" d="M33 1221q6 35 19.5 69.5t36 63t56 47t76.5 18.5q47 0 98.5 -14t98.5 -33q49 -23 90 -35q45 -16 76 -16q37 0 58.5 16.5t31.5 57.5q6 25 28 24h48q22 1 20 -24q-4 -37 -17.5 -74t-37 -66.5t-58 -47t-82.5 -17.5q-47 0 -95 14.5t-95 32.5q-49 23 -90 35q-45 16 -78 16 q-63 0 -86 -69q-4 -12 -9 -19.5t-22 -7.5h-45q-27 0 -22 29z" />
<glyph unicode="&#x2000;" horiz-adv-x="868" />
<glyph unicode="&#x2001;" horiz-adv-x="1737" />
<glyph unicode="&#x2002;" horiz-adv-x="868" />
<glyph unicode="&#x2003;" horiz-adv-x="1737" />
<glyph unicode="&#x2004;" horiz-adv-x="579" />
<glyph unicode="&#x2005;" horiz-adv-x="434" />
<glyph unicode="&#x2006;" horiz-adv-x="289" />
<glyph unicode="&#x2007;" horiz-adv-x="289" />
<glyph unicode="&#x2008;" horiz-adv-x="217" />
<glyph unicode="&#x2009;" horiz-adv-x="347" />
<glyph unicode="&#x200a;" horiz-adv-x="96" />
<glyph unicode="&#x2010;" horiz-adv-x="630" d="M72 518v129q0 10 8 20.5t24 10.5q29 0 75 -2t92 -3t87 -2t60 -1q41 0 63.5 4t38.5 4t27.5 -8t11.5 -25v-123q0 -16 -12 -22t-29 -6q-31 0 -80 2t-99 3t-92 2t-57 1q-27 0 -45 -5t-39 -5q-23 0 -28.5 6t-5.5 20z" />
<glyph unicode="&#x2011;" horiz-adv-x="630" d="M72 518v129q0 10 8 20.5t24 10.5q29 0 75 -2t92 -3t87 -2t60 -1q41 0 63.5 4t38.5 4t27.5 -8t11.5 -25v-123q0 -16 -12 -22t-29 -6q-31 0 -80 2t-99 3t-92 2t-57 1q-27 0 -45 -5t-39 -5q-23 0 -28.5 6t-5.5 20z" />
<glyph unicode="&#x2012;" horiz-adv-x="630" d="M72 518v129q0 10 8 20.5t24 10.5q29 0 75 -2t92 -3t87 -2t60 -1q41 0 63.5 4t38.5 4t27.5 -8t11.5 -25v-123q0 -16 -12 -22t-29 -6q-31 0 -80 2t-99 3t-92 2t-57 1q-27 0 -45 -5t-39 -5q-23 0 -28.5 6t-5.5 20z" />
<glyph unicode="&#x2013;" horiz-adv-x="1064" d="M72 518v129q0 10 8 20.5t24 10.5q18 0 78 -1t138.5 -2t166.5 -2t165 -2t132.5 -1h67.5q41 0 63.5 4t38.5 4t27.5 -8t11.5 -25v-123q0 -16 -12 -22t-29 -6q-20 0 -81.5 1t-142.5 2t-172 2t-169 2t-132 1h-65q-27 0 -45 -5t-39 -5q-23 0 -28.5 6t-5.5 20z" />
<glyph unicode="&#x2014;" horiz-adv-x="1474" d="M72 518v129q0 10 8 20.5t24 10.5q14 0 69.5 -1t136.5 -1t180.5 -1t202 -2t200.5 -1t177 -1t130 -1h62q41 0 63.5 4t38.5 4t27.5 -8t11.5 -25v-123q0 -16 -12.5 -22t-28.5 -6q-20 0 -111.5 1t-218.5 2t-271.5 2t-267 2t-207.5 1h-96q-27 0 -45 -5t-39 -5q-23 0 -28.5 6 t-5.5 20z" />
<glyph unicode="&#x2018;" horiz-adv-x="442" d="M72 1364q0 61 20.5 114.5t57 93.5t87 65.5t109.5 31.5q23 4 23 -14v-6q0 -14 -19 -21q-53 -16 -92 -53t-39 -96q0 -16 10 -17h11q23 0 46 -11t41.5 -30.5t31 -45t12.5 -56.5q0 -61 -43 -105.5t-105 -44.5q-39 0 -67.5 17.5t-47 45.5t-27.5 62.5t-9 69.5z" />
<glyph unicode="&#x2019;" horiz-adv-x="442" d="M72 1522q0 61 43 104t104 43q39 0 67.5 -17.5t47 -45t28 -61t9.5 -68.5q0 -61 -20.5 -114.5t-57.5 -93.5t-87 -66.5t-110 -33.5q-23 0 -22 17v6q0 14 18 20q53 16 92 53.5t39 96.5q0 16 -10 16q-2 -2 -10 -2q-23 0 -46.5 11.5t-42 31t-30.5 46t-12 57.5z" />
<glyph unicode="&#x201a;" horiz-adv-x="442" d="M72 125q0 61 43 104t104 43q39 0 67.5 -17t47 -45t28 -61.5t9.5 -68.5q0 -61 -20.5 -114.5t-57.5 -93.5t-87 -66.5t-110 -32.5q-23 0 -22 16v6q0 14 18 21q53 16 92 53t39 96q0 18 -10 15h-10q-23 0 -46.5 11t-42 30.5t-30.5 46t-12 57.5z" />
<glyph unicode="&#x201c;" horiz-adv-x="821" d="M72 1364q0 61 20.5 114.5t57 93.5t87 65.5t109.5 31.5q23 4 23 -14v-6q0 -14 -19 -21q-53 -16 -92 -53t-39 -96q0 -16 10 -17h11q23 0 46 -11t41.5 -30.5t31 -45t12.5 -56.5q0 -61 -43 -105.5t-105 -44.5q-39 0 -67.5 17.5t-47 45.5t-27.5 62.5t-9 69.5zM451 1364 q0 61 20.5 114.5t57 93.5t87 65.5t109.5 31.5q23 4 23 -14v-6q0 -14 -19 -21q-53 -16 -92 -53t-39 -96q0 -16 10 -17h10q23 0 46.5 -11t42 -30.5t31 -45t12.5 -56.5q0 -61 -43 -105.5t-105 -44.5q-39 0 -67.5 17.5t-47 45.5t-27.5 62.5t-9 69.5z" />
<glyph unicode="&#x201d;" horiz-adv-x="821" d="M72 1522q0 61 43 104t104 43q39 0 67.5 -17.5t47 -45t28 -61t9.5 -68.5q0 -61 -20.5 -114.5t-57.5 -93.5t-87 -66.5t-110 -33.5q-23 0 -22 17v6q0 14 18 20q53 16 92 53.5t39 96.5q0 16 -10 16q-2 -2 -10 -2q-23 0 -46.5 11.5t-42 31t-30.5 46t-12 57.5zM451 1522 q0 61 43 104t104 43q39 0 67.5 -17.5t47 -45t28 -61t9.5 -68.5q0 -61 -20.5 -114.5t-57.5 -93.5t-87 -66.5t-110 -33.5q-23 0 -22 17v6q0 14 18 20q53 16 92 53.5t39 96.5q0 16 -10 16q-2 -2 -10 -2q-23 0 -46.5 11.5t-42 31t-30.5 46t-12 57.5z" />
<glyph unicode="&#x201e;" horiz-adv-x="821" d="M72 125q0 61 43 104t104 43q39 0 67.5 -17t47 -45t28 -61.5t9.5 -68.5q0 -61 -20.5 -114.5t-57.5 -93.5t-87 -66.5t-110 -32.5q-23 0 -22 16v6q0 14 18 21q53 16 92 53t39 96q0 18 -10 15h-10q-23 0 -46.5 11t-42 30.5t-30.5 46t-12 57.5zM451 125q0 61 43 104t104 43 q39 0 67.5 -17t47 -45t28 -61.5t9.5 -68.5q0 -61 -20.5 -114.5t-57.5 -93.5t-87 -66.5t-110 -32.5q-23 0 -22 16v6q0 14 18 21q53 16 92 53t39 96q0 18 -10 15h-10q-23 0 -46.5 11t-42 30.5t-30.5 46t-12 57.5z" />
<glyph unicode="&#x2022;" horiz-adv-x="757" d="M0 760q0 57 21.5 107.5t59.5 88t88 59t107 21.5t107.5 -21.5t88.5 -59t59.5 -88t21.5 -107.5t-21.5 -107.5t-59.5 -88.5t-88 -59.5t-108 -21.5q-57 0 -107 21.5t-88 59.5t-59.5 88t-21.5 108z" />
<glyph unicode="&#x2026;" horiz-adv-x="1277" d="M82 117q0 61 43 104t104 43t104.5 -43t43.5 -104q0 -59 -43 -103.5t-105 -44.5q-61 0 -104 44t-43 104zM492 117q0 61 43 104t104 43t104 -43t43 -104q0 -59 -43 -103.5t-104 -44.5t-104 44t-43 104zM901 117q0 61 43 104t105 43q61 0 104 -43t43 -104q0 -59 -43 -103.5 t-104 -44.5t-104.5 44t-43.5 104z" />
<glyph unicode="&#x202f;" horiz-adv-x="347" />
<glyph unicode="&#x2039;" horiz-adv-x="610" d="M55.5 533.5q-0.5 21.5 16.5 44.5l114 155q20 29 42 57.5t38.5 51t26.5 36.5l10 13q23 29 45.5 48t61.5 19h75q35 0 43.5 -21.5t-8.5 -45.5q-18 -29 -41 -57q-18 -27 -40.5 -58t-47.5 -65q-57 -80 -129 -181l266 -370q20 -29 5 -43.5t-44 -14.5h-81q-57 0 -99 58l-237 325 q-16 27 -16.5 48.5z" />
<glyph unicode="&#x203a;" horiz-adv-x="610" d="M76.5 116.5q-15.5 14.5 5.5 43.5l266 370l-260 361q-16 25 -7 46t44 21h76q39 0 61.5 -19t44.5 -48l230 -313q31 -44 2 -93l-238 -325q-41 -57 -98 -58h-82q-29 0 -44.5 14.5z" />
<glyph unicode="&#x205f;" horiz-adv-x="434" />
<glyph unicode="&#x20ac;" horiz-adv-x="1226" d="M41 412v102q0 14 11 20.5t26 6.5h45q10 -2 14 1t4 19q-2 16 -3 38t-1 38v14q4 23 -18 23l-43 -2q-35 0 -35 26v105q0 27 29 26q23 0 36 -1t37 -1q14 0 18.5 5.5t8.5 19.5q31 96 86 177t130 139.5t166 91t196 32.5q53 0 107 -12t104.5 -34.5t95.5 -55.5t78 -76 q16 -23 6 -37l-121 -131q-20 -23 -37 8q-12 45 -35.5 73t-50.5 44q-53 37 -150 37q-104 0 -190 -69.5t-131 -186.5q-6 -16 -4 -21.5t20 -5.5q74 0 141.5 1t141.5 1q29 0 48.5 1t47.5 3q14 0 23.5 -7t7.5 -19l-2 -107q0 -27 -31 -26q-68 0 -122 1t-102 1h-93h-92 q-23 0 -23 -21v-16q0 -16 1 -40t3 -40q2 -10 5 -14t18 -4h207t194 2q39 0 35 -27l-2 -102q0 -12 -5 -20.5t-26 -8.5q-57 0 -103 1t-88 2t-80 1h-79q-29 0 -16 -22q49 -92 137 -155t213 -63q78 0 151.5 26t126.5 69q18 12 29 -9l57 -102q6 -23 -10 -33q-66 -57 -166 -93 t-229 -36q-193 0 -336 97.5t-236 298.5q-4 10 -7 15t-19 5h-42.5t-43.5 -2q-33 0 -33 29z" />
<glyph unicode="&#x2122;" horiz-adv-x="1644" d="M72 1149q0 4 4 27.5t8 31.5q6 25 33 25q27 -4 59.5 -5t61.5 -1h342q12 -1 12 -13q0 -37 -19 -55q-10 -14 -28.5 -18t-40.5 -4l-162 -2q-6 0 -9 -1t-7 -10q-47 -76 -68.5 -142.5t-21.5 -113.5q0 -96 46 -138t113 -42q35 0 68 10.5t57 28.5q12 8 19 -2l18 -29q4 -8 3 -15 t-11 -17q-49 -66 -162 -66q-53 0 -101 16.5t-84 49t-57.5 84t-21.5 120.5q0 49 22.5 116t67.5 138q8 14 -8 15h-61.5t-55.5 -4q-16 0 -16 16zM662 1212q0 14 12 15h102q18 0 19 -17l-2 -14q0 -18 14 -4q25 23 61.5 37t71.5 14q63 0 109.5 -26.5t74.5 -71.5q6 -6 13 0 q76 98 192 98q117 0 180.5 -86t63.5 -237v-291q0 -16 -10 -17h-90q-16 0 -13 17v106v176q0 131 -39 185.5t-104 54.5q-27 0 -51.5 -11.5t-43 -29.5t-29.5 -42t-11 -48l2 -391q0 -16 -10 -17h-91q-12 0 -12 17v282q0 131 -39 185.5t-104 54.5q-27 0 -51.5 -11.5t-43 -29.5 t-29.5 -42t-11 -48v-285v-63.5t2 -48.5q0 -10 -9 -11h-102q-10 0 -10 11q2 16 4 53t2 59v346q0 25 -3 42.5t-6 31.5t-6 27.5t-3 29.5z" />
<glyph unicode="&#x25fc;" horiz-adv-x="1085" d="M0 0v1085h1085v-1085h-1085z" />
<glyph unicode="&#xfb01;" horiz-adv-x="1464" d="M102 1040q0 10 8.5 24.5t24.5 14.5q18 0 38 -4t42 -10q20 -8 43 -16.5t47 -18.5q8 -2 17 0q6 4 11 7t11 5q47 25 111.5 44.5t142.5 19.5q39 0 84 -7t90 -20.5t87 -33t75 -44.5q2 -2 4 -3t4 -3l6 -6l6 -6q4 -6 6 -16.5t-4 -20.5q-18 -29 -29.5 -44t-21.5 -28 q-10 -14 -20.5 -28.5t-28.5 -40.5q-12 -18 -34.5 -9t-33.5 27q-20 35 -77.5 68t-128.5 33q-55 0 -97.5 -12.5t-72 -47.5t-45 -99.5t-17.5 -168.5q-4 -94 -3 -197.5t1 -205.5q0 -16 14 -17l451 2q12 0 21.5 -8t9.5 -23v-116q0 -14 -9.5 -22.5t-21.5 -8.5h-448q-14 0 -15 -16 q0 -72 4 -141.5t6 -123.5q2 -20 -8 -34.5t-33 -14.5h-145q-23 0 -34 13.5t-11 35.5q0 10 1 45t3 84l4 975q0 43 -5 77t-11 61q-4 14 -7 24t-5 21q-6 20 -7 34zM1087 1042q0 45 46 45q33 2 81 1t80 -1q18 0 30.5 -12t12.5 -28l4 -1018q0 -29 -28 -29h-164q-29 0 -29 29l4 821 q0 39 -6 65.5t-12 49.5q-4 10 -6 20t-6 21q-6 18 -7 36z" />
<glyph unicode="&#xfb02;" horiz-adv-x="1726" d="M102 1040q0 10 8.5 24.5t24.5 14.5q18 0 38 -4t42 -10q20 -8 43 -16.5t47 -18.5q8 -2 17 0q6 4 11 7t11 5q47 25 111.5 44.5t142.5 19.5q39 0 84 -7t90 -20.5t87 -33t75 -44.5q2 -2 4 -3t4 -3l6 -6l6 -6q4 -6 6.5 -16.5t-4.5 -20.5q-18 -29 -29.5 -44t-21.5 -28 q-10 -14 -20.5 -28.5t-28.5 -40.5q-12 -18 -34.5 -9t-33.5 27q-20 35 -77.5 68t-128.5 33q-55 0 -97.5 -12.5t-72 -47.5t-45 -99.5t-17.5 -168.5q-4 -94 -3 -197.5t1 -205.5q0 -16 14 -17h126t127.5 2t116.5 3t93 1q72 0 138.5 -2t89.5 -10q33 -6 16 29q-29 57 -46 128.5 t-17 159.5q0 45 6 90.5t16 92.5t21.5 94t21.5 94q10 53 22.5 103.5t22.5 97.5q23 100 23 158q0 29 -3 52t-8 46q-4 12 -5 21.5t-3 19.5t-3 18t-1 17q0 16 9.5 27.5t31.5 13.5q41 2 94.5 2t87.5 -2q49 -2 50 -78q0 -35 -11.5 -95.5t-27.5 -132.5t-35 -143.5t-31 -126.5 q-12 -47 -23.5 -98t-21.5 -103q-10 -51 -16 -98t-6 -92q0 -80 20 -139.5t54 -98.5t80 -58t97 -19t101.5 16t91.5 47q10 10 24.5 9t20.5 -15l33 -47q16 -33 -15 -70q-43 -55 -112.5 -86t-155.5 -31h-41t-45 4q-8 2 -16 3.5t-17 3.5q-74 23 -203.5 20.5t-299.5 -0.5 q-166 0 -281 -4t-188 0q-14 0 -15 -16q0 -72 4 -141.5t6 -123.5q2 -20 -8 -34.5t-33 -14.5h-145q-23 0 -34 13.5t-11 35.5q0 10 1 45t3 84l4 975q0 43 -5 77t-11 61q-4 14 -7 24t-5 21q-6 20 -7 34z" />
</font>
</defs>
</svg>
