<?xml version="1.0" standalone="no"?>
<!DOCTYPE svg PUBLIC "-//W3C//DTD SVG 1.1//EN" "http://www.w3.org/Graphics/SVG/1.1/DTD/svg11.dtd" >
<svg xmlns="http://www.w3.org/2000/svg" xmlns:xlink="http://www.w3.org/1999/xlink" version="1.1">
<metadata></metadata>
<defs>
<font id="lailaregular" horiz-adv-x="1572" >
<font-face units-per-em="2048" ascent="1638" descent="-410" />
<missing-glyph horiz-adv-x="557" />
<glyph unicode="&#xfb01;" horiz-adv-x="1193" d="M72 989q0 33 26 60q72 -10 138 -11h16v146q0 190 115.5 281t280.5 91t270.5 -56t105.5 -138q0 -57 -55 -88q-33 -18 -66 -18.5t-63 10.5q-51 164 -203 164q-213 0 -213 -238v-154h473q111 0 111 -141v-770q0 -57 51 -80q-41 -66 -107 -65q-113 0 -112 143v786l-416 -2 v-1169q0 -123 -52.5 -185.5t-131.5 -62.5q-111 0 -156 105q94 0 131 42t37 140v1132q-180 10 -180 78z" />
<glyph unicode="&#xfb02;" horiz-adv-x="1208" d="M72 903q0 29 26 60q47 -10 138 -11h16v250q0 174 107.5 264t281.5 90t270.5 -52t96.5 -148v-1229q0 -57 51 -80q-41 -66 -107 -65q-113 0 -112 143v1276q-78 37 -181.5 37t-169 -56.5t-65.5 -173.5v-256h240q12 -14 12 -37q0 -37 -62.5 -65.5t-169.5 -28.5h-20v-1081 q0 -123 -52.5 -185.5t-131.5 -62.5q-111 0 -156 105q94 0 131 42t37 140v1044q-180 10 -180 80z" />
<glyph horiz-adv-x="0" />
<glyph horiz-adv-x="682" />
<glyph horiz-adv-x="0" />
<glyph horiz-adv-x="0" />
<glyph unicode="&#xd;" horiz-adv-x="681" />
<glyph unicode=" "  horiz-adv-x="557" />
<glyph unicode="&#x09;" horiz-adv-x="557" />
<glyph unicode="&#xa0;" horiz-adv-x="557" />
<glyph unicode="!" horiz-adv-x="690" d="M215 89q0 50 43 92t92 42t78 -28.5t29 -77.5t-43 -92t-93.5 -43t-78 28.5t-27.5 78.5zM227 1421v23q0 70 24.5 111.5t72 41.5t75 -42t27.5 -105q0 -14 -2 -29l-41 -817q-2 -35 -2 -90t16 -102q-20 -31 -55 -31q-78 0 -86 135z" />
<glyph unicode="&#x22;" horiz-adv-x="647" d="M82 1701.5q0 149.5 82 149.5q86 0 86 -152.5t-24.5 -316t-58.5 -163.5t-59.5 166.5t-25.5 316zM397 1700.5q0 150.5 82 150.5q86 0 86 -152.5t-24.5 -316t-59.5 -163.5t-59.5 165.5t-24.5 316z" />
<glyph unicode="#" horiz-adv-x="1581" d="M115 399q0 96 164 97h79l138 475h-199q-10 16 -10 37q0 96 164 96h81l70 239q41 141 148 142q61 0 84 -64q-55 -23 -72 -80l-68 -237h387l68 239q49 141 149 142q63 0 86 -64q-55 -20 -73 -80l-68 -237h217q8 -16 8 -37q0 -96 -163 -96h-101l-135 -475h219q8 -29 8 -37 q0 -98 -163 -99h-103l-67 -235q-41 -143 -150 -143q-61 0 -80 65q51 23 70 80l65 233h-389l-67 -235q-41 -143 -148 -143q-63 0 -82 65q53 23 70 80l67 233h-196q-8 25 -8 39zM518 496h389l135 475h-387z" />
<glyph unicode="$" horiz-adv-x="1234" d="M139 332q0 66 37 107.5t98.5 41.5t96.5 -49q-47 -43 -47 -121t86 -139t236.5 -61t261 77.5t110.5 190.5q0 72 -62.5 131t-155.5 98t-202 88t-202 98.5t-155.5 132.5t-62.5 185q0 152 124 255t298 122v133q0 61 -51 80q41 66 106 65q115 0 115 -141v-139 q170 -20 270.5 -99t100.5 -182q0 -57 -32 -91t-72 -34t-89 17q8 33 8 63q0 76 -78.5 140.5t-219 64.5t-224.5 -59.5t-84 -158.5t86 -172t210 -126t248 -108.5t210 -140.5t86 -193q0 -168 -137.5 -287t-341.5 -137v-131q0 -57 51 -78q-43 -66 -109 -66q-113 0 -112 144v135 q-178 25 -290 119t-112 225z" />
<glyph unicode="%" horiz-adv-x="1738" d="M166 1059q0 164 88 295t226 131t214 -108.5t76 -273.5t-93 -296t-229.5 -131t-209 109.5t-72.5 273.5zM289 23q23 16 55 63l936 1333q53 66 98 66t76 -39q-16 -6 -59 -64l-936 -1331q-49 -70 -96.5 -69.5t-73.5 41.5zM293 1076.5q0 -115.5 48 -193.5t124 -78t126 84 t50 198.5t-45 192.5t-124 78t-129 -83t-50 -198.5zM969 365.5q0 162.5 89 295t226 132.5t213 -111t76 -274.5t-93.5 -294.5t-229.5 -131t-208.5 110.5t-72.5 273zM1096 381q0 -117 48 -194.5t125 -77.5t125 81.5t48 198.5t-44 196t-123 79t-129 -83t-50 -200z" />
<glyph unicode="&#x26;" horiz-adv-x="1490" d="M147 418q0 229 230 370q-84 37 -130 114t-46 181q0 178 120.5 290t265 112t219.5 -53.5t75 -139.5q0 -53 -45 -80q-27 -12 -55.5 -12t-57.5 8q-8 92 -50 132t-125 40t-139.5 -66.5t-56.5 -179t75 -179t216 -66.5q12 -20 12 -42t-16 -44q-35 -43 -117 -43q-33 0 -49 2 q-74 -49 -117 -131t-43 -172q0 -154 105.5 -240t280.5 -86t297 94.5t122 239.5q0 248 -209 248q-10 23 -10 41q0 70 127 69q170 0 223 56q37 41 37 108q0 25 -6 55q49 23 86 23t64 -18q57 -37 57 -123t-80 -145.5t-238 -61.5q59 -100 60 -246q0 -207 -153.5 -349 t-393.5 -142t-387.5 122.5t-147.5 313.5z" />
<glyph unicode="'" horiz-adv-x="331" d="M80 1626q0 135 84 135q90 0 90 -137t-25.5 -271t-62.5 -134q-33 0 -59.5 136t-26.5 271z" />
<glyph unicode="(" horiz-adv-x="925" d="M229 513q0 214 69 423t164 350t191.5 229.5t148.5 88.5t66 -33q-471 -449 -471 -1053t471 -1053q-16 -35 -66 -34.5t-145.5 85.5t-191.5 223t-166 349t-70 425z" />
<glyph unicode=")" horiz-adv-x="925" d="M63 -535q471 449 471.5 1053t-471.5 1053q14 33 66.5 33t149 -88.5t191.5 -229.5t163.5 -350t68.5 -423t-69.5 -425t-165.5 -349t-191.5 -223t-145.5 -85t-67 34z" />
<glyph unicode="*" horiz-adv-x="1126" d="M131 1612q0 41 29.5 62.5t68.5 21.5q102 0 283 -123q-39 129 -39 217q0 160 86 160q98 0 98 -133q0 -100 -43 -246q188 129 285 129q39 0 66.5 -22.5t27.5 -65.5q0 -63 -96 -99t-169 -38t-85 0q82 -55 150.5 -134t68.5 -137q0 -33 -25.5 -57.5t-60.5 -24.5 q-61 0 -120.5 91.5t-94.5 199.5q-35 -109 -93 -201t-120 -92q-37 0 -59.5 27t-22.5 71t66.5 121.5t146.5 135.5q-12 -2 -84.5 1t-168 37.5t-95.5 98.5z" />
<glyph unicode="+" horiz-adv-x="1380" d="M141 799q0 100 152 100q100 0 334 -6q-4 111 -9 313q0 150 103 150q18 0 39 -10l-6 -453l475 6q8 -8 8 -35q0 -106 -152 -106q-45 0 -331 8l6 -340q0 -150 -105 -150q-29 0 -37 5l9 485l-475 -8q-10 20 -11 41z" />
<glyph unicode="," horiz-adv-x="540" d="M137 139q4 47 40 82t87 35q78 0 123 -70.5t45 -165.5q0 -145 -69.5 -253.5t-147.5 -108.5q-45 0 -51 45q112 79 112 231q0 74 -36.5 130.5t-102.5 74.5z" />
<glyph unicode="-" horiz-adv-x="1030" d="M123 672q-1 104 153 104h627q4 -16 4 -37q0 -106 -153 -106h-621q-10 20 -10 39z" />
<glyph unicode="." horiz-adv-x="729" d="M229 112.5q0 53.5 48.5 101.5t102.5 48t85 -31.5t31 -85t-47.5 -101.5t-101.5 -48t-86 31.5t-32 85z" />
<glyph unicode="/" horiz-adv-x="1150" d="M72 -229q27 25 49 96l690 1972q39 119 113 119q39 0 77 -27q-27 -23 -51 -96l-690 -1978q-10 -41 -37.5 -79t-72 -38t-78.5 31z" />
<glyph unicode="0" horiz-adv-x="1337" d="M119 741.5q0 331.5 153.5 537.5t397 206t395.5 -206t152 -537.5t-154 -545.5t-394.5 -214t-395 214t-154.5 545.5zM301 760q0 -322 118 -485.5t267.5 -163.5t249.5 175t100 421q0 29 -2 59q-8 281 -121.5 437.5t-263 156.5t-249 -176t-99.5 -424z" />
<glyph unicode="1" horiz-adv-x="718" d="M51 1327q0 49 81 103.5t169 54.5t132 -49t44 -133v-1176q0 -59 51 -80q-41 -66 -106 -65q-117 0 -117 143v1143q0 72 -69.5 71.5t-155.5 -53.5q-29 10 -29 41z" />
<glyph unicode="2" horiz-adv-x="1181" d="M109 1149q0 143 130 239.5t324.5 96.5t317.5 -121t123 -323.5t-169 -411.5t-526 -492l533 21q141 2 207 59q43 -35 43 -89t-56.5 -91t-163.5 -37h-632q-66 0 -97.5 33t-31.5 80v12q360 297 535 518t175 416q0 147 -77.5 228t-188.5 81t-188.5 -59.5t-77.5 -144.5t59 -134 q-43 -39 -100.5 -39t-98 44t-40.5 114z" />
<glyph unicode="3" horiz-adv-x="1136" d="M94 254q0 45 26.5 74.5t65.5 38.5q53 -119 153.5 -187.5t230.5 -68.5t218.5 75.5t88.5 184.5q0 147 -123 236t-291 89q-66 0 -117 -14q-25 14 -24.5 52t73 81t158.5 80t158.5 105.5t72.5 155.5t-66.5 137t-166.5 50q-188 0 -328 -116q-39 12 -39 49q0 57 128 133t282 76 t257 -84t103 -211t-95 -223.5t-234 -139.5q168 -16 280.5 -130.5t112.5 -280.5q0 -199 -145.5 -316.5t-366.5 -117.5q-154 0 -283 79.5t-129 192.5z" />
<glyph unicode="4" horiz-adv-x="1200" d="M111 479q0 102 78.5 275.5t187 334t232.5 278.5t204 118q96 0 96 -129v-885h88q102 0 144 37q23 -27 22.5 -70t-51.5 -69.5t-137 -26.5h-66v-215q0 -57 52 -80q-37 -66 -107 -65q-115 0 -115 143v217h-463q-166 0 -165 137zM244 518q0 -47 59 -47h436v764q0 33 -24 33 q-39 0 -154 -143.5t-216 -328t-101 -278.5z" />
<glyph unicode="5" horiz-adv-x="1128" d="M147 242q0 45 35 75.5t72 30.5q39 -106 124 -164.5t204.5 -58.5t199.5 87t80 212q0 164 -114.5 257t-276.5 93q-111 0 -213 -37q-31 2 -53.5 23.5t-22.5 77t94 469.5q18 90 80 125.5t174 35.5h224q104 0 155 39q35 -29 35 -75q0 -123 -225 -123h-307l-93 -443 q119 43 246 43q190 0 313 -122.5t123 -314t-138 -341t-343 -149.5q-141 0 -257 73.5t-116 186.5z" />
<glyph unicode="6" horiz-adv-x="1230" d="M129 618q0 352 234.5 609.5t539.5 257.5q94 0 94 -58q0 -12 -2 -16q-287 -29 -487.5 -235.5t-200.5 -538.5q0 -227 98.5 -380t280.5 -153q115 0 190.5 77t75.5 235.5t-115.5 253t-281.5 94.5q-25 0 -49 -2q2 66 52 99.5t120 33.5q188 0 313 -127t125 -307 q0 -223 -135 -351t-332 -128q-246 0 -383 178.5t-137 457.5z" />
<glyph unicode="7" horiz-adv-x="985" d="M49 1330q0 67 57.5 102.5t143.5 35.5h637q16 -27 16 -77t-75.5 -188t-167 -286.5t-167 -347t-75.5 -360.5q0 -113 76 -135q-6 -33 -34 -62.5t-87.5 -29.5t-101.5 54t-42 151.5t49.5 239.5t145.5 318q141 258 344 578q-74 -18 -193 -18h-321q-102 0 -160 -62 q-45 20 -45 87z" />
<glyph unicode="8" horiz-adv-x="1177" d="M123 385q0 127 69.5 233.5t176.5 163.5q-104 68 -160.5 146t-56.5 200.5t120.5 239.5t299 117t314.5 -111t136 -289q0 -121 -60.5 -216t-154.5 -152q117 -72 182.5 -155t65.5 -195q0 -150 -126 -267.5t-311.5 -117.5t-340 111.5t-154.5 291.5zM289 412q0 -127 94 -223.5 t254 -96.5q104 0 182 61.5t78 165.5q0 123 -104 205q-94 76 -205 133.5t-150 81.5q-149 -134 -149 -327zM311 1151q0 -162 224 -287q35 -18 102.5 -54t99.5 -54q119 127 119 303q0 125 -80 223t-197.5 98t-192.5 -63.5t-75 -165.5z" />
<glyph unicode="9" horiz-adv-x="1138" d="M66 1044.5q0 194.5 130 317.5t320 123q250 0 393.5 -182t143.5 -467q0 -215 -96.5 -412t-265.5 -319.5t-363 -122.5q-39 0 -67 15t-28 35.5t3 24.5q274 27 459.5 237t185.5 509q0 305 -168 467q-94 88 -217 88t-199 -72t-76 -196q0 -188 139 -295q119 -90 283 -90 q29 0 57 2q0 -66 -50 -100t-122 -34q-199 0 -330.5 138.5t-131.5 333z" />
<glyph unicode=":" horiz-adv-x="649" d="M199 121q0 53 48 100t102 47t85 -31.5t31 -85t-47 -100.5t-101.5 -47t-86 32t-31.5 85zM199 892q0 54 48 101t102 47t85 -31.5t31 -86t-47 -100.5t-101.5 -46t-86 31t-31.5 85z" />
<glyph unicode=";" horiz-adv-x="649" d="M195 145q4 47 40.5 81t90.5 34q78 0 120.5 -69.5t42.5 -159.5q0 -145 -67.5 -259t-145.5 -114q-45 0 -53 45q115 78 115 236q0 74 -39 131t-104 75zM199 892q0 54 48 101t102 47t85 -31.5t31 -86t-47 -100.5t-101.5 -46t-86 31t-31.5 85z" />
<glyph unicode="&#x3c;" horiz-adv-x="1359" d="M74 813q0 76 212 201t440 216t297 91t69 -66q-209 -66 -515.5 -210t-306.5 -203q0 -45 301 -180.5t533 -188.5q0 -63 -36 -96t-105.5 -33t-285.5 84t-409.5 199.5t-193.5 185.5z" />
<glyph unicode="=" horiz-adv-x="1445" d="M176 543q0 104 154 104h934q4 -10 4 -33q0 -111 -154 -110h-930q-8 20 -8 39zM176 1034q0 105 154 105h934q4 -8 4 -33q0 -111 -154 -111h-930q-8 16 -8 39z" />
<glyph unicode="&#x3e;" horiz-adv-x="1349" d="M248 473q229 53 530 188.5t301 180.5q0 59 -306 203.5t-515 209.5q0 66 68.5 66t297 -91t440.5 -216t212 -201q0 -70 -193.5 -185.5t-410.5 -199.5t-287 -84q-137 0 -137 129z" />
<glyph unicode="?" horiz-adv-x="1011" d="M115 1255q0 127 117.5 214t281.5 87t268.5 -90t104.5 -221q0 -92 -35 -169t-84 -128t-97 -98t-83 -102.5t-35 -110.5t27.5 -89t78.5 -38q-2 -41 -32.5 -67.5t-87 -26.5t-106.5 50t-50 126t34 143.5t82 119.5t95 106q117 129 117 272q0 90 -60.5 158.5t-157 68.5 t-154.5 -45t-58 -117q0 -143 131 -194q-2 -23 -37 -41.5t-74 -18.5q-84 0 -135 57.5t-51 153.5zM383 91q0 50 46 93t98.5 43t82 -28.5t29.5 -78.5t-45 -94t-98.5 -44t-83 29.5t-29.5 79.5z" />
<glyph unicode="@" horiz-adv-x="1781" d="M143 506q0 381 234.5 612.5t585.5 231.5q287 0 479 -178.5t192 -462.5q0 -246 -128 -395.5t-277 -149.5q-72 0 -119 36t-55 101q-113 -133 -299 -133q-115 0 -183.5 55.5t-68.5 143.5q0 137 146.5 216t422.5 89l6 102v21q0 88 -35.5 135t-124 47t-134.5 -33t-49 -75 t24 -68q-39 -25 -88 -25t-76 22.5t-27 61.5q0 84 105.5 141.5t252 57.5t228.5 -69.5t82 -190.5v-13l-27 -442v-12q0 -63 62 -64q92 0 176 113t84 326q0 250 -166 400t-414 150q-317 0 -511.5 -202.5t-194.5 -548.5q0 -152 47 -266.5t127 -178.5q154 -123 362.5 -122.5 t372.5 90.5q14 -14 14 -36t-43 -54q-121 -92 -370 -93q-229 0 -412 150q-90 74 -145.5 206t-55.5 304zM672 385q0 -106 142 -106t243 112l12 207q-199 -12 -295 -66q-102 -57 -102 -147z" />
<glyph unicode="A" horiz-adv-x="1308" d="M45 51q47 18 74 96l481 1215q-23 55 -51 82q47 41 97 41t78 -31t52 -98l418 -1217q29 -84 78 -104q-33 -53 -95.5 -53t-93 26.5t-53.5 95.5l-84 242h-584l-86 -223q-53 -141 -135 -141q-70 0 -96 69zM410 471h493l-229 719z" />
<glyph unicode="B" horiz-adv-x="1427" d="M170 1413q207 72 481.5 72t421 -111t146.5 -289q0 -240 -250 -319q154 -39 249 -132t95 -239q0 -188 -163 -300.5t-439.5 -112.5t-394 69.5t-117.5 206.5l2 1040q0 76 -31 115zM371 260q-1 -149 323 -149q211 0 322.5 75.5t111.5 207.5t-112.5 210t-323.5 78h-319z M373 809h313h8q162 0 251 72.5t89 197.5t-96 200t-266 75t-295 -33z" />
<glyph unicode="C" horiz-adv-x="1386" d="M133 715q0 340 198.5 555t493.5 215q176 0 295 -72t119 -174q0 -51 -32.5 -80t-81 -29t-74.5 15q2 14 2 26q0 70 -63.5 125.5t-198.5 55.5q-188 0 -328.5 -161t-140.5 -451.5t126.5 -445.5t354.5 -155q121 0 225.5 49.5t171.5 116.5q14 -2 27.5 -19.5t13.5 -45.5 q0 -76 -144.5 -167t-340.5 -91q-272 0 -447.5 196.5t-175.5 536.5z" />
<glyph unicode="D" horiz-adv-x="1478" d="M170 1413q207 72 453 72q303 0 528 -176q111 -88 177.5 -236.5t66.5 -339t-66.5 -339t-177.5 -236.5q-225 -176 -528 -176q-248 0 -336 63.5t-88 192.5l2 1060q0 76 -31 115zM371 238q0 -49 12 -74q29 -55 240 -55q248 0 417.5 160.5t169.5 462.5t-170 462t-417 160 q-129 0 -246 -33z" />
<glyph unicode="E" horiz-adv-x="1310" d="M172 1395q48 73 161 73h3h647q205 0 205 -106q0 -63 -60 -84q-57 51 -174 51h-559v-500h432q113 0 160 -18t47 -71.5t-49 -77.5q-53 28 -166 28h-8h-416v-414q0 -74 34 -106.5t112 -32.5h413q117 0 174 86q27 -10 43.5 -35.5t16.5 -52.5q0 -135 -225 -135h-431 q-158 0 -233.5 63.5t-75.5 206.5v1043q0 61 -51 82z" />
<glyph unicode="F" horiz-adv-x="1245" d="M172 1395q49 73 164 73h649q203 0 203 -102q0 -61 -60 -86q-59 53 -174 53h-559v-508h432q113 0 160 -17t47 -67.5t-49 -78.5q-53 28 -166 28h-8h-416v-563q0 -59 51 -80q-42 -65 -106 -65h-2q-115 0 -115 143v1188q0 61 -51 82z" />
<glyph unicode="G" horiz-adv-x="1464" d="M133 657q0 369 212 598.5t550 229.5q195 0 312.5 -77t117.5 -181q0 -47 -32.5 -77t-79 -30t-76.5 17q2 10 2 22q0 78 -71 135.5t-214 57.5q-244 0 -388 -172t-144 -463t117.5 -439.5t333.5 -148.5t364 201l4 307h-123q-121 0 -250 -10q-23 31 -23 61q0 47 73 67.5 t238 20.5t209 -28.5t44 -108.5l-4 -698q0 -59 51 -78q-39 -66 -109 -66q-115 0 -114 142v227q-63 -76 -167 -130t-227 -54q-256 0 -431 183t-175 492z" />
<glyph unicode="H" horiz-adv-x="1531" d="M145 1421q37 63 107 64q117 0 117 -142v-546h788v544q0 57 -51 80q37 63 106 64q115 -1 115 -142v-1216q0 -59 51 -80q-40 -65 -104 -65h-2q-115 0 -115 143v547h-788v-545q0 -57 49 -80q-40 -65 -107 -65h-2q-113 0 -112 143v1216q0 57 -52 80z" />
<glyph unicode="I" horiz-adv-x="571" d="M145 1421q37 63 107 64q117 -1 117 -142v-1216q0 -57 49 -80q-40 -65 -107 -65h-2q-113 0 -112 143v1216q0 57 -52 80z" />
<glyph unicode="J" horiz-adv-x="811" d="M55 119q0 51 25 76q96 -68 221 -68q172 0 172 170v1044q0 59 -51 80q41 63 108 64q115 -1 115 -142v-1042q0 -152 -88 -234.5t-222 -82.5t-207 42t-73 93z" />
<glyph unicode="K" horiz-adv-x="1316" d="M145 1421q37 63 107 64q117 0 117 -142v-548l540 573q66 68 105 92.5t83 24.5t73.5 -29t43.5 -67q-66 -23 -153 -107l-537 -532l574 -584q66 -72 141 -88q-43 -94 -123 -94h-6q-47 0 -91 30.5t-130 118.5l-520 535v-541q0 -57 49 -80q-40 -65 -107 -65h-2 q-113 0 -112 143v1216q0 57 -52 80z" />
<glyph unicode="L" horiz-adv-x="1179" d="M158 1421q41 63 108 64q115 0 115 -142v-1071q0 -74 34 -106.5t111 -32.5h336q113 0 166 86q59 -20 59 -82q0 -137 -225 -137h-346q-160 0 -233.5 61.5t-73.5 206.5v1073q0 57 -51 80z" />
<glyph unicode="M" horiz-adv-x="1957" d="M158 25q29 25 37 108l90 1200v17q0 59 -29 94q63 41 129 41q131 0 190 -168l400 -1016l416 1014q59 170 200 170q55 0 115 -35q-31 -31 -31 -94v-17l88 -1204q4 -90 31 -119q-46 -33 -96 -33l-1 1q-50 0 -77 31.5t-35 107.5l-78 1112l-465 -1161q-20 -55 -75 -55l-1 1 q-56 0 -75 54l-453 1163l-76 -1108q-12 -147 -108 -147q-49 0 -96 43z" />
<glyph unicode="N" d="M170 1421q46 63 112 63q1 0 1 1q65 0 109 -33t89 -104l703 -1110v1103q0 57 -51 80q41 63 108 64q115 0 115 -142v-1216q0 -57 47 -84q-39 -61 -104.5 -61t-115.5 40.5t-110 131.5l-682 1056v-1083q0 -57 51 -80q-40 -65 -104 -65h-2q-115 0 -115 143v1216q0 59 -51 80z " />
<glyph unicode="O" d="M147 733q0 342 175.5 547t466 205t463.5 -202t173 -546t-173 -549.5t-463.5 -205.5t-466 204.5t-175.5 546.5zM317 803q0 -356 168 -541q140 -153 344.5 -153t325.5 182q102 152 102 381q0 45 -4 94q-20 287 -161.5 441.5t-347 154.5t-326.5 -184q-100 -152 -101 -375z " />
<glyph unicode="P" horiz-adv-x="1271" d="M162 1395q49 73 164 73h329q238 0 383.5 -123.5t145.5 -331.5t-145.5 -332t-383.5 -124h-270v-430q0 -59 51 -80q-42 -65 -108 -65h-2q-113 0 -113 143v1188q0 59 -51 82zM383 686h264q170 0 259 89t89 235.5t-89 236.5t-259 90h-264v-651z" />
<glyph unicode="Q" horiz-adv-x="1585" d="M176 764q0 309 185.5 515t460 206t452.5 -182.5t178 -475.5q0 -358 -201.5 -576t-523.5 -292q96 -109 236.5 -171t270.5 -62t220 84q25 -31 25 -65t-12.5 -64.5t-43.5 -61.5q-72 -68 -211 -68t-288.5 79t-242.5 180.5t-93 175.5q0 27 30.5 47t122.5 47q233 68 377 249 t144 457.5t-134.5 425t-333 148.5t-316.5 -148.5t-118 -379t99.5 -356.5t273.5 -130q-12 -51 -51 -84t-100 -33q-162 0 -284 156t-122 379z" />
<glyph unicode="R" horiz-adv-x="1290" d="M162 1395q48 73 161 73h3h323q240 0 384.5 -114.5t144.5 -303t-107.5 -298t-294.5 -138.5l338 -450q51 -70 127 -76q-47 -104 -139 -104q-57 0 -96 29.5t-99 113.5l-336 477h-186v-477q0 -59 51 -80q-42 -65 -108 -65h-2q-113 0 -113 143v1188q0 59 -51 82zM383 739h264 q172 0 260 78t88 218.5t-88 219t-260 78.5h-264v-594z" />
<glyph unicode="S" horiz-adv-x="1318" d="M139 332q0 66 37 107.5t98.5 41.5t96.5 -49q-47 -43 -47 -121t86 -139t236.5 -61t261 77.5t110.5 190.5q0 72 -62.5 131t-155.5 98t-202 88t-202 98.5t-155.5 132.5t-62.5 185q0 166 146.5 273.5t349.5 107.5t335 -84t132 -203q0 -57 -32 -91t-72 -34t-89 17q8 33 8 63 q0 76 -78.5 140.5t-219 64.5t-224.5 -59.5t-84 -158.5t86 -172t210 -126t248 -108.5t210 -140.5t86 -193q0 -182 -159 -304t-380 -122t-366.5 99t-145.5 251z" />
<glyph unicode="T" horiz-adv-x="1124" d="M59 1495q56 -27 138 -27h786q115 0 115 -92q0 -41 -33 -73q-49 28 -129 28h-6h-285v-1204q0 -55 51 -80q-40 -65 -102 -65h-2q-117 0 -117 143v1206h-334q-112 0 -112 88q0 45 30 76z" />
<glyph unicode="U" horiz-adv-x="1441" d="M156 1421q45 63 106 64q115 0 115 -142v-837q0 -186 89 -281.5t282 -95.5q371 0 370 377v835q0 57 -53 80q41 63 109 64q113 0 112 -142v-817q0 -254 -131 -398t-405.5 -144t-408.5 145t-134 397v815q0 57 -51 80z" />
<glyph unicode="V" horiz-adv-x="1316" d="M12 1423q51 61 121 62q43 0 73 -31t54 -96l426 -1196l428 1147q21 55 21 96t-21 65q47 20 89 20q1 0 2 1q41 -1 69 -27q29 -26 29 -69t-17 -84l-477 -1207q-29 -72 -55.5 -97t-78.5 -25t-80 26.5t-52 95.5l-455 1209q-31 84 -76 110z" />
<glyph unicode="W" horiz-adv-x="1992" d="M45 1407q37 78 121 78q47 0 78.5 -33t50.5 -117l299 -1171l319 1216q29 104 131 104v1q101 0 127 -105l312 -1218l289 1128q8 35 8 62q0 63 -43 92q41 41 97 41t84 -31t28 -75t-13 -87l-323 -1186q-35 -123 -140 -123v1q-106 0 -135 122l-305 1137l-303 -1137 q-31 -122 -139 -122h-2q-55 0 -86 26.5t-49 95.5l-326 1192q-23 84 -80 109z" />
<glyph unicode="X" horiz-adv-x="1290" d="M45 1382q12 45 48 74t81 29q84 0 150 -103l352 -532l344 477q37 47 37 80t-29 55q53 27 101.5 27t75 -25.5t26.5 -70.5t-39 -101l-428 -577l360 -547q51 -80 119 -88q-12 -43 -45 -70.5t-78 -27.5t-77.5 23.5t-71.5 80.5l-322 487l-348 -485q-78 -106 -154 -106 q-41 0 -68.5 27.5t-27.5 70.5q0 8 2 18q59 0 107 64l403 545l-391 593q-51 78 -127 82z" />
<glyph unicode="Y" horiz-adv-x="1220" d="M31 1384q31 100 123 100q0 1 1 1q91 0 152 -107l320 -569l329 514q33 45 33 79t-24 58q43 25 98 25t80.5 -24.5t25.5 -65.5t-32 -97l-439 -643l-2 -532q0 -66 37 -107q-43 -32 -96 -32q-111 0 -111 151l2 514l-374 658q-49 76 -123 77z" />
<glyph unicode="Z" horiz-adv-x="1249" d="M104 122q0 52 72 142l799 1077q-302 -33 -567 -33h-8q-268 0 -269 117q0 43 35 72q80 -29 215 -29h614q68 0 108 -34.5t40 -88t-74 -143.5l-793 -1075l621 25q139 6 209 51q37 -37 37 -84q0 -119 -260 -119h-633q-66 0 -106 35t-40 87z" />
<glyph unicode="[" horiz-adv-x="802" d="M158 -233v1964h395q125 0 125 -91q0 -25 -6 -32h-342v-1895h223q125 0 125 -88q0 -23 -6 -28h-346q-117 0 -150 71q-18 39 -18 99z" />
<glyph unicode="\" horiz-adv-x="1150" d="M119 1954q35 26 78 26q72 0 112 -116q129 -356 361.5 -1028t328.5 -942q23 -76 50 -99q-33 -29 -76 -28q-76 0 -115 118q-70 199 -262.5 755t-425.5 1220q-27 78 -51 94z" />
<glyph unicode="]" horiz-adv-x="802" d="M160 -315q0 18 4 30h344v1897h-223q-125 0 -125 88q0 14 4 31h346q119 0 154 -74q16 -39 16 -98v-1962h-395q-125 0 -125 88z" />
<glyph unicode="^" horiz-adv-x="1167" d="M111 598q0 57 41 129l319 578q39 70 92 69.5t82 -65.5l414 -795q-33 -31 -72 -31q-63 0 -117 103l-303 583l-356 -684q-41 0 -70.5 28t-29.5 85z" />
<glyph unicode="_" horiz-adv-x="1181" d="M-4 -279q0 105 154 105h1028q4 -16 4 -35q0 -109 -154 -108h-1024q-8 20 -8 38z" />
<glyph unicode="`" horiz-adv-x="479" d="M25 1194l176 266q68 106 145 107q57 0 83 -35t26 -63.5t-4 -47.5q-17 4 -35 4q-45 0 -86 -36l-197 -191q-37 -35 -63 -35q-31 0 -45 31z" />
<glyph unicode="a" horiz-adv-x="1079" d="M111 244q0 152 152.5 245t457.5 101v123q0 127 -45 187.5t-142.5 60.5t-146.5 -40t-49 -90.5t29 -80.5q-43 -33 -95.5 -33t-85 28.5t-32.5 81.5q0 96 110.5 164t272 68t258 -87t96.5 -243v-545q0 -109 100 -123q-39 -79 -127 -79h-2q-129 0 -141 165q-118 -165 -318 -165 h-2q-127 0 -208.5 69.5t-81.5 192.5zM295 262q0 -147 160.5 -147t265.5 141v244q-217 -12 -321.5 -77t-104.5 -161z" />
<glyph unicode="b" horiz-adv-x="1179" d="M129 1493q43 63 109 63q115 0 114 -141l-2 -512q113 156 300.5 156t318.5 -134t131 -383t-150 -403q-150 -156 -355 -156l-1 1q-206 0 -311 91t-105 257l2 1079q0 61 -51 82zM348 332q0 -215 242 -215q154 0 244 112.5t90 299t-86 288t-213 101.5q-184 0 -275 -185z" />
<glyph unicode="c" horiz-adv-x="1005" d="M102 486.5q0 242.5 153 407.5t372 165q129 0 205.5 -57.5t76.5 -139.5q0 -49 -28.5 -77.5t-69.5 -28.5t-68 16q6 23 7 45q0 125 -154 125q-125 0 -223.5 -114.5t-98.5 -310t91.5 -294t224.5 -98.5q170 0 282 108q27 -23 27 -59q0 -66 -102.5 -129t-233.5 -63 q-190 0 -325.5 131t-135.5 373.5z" />
<glyph unicode="d" horiz-adv-x="1173" d="M96 503q0 245 139.5 400.5t335.5 155.5q139 0 250 -70v422q0 61 -51 82q39 63 107 63q116 0 116 -141v-1288q0 -59 51 -80q-42 -65 -106 -65h-2q-115 0 -115 143v33q-92 -176 -295 -176q-172 0 -301 138t-129 383zM279 508q0 -197 80.5 -295t203.5 -98q207 0 258 233v498 q-92 86 -224 86t-225 -113.5t-93 -310.5z" />
<glyph unicode="e" horiz-adv-x="1001" d="M102 488.5q0 240.5 146.5 405.5t337.5 165q152 0 247 -104.5t95 -237.5q0 -96 -52.5 -142.5t-168.5 -50.5l-426 -12q0 -201 87 -297t248.5 -96t268.5 106q30 -16 30 -53q0 -70 -98 -130t-233 -60q-211 0 -346.5 133t-135.5 373.5zM285 600l383 31q84 6 84 97t-52.5 151.5 t-146.5 60.5t-172 -90t-96 -250z" />
<glyph unicode="f" horiz-adv-x="714" d="M72 903q0 29 26 60q47 -10 138 -11h16v279q0 158 87 241.5t211 83.5t192.5 -49t68.5 -116q0 -41 -33 -56q-82 94 -192 95q-74 0 -118 -47.5t-44 -143.5v-287h321q12 -14 13 -37q0 -94 -305 -94h-29v-1081q0 -123 -52.5 -185.5t-131.5 -62.5q-111 0 -156 105q94 0 131 42 t37 140v1044q-180 10 -180 80z" />
<glyph unicode="g" horiz-adv-x="1142" d="M70 -233q0 59 33.5 96t84.5 47q12 -272 373 -272q164 0 255 52t91 138q0 106 -164 106h-262q-145 0 -235 50.5t-90 166t139 173.5q-156 115 -156 313.5t121 310t281 111.5q111 0 202 -55q12 98 75 159.5t131.5 61.5t106.5 -33t38 -87t-43 -79q-45 35 -96.5 35t-87.5 -32 t-46 -83q121 -117 121 -299t-121 -292.5t-280 -110.5q-80 0 -146 26q-90 -23 -90 -88q0 -49 46 -69.5t149 -20.5h235q150 0 228.5 -65.5t78.5 -180.5q0 -152 -149.5 -252t-362.5 -100t-335.5 80t-124.5 193zM309 694q0 -20 2 -43q10 -145 79 -228t165 -83t155.5 79t59.5 199 q0 164 -76 253.5t-171 89.5t-154.5 -78t-59.5 -189z" />
<glyph unicode="h" horiz-adv-x="1216" d="M137 1493q35 63 107 63q115 0 114 -141v-606q53 111 151.5 180.5t230.5 69.5t214 -89t82 -263v-580q0 -57 54 -80q-42 -65 -107 -65h-2q-113 0 -113 143v569q0 215 -188 215q-102 0 -194.5 -82t-127.5 -219v-481q0 -59 52 -80q-42 -65 -105 -65h-2q-115 0 -115 143v1286 q0 59 -51 82z" />
<glyph unicode="i" horiz-adv-x="542" d="M131 1366q0 53 48 91t100.5 38t86 -29.5t33.5 -82t-44 -94.5t-99 -42t-90 33t-35 86zM137 993q39 66 107 66q114 -1 114 -144v-788q0 -59 52 -80q-42 -65 -105 -65h-2q-115 0 -115 143v786q0 59 -51 82z" />
<glyph unicode="j" horiz-adv-x="542" d="M16 -403q96 0 134 42t38 140v1132q0 59 -51 82q39 66 107 66q114 -1 114 -144v-1175q0 -123 -52 -185.5t-132 -62.5q-104 0 -158 105zM131 1366q0 53 48 91t100.5 38t86 -29.5t33.5 -82t-44 -94.5t-99 -42t-90 33t-35 86z" />
<glyph unicode="k" horiz-adv-x="1099" d="M137 1493q35 63 107 63q114 0 114 -141v-811q227 98 337 216t110 239q70 0 110.5 -35t40.5 -94q0 -104 -125.5 -202.5t-330.5 -164.5q291 -358 409 -405q51 -20 123 -21q0 -66 -33.5 -110.5t-93.5 -44.5q-94 0 -192.5 101t-354.5 445v-401q0 -59 52 -80q-42 -65 -105 -65 h-2q-115 0 -115 143v1286q0 59 -51 82z" />
<glyph unicode="l" horiz-adv-x="544" d="M137 1493q35 63 107 63q114 0 114 -141v-1288q0 -59 52 -80q-42 -65 -105 -65h-2q-115 0 -115 143v1286q0 59 -51 82z" />
<glyph unicode="m" horiz-adv-x="1900" d="M137 993q39 66 107 66q115 0 114 -144v-106q53 111 151.5 180.5t221.5 69.5t202 -67.5t97 -203.5q47 117 149.5 194t236.5 77t217 -89t83 -263v-580q0 -57 51 -80q-36 -65 -104 -65h-2q-115 0 -115 143v569q0 215 -188 215q-102 0 -194.5 -84t-127.5 -225v-473 q0 -57 54 -80q-42 -65 -107 -65h-2q-113 0 -113 143v569q0 215 -188 215q-102 0 -194.5 -82t-127.5 -219v-481q0 -59 52 -80q-42 -65 -105 -65h-2q-115 0 -115 143v786q0 59 -51 82z" />
<glyph unicode="n" horiz-adv-x="1216" d="M137 993q39 66 107 66q115 0 114 -144v-106q53 111 151.5 180.5t230.5 69.5t214 -89t82 -263v-580q0 -57 54 -80q-42 -65 -107 -65h-2q-113 0 -113 143v569q0 215 -188 215q-102 0 -194.5 -82t-127.5 -219v-481q0 -59 52 -80q-42 -65 -105 -65h-2q-115 0 -115 143v786 q0 59 -51 82z" />
<glyph unicode="o" horiz-adv-x="1175" d="M102 520q0 256 142.5 397.5t345.5 141.5t345 -142.5t142 -397.5t-142 -396t-345 -141t-345.5 141t-142.5 397zM276 559q0 -244 95.5 -353.5t237 -109.5t217 98.5t75.5 286.5q0 246 -93 353.5t-234.5 107.5t-219.5 -97t-78 -286z" />
<glyph unicode="p" horiz-adv-x="1189" d="M137 993q39 66 107 66q114 -1 114 -144v-2q106 145 292 145l1 1q185 0 317 -141q132 -140 132 -396t-138.5 -397t-317.5 -141t-286 118v-464q0 -61 52 -80q-43 -66 -107 -66q-115 0 -115 146v1273q0 59 -51 82zM358 262q51 -78 115 -109.5t152 -31.5q125 0 212 107.5 t87 292t-87 291t-212 106.5q-176 0 -267 -168v-488z" />
<glyph unicode="q" horiz-adv-x="1157" d="M96 501.5q0 241.5 139.5 399.5t333.5 158q162 0 254 -123q14 123 123 123h47v-1421q0 -61 51 -80q-43 -66 -108 -66q-115 0 -115 146v458q-109 -115 -276 -115q-1 0 -1 1q-169 0 -308.5 139t-139.5 380.5zM279 509q0 -196 90 -296t225 -100t227 125v440 q0 117 -61.5 185.5t-159.5 68.5q-137 0 -229 -113.5t-92 -309.5z" />
<glyph unicode="r" horiz-adv-x="862" d="M137 993q39 66 107 66q114 -1 114 -144v-75q86 219 285 219q96 0 149.5 -49t53.5 -114t-33 -98.5t-67.5 -33.5t-63.5 8q4 20 4 53q0 102 -102 103q-68 0 -133.5 -67.5t-92.5 -207.5v-526q0 -59 52 -80q-42 -65 -105 -65h-2q-115 0 -115 143v786q0 59 -51 82z" />
<glyph unicode="s" horiz-adv-x="1028" d="M113 223q0 63 35.5 99t86 36t78.5 -34q-29 -38 -29 -93q0 -57 57 -97q56 -40 163.5 -40t172 46t64.5 112.5t-60 116t-146 85t-173.5 75.5t-147.5 101.5t-60 139.5q0 123 106.5 206t261 83t265 -56.5t110.5 -148.5v-5q0 -45 -32 -71q-34 -28 -81 -28t-79 24q12 20 12 59 t-47 76t-141.5 37t-149.5 -42t-55 -99t61 -103.5t147 -84t173.5 -80.5t148.5 -110t61 -148q0 -121 -114.5 -209t-290.5 -88t-286.5 67.5t-110.5 173.5z" />
<glyph unicode="t" horiz-adv-x="815" d="M47 1049q72 -10 111 -11h30v166q0 57 -51 82q41 63 107 64q117 0 116 -144v-168h345q8 -14 8 -34q0 -94 -324 -95h-29v-649q0 -76 30 -108.5t97 -32.5q127 0 240 108q35 -18 35 -59q0 -70 -90 -128t-221 -58q-262 0 -263 272v655q-165 6 -165 79q0 40 24 61z" />
<glyph unicode="u" horiz-adv-x="1216" d="M137 993q39 66 107 66q115 0 114 -144v-571q0 -217 213 -217q98 0 177 59.5t120 165.5v559q0 59 -53 82q47 66 109 66q112 -1 112 -144v-788q0 -57 54 -80q-42 -65 -107 -65h-2q-113 0 -113 143v53q-114 -196 -331 -196h-2q-346 0 -347 352v577q0 59 -51 82z" />
<glyph unicode="v" horiz-adv-x="1044" d="M31 963q2 43 34.5 69.5t75.5 26.5q102 0 146 -139l245 -818l287 754q19 50 19 93q0 42 -29 73q47 37 91 37t72.5 -29t28.5 -73t-24 -101l-293 -729q-31 -80 -63.5 -111.5t-91 -31.5t-93.5 32.5t-61 110.5l-260 760q-27 72 -84 76z" />
<glyph unicode="w" horiz-adv-x="1550" d="M31 963q2 43 35.5 69.5t78.5 26.5q104 0 142 -144l186 -802l211 817q18 70 51 99.5t87.5 29.5t86 -30t47.5 -99l203 -832l187 781q10 43 10 85t-27 68q43 27 96.5 27t75.5 -53q10 -25 10 -62t-12 -84l-199 -733q-23 -78 -57.5 -111.5t-93.5 -33.5q-117 0 -156 145 l-188 709l-180 -709q-35 -145 -156 -145t-156 145l-198 756q-20 78 -84 80z" />
<glyph unicode="x" horiz-adv-x="1024" d="M49 76q55 12 103 78l260 348l-242 344q-74 106 -121 121q4 41 34 66.5t69 25.5q76 0 145 -101l223 -323l234 328q68 96 135 96q39 0 69.5 -25.5t32.5 -66.5q-66 -23 -106 -82l-277 -375l240 -348q41 -64 125 -105q-37 -76 -117 -76l-1 1q-81 0 -159 110l-200 287 l-201 -287q-69 -110 -144 -110h-1q-39 0 -69 25.5t-32 68.5z" />
<glyph unicode="y" horiz-adv-x="1095" d="M72 1004q35 55 108 55q88 0 127 -133l281 -842l289 797q14 39 14 77.5t-29 69.5q45 31 100.5 31t90.5 -55q16 -29 16 -65t-18 -81l-426 -1110q-100 -256 -275 -256q-66 0 -102.5 33t-36.5 83t33 81q37 -39 90 -39t85 28.5t58 102.5l74 201h-6q-41 0 -76 27.5t-51 78.5 l-283 819q-20 76 -63 97z" />
<glyph unicode="z" horiz-adv-x="1038" d="M131 122q0 54 66 126l585 672q-256 -31 -399 -31q-250 0 -250 110q0 39 33 68q80 -29 207 -29h424q63 0 100 -33.5t37 -87t-68 -126.5l-577 -668l405 14q135 2 203 56q37 -36 37 -89q0 -104 -252 -104h-412q-66 0 -102.5 34t-36.5 88z" />
<glyph unicode="{" horiz-adv-x="786" d="M139 657.5q0 18.5 21.5 37t48.5 39t48.5 72.5t21.5 126t-17.5 240.5t-17.5 224.5q0 188 85 283.5t189 95.5q76 0 121 -52q-100 -10 -164.5 -79.5t-64.5 -188.5q0 -59 18 -264t18 -263.5t-17 -105.5t-42 -74.5t-51 -48.5q-41 -33 -68 -41q178 -88 178 -262 q0 -66 -18 -280.5t-18 -278.5q0 -117 63.5 -185.5t165.5 -80.5q-41 -51 -133 -51t-177 95t-85 282q0 63 17.5 238t17.5 250t-21.5 127t-48.5 73q-70 53 -70 71.5z" />
<glyph unicode="|" horiz-adv-x="571" d="M145 1763q35 63 107 64q117 0 117 -141v-1895q0 -57 49 -80q-41 -63 -109 -63q-113 0 -112 143v1892q0 57 -52 80z" />
<glyph unicode="}" horiz-adv-x="786" d="M139 -428q100 12 164 80.5t64 185.5q0 63 -17.5 278.5t-17.5 280t23.5 117.5t62.5 84q47 39 92 61q-55 18 -119 91q-59 66 -59 174q0 63 17.5 268t17.5 264q0 119 -63.5 188.5t-164.5 79.5q45 51 119 52q104 0 189 -95.5t85 -283.5q0 -57 -17 -224t-17 -241t22.5 -126 t48 -72.5t48 -39t22.5 -34t-22.5 -35t-48 -40t-48 -72.5t-22.5 -127t17 -250t17 -238q0 -186 -85 -281.5t-176 -95.5t-132 51z" />
<glyph unicode="~" horiz-adv-x="1406" d="M213 783q0 73 56.5 122t141.5 49t289.5 -57t253.5 -57q123 0 133 110q51 -23 51.5 -91t-56 -117.5t-138.5 -49.5t-286.5 57.5t-260.5 57.5q-123 0 -133 -111q-51 14 -51 87z" />
<glyph unicode="&#xa1;" horiz-adv-x="671" d="M217 975q0 49 43 92t93 43t78 -28.5t28 -80t-43 -92.5t-92.5 -41t-78 29t-28.5 78zM229 -332l29 905q8 135 86 136q35 0 57 -29q-18 -47 -18 -104.5t2 -90.5l41 -817q2 -14 2 -53t-26.5 -81t-74.5 -42t-73 42t-25 112v22z" />
<glyph unicode="&#xa2;" horiz-adv-x="1005" d="M102 483.5q0 196.5 103.5 348t267.5 202.5v152q0 61 -53 80q43 66 108 65q113 0 113 -143v-129q123 -2 195.5 -58.5t72.5 -138.5q0 -49 -28.5 -77.5t-69.5 -28.5t-68 16q6 23 7 45q0 125 -154 125q-125 0 -223.5 -114.5t-98.5 -310t91.5 -294t224.5 -98.5q170 0 282 108 q27 -23 27 -59q0 -61 -89 -120.5t-208 -69.5v-131q0 -55 51 -78q-41 -66 -106 -66q-117 0 -117 144v147q-143 41 -235.5 164t-92.5 319.5z" />
<glyph unicode="&#xa3;" horiz-adv-x="1239" d="M88 721q0 94 139 94h170q-10 160 -10 236q0 195 122 314.5t261 119.5t220 -68.5t81 -154.5q0 -104 -110 -125q-18 90 -72.5 159.5t-143 69.5t-135.5 -70.5t-47 -179t8 -301.5h373q6 -10 6 -31q0 -98 -141 -98h-231v-84q0 -104 -26 -228t-93 -167q72 -6 251 -40t288.5 -34 t195.5 76q16 -20 16 -55q0 -66 -64.5 -119t-174 -53t-318.5 35.5t-319.5 35.5t-196.5 -69q-16 23 -16 66.5t46 90.5t130 62q33 27 52.5 54.5t36.5 100t17 187t-4 141.5h-303q-8 25 -8 35z" />
<glyph unicode="&#xa4;" horiz-adv-x="1292" d="M143 367l162 157q-72 100 -72 241.5t58 238.5l-148 147q12 31 37 43q25 20 63 20t95 -59l47 -47q109 82 262.5 82t259.5 -82l45 47q57 59 95 59t63 -20q23 -10 39 -43l-150 -150q55 -98 55.5 -237t-67.5 -240l162 -157q-8 -29 -39 -39q-25 -20 -62.5 -20.5t-93.5 54.5 l-65 62q-100 -70 -239.5 -70t-248.5 72l-63 -64q-59 -53 -96 -53t-62 19q-29 10 -37 39zM385 823q0 -199 83 -282.5t201.5 -83.5t180 70.5t61.5 197.5q0 25 -2 49q-14 162 -91 237.5t-194.5 75.5t-178 -69.5t-60.5 -194.5z" />
<glyph unicode="&#xa5;" horiz-adv-x="1259" d="M31 1384q31 100 123 100.5t153 -106.5l320 -569l329 514q33 45 33 79t-24 58q43 25 98 25t80.5 -24.5t25.5 -65.5t-32 -97l-349 -510h299q6 -25 7 -32q0 -94 -152 -94h-240l-4 -7v-155h389q6 -18 7 -31q0 -96 -152 -96h-246v-250q0 -66 37 -107q-43 -33 -96 -32 q-111 0 -111 151v238h-383q-6 18 -6 33q0 94 152 94h239v149l-6 13h-379q-6 12 -6 30q0 96 152 96h160l-295 519q-49 76 -123 77z" />
<glyph unicode="&#xa6;" horiz-adv-x="571" d="M150 586q41 63 106 63q115 0 115 -141v-520q0 -59 51 -80q-45 -63 -107 -64q-115 0 -114 144v518q0 59 -51 80zM150 1655q41 66 106 65q115 0 115 -143v-518q0 -59 51 -80q-43 -66 -107 -66q-115 0 -114 144v518q0 59 -51 80z" />
<glyph unicode="&#xa7;" horiz-adv-x="1318" d="M186 -430q0 63 36 103t92.5 40t86.5 -45q-41 -53 -41 -108q0 -90 77 -150.5t213 -60.5t235.5 76.5t99.5 185.5q0 82 -79 147.5t-190.5 115.5t-223 107.5t-190.5 150.5t-79 215t65.5 196.5t155.5 74.5q49 0 91 -22q-72 -23 -113 -79t-41 -136t56.5 -146.5t140.5 -109.5 t183 -93t183 -96.5t140.5 -122t56.5 -169.5q0 -182 -143.5 -304t-345 -122t-334 99t-132.5 253zM223 1104q0 166 134.5 273.5t317.5 107.5t301 -84t118 -205q0 -57 -27 -89t-73 -32t-76 17q8 31 8 61q0 76 -72 140.5t-199 64.5t-200.5 -58.5t-73.5 -157t78 -171 t190.5 -125.5t224 -111.5t189.5 -147.5t78 -198.5t-73 -193.5t-163 -84q-59 0 -106 24q84 20 135 86t51 149t-79 150.5t-190.5 117.5t-223 105.5t-190.5 147.5t-79 213z" />
<glyph unicode="&#xa8;" horiz-adv-x="579" d="M25 1311q0 45 39.5 84t84 39t70 -27t25.5 -72t-39 -84t-83 -39t-70.5 27t-26.5 72zM336 1311q0 45 40 84t84 39t69.5 -27t25.5 -72t-39 -84t-84 -39t-70.5 27t-25.5 72z" />
<glyph unicode="&#xa9;" horiz-adv-x="1779" d="M147 728q0 327 211 542t530.5 215t531.5 -215t212 -542t-211 -536.5t-531.5 -209.5t-531.5 209.5t-211 536.5zM258 730.5q0 -279.5 172 -469t459 -189.5t460 189.5t173 469t-173 472t-459 192.5t-459 -192.5t-173 -472zM473 714q0 206 132 363.5t327 157.5 q121 0 201.5 -58.5t80.5 -142.5q0 -41 -27.5 -65.5t-61 -24.5t-64.5 12l4 29q0 59 -42 99t-118 40q-129 0 -203.5 -113.5t-74.5 -282.5t83 -261t210 -92q160 0 262 135q29 -8 28 -51q0 -66 -97 -136.5t-230 -70.5q-176 0 -293 128t-117 334z" />
<glyph unicode="&#xaa;" horiz-adv-x="1079" d="M111 244q0 152 152.5 245t457.5 101v123q0 127 -45 187.5t-142.5 60.5t-146.5 -40t-49 -90.5t29 -80.5q-43 -33 -95.5 -33t-85 28.5t-32.5 81.5q0 96 110.5 164t272 68t258 -87t96.5 -243v-545q0 -109 100 -123q-39 -80 -129 -79q-129 0 -141 165q-119 -166 -320 -165 q-127 0 -208.5 69.5t-81.5 192.5zM295 262q0 -147 160.5 -147t265.5 141v244q-217 -12 -321.5 -77t-104.5 -161z" />
<glyph unicode="&#xab;" horiz-adv-x="1255" d="M160 828.5q0 72.5 86 198.5t187.5 221t143 95t60.5 -43q-139 -157 -201.5 -264.5t-62.5 -207t63.5 -209t200.5 -261.5q-18 -43 -60 -43t-143.5 95.5t-187.5 220.5t-86 197.5zM618 828.5q0 72.5 87.5 198.5t188.5 221t142 95t60 -43q-140 -157 -202.5 -264.5t-62.5 -207 t63.5 -208t201.5 -262.5q-18 -43 -60.5 -43t-143.5 95.5t-187.5 220.5t-86.5 197.5z" />
<glyph unicode="&#xac;" horiz-adv-x="1509" d="M119 870q0 90 147 91h928q74 0 104.5 -28.5t30.5 -96.5v-226q0 -57 51 -80q-39 -63 -106 -63q-115 0 -115 141v185q0 41 -47 41h-983q-10 20 -10 36z" />
<glyph unicode="&#xad;" horiz-adv-x="1030" d="M123 672q-1 104 153 104h627q4 -16 4 -37q0 -106 -153 -106h-621q-10 20 -10 39z" />
<glyph unicode="&#xae;" horiz-adv-x="1380" d="M143 1114q0 246 155 400.5t391.5 154.5t391 -154.5t154.5 -400.5t-154.5 -400.5t-391 -154.5t-391.5 154.5t-155 400.5zM225 1114q0 -205 127 -345t337 -140t338 140t128 346t-126 345t-337 139t-339 -140t-128 -345zM459 1442q23 35 76 35h145q121 0 193.5 -56.5 t72.5 -141.5t-52 -138.5t-142 -69.5l159 -215q25 -33 60 -37q-20 -47 -76.5 -47t-103.5 66l-160 227h-45v-223q0 -33 26 -41q-25 -29 -67 -29q-63 0 -64 68v565q0 25 -22 37zM588 1145h88q156 0 155 125q0 129 -155 129h-88v-254z" />
<glyph unicode="&#xaf;" horiz-adv-x="733" d="M25 1283q0 28 28.5 48.5t77.5 20.5h567q10 -10 10.5 -40t-28.5 -50.5t-78 -20.5h-567q-10 14 -10 42z" />
<glyph unicode="&#xb0;" horiz-adv-x="997" d="M127 1412q0 130 89 214t222 84t218 -82t85 -212t-87 -215t-220 -85t-220 83t-87 213zM252 1417q0 -82 52 -137t132 -55t130 53t50 135t-51 135.5t-132 53.5t-131 -51.5t-50 -133.5z" />
<glyph unicode="&#xb1;" horiz-adv-x="1464" d="M184 227q0 105 154 105h938q8 -14 8 -35q0 -109 -154 -109h-935q-10 27 -11 39zM184 928q0 104 152 104q133 -8 332 -8q-4 152 -9 240q0 147 105 147q23 0 39 -8l-6 -379l475 8q8 -20 8 -39q0 -104 -152 -104q-184 4 -331 6q2 -123 6 -270q0 -152 -107 -152q-18 0 -34 8 l8 414l-475 -6q-11 10 -11 39z" />
<glyph unicode="&#xb2;" horiz-adv-x="770" d="M76 690.5q0 16.5 2 22.5q238 190 338 311t100 231q0 76 -41 115t-110.5 39t-109.5 -29.5t-40 -78t45 -74.5q-29 -33 -77 -33t-77.5 28.5t-29.5 73.5q0 78 83 137.5t206.5 59.5t206.5 -68.5t83 -183.5t-100 -227.5t-334 -290.5q133 14 307 14t174 -75q0 -29 -28 -50 q-48 17 -144 17h-360q-45 0 -69.5 22.5t-24.5 39z" />
<glyph unicode="&#xb3;" horiz-adv-x="804" d="M94 779.5q0 60.5 64 72.5q68 -129 260 -129q66 0 109.5 35t43.5 96q0 92 -67.5 140t-179.5 48q-31 0 -84 -12q-16 10 -16.5 32.5t47.5 48.5t105.5 43t105.5 51t48 80t-43 72.5t-117.5 26.5t-172.5 -59q-12 0 -21.5 13.5t-9.5 27.5q0 35 82 77t181 42t168 -48t69 -121 t-67 -127t-165 -79q121 -10 200 -75.5t79 -168t-98.5 -171t-220.5 -68.5t-211 46t-89 106.5z" />
<glyph unicode="&#xb4;" horiz-adv-x="505" d="M25 1433.5q0 26.5 14 49.5q29 51 96.5 51t143.5 -92l204 -244q-12 -35 -42.5 -35t-69.5 27l-213 170q-39 29 -70 29t-53 -11q-10 29 -10 55.5z" />
<glyph unicode="&#xb5;" horiz-adv-x="1224" d="M137 993q39 66 107 66q115 0 114 -144v-571q0 -217 213 -217q98 0 177 59.5t120 165.5v559q0 59 -53 82q47 66 109 66q112 -1 112 -144v-788q0 -57 54 -80q-43 -66 -109 -65q-113 0 -113 143v53q-115 -197 -329 -196q-109 0 -181 53v-242q0 -57 52 -82q-43 -66 -107 -65 q-115 0 -115 143v1122q0 59 -51 82z" />
<glyph unicode="&#xb6;" horiz-adv-x="1345" d="M119 1018q0 201 107.5 325.5t291.5 124.5h539q-16 -84 -17 -202v-1266q-20 -6 -47 -6q-96 0 -96 110v1106q0 74 8 121h-114q-41 0 -58.5 -18.5t-17.5 -59.5v-1253q-23 -6 -47 -6q-96 0 -97 110v461h-53q-184 0 -291.5 126t-107.5 327z" />
<glyph unicode="&#xb7;" horiz-adv-x="874" d="M305 801q0 53 47 100t101.5 47t85 -31.5t30.5 -86t-47 -100.5t-101 -46t-85 32t-31 85z" />
<glyph unicode="&#xb8;" horiz-adv-x="667" d="M33 -346q0 31 26 53q96 -106 256 -106t160 100q0 80 -129 80h-39q-49 0 -49 39q0 16 8 39l72 198h121l-70 -196h25q96 0 160.5 -42t64.5 -123t-85 -142.5t-217 -61.5t-218 51t-86 111z" />
<glyph unicode="&#xb9;" horiz-adv-x="370" d="M29 1397.5q0 25.5 52 56.5t109.5 31t87 -29t29.5 -76v-682q0 -39 31 -47q-29 -37 -70 -37q-72 0 -71 82v666q0 39 -45.5 39t-106.5 -29q-16 0 -16 25.5z" />
<glyph unicode="&#xba;" horiz-adv-x="823" d="M94 1173.5q0 147.5 93.5 229.5t225.5 82t223 -81t91 -229.5t-91 -229.5t-223 -81t-225.5 81t-93.5 228.5zM229 1208q0 -139 59.5 -198.5t140.5 -59.5t124 50.5t43 140.5q0 135 -59.5 196.5t-141.5 61.5t-124 -51.5t-42 -139.5z" />
<glyph unicode="&#xbb;" horiz-adv-x="1255" d="M160 358q137 152 199.5 261.5t62.5 209t-62.5 208t-199.5 263.5q4 12 20.5 27.5t36.5 15.5q43 0 144.5 -95t188.5 -221t87 -198.5t-86 -197.5t-188.5 -220.5t-145.5 -95.5q-20 0 -36.5 15.5t-20.5 27.5zM618 358q137 152 200 261.5t63 209t-62.5 208t-200.5 263.5 q4 12 21.5 27.5t38.5 15.5q43 0 144.5 -95t187.5 -221t86 -198.5t-86 -197.5t-187.5 -220.5t-144.5 -95.5q-20 0 -37.5 15.5t-22.5 27.5z" />
<glyph unicode="&#xbc;" horiz-adv-x="1357" d="M74 1396.5q0 24.5 46 56.5t109 32q115 0 115 -109v-686q0 -33 37 -45q-27 -39 -72 -39q-80 0 -80 84v664q0 45 -49 45q-35 0 -86 -33q-20 6 -20 30.5zM162 16q8 8 39 60l782 1351q37 57 72 57.5t55 -34.5q-10 -6 -39 -55l-782 -1352q-35 -59 -71 -59t-56 32zM667.5 283 q0.5 84 80 226t185 253.5t169.5 111.5q74 0 74 -73v-518h32q61 0 86 22q20 -20 20.5 -44.5t-25 -43t-68.5 -18.5h-45v-123q0 -33 36 -49q-33 -37 -75 -37q-80 0 -80 84v125h-275q-115 0 -114.5 84zM776 311q0 -28 35 -28h246v422q0 20 -15 20q-39 0 -152.5 -168t-113.5 -246 z" />
<glyph unicode="&#xbd;" horiz-adv-x="1488" d="M59.5 1397.5q-0.5 23.5 47 55.5t106.5 32t90 -30t31 -79v-686q0 -33 35 -45q-27 -39 -72 -39q-80 0 -80 84v664q0 45 -49 45q-37 0 -90 -33q-18 8 -18.5 31.5zM127 16q8 8 39 60l784 1351q37 57 71 57.5t56 -34.5q-4 -2 -41 -55l-782 -1352q-35 -59 -69.5 -59t-57.5 32z M778 664q0 80 83 140t208 60t207 -69.5t82 -185t-105.5 -232.5t-339.5 -285q190 16 314 17q180 0 180 -78q0 -29 -29 -47q-73 16 -145 16h-359q-45 0 -71.5 24.5t-22.5 59.5q238 188 338.5 309t100.5 232q0 76 -41 117.5t-110 41.5t-109.5 -31.5t-40.5 -77.5t45 -79 q-33 -33 -79 -33t-76 27.5t-30 73.5z" />
<glyph unicode="&#xbe;" horiz-adv-x="1550" d="M94 779.5q0 60.5 64 72.5q72 -135 260 -135q66 0 109.5 37t43.5 114.5t-67.5 125.5t-179.5 48q-31 0 -84 -12q-16 10 -17 27q0 35 154 84q57 18 105 55t48 86t-44 78t-117.5 29t-171.5 -60q-31 6 -31 39t82 75t181 42t168 -48t69 -121t-67 -127t-165 -79 q121 -10 200 -75.5t79 -168t-98.5 -171t-220.5 -68.5t-211 46t-89 106.5zM367 18q14 10 45 58l805 1351q41 57 74.5 57.5t56.5 -34.5q-14 -6 -43 -55l-807 -1352q-37 -59 -73 -59t-58 34zM862 285q0 74 81 216t186.5 257.5t164.5 115.5q76 0 76 -73v-518h33q61 0 86 22 q18 -16 18 -42.5t-25.5 -45t-66.5 -18.5h-45v-123q0 -33 35 -49q-27 -37 -74 -37q-80 0 -80 84v125h-274q-115 0 -115 86zM969 311q0 -28 37 -28h245v422q0 20 -14 20q-39 0 -153.5 -166t-114.5 -248z" />
<glyph unicode="&#xbf;" horiz-adv-x="1026" d="M147 -197q0 92 39 170t93.5 129.5t109.5 98.5t94 103t39 111.5t-27.5 88.5t-78.5 35q2 43 32.5 69.5t87 26.5t106.5 -50t50 -126t-38 -142.5t-91 -119t-106 -105.5q-129 -129 -129 -274q0 -90 59 -160t154.5 -70t144.5 45t49 117q0 143 -133 199q4 23 39 41t74 18 q84 0 135 -58.5t51 -156.5q0 -127 -108.5 -214t-272.5 -87t-268.5 91t-104.5 220zM389 931q0 50 46 94t97.5 44t81 -30.5t29.5 -80t-46 -93.5t-97 -44t-81 30t-30 80z" />
<glyph unicode="&#xc0;" horiz-adv-x="1308" d="M45 51q47 18 74 96l481 1215q-23 55 -51 82q47 41 97 41t78 -31t52 -98l418 -1217q29 -84 78 -104q-33 -53 -95.5 -53t-93 26.5t-53.5 95.5l-84 242h-584l-86 -223q-53 -141 -135 -141q-70 0 -96 69zM410 471h493l-229 719zM614 1624l177 266q68 106 145 107 q57 0 82.5 -35t25.5 -63.5t-4 -47.5q-16 4 -34 4q-45 0 -86 -36l-197 -191q-37 -35 -66 -35t-43 31z" />
<glyph unicode="&#xc1;" horiz-adv-x="1308" d="M45 51q47 18 74 96l481 1215q-23 55 -51 82q47 41 97 41t78 -31t52 -98l418 -1217q29 -84 78 -104q-33 -53 -95.5 -53t-93 26.5t-53.5 95.5l-84 242h-584l-86 -223q-53 -141 -135 -141q-70 0 -96 69zM342 1863.5q0 26.5 14 49.5q29 51 96.5 51t143.5 -92l205 -244 q-12 -35 -43 -35t-70 27l-213 170q-39 29 -69.5 29t-53.5 -11q-10 29 -10 55.5zM410 471h493l-229 719z" />
<glyph unicode="&#xc2;" horiz-adv-x="1308" d="M45 51q47 18 74 96l481 1215q-23 55 -51 82q47 41 97 41t78 -31t52 -98l418 -1217q29 -84 78 -104q-33 -53 -95.5 -53t-93 26.5t-53.5 95.5l-84 242h-584l-86 -223q-53 -141 -135 -141q-70 0 -96 69zM395 1624l137 211q33 53 65 77.5t78 24.5t76.5 -24.5t65.5 -77.5 l135 -211q-8 -31 -45 -31t-71 35l-162 164l-162 -164q-35 -35 -72 -35t-45 31zM410 471h493l-229 719z" />
<glyph unicode="&#xc3;" horiz-adv-x="1308" d="M45 51q47 18 74 96l481 1215q-23 55 -51 82q47 41 97 41t78 -31t52 -98l418 -1217q29 -84 78 -104q-33 -53 -95.5 -53t-93 26.5t-53.5 95.5l-84 242h-584l-86 -223q-53 -141 -135 -141q-70 0 -96 69zM381 1716q0 70 54 119t127 49t159 -54t128 -54t71.5 29.5t33.5 80.5 q53 -18 53.5 -84.5t-55 -117t-125 -50.5t-155.5 55.5t-129 55.5t-74 -30t-33 -81q-55 12 -55 82zM410 471h493l-229 719z" />
<glyph unicode="&#xc4;" horiz-adv-x="1308" d="M45 51q47 18 74 96l481 1215q-23 55 -51 82q47 41 97 41t78 -31t52 -98l418 -1217q29 -84 78 -104q-33 -53 -95.5 -53t-93 26.5t-53.5 95.5l-84 242h-584l-86 -223q-53 -141 -135 -141q-70 0 -96 69zM410 471h493l-229 719zM412 1741q0 45 40 84t84 39t69.5 -27t25.5 -72 t-39 -84t-83 -39t-70.5 27t-26.5 72zM723 1741q0 45 40 84t84 39t69.5 -27t25.5 -72t-39 -84t-84 -39t-70.5 27t-25.5 72z" />
<glyph unicode="&#xc5;" horiz-adv-x="1308" d="M45 51q47 18 74 96l481 1215q-23 55 -51 82q47 41 97 41t78 -31t52 -98l418 -1217q29 -84 78 -104q-33 -53 -95.5 -53t-93 26.5t-53.5 95.5l-84 242h-584l-86 -223q-53 -141 -135 -141q-70 0 -96 69zM410 471h493l-229 719zM465 1764q0 87 61.5 133.5t150.5 46.5 t150.5 -47.5t61.5 -133.5t-61.5 -134t-150.5 -48t-150.5 48t-61.5 135zM592 1804.5q0 -24.5 2 -39.5q2 -59 26.5 -88.5t61.5 -29.5q80 0 80 88q0 14 -2 30q-2 55 -28.5 85t-63.5 30t-56.5 -25.5t-19.5 -50z" />
<glyph unicode="&#xc6;" horiz-adv-x="1961" d="M39 59q55 14 94 95l608 1204q53 111 170 110h721q207 0 207 -106q0 -63 -61 -84q-57 51 -172 51h-562v-500h433q113 0 161 -18t48 -70.5t-52 -78.5q-51 29 -172 28h-418v-422q0 -72 33 -101.5t109 -29.5h420q115 0 172 86q61 -25 61 -88q0 -135 -227 -135h-432 q-158 0 -233 62.5t-75 199.5v86h-473l-125 -254q-29 -57 -55 -80.5t-63 -23.5q-78 0 -117 69zM469 487h403v820z" />
<glyph unicode="&#xc7;" horiz-adv-x="1386" d="M133 698q0 356 198.5 571.5t493.5 215.5q176 0 295 -72t119 -174q0 -51 -32.5 -80t-81 -29t-74.5 15q2 14 2 26q0 70 -63.5 125.5t-198.5 55.5q-188 0 -328.5 -161t-140.5 -451.5t126.5 -445.5t354.5 -155q121 0 225.5 49.5t171.5 116.5q14 -2 27.5 -19.5t13.5 -45.5 q0 -76 -140 -166t-333 -92l-43 -121h25q96 0 160.5 -42t64.5 -123t-85 -142.5t-217 -61.5t-218 51t-86 111q0 31 26 53q96 -106 256 -106t160 100q0 80 -129 80h-39q-49 0 -49 39q0 16 8 39l47 131q-231 39 -373.5 229t-142.5 479z" />
<glyph unicode="&#xc8;" horiz-adv-x="1310" d="M172 1395q49 74 164 73h647q205 0 205 -106q0 -63 -60 -84q-57 51 -174 51h-559v-500h432q113 0 160 -18t47 -71.5t-49 -77.5q-55 29 -174 28h-416v-414q0 -74 34 -106.5t112 -32.5h413q117 0 174 86q27 -10 43.5 -35.5t16.5 -52.5q0 -135 -225 -135h-431 q-158 0 -233.5 63.5t-75.5 206.5v1043q0 61 -51 82zM598 1624l176 266q68 106 146 107q57 0 82.5 -35t25.5 -63.5t-4 -47.5q-16 4 -35 4q-45 0 -86 -36l-196 -191q-37 -35 -66 -35t-43 31z" />
<glyph unicode="&#xc9;" horiz-adv-x="1310" d="M172 1395q49 74 164 73h647q205 0 205 -106q0 -63 -60 -84q-57 51 -174 51h-559v-500h432q113 0 160 -18t47 -71.5t-49 -77.5q-55 29 -174 28h-416v-414q0 -74 34 -106.5t112 -32.5h413q117 0 174 86q27 -10 43.5 -35.5t16.5 -52.5q0 -135 -225 -135h-431 q-158 0 -233.5 63.5t-75.5 206.5v1043q0 61 -51 82zM326 1863.5q0 26.5 14 49.5q29 51 96.5 51t143.5 -92l204 -244q-12 -35 -42.5 -35t-69.5 27l-213 170q-39 29 -70 29t-53 -11q-10 29 -10 55.5z" />
<glyph unicode="&#xca;" horiz-adv-x="1310" d="M172 1395q49 74 164 73h647q205 0 205 -106q0 -63 -60 -84q-57 51 -174 51h-559v-500h432q113 0 160 -18t47 -71.5t-49 -77.5q-55 29 -174 28h-416v-414q0 -74 34 -106.5t112 -32.5h413q117 0 174 86q27 -10 43.5 -35.5t16.5 -52.5q0 -135 -225 -135h-431 q-158 0 -233.5 63.5t-75.5 206.5v1043q0 61 -51 82zM381 1624l137 211q33 53 64.5 77.5t78 24.5t77 -24.5t65.5 -77.5l135 -211q-8 -31 -45 -31t-72 35l-162 164l-161 -164q-35 -35 -72 -35t-45 31z" />
<glyph unicode="&#xcb;" horiz-adv-x="1310" d="M172 1395q49 74 164 73h647q205 0 205 -106q0 -63 -60 -84q-57 51 -174 51h-559v-500h432q113 0 160 -18t47 -71.5t-49 -77.5q-55 29 -174 28h-416v-414q0 -74 34 -106.5t112 -32.5h413q117 0 174 86q27 -10 43.5 -35.5t16.5 -52.5q0 -135 -225 -135h-431 q-158 0 -233.5 63.5t-75.5 206.5v1043q0 61 -51 82zM397 1741q0 45 40 84t84 39t69.5 -27t25.5 -72t-38.5 -84t-82.5 -39t-71 27t-27 72zM709 1741q0 45 39.5 84t84 39t70 -27t25.5 -72t-39 -84t-84 -39t-70.5 27t-25.5 72z" />
<glyph unicode="&#xcc;" horiz-adv-x="571" d="M145 1421q37 63 107 64q117 -1 117 -142v-1216q0 -57 49 -80q-41 -66 -109 -65q-113 0 -112 143v1216q0 57 -52 80zM223 1624l176 266q68 107 146 107q57 0 82.5 -35t25.5 -63.5t-4 -47.5q-16 4 -35 4q-45 0 -86 -36l-196 -191q-37 -35 -64 -35q-31 0 -45 31z" />
<glyph unicode="&#xcd;" horiz-adv-x="571" d="M-47 1863.5q0 26.5 14 49.5q29 51 96.5 51t143.5 -92l205 -244q-12 -35 -43 -35t-70 27l-213 170q-39 29 -69.5 29t-53.5 -11q-10 29 -10 55.5zM147 1421q37 63 107 64q117 -1 117 -142v-1216q0 -57 49 -80q-41 -66 -109 -65q-113 0 -112 143v1216q0 57 -52 80z" />
<glyph unicode="&#xce;" horiz-adv-x="571" d="M4 1624l137 211q33 53 65 77.5t78 24.5t76.5 -24.5t65.5 -77.5l135 -211q-8 -31 -45 -31t-72 35l-161 164l-162 -164q-35 -35 -72 -35t-45 31zM145 1421q37 63 107 64q117 -1 117 -142v-1216q0 -57 49 -80q-41 -66 -109 -65q-113 0 -112 143v1216q0 57 -52 80z" />
<glyph unicode="&#xcf;" horiz-adv-x="571" d="M20 1741q0 45 40 84t84 39t70 -27t26 -72t-39 -84t-83 -39t-71 27t-27 72zM145 1421q37 63 107 64q117 -1 117 -142v-1216q0 -57 49 -80q-41 -66 -109 -65q-113 0 -112 143v1216q0 57 -52 80zM332 1741q0 45 40 84t84 39t69.5 -27t25.5 -72t-39 -84t-84 -39t-70.5 27 t-25.5 72z" />
<glyph unicode="&#xd0;" horiz-adv-x="1540" d="M41 705q0 98 152 98h8v495q0 76 -31 115q207 72 453 72q303 0 528 -176q111 -88 177.5 -236.5t66.5 -339t-66.5 -339t-177.5 -236.5q-225 -176 -528 -176q-248 0 -336 63.5t-88 192.5v436h-150q-8 12 -8 31zM371 238q0 -49 12 -74q29 -55 240 -55q248 0 417.5 160.5 t169.5 462.5t-170 462t-417 160q-129 0 -246 -33l-2 -518h424q6 -25 6 -35q0 -94 -152 -94h-280z" />
<glyph unicode="&#xd1;" d="M170 1421q45 63 111.5 63.5t110.5 -32.5t89 -104l703 -1110v1103q0 57 -51 80q41 63 108 64q115 0 115 -142v-1216q0 -57 47 -84q-39 -61 -104.5 -61t-115.5 40.5t-110 131.5l-682 1056v-1083q0 -57 51 -80q-41 -66 -106 -65q-115 0 -115 143v1216q0 59 -51 80zM492 1716 q0 70 54 119t126.5 49t159 -54t128 -54t71.5 29.5t34 80.5q53 -18 53 -84.5t-55 -117t-125 -50.5t-156 55.5t-129 55.5t-73.5 -29.5t-32.5 -81.5q-55 12 -55 82z" />
<glyph unicode="&#xd2;" d="M147 733q0 342 175.5 547t466 205t463.5 -202t173 -546t-173 -549.5t-463.5 -205.5t-466 204.5t-175.5 546.5zM317 803q0 -356 168 -541q140 -153 344.5 -153t325.5 182q102 152 102 381q0 45 -4 94q-20 287 -161.5 441.5t-347 154.5t-326.5 -184q-100 -152 -101 -375z M725 1624l176 266q68 107 146 107q57 0 82.5 -35t25.5 -63.5t-4 -47.5q-16 4 -35 4q-45 0 -86 -36l-196 -191q-37 -35 -64 -35q-31 0 -45 31z" />
<glyph unicode="&#xd3;" d="M147 733q0 342 175.5 547t466 205t463.5 -202t173 -546t-173 -549.5t-463.5 -205.5t-466 204.5t-175.5 546.5zM317 803q0 -356 168 -541q140 -153 344.5 -153t325.5 182q102 152 102 381q0 45 -4 94q-20 287 -161.5 441.5t-347 154.5t-326.5 -184q-100 -152 -101 -375z M453 1863.5q0 26.5 14 49.5q29 51 96.5 51t143.5 -92l204 -244q-12 -35 -42.5 -35t-69.5 27l-213 170q-39 29 -70 29t-53 -11q-10 29 -10 55.5z" />
<glyph unicode="&#xd4;" d="M147 733q0 342 175.5 547t466 205t463.5 -202t173 -546t-173 -549.5t-463.5 -205.5t-466 204.5t-175.5 546.5zM317 803q0 -356 168 -541q140 -153 344.5 -153t325.5 182q102 152 102 381q0 45 -4 94q-20 287 -161.5 441.5t-347 154.5t-326.5 -184q-100 -152 -101 -375z M510 1624l137 211q33 53 64.5 77.5t78 24.5t77 -24.5t65.5 -77.5l135 -211q-8 -31 -45 -31t-72 35l-162 164l-161 -164q-35 -35 -72 -35t-45 31z" />
<glyph unicode="&#xd5;" d="M147 733q0 342 175.5 547t466 205t463.5 -202t173 -546t-173 -549.5t-463.5 -205.5t-466 204.5t-175.5 546.5zM317 803q0 -356 168 -541q140 -153 344.5 -153t325.5 182q102 152 102 381q0 45 -4 94q-20 287 -161.5 441.5t-347 154.5t-326.5 -184q-100 -152 -101 -375z M494 1716q0 70 54 119t127 49t159 -54t128 -54t71.5 29.5t33.5 80.5q53 -18 53 -84.5t-55 -117t-125 -50.5t-156 55.5t-129 55.5t-73.5 -29.5t-32.5 -81.5q-55 12 -55 82z" />
<glyph unicode="&#xd6;" d="M147 733q0 342 175.5 547t466 205t463.5 -202t173 -546t-173 -549.5t-463.5 -205.5t-466 204.5t-175.5 546.5zM317 803q0 -356 168 -541q140 -153 344.5 -153t325.5 182q102 152 102 381q0 45 -4 94q-20 287 -161.5 441.5t-347 154.5t-326.5 -184q-100 -152 -101 -375z M522 1741q0 45 40 84t84 39t69.5 -27t25.5 -72t-38.5 -84t-83 -39t-71 27t-26.5 72zM834 1741q0 45 39.5 84t83.5 39t70 -27t26 -72t-39 -84t-84 -39t-70.5 27t-25.5 72z" />
<glyph unicode="&#xd7;" horiz-adv-x="1316" d="M172 1247q41 66 111 66q51 0 78.5 -25.5t36 -34t30 -32t29.5 -31.5l227 -252l264 301q66 74 106 74t62 -33l-362 -418l389 -434q-31 -61 -87.5 -61t-94 29.5t-93.5 90.5l-225 246l-270 -313q-66 -70 -107 -70t-59 35l366 422z" />
<glyph unicode="&#xd8;" horiz-adv-x="1583" d="M119 41q68 35 125 106l55 68q-152 203 -152 531.5t175.5 533.5t450 205t439.5 -160l74 90q61 70 118.5 70t70.5 -55q-63 -33 -127 -109l-64 -78q141 -199 141 -524.5t-173 -531t-464 -205.5q-250 0 -413 151l-68 -82q-63 -70 -119.5 -69.5t-68.5 59.5zM317 803 q0 -266 101 -445l686 836q-137 168 -351 168t-335 -184q-100 -152 -101 -375zM481 264q137 -156 345 -155.5t329 182.5q102 152 102 381q0 254 -92 428z" />
<glyph unicode="&#xd9;" horiz-adv-x="1441" d="M156 1421q45 63 106 64q115 0 115 -142v-837q0 -186 89 -281.5t282 -95.5q371 0 370 377v835q0 57 -53 80q41 63 109 64q113 0 112 -142v-817q0 -254 -131 -398t-405.5 -144t-408.5 145t-134 397v815q0 57 -51 80zM696 1624l176 266q68 107 146 107q57 0 82.5 -35 t25.5 -63.5t-4 -47.5q-16 4 -35 4q-45 0 -86 -36l-196 -191q-37 -35 -64 -35q-31 0 -45 31z" />
<glyph unicode="&#xda;" horiz-adv-x="1441" d="M156 1421q45 63 106 64q115 0 115 -142v-837q0 -186 89 -281.5t282 -95.5q371 0 370 377v835q0 57 -53 80q41 63 109 64q113 0 112 -142v-817q0 -254 -131 -398t-405.5 -144t-408.5 145t-134 397v815q0 57 -51 80zM426 1863.5q0 26.5 14 49.5q29 51 96.5 51t143.5 -92 l205 -244q-12 -35 -43 -35t-70 27l-213 170q-39 29 -69.5 29t-53.5 -11q-10 29 -10 55.5z" />
<glyph unicode="&#xdb;" horiz-adv-x="1441" d="M156 1421q45 63 106 64q115 0 115 -142v-837q0 -186 89 -281.5t282 -95.5q370 0 370 377v835q0 57 -53 80q41 63 109 64q113 0 112 -142v-817q0 -254 -131 -398t-405.5 -144t-408.5 145t-134 397v815q0 57 -51 80zM481 1624l137 211q33 53 65 77.5t78 24.5t76.5 -24.5 t65.5 -77.5l135 -211q-8 -31 -45 -31t-71 35l-162 164l-162 -164q-35 -35 -72 -35t-45 31z" />
<glyph unicode="&#xdc;" horiz-adv-x="1441" d="M156 1421q45 63 106 64q115 0 115 -142v-837q0 -186 89 -281.5t282 -95.5q371 0 370 377v835q0 57 -53 80q41 63 109 64q113 0 112 -142v-817q0 -254 -131 -398t-405.5 -144t-408.5 145t-134 397v815q0 57 -51 80zM496 1741q0 45 39.5 84t84 39t70 -27t25.5 -72t-39 -84 t-83 -39t-70.5 27t-26.5 72zM807 1741q0 45 40 84t84 39t69.5 -27t25.5 -72t-39 -84t-84 -39t-70.5 27t-25.5 72z" />
<glyph unicode="&#xdd;" horiz-adv-x="1220" d="M31 1384q31 100 123 100.5t153 -106.5l320 -569l329 514q33 45 33 79t-24 58q43 25 98 25t80.5 -24.5t25.5 -65.5t-32 -97l-439 -643l-2 -532q0 -66 37 -107q-43 -32 -96 -32q-111 0 -111 151l2 514l-374 658q-49 76 -123 77zM309 1863.5q0 26.5 15 49.5q29 51 96 51 t143 -92l205 -244q-12 -35 -43 -35t-70 27l-213 170q-39 29 -69.5 29t-53.5 -11q-10 29 -10 55.5z" />
<glyph unicode="&#xde;" horiz-adv-x="1286" d="M145 1421q37 63 107 64q117 -1 117 -142v-174q172 66 319 66q213 0 361.5 -125t148.5 -330t-148.5 -328.5t-361.5 -123.5q-160 0 -319 63v-264q0 -57 49 -80q-41 -66 -109 -65q-113 0 -112 143v1216q0 57 -52 80zM369 510q152 -51 302 -51t246.5 88t96.5 233.5 t-96.5 233.5t-243 88t-305.5 -51v-541z" />
<glyph unicode="&#xdf;" horiz-adv-x="1155" d="M141 125v981q0 180 102.5 277.5t265.5 97.5t268.5 -93.5t105.5 -230.5q0 -209 -221 -326l81 -53q156 -94 232 -193.5t76 -249t-101.5 -251.5t-249.5 -102q-98 0 -148 36.5t-50 87.5q0 18 8 35q51 -37 143 -37t155.5 64.5t63.5 163t-49 171t-164 154.5q-25 20 -73.5 56.5 t-65.5 52.5q-31 25 -31 37t33 41.5t73 65.5t72.5 101.5t32.5 154.5t-57 152.5t-135 63.5q-195 0 -195 -276v-979q0 -59 52 -80q-43 -66 -109 -65q-115 0 -115 143z" />
<glyph unicode="&#xe0;" horiz-adv-x="1079" d="M111 244q0 152 152.5 245t457.5 101v123q0 127 -45 187.5t-142.5 60.5t-146.5 -40t-49 -90.5t29 -80.5q-43 -33 -95.5 -33t-85 28.5t-32.5 81.5q0 96 110.5 164t272 68t258 -87t96.5 -243v-545q0 -109 100 -123q-39 -80 -129 -79q-129 0 -141 165q-119 -166 -320 -165 q-127 0 -208.5 69.5t-81.5 192.5zM295 262q0 -147 160.5 -147t265.5 141v244q-217 -12 -321.5 -77t-104.5 -161zM469 1194l176 266q68 106 146 107q57 0 82.5 -35t25.5 -63.5t-4 -47.5q-16 4 -35 4q-45 0 -86 -36l-196 -191q-37 -35 -66 -35t-43 31z" />
<glyph unicode="&#xe1;" horiz-adv-x="1079" d="M111 244q0 152 152.5 245t457.5 101v123q0 127 -45 187.5t-142.5 60.5t-146.5 -40t-49 -90.5t29 -80.5q-43 -33 -95.5 -33t-85 28.5t-32.5 81.5q0 96 110.5 164t272 68t258 -87t96.5 -243v-545q0 -109 100 -123q-39 -80 -129 -79q-129 0 -141 165q-119 -166 -320 -165 q-127 0 -208.5 69.5t-81.5 192.5zM197 1433.5q0 26.5 14 49.5q29 51 96.5 51t143.5 -92l204 -244q-12 -35 -42.5 -35t-69.5 27l-213 170q-39 29 -70 29t-53 -11q-10 29 -10 55.5zM295 262q0 -147 160.5 -147t265.5 141v244q-217 -12 -321.5 -77t-104.5 -161z" />
<glyph unicode="&#xe2;" horiz-adv-x="1079" d="M111 244q0 152 152.5 245t457.5 101v123q0 127 -45 187.5t-142.5 60.5t-146.5 -40t-49 -90.5t29 -80.5q-43 -33 -95.5 -33t-85 28.5t-32.5 81.5q0 96 110.5 164t272 68t258 -87t96.5 -243v-545q0 -109 100 -123q-39 -80 -129 -79q-129 0 -141 165q-119 -166 -320 -165 q-127 0 -208.5 69.5t-81.5 192.5zM252 1194l137 211q33 53 64.5 77.5t78 24.5t77 -24.5t65.5 -77.5l135 -211q-8 -31 -45 -31t-72 35l-162 164l-161 -164q-35 -35 -72 -35t-45 31zM295 262q0 -147 160.5 -147t265.5 141v244q-217 -12 -321.5 -77t-104.5 -161z" />
<glyph unicode="&#xe3;" horiz-adv-x="1079" d="M111 244q0 152 152.5 245t457.5 101v123q0 127 -45 187.5t-142.5 60.5t-146.5 -40t-49 -90.5t29 -80.5q-43 -33 -95.5 -33t-85 28.5t-32.5 81.5q0 96 110.5 164t272 68t258 -87t96.5 -243v-545q0 -109 100 -123q-39 -80 -129 -79q-129 0 -141 165q-119 -166 -320 -165 q-127 0 -208.5 69.5t-81.5 192.5zM236 1286q0 70 54 119t126.5 49t159 -54t128 -54t71.5 29.5t34 80.5q53 -18 53 -84.5t-55 -117t-125 -50.5t-156 55.5t-129 55.5t-73.5 -30t-32.5 -81q-55 12 -55 82zM295 262q0 -147 160.5 -147t265.5 141v244q-217 -12 -321.5 -77 t-104.5 -161z" />
<glyph unicode="&#xe4;" horiz-adv-x="1079" d="M111 244q0 152 152.5 245t457.5 101v123q0 127 -45 187.5t-142.5 60.5t-146.5 -40t-49 -90.5t29 -80.5q-43 -33 -95.5 -33t-85 28.5t-32.5 81.5q0 96 110.5 164t272 68t258 -87t96.5 -243v-545q0 -109 100 -123q-39 -80 -129 -79q-129 0 -141 165q-119 -166 -320 -165 q-127 0 -208.5 69.5t-81.5 192.5zM266 1311q0 45 40 84t84 39t69.5 -27t25.5 -72t-38.5 -84t-83 -39t-71 27t-26.5 72zM295 262q0 -147 160.5 -147t265.5 141v244q-217 -12 -321.5 -77t-104.5 -161zM578 1311q0 45 39.5 84t83.5 39t70 -27t26 -72t-39 -84t-84 -39t-70.5 27 t-25.5 72z" />
<glyph unicode="&#xe5;" horiz-adv-x="1079" d="M111 244q0 152 152.5 245t457.5 101v123q0 127 -45 187.5t-142.5 60.5t-146.5 -40t-49 -90.5t29 -80.5q-43 -33 -95.5 -33t-85 28.5t-32.5 81.5q0 96 110.5 164t272 68t258 -87t96.5 -243v-545q0 -109 100 -123q-39 -80 -129 -79q-129 0 -141 165q-119 -166 -320 -165 q-127 0 -208.5 69.5t-81.5 192.5zM295 262q0 -147 160.5 -147t265.5 141v244q-217 -12 -321.5 -77t-104.5 -161zM319 1334q0 87 61.5 133t151 46t150.5 -47t61 -133t-61 -134t-150.5 -48t-151 48t-61.5 135zM446 1374.5q0 -24.5 3 -39.5q2 -59 26.5 -88.5t61.5 -29.5 q80 0 79 88q0 14 -2 30q-2 55 -28.5 85t-63.5 30t-56.5 -25.5t-19.5 -50z" />
<glyph unicode="&#xe6;" horiz-adv-x="1619" d="M111 244q0 152 152.5 245t457.5 101v123q0 127 -45 187.5t-142.5 60.5t-146.5 -40t-49 -90.5t29 -80.5q-43 -33 -95.5 -33t-85 28.5t-32.5 81.5q0 96 109.5 164t262.5 68q252 0 328 -182q147 182 352 182q152 0 247 -104.5t95 -237.5q0 -96 -52 -142.5t-171 -50.5 l-424 -10q-2 -203 85 -299t247 -96t272 106q29 -16 29 -55q0 -68 -98.5 -128t-231.5 -60q-281 0 -411 213q-160 -213 -371 -213q-139 0 -225 69.5t-86 192.5zM295 262q0 -147 165 -147t290 176q-29 86 -29 188v21q-217 -12 -321.5 -77t-104.5 -161zM905 602l377 29 q43 4 64.5 25.5t21.5 91t-51 131t-145.5 61.5t-171 -89t-95.5 -249z" />
<glyph unicode="&#xe7;" horiz-adv-x="1005" d="M102 473q0 256 153 421t372 165q129 0 205.5 -57.5t76.5 -139.5q0 -49 -28.5 -77.5t-69.5 -28.5t-68 16q6 23 7 45q0 125 -154 125q-125 0 -223.5 -114.5t-98.5 -310t91.5 -294t224.5 -98.5q170 0 282 108q27 -23 27 -59q0 -63 -97 -125.5t-224 -66.5l-43 -121h24 q96 0 160.5 -42t64.5 -123t-85 -142.5t-217 -61.5t-218 51t-86 111q0 31 27 53q96 -106 256 -106t160 100q0 80 -129 80h-39q-51 0 -52 39q0 16 11 39l49 133q-156 35 -257.5 160.5t-101.5 320.5z" />
<glyph unicode="&#xe8;" horiz-adv-x="1001" d="M102 488.5q0 240.5 146.5 405.5t337.5 165q152 0 247 -104.5t95 -237.5q0 -96 -52.5 -142.5t-168.5 -50.5l-426 -12q0 -201 87 -297t248.5 -96t268.5 106q31 -16 30 -55q0 -68 -98 -128t-233 -60q-211 0 -346.5 133t-135.5 373.5zM285 600l383 31q84 6 84 97t-52.5 151.5 t-146.5 60.5t-172 -90t-96 -250zM510 1194l176 266q67 107 145 107q57 0 83 -35t26 -63.5t-4 -47.5q-16 4 -35 4q-45 0 -86 -36l-197 -191q-37 -35 -63 -35q-31 0 -45 31z" />
<glyph unicode="&#xe9;" horiz-adv-x="1001" d="M102 488.5q0 240.5 146.5 405.5t337.5 165q152 0 247 -104.5t95 -237.5q0 -96 -52.5 -142.5t-168.5 -50.5l-426 -12q0 -201 87 -297t248.5 -96t268.5 106q31 -16 30 -55q0 -68 -98 -128t-233 -60q-211 0 -346.5 133t-135.5 373.5zM238 1433.5q0 26.5 14 49.5 q29 51 96.5 51t143.5 -92l204 -244q-12 -35 -42.5 -35t-69.5 27l-213 170q-39 29 -70 29t-53 -11q-10 29 -10 55.5zM285 600l383 31q84 6 84 97t-52.5 151.5t-146.5 60.5t-172 -90t-96 -250z" />
<glyph unicode="&#xea;" horiz-adv-x="1001" d="M102 488.5q0 240.5 146.5 405.5t337.5 165q152 0 247 -104.5t95 -237.5q0 -96 -52.5 -142.5t-168.5 -50.5l-426 -12q0 -201 87 -297t248.5 -96t268.5 106q31 -16 30 -55q0 -68 -98 -128t-233 -60q-211 0 -346.5 133t-135.5 373.5zM285 600l383 31q84 6 84 97t-52.5 151.5 t-146.5 60.5t-172 -90t-96 -250zM293 1194l137 211q33 53 64.5 77.5t77.5 24.5t77 -24.5t66 -77.5l135 -211q-8 -31 -45 -31t-72 35l-162 164l-161 -164q-35 -35 -72 -35t-45 31z" />
<glyph unicode="&#xeb;" horiz-adv-x="1001" d="M102 488.5q0 240.5 146.5 405.5t337.5 165q152 0 247 -104.5t95 -237.5q0 -96 -52.5 -142.5t-168.5 -50.5l-426 -12q0 -201 87 -297t248.5 -96t268.5 106q31 -16 30 -55q0 -68 -98 -128t-233 -60q-211 0 -346.5 133t-135.5 373.5zM285 600l383 31q84 6 84 97t-52.5 151.5 t-146.5 60.5t-172 -90t-96 -250zM307 1311q0 45 40 84t84 39t69.5 -27t25.5 -72t-38.5 -84t-83 -39t-71 27t-26.5 72zM618 1311q0 45 40 84t84 39t70 -27t26 -72t-39 -84t-84 -39t-71 27t-26 72z" />
<glyph unicode="&#xec;" horiz-adv-x="542" d="M137 993q39 66 107 66q114 -1 114 -144v-788q0 -59 52 -80q-43 -66 -107 -65q-115 0 -115 143v786q0 59 -51 82zM211 1194l176 266q67 107 145 107q57 0 83 -35t26 -63.5t-4 -47.5q-16 4 -35 4q-45 0 -86 -36l-197 -191q-37 -35 -63 -35q-31 0 -45 31z" />
<glyph unicode="&#xed;" horiz-adv-x="542" d="M-59 1433.5q0 26.5 14 49.5q29 51 96.5 51t143.5 -92l204 -244q-12 -35 -42.5 -35t-69.5 27l-213 170q-39 29 -70 29t-53 -11q-10 29 -10 55.5zM139 993q39 66 107 66q114 -1 114 -144v-788q0 -59 52 -80q-43 -66 -107 -65q-115 0 -115 143v786q0 59 -51 82z" />
<glyph unicode="&#xee;" horiz-adv-x="542" d="M-6 1194l137 211q33 53 64.5 77.5t77.5 24.5t77 -24.5t66 -77.5l135 -211q-8 -31 -45 -31t-72 35l-162 164l-161 -164q-35 -35 -72 -35t-45 31zM137 993q39 66 107 66q114 -1 114 -144v-788q0 -59 52 -80q-43 -66 -107 -65q-115 0 -115 143v786q0 59 -51 82z" />
<glyph unicode="&#xef;" horiz-adv-x="542" d="M8 1311q0 45 40 84t84 39t69.5 -27t25.5 -72t-38.5 -84t-83 -39t-71 27t-26.5 72zM137 993q39 66 107 66q114 -1 114 -144v-788q0 -59 52 -80q-43 -66 -107 -65q-115 0 -115 143v786q0 59 -51 82zM319 1311q0 45 40 84t84 39t70 -27t26 -72t-39 -84t-84 -39t-71 27 t-26 72z" />
<glyph unicode="&#xf0;" horiz-adv-x="1175" d="M102 520q0 256 142.5 397.5t345.5 141.5q127 0 225 -76q-59 141 -141 256l-281 -78q-16 10 -16 41q0 63 123 98l106 29q-80 98 -190 189q18 37 61 36q104 0 260 -188l264 74q16 -14 17 -41q0 -66 -154 -107l-59 -16q117 -168 192.5 -366.5t75.5 -359.5t-43 -271.5 t-115 -172.5q-141 -125 -334.5 -124.5t-336 141.5t-142.5 397zM281 592q0 -266 108 -391q90 -105 229.5 -105t210 95.5t70.5 263.5q0 262 -108 385q-90 102 -229.5 102t-210 -93t-70.5 -257z" />
<glyph unicode="&#xf1;" horiz-adv-x="1216" d="M137 993q39 66 107 66q115 0 114 -144v-106q53 111 151.5 180.5t230.5 69.5t214 -89t82 -263v-580q0 -57 54 -80q-43 -66 -109 -65q-113 0 -113 143v569q0 215 -188 215q-102 0 -194.5 -82t-127.5 -219v-481q0 -59 52 -80q-43 -66 -107 -65q-115 0 -115 143v786 q0 59 -51 82zM315.5 1286q-0.5 70 54 119t127 49t158.5 -54t128 -54t72 29.5t34 80.5q53 -18 53 -84.5t-55.5 -117t-125 -50.5t-155.5 55.5t-129 55.5t-73.5 -30t-32.5 -81q-55 12 -55.5 82z" />
<glyph unicode="&#xf2;" horiz-adv-x="1175" d="M102 520q0 256 142.5 397.5t345.5 141.5t345 -142.5t142 -397.5t-142 -396t-345 -141t-345.5 141t-142.5 397zM276 559q0 -244 95.5 -353.5t237 -109.5t217 98.5t75.5 286.5q0 246 -93 353.5t-234.5 107.5t-219.5 -97t-78 -286zM524 1194l176 266q68 107 146 107 q57 0 82.5 -35t25.5 -63.5t-4 -47.5q-16 4 -35 4q-45 0 -86 -36l-196 -191q-37 -35 -64 -35q-31 0 -45 31z" />
<glyph unicode="&#xf3;" horiz-adv-x="1175" d="M102 520q0 256 142.5 397.5t345.5 141.5t345 -142.5t142 -397.5t-142 -396t-345 -141t-345.5 141t-142.5 397zM252 1433.5q0 26.5 14 49.5q29 51 96.5 51t143.5 -92l205 -244q-12 -35 -43 -35t-70 27l-213 170q-39 29 -69.5 29t-53.5 -11q-10 29 -10 55.5zM276 559 q0 -244 95.5 -353.5t237 -109.5t217 98.5t75.5 286.5q0 246 -93 353.5t-234.5 107.5t-219.5 -97t-78 -286z" />
<glyph unicode="&#xf4;" horiz-adv-x="1175" d="M102 520q0 256 142.5 397.5t345.5 141.5t345 -142.5t142 -397.5t-142 -396t-345 -141t-345.5 141t-142.5 397zM276 559q0 -244 95.5 -353.5t237 -109.5t217 98.5t75.5 286.5q0 246 -93 353.5t-234.5 107.5t-219.5 -97t-78 -286zM307 1194l137 211q33 53 65 77.5t78 24.5 t76.5 -24.5t65.5 -77.5l135 -211q-8 -31 -45 -31t-71 35l-162 164l-162 -164q-35 -35 -72 -35t-45 31z" />
<glyph unicode="&#xf5;" horiz-adv-x="1175" d="M102 520q0 256 142.5 397.5t345.5 141.5t345 -142.5t142 -397.5t-142 -396t-345 -141t-345.5 141t-142.5 397zM276 559q0 -244 95.5 -353.5t237 -109.5t217 98.5t75.5 286.5q0 246 -93 353.5t-234.5 107.5t-219.5 -97t-78 -286zM291 1286q0 70 54 119t127 49t159 -54 t128 -54t71.5 29.5t33.5 80.5q53 -18 53.5 -84.5t-55 -117t-125 -50.5t-155.5 55.5t-129 55.5t-74 -30t-33 -81q-55 12 -55 82z" />
<glyph unicode="&#xf6;" horiz-adv-x="1175" d="M102 520q0 256 142.5 397.5t345.5 141.5t345 -142.5t142 -397.5t-142 -396t-345 -141t-345.5 141t-142.5 397zM276 559q0 -244 95.5 -353.5t237 -109.5t217 98.5t75.5 286.5q0 246 -93 353.5t-234.5 107.5t-219.5 -97t-78 -286zM322 1311q0 45 39.5 84t83.5 39t70 -27 t26 -72t-39 -84t-83 -39t-70.5 27t-26.5 72zM633 1311q0 45 40 84t84 39t69.5 -27t25.5 -72t-39 -84t-84 -39t-70.5 27t-25.5 72z" />
<glyph unicode="&#xf7;" horiz-adv-x="1222" d="M78 795q-1 104 155 104h906q6 -10 6 -33q0 -109 -154 -108h-903q-10 20 -10 37zM483 459q0 53 48.5 101t101.5 48t85 -31.5t32 -86t-47.5 -101.5t-102.5 -47t-86 32t-31 85zM483 1173.5q0 53.5 48.5 100.5t102.5 47t85 -32t31 -85t-47.5 -100t-101.5 -47t-86 31.5t-32 85 z" />
<glyph unicode="&#xf8;" horiz-adv-x="1208" d="M90 39q80 45 125 108l4 5q-117 147 -117 385.5t142.5 380t345.5 141.5q166 0 289 -92l18 20q63 72 119.5 72t68.5 -58q-59 -31 -127 -106l-2 -2q121 -147 121 -388t-142 -382t-345 -141q-166 0 -293 96l-21 -27q-59 -70 -118.5 -69.5t-67.5 57.5zM276 559q0 -170 50 -276 l465 571q-86 88 -222.5 88t-214.5 -97t-78 -286zM387 188q86 -92 224.5 -92t214 98.5t75.5 286.5q0 170 -51 281z" />
<glyph unicode="&#xf9;" horiz-adv-x="1216" d="M137 993q39 66 107 66q115 0 114 -144v-571q0 -217 213 -217q98 0 177 59.5t120 165.5v559q0 59 -53 82q47 66 109 66q112 -1 112 -144v-788q0 -57 54 -80q-43 -66 -109 -65q-113 0 -113 143v53q-115 -197 -333 -196q-346 0 -347 352v577q0 59 -51 82zM547 1194l176 266 q68 106 145 107q57 0 83 -35t26 -63.5t-4 -47.5q-16 4 -35 4q-45 0 -86 -36l-197 -191q-37 -35 -65.5 -35t-42.5 31z" />
<glyph unicode="&#xfa;" horiz-adv-x="1216" d="M137 993q39 66 107 66q115 0 114 -144v-571q0 -217 213 -217q98 0 177 59.5t120 165.5v559q0 59 -53 82q47 66 109 66q112 -1 112 -144v-788q0 -57 54 -80q-43 -66 -109 -65q-113 0 -113 143v53q-115 -197 -333 -196q-346 0 -347 352v577q0 59 -51 82zM274.5 1433.5 q-0.5 26.5 14.5 49.5q29 51 96.5 51t142.5 -92l205 -244q-12 -35 -43 -35t-69 27l-213 170q-39 29 -70 29t-53 -11q-10 29 -10.5 55.5z" />
<glyph unicode="&#xfb;" horiz-adv-x="1216" d="M137 993q39 66 107 66q115 0 114 -144v-571q0 -217 213 -217q98 0 177 59.5t120 165.5v559q0 59 -53 82q47 66 109 66q112 -1 112 -144v-788q0 -57 54 -80q-43 -66 -109 -65q-113 0 -113 143v53q-115 -197 -333 -196q-346 0 -347 352v577q0 59 -51 82zM330 1194l137 211 q33 53 64.5 77.5t77.5 24.5t77 -24.5t66 -77.5l135 -211q-8 -31 -45 -31t-72 35l-162 164l-162 -164q-35 -35 -71.5 -35t-44.5 31z" />
<glyph unicode="&#xfc;" horiz-adv-x="1216" d="M137 993q39 66 107 66q115 0 114 -144v-571q0 -217 213 -217q98 0 177 59.5t120 165.5v559q0 59 -53 82q47 66 109 66q112 -1 112 -144v-788q0 -57 54 -80q-43 -66 -109 -65q-113 0 -113 143v53q-115 -197 -333 -196q-346 0 -347 352v577q0 59 -51 82zM344 1311 q0 45 40 84t84 39t69.5 -27t25.5 -72t-39 -84t-83 -39t-70.5 27t-26.5 72zM655 1311q0 45 40 84t84 39t69.5 -27t25.5 -72t-38.5 -84t-83.5 -39t-71 27t-26 72z" />
<glyph unicode="&#xfd;" horiz-adv-x="1095" d="M72 1004q35 55 108 55q88 0 127 -133l281 -842l289 797q14 39 14 77.5t-29 69.5q45 31 100.5 31t90.5 -55q16 -29 16 -65t-18 -81l-426 -1110q-100 -256 -275 -256q-66 0 -102.5 33t-36.5 83t33 81q37 -39 90 -39t85 28.5t58 102.5l74 201h-6q-41 0 -76 27.5t-51 78.5 l-283 819q-20 76 -63 97zM250 1433.5q0 26.5 14 49.5q29 51 96.5 51t143.5 -92l205 -244q-12 -35 -43 -35t-70 27l-213 170q-39 29 -69.5 29t-53.5 -11q-10 29 -10 55.5z" />
<glyph unicode="&#xfe;" horiz-adv-x="1204" d="M137 1493q35 63 107 63q114 0 114 -141v-502q106 145 292 145.5t318 -140t132 -396.5t-138.5 -397t-317.5 -141t-286 118v-462q0 -61 52 -82q-43 -66 -107 -66q-115 0 -115 146v1773q0 59 -51 82zM358 262q51 -78 115 -109.5t152 -31.5q125 0 212 107.5t87 292t-87 291 t-212 106.5q-176 0 -267 -168v-488z" />
<glyph unicode="&#xff;" horiz-adv-x="1095" d="M72 1004q35 55 108 55q88 0 127 -133l281 -842l289 797q14 39 14 77.5t-29 69.5q45 31 100.5 31t90.5 -55q16 -29 16 -65t-18 -81l-426 -1110q-100 -256 -275 -256q-66 0 -102.5 33t-36.5 83t33 81q37 -39 90 -39t85 28.5t58 102.5l74 201h-6q-41 0 -76 27.5t-51 78.5 l-283 819q-20 76 -63 97zM322 1311q0 45 39.5 84t83.5 39t70 -27t26 -72t-39 -84t-83 -39t-70.5 27t-26.5 72zM633 1311q0 45 40 84t84 39t69.5 -27t25.5 -72t-39 -84t-84 -39t-70.5 27t-25.5 72z" />
<glyph unicode="&#x152;" horiz-adv-x="2193" d="M147 735q0 346 194 539.5t554 193.5h969q207 0 207 -106q0 -63 -62 -84q-57 51 -172 51h-559v-500h432q113 0 160 -18t47 -71.5t-51 -77.5q-51 29 -172 28h-416v-414q0 -74 32.5 -106.5t112.5 -32.5h414q119 0 172 86q61 -25 62 -88q0 -135 -228 -135h-973 q-723 0 -723 735zM322 793q0 -47 4 -97q23 -283 161 -430t342 -147q162 0 277 43v1143q-143 38 -293 38q-246 0 -379 -174q-113 -145 -112 -376z" />
<glyph unicode="&#x153;" horiz-adv-x="1796" d="M102 520q0 256 142.5 397.5t345.5 141.5q125 0 233.5 -60.5t171.5 -171.5q70 109 173.5 170.5t211.5 61.5q154 0 249 -103.5t95 -238.5q0 -96 -52 -142.5t-171 -50.5l-424 -12q-2 -201 85 -297t247 -96t270 106q31 -16 31 -55q0 -68 -98.5 -128t-231.5 -60 q-270 0 -401 200q-66 -98 -168 -149t-221 -51q-203 0 -345.5 141t-142.5 397zM281 592q0 -266 108 -391q90 -105 229.5 -105t210 95.5t70.5 263.5q0 262 -108 385q-90 102 -229.5 102t-210 -93t-70.5 -257zM1081 600l379 31q86 6 86 97t-52 151.5t-147.5 60.5t-172 -90 t-93.5 -250z" />
<glyph unicode="&#x178;" horiz-adv-x="1220" d="M31 1384q31 100 123 100.5t153 -106.5l320 -569l329 514q33 45 33 79t-24 58q43 25 98 25t80.5 -24.5t25.5 -65.5t-32 -97l-439 -643l-2 -532q0 -66 37 -107q-43 -32 -96 -32q-111 0 -111 151l2 514l-374 658q-49 76 -123 77zM379 1741q0 45 40 84t84 39t69.5 -27 t25.5 -72t-39 -84t-83 -39t-70.5 27t-26.5 72zM690 1741q0 45 40 84t84 39t69.5 -27t25.5 -72t-39 -84t-84 -39t-70.5 27t-25.5 72z" />
<glyph unicode="&#x2c6;" horiz-adv-x="606" d="M25 1194l137 211q33 53 64.5 77.5t77.5 24.5t77 -24.5t65 -77.5l136 -211q-8 -31 -45 -31t-72 35l-162 164l-162 -164q-35 -35 -71.5 -35t-44.5 31z" />
<glyph unicode="&#x2dc;" horiz-adv-x="716" d="M45 1286q0 70 54.5 119t127 49t158.5 -54t128 -54t71.5 29.5t33.5 80.5q53 -18 53.5 -84.5t-55 -117t-125 -50.5t-155.5 55.5t-129 55.5t-74 -30t-33 -81q-55 12 -55 82z" />
<glyph unicode="&#x2000;" horiz-adv-x="998" />
<glyph unicode="&#x2001;" horiz-adv-x="1997" />
<glyph unicode="&#x2002;" horiz-adv-x="998" />
<glyph unicode="&#x2003;" horiz-adv-x="1997" />
<glyph unicode="&#x2004;" horiz-adv-x="665" />
<glyph unicode="&#x2005;" horiz-adv-x="499" />
<glyph unicode="&#x2006;" horiz-adv-x="332" />
<glyph unicode="&#x2007;" horiz-adv-x="332" />
<glyph unicode="&#x2008;" horiz-adv-x="249" />
<glyph unicode="&#x2009;" horiz-adv-x="399" />
<glyph unicode="&#x200a;" horiz-adv-x="110" />
<glyph unicode="&#x2010;" horiz-adv-x="1030" d="M123 672q-1 104 153 104h627q4 -16 4 -37q0 -106 -153 -106h-621q-10 20 -10 39z" />
<glyph unicode="&#x2011;" horiz-adv-x="1030" d="M123 672q-1 104 153 104h627q4 -16 4 -37q0 -106 -153 -106h-621q-10 20 -10 39z" />
<glyph unicode="&#x2012;" horiz-adv-x="1030" d="M123 672q-1 104 153 104h627q4 -16 4 -37q0 -106 -153 -106h-621q-10 20 -10 39z" />
<glyph unicode="&#x2013;" horiz-adv-x="1341" d="M123 670q-1 106 153 106h934q8 -16 9 -35q0 -109 -156 -108h-930q-10 20 -10 37z" />
<glyph unicode="&#x2014;" horiz-adv-x="2197" d="M123 670q-1 106 153 106h1790q8 -16 9 -35q0 -109 -156 -108h-1786q-10 20 -10 37z" />
<glyph unicode="&#x2018;" horiz-adv-x="458" d="M82 1481q0 143 68.5 247.5t144.5 104.5q43 0 51 -41q-110 -75 -110 -225q0 -72 37.5 -128.5t101.5 -72.5q-4 -45 -39 -79t-86 -34q-78 0 -123 69t-45 159z" />
<glyph unicode="&#x2019;" horiz-adv-x="458" d="M82 1749q4 45 40 79t87 34q78 0 122 -68t44 -158q0 -143 -67.5 -248.5t-141.5 -105.5q-45 0 -51 41q108 77 108 227q0 72 -38 128.5t-103 70.5z" />
<glyph unicode="&#x201a;" horiz-adv-x="1474" d="M137 139q4 47 40 82t87 35q78 0 123 -70.5t45 -165.5q0 -145 -69.5 -253.5t-147.5 -108.5q-45 0 -51 45q112 79 112 231q0 74 -36.5 130.5t-102.5 74.5z" />
<glyph unicode="&#x201c;" horiz-adv-x="870" d="M147 1481q0 143 69 247.5t144 104.5q43 0 52 -41q-111 -75 -111 -225q0 -72 38 -128.5t101 -72.5q-4 -45 -39.5 -79t-87.5 -34q-78 0 -122 69t-44 159zM428 1481q0 141 68.5 246.5t144.5 105.5q45 0 51 -41q-110 -75 -110 -225q0 -72 37.5 -128.5t103.5 -72.5 q-4 -45 -41 -79t-86 -34q-80 0 -124 69t-44 159z" />
<glyph unicode="&#x201d;" horiz-adv-x="870" d="M82 1722q4 45 40 78t87 33q78 0 122 -67.5t44 -157.5q0 -143 -67.5 -249t-141.5 -106q-45 0 -51 41q108 78 108 228q0 72 -39 128t-102 72zM494 1722q4 45 39.5 78t87.5 33q78 0 121.5 -67.5t43.5 -157.5q0 -143 -67.5 -249t-143.5 -106q-45 0 -51 41q111 81 111 228 q0 70 -39 127t-102 73z" />
<glyph unicode="&#x201e;" horiz-adv-x="1474" d="M137 139q4 47 40 82t87 35q78 0 123 -70.5t45 -165.5q0 -145 -69.5 -253.5t-147.5 -108.5q-45 0 -51 45q112 79 112 231q0 74 -36.5 130.5t-102.5 74.5z" />
<glyph unicode="&#x2022;" horiz-adv-x="772" d="M162 798q0 89 80 166.5t168 77.5t138 -52t50 -142t-77 -167t-167 -77t-141 52.5t-51 141.5z" />
<glyph unicode="&#x2026;" horiz-adv-x="1755" d="M221 112.5q0 53.5 48 101.5t101.5 48t84 -31.5t30.5 -85t-47 -101.5t-101 -48t-85 31.5t-31 85zM745 112.5q0 53.5 48.5 101.5t101.5 48t84 -31.5t31 -85t-47.5 -101.5t-101.5 -48t-85 31.5t-31 85zM1270 112.5q0 53.5 48 101.5t101.5 48t84 -31.5t30.5 -85t-47 -101.5 t-101.5 -48t-85 31.5t-30.5 85z" />
<glyph unicode="&#x202f;" horiz-adv-x="399" />
<glyph unicode="&#x2039;" horiz-adv-x="796" d="M160 828.5q0 72.5 86 198.5t187.5 221t143 95t60.5 -43q-139 -157 -201.5 -264.5t-62.5 -207t63.5 -209t200.5 -261.5q-18 -43 -60 -43t-143.5 95.5t-187.5 220.5t-86 197.5z" />
<glyph unicode="&#x203a;" horiz-adv-x="796" d="M160 358q137 152 199.5 261.5t62.5 209t-62.5 208t-199.5 263.5q4 12 20.5 27.5t36.5 15.5q43 0 144.5 -95t188.5 -221t87 -198.5t-86 -197.5t-188.5 -220.5t-145.5 -95.5q-20 0 -36.5 15.5t-20.5 27.5z" />
<glyph unicode="&#x205f;" horiz-adv-x="499" />
<glyph unicode="&#x20ac;" horiz-adv-x="1415" d="M78 553q0 94 151 94h11q-2 16 -2 52t4 106h-156q-8 16 -8 35q0 94 151 94h35q61 256 241.5 403.5t420.5 147.5q176 0 295.5 -71t119.5 -171q0 -49 -33.5 -77.5t-79.5 -28.5t-77 14q2 12 2 25q0 68 -62.5 122t-205 54t-269.5 -107.5t-172 -310.5h531q8 -12 8 -31 q0 -98 -152 -98h-405q-2 -25 -2 -74l2 -84h549q8 -12 8 -33q0 -96 -152 -96h-385q41 -186 159 -284.5t294 -98.5q121 0 227.5 50.5t171.5 119.5q41 -6 41 -65q0 -76 -144 -167t-356 -91t-376 144t-209 392h-168q-8 16 -8 35z" />
<glyph unicode="&#x2122;" horiz-adv-x="1918" d="M57 1440q0 31 19 57q31 -18 84 -18h475q70 0 70 -64q0 -39 -21 -53q-29 18 -80 18h-158v-680q0 -37 29 -49q-16 -37 -74 -37q-80 0 -79 84v682h-195q-70 0 -70 60zM807 639q23 14 22 63l54 699q2 35 -15 63q39 27 88 27q68 0 99 -82l243 -584l236 564q27 59 53.5 80.5 t74.5 21.5t77 -25q-14 -14 -14.5 -34.5t-0.5 -28.5l50 -698q4 -51 22 -72q-28 -19 -63 -19q-80 0 -88 82l-41 625l-275 -655q-12 -31 -44 -31t-44 29l-248 616l-41 -580q-6 -86 -71 -86q-49 0 -74 25z" />
<glyph unicode="&#x25fc;" horiz-adv-x="1054" d="M0 0v1055h1055v-1055h-1055z" />
</font>
</defs>
</svg>
