<?xml version="1.0" standalone="no"?>
<!DOCTYPE svg PUBLIC "-//W3C//DTD SVG 1.1//EN" "http://www.w3.org/Graphics/SVG/1.1/DTD/svg11.dtd" >
<svg xmlns="http://www.w3.org/2000/svg" xmlns:xlink="http://www.w3.org/1999/xlink" version="1.1">
<metadata></metadata>
<defs>
<font id="mrs_saint_delafieldregular" horiz-adv-x="614" >
<font-face units-per-em="2048" ascent="1638" descent="-410" />
<missing-glyph horiz-adv-x="409" />
<glyph horiz-adv-x="2048" />
<glyph horiz-adv-x="2048" />
<glyph unicode="&#xd;" horiz-adv-x="681" />
<glyph unicode=" "  horiz-adv-x="409" />
<glyph unicode="&#x09;" horiz-adv-x="409" />
<glyph unicode="&#xa0;" horiz-adv-x="409" />
<glyph unicode="!" horiz-adv-x="669" d="M164 3q0 17 28.5 56t49 39t33 -12t12.5 -36.5t-27 -57.5t-49.5 -33t-34.5 13.5t-12 30.5zM297 197q2 12 314.5 526t326.5 535.5t37.5 44t48.5 22.5t37 -16q0 -10 -320.5 -504t-384.5 -594q-23 -37 -43 -37q-16 0 -16 23z" />
<glyph unicode="&#x22;" horiz-adv-x="555" d="M395.5 918.5q-0.5 11.5 5.5 23.5l156 227q12 20 31 21q24 0 24 -33q0 -8 -6 -20l-172 -209q-14 -20 -28 -21q-10 0 -10.5 11.5zM528.5 918.5q-0.5 11.5 6.5 23.5l155 227q12 20 31 21q24 0 24 -33q0 -8 -6 -20l-172 -209q-14 -20 -28 -21q-10 0 -10.5 11.5z" />
<glyph unicode="#" horiz-adv-x="1030" d="M252 162q0 37 27 37h206q16 39 41 116h-147q-59 0 -60 17q0 35 27 35h199l65 180q18 51 29.5 51t22 -9t10.5 -22l-72 -200h135q78 231 96 231q10 0 19.5 -9t9.5 -22l-69 -198q176 6 231 18q10 0 10 -6q0 -57 -26 -57q-10 0 -234 -7l-41 -118q186 6 221 18q12 0 13 -6 q0 -53 -27 -55l-225 -9l-74 -206q-4 -12 -13.5 -12.5t-18.5 9t-9 21.5q55 172 61 188q-45 -2 -137 -2l-71 -204q-2 -12 -13.5 -12.5t-19.5 9t-8 21.5q33 104 57 186h-156q-59 0 -59 17zM541 199h135l43 118q-47 -2 -135 -2z" />
<glyph unicode="$" horiz-adv-x="1255" d="M12 227q0 133 137.5 237.5t362.5 104.5q43 0 76 -8q53 117 166 342q-86 74 -131 118t-87 106.5t-42 115.5q0 137 150.5 217t338.5 80q70 0 113 -8q20 41 78 123q14 20 24 20q16 0 16 -22.5t-18 -48t-51 -80.5q84 -18 129 -56t45 -84q0 -68 -92 -119t-258 -59 q-76 -150 -140 -280q12 -10 70.5 -57.5t77 -62.5t64.5 -57t63.5 -67t42.5 -64q45 -68 45 -138t-25.5 -139t-83 -140.5t-137.5 -130t-200.5 -95t-260.5 -36.5q-31 0 -88 4q-45 -119 -65 -193q-8 -8 -19.5 -8t-22.5 13.5t-16 39.5q23 72 56 156q-158 29 -238 103.5t-80 172.5z M109 275.5q0 -97.5 62 -169t177 -104.5q82 213 217 510q-45 16 -92 16q-172 0 -268 -77.5t-96 -175zM416 -10q61 -8 98 -8q242 0 404.5 146t162.5 318q0 104 -73.5 200.5t-208.5 217.5q-66 -135 -148 -321q121 -52 121 -189q0 -45 -31 -45q-23 0 -28 25q-23 94 -90 147 q-113 -254 -207 -491zM582 1253q0 -74 51 -141.5t149 -148.5q70 137 129 243q-57 12 -57 62q4 14 18 14l60 -4h16q51 92 119 205q-41 8 -100 8q-147 0 -266 -64.5t-119 -173.5zM1008 1278q260 12 260 94q0 29 -42 57.5t-112 45.5q-80 -143 -106 -197z" />
<glyph unicode="%" horiz-adv-x="1875" d="M193 750q0 145 98 334.5t260 332t317 142.5q39 0 62.5 -20.5t23.5 -50.5t-16 -58q102 -14 102 -141.5t-92 -296.5t-252.5 -300t-326.5 -131q-176 0 -176 189zM274 780q0 -174 140 -174q121 0 255 129t218 293t84 258t-56 113q-23 -27 -69.5 -58.5t-75.5 -57.5t-28 -42 t1 -18q0 -14 -9 -14.5t-20.5 12t-11.5 22.5q0 45 34 79t75 50q106 45 107 103q0 51 -70 51q-139 0 -276.5 -131t-217.5 -305.5t-80 -309.5zM492 -123q109 334 405 811q252 406 448.5 688.5t216 311t29.5 28.5q16 0 16 -22.5t-10 -34.5q-864 -1231 -1048 -1827 q-8 -8 -19.5 -8t-22.5 13t-15 40zM985 174q0 145 98.5 334.5t260 332t317.5 142.5q39 0 62.5 -20.5t23.5 -50t-16 -58.5q102 -14 102 -141t-92 -296t-253 -300t-327 -131q-176 0 -176 188zM1067 205q0 -174 139 -174q121 0 255 129t218 292.5t84 258t-55 112.5 q-23 -27 -70 -58.5t-75.5 -57t-27.5 -42t1 -18.5q0 -14 -9 -14t-20.5 12t-11.5 23q0 45 34 78.5t73 50.5q109 45 108 102q0 51 -70 51q-139 0 -276 -131t-217 -305t-80 -309z" />
<glyph unicode="&#x26;" horiz-adv-x="1130" d="M-33 217q0 96 43 196.5t99.5 176.5t158 170t169 148.5t184.5 140.5q37 152 112 254q131 180 271 180q55 0 55 -35q0 -59 -58.5 -135t-126 -134.5t-194.5 -158.5q-18 -104 -18 -223t8 -195q186 109 333.5 109t147.5 -131q0 -94 -92 -223.5t-240 -231.5q123 -201 318 -201 q70 0 152.5 44t94 44t11.5 -10q0 -37 -104.5 -81t-207.5 -44q-197 0 -331 205q-225 -133 -461 -133q-150 0 -237 69.5t-87 198.5zM59 203q0 -209 263 -209q195 0 405 131q-92 164 -125 389q-102 -92 -108 -199q-8 -29 -32 -28.5t-24 43.5q-2 20 -2 95t2 108.5t25 33.5 q12 0 21.5 -13t9 -33t-6.5 -75q39 53 109 107q-10 98 -10 198.5t16 204.5q-403 -322 -500 -544q-43 -104 -43 -209zM674 569q33 -240 119 -399q125 90 204.5 196.5t79.5 180.5q0 109 -132 108.5t-271 -86.5zM698 1106q150 113 221.5 185.5t71.5 131.5q0 20 -30 21 q-61 0 -140.5 -83t-122.5 -255z" />
<glyph unicode="'" horiz-adv-x="421" d="M395.5 918.5q-0.5 11.5 5.5 23.5l156 227q12 20 31 21q24 0 24 -33q0 -8 -6 -20l-172 -209q-14 -20 -28 -21q-10 0 -10.5 11.5z" />
<glyph unicode="(" horiz-adv-x="649" d="M242 170q0 154 32.5 308.5t88 276.5t128 230.5t151.5 189t159 148.5t153 115q137 88 215 121l33 14q4 0 4 -4l-10 -25q-387 -186 -632 -547.5t-245 -820.5q0 -303 125 -483q0 -29 -7 -29t-13 8q-96 121 -139 232.5t-43 265.5z" />
<glyph unicode=")" horiz-adv-x="649" d="M-90 -332l10 25q387 186 632 547.5t245 820.5q0 303 -125 483q0 29 7 29t13 -8q96 -121 139 -232.5t43 -265.5t-32.5 -308.5t-88 -276.5t-128 -230.5t-152.5 -189t-158.5 -148.5t-150.5 -115q-139 -88 -217 -121l-33 -14q-4 0 -4 4z" />
<glyph unicode="*" horiz-adv-x="1024" d="M356.5 504.5q-0.5 17.5 28.5 17.5h117l-43 82q-6 12 -6 19q0 14 16 14t16 -8l54 -99l39 129q14 23 26 23t12 -6t-2 -10l-36 -115l104 80q16 4 20 4q16 0 16.5 -10.5t-7.5 -18.5q-74 -55 -119 -84h113q16 0 16 -17.5t-27 -17.5h-129l70 -94q6 -8 6 -18t-17.5 -10t-25.5 14 l-55 86l-37 -123q-25 -18 -32 -18t-7 9t2 15l37 111l-105 -78q-8 -6 -20 -6t-12 10t16 21l104 81h-116q-16 0 -16.5 17.5z" />
<glyph unicode="+" horiz-adv-x="729" d="M115 645q0 12 12 16.5t103.5 4.5t158.5 -2q92 262 108.5 262t28 -12.5t11.5 -26.5l-80 -223l254 -11q30 -2 30 -45q0 -8 -7 -8t-11 2h-287l-94 -268q-4 -14 -16.5 -14.5t-23.5 11t-11 25.5q45 150 78 246h-224q-31 0 -30 43z" />
<glyph unicode="," horiz-adv-x="421" d="M-4 -143.5q0 6.5 20.5 11.5t40 11t44 16.5t42.5 22.5q45 29 45 59l-2 56q0 25 16.5 44t41.5 19q61 0 61 -41q0 -57 -91 -127.5t-198 -77.5q-20 0 -20 6.5z" />
<glyph unicode="-" horiz-adv-x="1087" d="M326 225q0 12 12 16.5t175 4.5t409 -13q30 -2 30 -45q0 -10 -18 -10l-578 4q-31 0 -30 43z" />
<glyph unicode="." horiz-adv-x="497" d="M205 -11.5q0 17.5 32.5 56.5t52 39t31 -12.5t11.5 -35t-31 -57t-53.5 -34.5t-32.5 13t-10 30.5z" />
<glyph unicode="/" horiz-adv-x="800" d="M209 -131q139 422 426 1001.5t473 858.5q14 20 25 20q16 0 16 -22.5t-10 -34.5q-176 -256 -481.5 -915.5t-391.5 -952.5q-8 -8 -19 -8t-22.5 13t-15.5 40z" />
<glyph unicode="0" horiz-adv-x="1273" d="M61 254q0 137 58.5 308t164 337t234.5 307.5t286 228.5t304 87q76 0 111.5 -33t35.5 -81t-24 -97q109 -57 108 -232q0 -119 -51 -269.5t-146 -299t-217 -274t-276.5 -203.5t-302 -78t-216.5 81t-69 218zM166 289q0 -131 58.5 -207t193.5 -76t294.5 119t277.5 289t194 357 t76 317.5t-62 179.5q-37 -41 -109.5 -92.5t-118.5 -92t-46 -77.5l2 -15q0 -25 -15 -24q-27 0 -26.5 57t42.5 105.5t116.5 95.5t101.5 71q-33 8 -55 9q-152 0 -240 -62q-20 -16 -54 -16t-34 11t24 26q127 74 328 73q33 0 60 -6q27 37 26.5 78t-33 59.5t-75.5 18.5 q-217 0 -438.5 -211t-354.5 -490.5t-133 -496.5z" />
<glyph unicode="1" horiz-adv-x="624" d="M0 8q0 129 201.5 576.5t439.5 711.5q-104 -29 -166.5 -60.5t-105.5 -88.5q-33 -31 -60.5 -31t-27.5 31t27.5 57.5t92.5 50.5q113 41 279 82q197 203 371 203q72 0 71 -37q0 -63 -196 -125q-74 -25 -181 -53q-190 -207 -378 -575q-262 -512 -297 -807q0 -33 -11 -33 q-27 0 -43 33.5t-16 64.5zM784 1366q92 27 152 47q117 39 117 74q0 14 -27 14q-102 0 -242 -135z" />
<glyph unicode="2" horiz-adv-x="1093" d="M-78 23q0 100 117 205.5t280 105.5q61 0 125 -27q231 252 406.5 530.5t175.5 446.5t-211 168t-382 -150.5t-171 -285.5q0 -115 144 -115q182 0 290 205q12 23 25.5 51.5t23 47t17.5 36.5q18 35 33 35q18 0 18 -31q0 -111 -126 -248t-312 -137q-92 0 -137 39t-45 107.5 t53 155.5t142 164t224.5 129t280.5 52q256 0 256 -202q0 -182 -192.5 -476t-450.5 -553q43 -27 126 -94t151.5 -103t146.5 -36t198 76q12 10 23.5 10t11.5 -8q0 -35 -113.5 -85t-178 -50t-129 25.5t-104.5 53t-104.5 80t-91.5 70.5q-291 -276 -428 -276q-92 0 -92 84z M-14 63q0 -59 83 -59t318 246q-59 33 -115 33q-113 0 -199.5 -75t-86.5 -145z" />
<glyph unicode="3" horiz-adv-x="1040" d="M-111 71q0 40 34 62.5t105.5 22.5t145.5 -20.5t109.5 -39t97.5 -57.5q188 82 316 257t128 320q0 170 -182 170q-72 0 -148.5 -22.5t-92 -31.5t-19.5 -9q-12 0 -12 19.5t53 39.5q211 80 442.5 271.5t231.5 312.5q0 68 -52.5 101.5t-151.5 33.5t-221 -46t-211 -131 t-89 -191.5t88 -106.5q74 0 162 72.5t108.5 151.5t63.5 79q18 0 18 -31q0 -100 -133 -206.5t-250 -106.5q-127 0 -127 145q0 117 105.5 221.5t253 161t273.5 56.5t196.5 -48t70.5 -150.5t-150 -246t-472 -303.5l90 6q145 0 215.5 -54t70.5 -144q0 -150 -160.5 -334 t-381.5 -279q104 -63 196 -63q31 0 31 -27q0 -35 -74 -35q-47 0 -112 48q-53 35 -86 61q-135 -47 -246 -47t-172.5 39t-61.5 79zM-37 61q0 -27 53.5 -50t138.5 -23t183 35q-119 83 -219 83q-156 0 -156 -45z" />
<glyph unicode="4" horiz-adv-x="1204" d="M53 457q0 129 109.5 321.5t270.5 367.5t366 301t367.5 126t162.5 -86q0 -66 -80 -145.5t-127 -79.5q-12 0 -12 15t8 21q43 20 81 65.5t38 84.5q0 74 -132 74t-298 -116t-304 -275.5t-235.5 -338t-97.5 -294.5q0 -158 176 -158q78 0 236 29q121 311 331 725l68 129 q4 18 45 18q16 0 16 -16.5t-4 -26.5q-233 -455 -368 -813q276 55 329.5 55t127 -26.5t73.5 -59.5q0 -12 -11 -20t-22.5 -8t-105.5 28.5t-178 28.5t-226 -31q-98 -268 -104 -393q-4 -33 -27 -33q-49 0 -49 68q0 98 90 338q-205 -47 -321 -47q-193 0 -193 172z" />
<glyph unicode="5" horiz-adv-x="1083" d="M-164 56q0 40 34 62.5t95 22.5q154 0 510 -8h10q137 113 226.5 265.5t89.5 265.5q0 170 -185 170q-72 0 -174 -24t-168 -48l-67 -25q-33 -16 -43 -16t-10 16l8 27q86 98 161.5 272t110.5 299l33 127q14 12 37 13q49 -20 185 -46t218 -32q45 76 127 126t175.5 50t93.5 -53 q0 -57 -98.5 -111.5t-252.5 -54.5h-4q-12 -35 -12 -85t33 -69q10 -8 10 -18.5t-23 -12.5q-86 25 -86 111q0 39 15 74q-214 8 -353 43q-16 0 -26 -19q0 -43 -73 -232.5t-136 -301.5q0 -12 12 -13l25 7q178 49 321 49q276 0 277 -211q0 -115 -105.5 -269.5t-267.5 -275.5h137 q72 0 100.5 6t32.5 6q29 0 29 -30.5t-41 -32.5q-16 0 -323 4q-225 -145 -431 -145q-104 0 -165.5 38.5t-61.5 78.5zM-90 47q0 -27 53 -50.5t123 -23.5q174 0 336 113l-354 8q-158 0 -158 -47zM965 1393h28q88 0 152.5 38.5t64.5 73.5q0 23 -41 23t-105.5 -37t-98.5 -98z" />
<glyph unicode="6" horiz-adv-x="1222" d="M61 284.5q0 159.5 93.5 382t238 417t341 327.5t382.5 133q131 0 252 -69q25 -25 25 -62t-35 -37q-18 0 -41 21q-117 70 -266.5 69.5t-317.5 -120t-284.5 -294.5t-190.5 -376t-74 -352q0 -316 246 -316q172 0 338 162q-164 18 -249 107.5t-85 211.5q0 160 131 289t342 129 q106 0 158.5 -54t52.5 -156.5t-67.5 -241t-180.5 -254.5h4q164 0 256 118q10 14 15 15q12 0 12 -17q0 -66 -91 -108.5t-220 -42.5h-12q-223 -213 -476 -213q-152 0 -224.5 86t-72.5 245.5zM530 537q0 -127 71 -218.5t202 -111.5q100 111 161.5 247t61.5 242q1 170 -149 170 q-162 0 -254.5 -101t-92.5 -228z" />
<glyph unicode="7" horiz-adv-x="1148" d="M195 1298.5q0 94.5 103 173t292 78.5q82 0 267 -74.5t243 -91.5q186 154 336.5 154t150.5 -88q0 -61 -76.5 -116.5t-186.5 -55.5t-230 37q-170 -170 -351 -481q166 1 285 26q2 0 8 2q27 0 27 -39q0 -55 -68 -55l-157 8q-59 4 -123 4q-203 -365 -281 -674 q-23 -76 -33 -163q0 -33 -10 -33q-27 0 -43 33.5t-16 64.5q0 117 82 332t215 444h-64q-150 0 -185.5 5.5t-37.5 27.5q0 10 5 12t28 2h282q188 313 385 500q-55 18 -165 66q-225 94 -345 94t-195 -66.5t-75 -140.5t46 -117t123 -43t122 39t55 78l10 39q8 18 19.5 18t19 -14 t7.5 -31q0 -59 -60.5 -112.5t-167 -53.5t-174 58.5t-67.5 153zM1153 1370q102 -27 194.5 -27t138.5 29t46 62q0 67 -100 67q-127 0 -279 -131z" />
<glyph unicode="8" horiz-adv-x="1310" d="M61 365q0 170 167 284.5t352 114.5q115 0 187.5 -54.5t72.5 -160.5q0 -45 -31 -45q-23 0 -29 24q-23 98 -87 146.5t-152 48.5q-139 0 -259 -100.5t-120 -248t107.5 -270t299.5 -122.5q242 0 405 146t163 318q0 109 -77 208.5t-216 217.5q-123 -45 -226 -45 q-29 0 -51 16.5t-22 45.5q4 14 18 14l60 -4q88 0 168 19q-80 72 -123 113.5t-81 101t-38 110.5q0 137 150.5 217t338.5 80q348 0 348 -168q0 -109 -142 -247t-331 -224q84 -63 125 -98t101 -94q109 -115 108 -240q0 -133 -108 -268q-129 -162 -338 -226q-121 -37 -260 -36 q-227 0 -353.5 128t-126.5 298zM637 1253q0 -80 59.5 -152.5t169.5 -160.5q180 59 306 178t126 221q0 70 -67.5 111t-212 41t-263 -64.5t-118.5 -173.5z" />
<glyph unicode="9" horiz-adv-x="1312" d="M41 119q0 31 29 31q23 0 45 -23q127 -115 278.5 -115t311 121t276.5 296t191.5 376t74.5 346q0 301 -241 301q-147 0 -291 -121t-224.5 -280.5t-80.5 -286.5q0 -170 149 -170q182 0 291 205q12 23 25.5 51.5t22.5 46.5t20 37q16 35 30 35q18 0 19 -31q0 -139 -131 -262 t-308 -123q-106 0 -158.5 54.5t-52.5 154.5t62.5 230t163 245t245 192.5t290 77.5t215 -80.5t69.5 -218t-57.5 -306.5t-160 -332.5t-228 -302t-277.5 -224.5t-297 -86t-274 104q-27 27 -27 58z" />
<glyph unicode=":" horiz-adv-x="497" d="M205 -11.5q0 17.5 32.5 56.5t52 39t31 -12.5t11.5 -35t-31 -57t-53.5 -34.5t-32.5 13t-10 30.5zM360 298q0 17 33 56t52.5 39t30.5 -12t11 -34.5t-30.5 -57.5t-53 -35t-33 13.5t-10.5 30.5z" />
<glyph unicode=";" horiz-adv-x="421" d="M-4 -143.5q0 6.5 20.5 11.5t40 11t44 16.5t42.5 22.5q45 29 45 59l-2 56q0 25 16.5 44t41.5 19q61 0 61 -41q0 -57 -91 -127.5t-198 -77.5q-20 0 -20 6.5zM360 298q0 17 33 56t52.5 39t30.5 -12t11 -34.5t-30.5 -57.5t-53 -35t-33 13.5t-10.5 30.5z" />
<glyph unicode="&#x3c;" horiz-adv-x="931" d="M199 586q0 39 57 39q176 0 344 34.5t201 83.5q4 6 9 6.5t12 -13t7 -23.5q-2 -61 -188 -101.5t-281 -40.5q-18 0 -18 -6q0 -10 37 -28q293 -152 320.5 -173.5t27.5 -50t-12.5 -38t-22.5 -9.5t-10 4q0 39 -122 102.5t-242.5 123t-118.5 90.5z" />
<glyph unicode="=" horiz-adv-x="765" d="M115 590q0 12 12 16t175 4t409 -12q30 -2 30 -45q0 -8 -7 -8t-11 2h-578q-31 0 -30 43zM152 729q0 12 12 16.5t175 4.5t409 -13q30 -2 30 -45q0 -8 -7 -8t-11 2h-578q-31 0 -30 43z" />
<glyph unicode="&#x3e;" horiz-adv-x="931" d="M102 311q2 61 188.5 101.5t280.5 40.5q18 0 19 6q0 10 -37 28q-293 152 -320.5 173.5t-27.5 50t12 38t22.5 9.5t10.5 -4q0 -39 122 -102.5t242.5 -123t118.5 -90.5q0 -39 -57 -39q-176 0 -344 -34.5t-201 -83.5q-4 -6 -9 -6.5t-12.5 13t-7.5 23.5z" />
<glyph unicode="?" horiz-adv-x="1093" d="M205 -11.5q0 17.5 32.5 56.5t52 39t31 -12.5t11.5 -35t-31 -57t-53.5 -34.5t-32.5 13t-10 30.5zM211 989q0 125 115.5 239.5t275.5 178t291 63.5q274 0 274 -204q0 -137 -58 -256t-145 -197t-189.5 -153.5t-189.5 -132t-145.5 -128t-58.5 -147.5q0 -49 45 -49l57 4 q8 0 22.5 -14.5t14.5 -26.5q0 -23 -57 -23t-96 31t-39 76q0 147 258 336q109 78 217 165t184 211.5t76 268.5q0 96 -59.5 143t-168 47t-238.5 -56t-223 -155.5t-93 -208.5q0 -115 143 -114q182 0 291 205q12 23 25.5 51t22.5 46.5t19 37.5q16 35 31 35q18 0 18 -31 q0 -111 -125.5 -248t-312.5 -137q-92 0 -137 39t-45 104z" />
<glyph unicode="@" horiz-adv-x="1122" d="M2 -35q0 129 137 286t352.5 269.5t391.5 112.5t252.5 -54.5t76.5 -142.5q0 -158 -193.5 -314.5t-440.5 -156.5q-66 0 -66 70q0 16 6 30.5t6 20.5t-4 8q-6 0 -78.5 -55t-127 -55t-54.5 57t77 154.5t206 177.5t252 80q29 0 48 -14.5t19 -44t-58.5 -89t-103.5 -59.5 q-12 0 -12 9t14 21q68 55 68 101q0 29 -51 33q-92 -2 -220 -133.5t-128 -196.5q0 -23 25.5 -23t68.5 35q39 25 145 123q25 25 47 25q29 0 29 -27q0 -10 -6 -16.5t-22.5 -25.5t-28.5 -36q-37 -53 -37 -69q0 -41 33 -41q207 0 354 127t147 264q0 80 -63.5 130t-208.5 50 t-332.5 -106.5t-309.5 -254t-122 -264.5q0 -182 305 -182q90 0 187.5 37t158 74t62.5 37q12 0 12 -17q0 -41 -155.5 -103.5t-276.5 -62.5q-197 0 -289 57.5t-92 153.5z" />
<glyph unicode="A" horiz-adv-x="1638" d="M-205 37q0 18 23 18q14 0 35 -8q59 -24 218 -24h13q305 0 578 239q98 92 100 94q-193 14 -324 52q-233 66 -233 155q0 31 33.5 51.5t89.5 20.5q244 0 463 -219q18 0 26 -2q182 197 445 557q92 125 184 241q193 242 315 242q80 0 80 -70q0 -47 -132 -367t-273 -603l426 30 q16 0 16 -16t-27.5 -34.5t-107.5 -25t-338 -12.5q-208 -407 -295 -407q-57 0 -82 51q-90 182 -211 319l-59 -57q-302 -282 -704 -282h-3q-102 0 -179 15t-77 42zM272 561q0 -51 187 -98q106 -25 258 -41q-190 170 -377 170q-68 0 -68 -31zM852 352q121 -145 197 -309 q11 -29 34 -29q43 0 213 338q-229 -4 -285.5 -4t-158.5 4zM901 410q143 -4 251 -4t173 4q145 287 283.5 606t138.5 366q0 19 -23 19q-68 0 -180 -144.5t-297.5 -408.5t-345.5 -438z" />
<glyph unicode="B" horiz-adv-x="1591" d="M2 -225q0 145 275.5 518t623.5 686q62 151 62 221q0 67 -33 106q-33 40 -96 58q-100 27 -212 27t-171.5 -5.5t-144.5 -20.5t-138 -53t-53 -96.5t57 -90t140 -44t165 -27t139.5 -56.5t57.5 -117q0 -20 -9.5 -20.5t-14.5 5.5t-17 25q-18 27 -54 41t-111 27.5t-141.5 29 t-134 40t-108.5 69.5t-41 105.5t51 107.5t135 73q172 51 359 52q483 0 483 -254q0 -23 -10 -68q414 334 672 334q114 0 114 -69q0 -101 -210 -285.5t-433 -286.5l90 6q145 0 216 -54t71 -153.5t-90 -232.5t-234 -242h117q72 0 100.5 6t32.5 6q29 0 29 -30.5t-41 -32.5 q-158 0 -303 4q-229 -145 -451 -145q-104 0 -165.5 38.5t-61.5 78.5t34 62.5t95 22.5q240 0 537 -10q123 100 196.5 232.5t73.5 238.5q0 170 -182 170q-72 0 -149 -22.5t-92 -31.5t-19 -9q-13 0 -13 17t54 42q233 113 456.5 300t223.5 267q0 37 -58 37q-233 -2 -641 -350 q-82 -211 -269.5 -518t-392 -550t-305.5 -243q-61 0 -61 64zM68 -182q0 -47 47 -47q59 0 318 379.5t415 707.5q-307 -293 -543.5 -609.5t-236.5 -430.5zM641 -3.5q53 -23.5 123 -23.5q182 0 352 113l-371 8q-157 0 -157 -46q0 -28 53 -51.5z" />
<glyph unicode="C" horiz-adv-x="876" d="M0 84q0 240 332 641q-98 -25 -189 -31q-25 4 -25 26.5t23 24.5q109 0 238 35q242 276 515 468t462 192q94 0 94 -47q0 -63 -143.5 -182t-372.5 -244t-451 -199q-166 -193 -268 -373t-102 -297q0 -164 209 -164q117 0 258 74t233 146q20 14 35.5 14t15.5 -16q0 -10 -8 -19 q-96 -70 -171 -115t-195.5 -89t-231.5 -44q-258 0 -258 199zM535 827q190 68 383.5 177.5t310.5 207t117 142.5q-1 28 -54 28q-121 0 -335 -160.5t-422 -394.5z" />
<glyph unicode="D" horiz-adv-x="1611" d="M0 -125q0 94 225.5 316.5t440.5 345.5q129 197 202.5 306t188 260.5t207.5 246.5q137 137 233 137q39 0 39 -23q0 -14 -12 -20q-29 -16 -45 -25q-164 -109 -353 -356q-121 -162 -325 -465q39 12 76.5 12t67.5 -16t42 -47q20 -51 21 -121l-27 -279q0 -114 80 -114 q55 0 157.5 96t223.5 254q-61 -10 -115 -10q-133 0 -196.5 62.5t-63.5 176t75 269t186.5 291t257 228.5t272.5 93q139 0 139 -147.5t-117 -389t-291 -479.5q125 49 262.5 137t181.5 111t66.5 23t35.5 -11.5t13 -25.5q0 -29 -66.5 -41.5t-250.5 -119t-293 -140.5 q-147 -195 -283.5 -316t-222.5 -121q-119 0 -119 170q0 47 10.5 136.5t10.5 115.5q0 160 -96 160q-35 0 -74 -12q-119 -176 -190.5 -274.5t-170.5 -215.5q-188 -223 -342 -223q-61 0 -61 45zM88 -82q0 -31 37 -31q74 0 190.5 146.5t313.5 445.5q-180 -106 -360.5 -295.5 t-180.5 -265.5zM1169 666q1 -226 261 -226q29 0 59 6q178 242 306 494t128 380t-106 128q-129 0 -284 -133t-259.5 -318.5t-104.5 -330.5z" />
<glyph unicode="E" horiz-adv-x="1376" d="M63 84q0 92 108 192.5t261.5 181.5t306 152.5t260 129t107.5 87.5q0 16 -37 17q-475 -63 -686 -64q-170 0 -170 76q0 86 207 228.5t508 252.5q-500 4 -846 43q-18 6 -19 25q0 27 46 27q12 0 161 -11q416 -33 569 -33h5q152 0 241 5q355 112 605 112h4q90 0 90 -35 q0 -125 -740 -133q-276 -96 -485 -228t-209 -202q0 -45 107.5 -45t345 34t307.5 34q109 0 109 -62q0 -98 -367 -260q-152 -68 -305.5 -141.5t-260 -166.5t-106.5 -187q0 -78 174 -78q96 0 292 29.5t337 29.5q252 0 252 -139q0 -16 -18 -16q-10 0 -46 18q-109 55 -237 55 q-68 -4 -313.5 -31.5t-311.5 -27.5q-246 0 -246 131z" />
<glyph unicode="F" horiz-adv-x="833" d="M-35 1298q0 57 74 58q356 -25 669.5 -25t561.5 37q246 205 475 205q92 0 92 -33q0 -57 -248 -139q-127 -43 -295 -76q-147 -139 -336 -412q-63 -88 -170 -249l304 22q43 0 43 -45q0 -18 -39 -35.5t-78 -42t-39 -58.5t-21 -34q-94 0 -94 37q0 41 51 92q0 8 -14 8l-121 -6 l-32 -2q-262 -403 -410 -541q-143 -133 -256 -133q-72 0 -72 58q0 39 31 79.5t60.5 40.5t29.5 -18l-18 -39q0 -6 6 -6q104 0 243 170q115 139 281 385q-57 -4 -187 -4t-175 6t-48 35q0 12 6.5 15t145.5 3t301 6q317 463 516 652q-342 -55 -737 -56q-143 0 -344 11 q-16 0 -17 -15q0 -4 5 -20q0 -19 -28 -19h-1q-28 0 -70 29q-43 29 -45 59zM1360 1382q227 41 303 93q29 20 28.5 30.5t-16.5 10.5q-150 0 -315 -134z" />
<glyph unicode="G" horiz-adv-x="925" d="M0 1042q0 10 9 20.5t15.5 10.5t44 -13t95.5 -16q139 176 354 315.5t377 139.5q92 0 92 -47q0 -59 -127 -161.5t-316.5 -191.5t-340.5 -108q-45 -78 -45 -137q0 -129 221 -129q125 0 350 99.5t455 275.5q317 248 360 295q12 18 25.5 18t24 -10t10.5 -22.5t-15 -20.5 q-166 -133 -329.5 -310.5t-263 -309.5t-235.5 -322.5t-192 -263.5q133 35 254 87t146 81q20 0 20 -23q0 -31 -148.5 -95.5t-316.5 -107.5q-201 -248 -354 -248q-61 0 -91 64.5t-30 139.5t13.5 121t31 46t23.5 -6t9 -19.5t5 -19.5q68 -53 199 -53q55 0 131 10 q72 84 289 394.5t331 420.5q8 6 8.5 17.5t-6.5 11.5l-137 -82q-135 -82 -331.5 -164t-346.5 -82q-225 0 -225 141q0 82 78 199q-121 6 -121 55zM98.5 64.5q-0.5 -31.5 5 -53t31 -42t74.5 -20.5q80 0 197 121q-78 -12 -164 -12q-1 -1 -2 -1q-84 0 -125 41q-16 -2 -16.5 -33.5 zM244 1051q184 29 398 154.5t214 191.5q0 30 -63 30q-106 0 -275.5 -117.5t-273.5 -258.5z" />
<glyph unicode="H" horiz-adv-x="1339" d="M-76 -264q0 115 175 280.5t487 382.5q193 274 322.5 521t129.5 360q0 129 -129 158q-98 25 -205 25q-2 -1 -4 -1q-110 0 -174.5 -6t-142.5 -23.5t-126 -56.5t-48 -94q0 -63 111.5 -100t250 -74t177.5 -90q16 -18 22 -68q0 -14 -9 -14t-18 14q-18 43 -117.5 77t-207 53.5 t-194.5 63.5t-87 109.5t43 113.5t101.5 72.5t148.5 39.5q135 18 316.5 18t282.5 -59.5t101 -165.5q0 -227 -364 -750q98 66 278.5 183.5t231.5 152.5q211 287 423 481.5t343 194.5q37 0 37 -35q0 -90 -170 -235.5t-484 -354.5q-190 -256 -322 -489.5t-132 -323.5t51 -90 q37 0 101.5 39t109.5 78l45 39q12 14 22.5 14t10.5 -8q0 -53 -131 -131t-197 -78q-125 0 -125 97.5t98.5 292t253.5 417.5q-338 -219 -505 -332q-217 -297 -432.5 -515t-301.5 -218q-47 0 -47 35zM-4 -252q57 0 205.5 161t322.5 402q-542 -380 -542 -543q0 -20 14 -20z M1501 1008q504 344 504 467q0 12 -12 12q-57 0 -192.5 -134t-299.5 -345z" />
<glyph unicode="I" horiz-adv-x="686" d="M0 716q0 124 209 315.5t508 338t522 146.5q158 0 158 -86q0 -66 -80 -146t-127 -80q-12 0 -12 15.5t8 21.5q43 20 81 65.5t38 84.5q0 74 -152 74q-1 -1 -2 -1q-154 0 -405.5 -129t-438 -299t-186.5 -279.5t215 -109.5q82 0 287 33q219 313 317 442q180 233 248 234 q10 0 10 -6l-16 -25q-106 -104 -459 -631q289 54 357 54h3q67 0 139 -27q74 -27 74 -59q0 -12 -11 -20.5t-22.5 -8.5t-105.5 28.5t-181 28.5t-280 -35q-375 -549 -495 -657q-61 -55 -101 -55q-34 0 -34 46q0 30 14 68.5t39 38.5q8 0 10 -17.5t6 -17.5q41 0 152.5 146.5 t306.5 429.5q-236 -45 -358 -45q-236 0 -236 124z" />
<glyph unicode="J" horiz-adv-x="1157" d="M-90 -532q0 430 551 841q-80 72 -80 196t95 276.5t254 287.5t393.5 231.5t484.5 110.5q96 100 168 154q25 16 62.5 16t37.5 -20q0 -10 -28.5 -31t-43.5 -33l-84 -88q47 -10 80 -43t33 -70q-2 -121 -151.5 -249.5t-440.5 -305.5q-160 -258 -289 -483q199 31 336 145 q8 6 18.5 6.5t10.5 -11t-45 -45.5t-140.5 -74.5t-199.5 -57.5q-326 -553 -449 -708q-166 -211 -266 -267q-59 -32 -116 -32h-3q-88 0 -138 77.5t-50 176.5zM-18 -485q0 -229 159 -230q76 0 154 78q45 43 81 82t88 119t86 134t95.5 161.5t93 167t101.5 184.5h-43 q-180 0 -291 63q-524 -387 -524 -759zM487 526.5q0 -104.5 48 -164.5q193 135 595 369q246 422 445 643q-215 -14 -422 -106t-349 -220t-229.5 -272.5t-87.5 -249zM575 324q94 -72 279 -72h8q115 213 219 393q-313 -184 -506 -321zM1296 829q240 143 364 252t124 211 q0 70 -94 82q-178 -207 -394 -545z" />
<glyph unicode="K" horiz-adv-x="1423" d="M-70 1237q0 72 73 123t185 74q197 39 387 39q223 0 310 -54q35 -23 60.5 -68.5t25.5 -109.5q0 -121 -196.5 -450.5t-421 -609t-294.5 -279.5q-35 0 -34 35q0 14 8 31.5t21.5 47t18.5 38.5t14 22.5t20.5 16.5t28 3t20.5 -15t8 -15q90 66 260 287.5t317.5 489t147.5 404.5 q-4 96 -70 146q-57 41 -300 41t-385 -48.5t-142 -125.5q0 -49 70.5 -79t142.5 -40q29 -8 91 -14.5t113.5 -14.5t102.5 -22q115 -35 115 -132l-9 -12q-35 47 -65.5 58.5t-41.5 15.5t-42 9t-45 7q-43 6 -117 15q-377 47 -377 186zM856 776q0 72 129 188.5t215 116.5 q45 0 45 -61q0 -10 -4 -39q59 53 181 167t205 187.5t185 155.5q207 168 324 168q29 0 29 -19q-2 -41 -37 -72.5t-79 -40.5t-115.5 -49t-167 -112t-171 -133.5t-192.5 -158.5t-172 -142q-14 -59 -119.5 -389t-105.5 -420q0 -113 110 -113q63 0 121.5 23.5t92.5 48t40 24.5 t6 -8q0 -47 -118.5 -98t-186.5 -51q-141 0 -141 147q0 139 78 379q27 82 72.5 215t56.5 166q-162 -125 -221.5 -125t-59.5 45zM913 801q0 -19 23 -19q66 0 215 123q14 43 14 68q0 43 -37 43q-47 0 -131 -86t-84 -129z" />
<glyph unicode="L" horiz-adv-x="1656" d="M0 -109q0 100 182.5 264t374.5 197q39 49 127 166t143 187q174 229 279 346q-418 -111 -854 -111q-90 0 -90 27q0 14 24.5 30.5t46.5 16.5q111 -14 211 -15q330 0 717 115q371 406 627 406q106 0 106 -50q0 -68 -190.5 -182t-482.5 -205q-106 -127 -307 -397t-248 -330 q188 -8 325 -127q57 -47 111 -94q130 -112 275 -112h3q70 0 153 44t94 44t11 -11q0 -37 -104 -81t-206.5 -44t-184.5 34t-136.5 83t-105.5 98q-121 121 -262 132q-182 -231 -321.5 -358.5t-247.5 -127.5q-70 0 -70 55zM47 -80q0 -29 37 -29q72 0 180.5 109t263.5 313 q-160 -37 -320.5 -179t-160.5 -214zM1278 1153q229 78 386 166t157 135q0 29 -70 29q-182 0 -473 -330z" />
<glyph unicode="M" horiz-adv-x="1626" d="M2 729q0 80 86 207t210 244.5t278.5 202.5t275.5 85q158 0 158 -155q0 -102 -74 -277q203 150 326 150q74 0 74 -77q0 -78 -138 -303q-137 -224 -274 -405l-138 -182q0 -4 2 -4q78 53 273.5 233.5t360.5 311.5t245 131q47 0 47 -47t-123 -211t-245.5 -336t-122.5 -237.5 t55 -65.5q63 0 165.5 64.5t143.5 103.5t51.5 39t10.5 -8q0 -25 -69 -84.5t-172 -112.5t-177 -53q-98 0 -98 80.5t68.5 197.5t150.5 217q233 279 260 369q0 23 -21 22q-49 0 -303 -221t-372.5 -335.5t-159.5 -155.5t-63.5 -65.5t-45.5 -45.5q-43 -39 -57 -39q-2 0 -4 2 q-18 8 -19 29q0 51 131 215q231 287 394 545t163 344q0 33 -41 33q-100 0 -315 -181q-156 -319 -426 -653t-362 -334q-41 0 -41 41q0 111 248.5 420t519.5 533q98 207 98 321q0 137 -137 137q-129 0 -304.5 -129t-296 -287.5t-120.5 -248.5q0 -66 76 -66q109 0 236.5 110.5 t191.5 215.5q23 37 37 37t14 -14.5t-8 -24.5q-70 -104 -221.5 -239.5t-276.5 -135.5t-125 92zM133 43q0 -23 23 -23q53 0 268 280t362 556q-233 -215 -443 -476t-210 -337z" />
<glyph unicode="N" horiz-adv-x="1212" d="M2 698q0 111 141.5 287t351.5 314.5t375 138.5q96 0 146.5 -57.5t50.5 -148.5t-80 -261q318 237 444 237h1q25 0 41 -14t16 -39q0 -41 -167 -264t-335 -467t-168 -336q0 -57 64 -57q96 0 272 176q27 27 45 26q12 0 12 -17t-65.5 -75.5t-162.5 -114t-169 -55.5 q-96 0 -96 81t101.5 250t223.5 329q326 420 326 489q0 12 -14 13q-117 0 -398 -222q-158 -309 -429 -643t-365 -334q-51 0 -51 43q0 133 229 396.5t528 505.5q113 225 113 352q0 155 -164 155h-2q-127 0 -306 -123.5t-306 -281.5t-127 -250q0 -78 102 -78q70 0 199 84 t147 117q88 156 101 172q43 68 69 68q10 0 12.5 -14.5t-3 -28t-17.5 -33t-22.5 -34.5t-27.5 -39.5t-30.5 -43t-21.5 -35.5q-12 -25 -12.5 -57.5t-20.5 -32.5q-14 0 -21.5 12.5t-9.5 14.5q-23 -23 -62.5 -57.5t-142 -92t-182.5 -57.5q-133 0 -133 102zM182 -2q0 -14 8 -14 q55 2 275.5 275t368.5 548q-258 -221 -455 -458.5t-197 -350.5z" />
<glyph unicode="O" horiz-adv-x="1079" d="M2 268.5q0 149.5 99.5 372.5t252 421t355 336t389.5 138q76 0 111.5 -33t35.5 -84t-24 -92q104 -51 104 -199q0 -199 -169 -480t-406 -472q86 4 179 41t150.5 72t64.5 35t7 -17q0 -41 -155.5 -103.5t-276.5 -62.5h-14q-233 -172 -437 -172q-135 0 -200.5 75t-65.5 224.5z M104 297q1 -277 228 -277q152 0 323 123q-184 14 -274 110.5t-90 237t68.5 291t177 276.5t261 210t306.5 84q31 0 59 -6q27 39 27 78.5t-33 58t-76 18.5q-166 0 -348 -132t-317 -320.5t-223.5 -400.5t-88.5 -351zM393 524q0 -328 305 -348q217 176 379 465t162 485 q0 104 -53 152q-37 -41 -109.5 -91t-118 -90t-45.5 -77l2 -14q0 -25 -14 -25q-27 0 -27 56.5t40 103.5t116 95t100 71q-33 8 -53 8q-176 0 -337.5 -132t-254 -317.5t-92.5 -341.5z" />
<glyph unicode="P" horiz-adv-x="798" d="M0 -104q0 109 282.5 466t622.5 662q45 113 45 178q0 276 -469 277q-143 0 -254 -54q-68 -33 -68 -81q-1 -49 73 -102q72 -52 160.5 -93t161.5 -107.5t73 -140.5q0 -41 -8.5 -61.5t-14.5 -20.5q-10 0 -14 29q0 115 -172 207q-74 39 -148 75q-172 92 -172 199q0 49 45 87 t115 59q131 37 225 37h3q94 0 178 -14.5t175 -47.5t149.5 -101.5t58.5 -162.5q0 -12 -5 -45q428 350 676 350q102 0 103 -86q0 -98 -116 -258t-280.5 -286t-285.5 -126q-141 0 -152 146q0 33 21 32q14 0 27 -30.5t51 -66.5t79 -36q94 0 225.5 127t220.5 271.5t89 207.5 q0 45 -47 46q-207 0 -633 -373q-68 -195 -262.5 -484.5t-403.5 -507t-305 -217.5q-49 1 -49 46zM80 -82q0 -10 8 -10q100 0 360.5 344t409.5 659q-303 -291 -540.5 -593t-237.5 -400z" />
<glyph unicode="Q" horiz-adv-x="1794" d="M0 -158q0 70 111.5 185.5t291 211t338.5 95.5q53 0 117 -15q309 262 523 527.5t214 429.5q0 176 -227 176q-154 0 -334 -76t-318 -180t-231.5 -218t-93.5 -190q0 -92 138.5 -92t295 107.5t238.5 226.5q94 143 141 144q23 0 23 -31q0 -57 -122 -174t-300 -215.5 t-307 -98.5q-174 0 -174 117q0 88 100 214t255 241.5t367.5 197.5t411.5 82q258 0 258 -169t-234.5 -457.5t-572.5 -577.5q76 -29 183.5 -97.5t206 -115.5t202 -47t250.5 76q18 10 30.5 10t12.5 -9t-27 -30q-49 -31 -153.5 -67.5t-200.5 -36.5t-198.5 44t-212 116.5 t-162.5 97.5q-246 -201 -454 -327t-312 -126q-74 0 -74 51zM78 -109q0 -35 64 -35h2q65 1 248 114.5t399 291.5q-57 20 -109 21q-111 0 -258.5 -77t-246.5 -170.5t-99 -144.5z" />
<glyph unicode="R" horiz-adv-x="1611" d="M0 -96q0 115 283.5 462t636.5 646q35 99 35 177q0 81 -45 137q-44 56 -117 83q-131 47 -277 47q-336 0 -340 -113q0 -43 51.5 -74.5t126 -56t149.5 -54.5t127 -85t52 -118.5t-19.5 -63.5t-19.5 24q0 76 -86 131.5t-188.5 85t-188.5 79t-86 105.5t43 92t109 54 q131 33 237.5 33t193.5 -14.5t171 -48t135 -99t51 -155.5q0 -33 -10 -80q487 387 780 387q109 0 109 -82q0 -96 -130 -259t-304 -290t-287 -127q-70 0 -123 29q-2 2 -8 2t-6 -62.5t3 -125t17.5 -168t41 -180.5t79.5 -132t121.5 -57t214.5 65q20 10 35.5 10.5t15.5 -8.5 q0 -18 -31 -32q-176 -92 -274 -92q-1 0 -1 -1q-97 0 -161 71t-89.5 190.5t-33.5 231.5t-8 238.5t-6 167.5q0 18 -33 21q-102 -207 -294.5 -458t-363.5 -416.5t-229.5 -165.5t-58.5 49zM78 -70q0 -14 10 -14q47 0 200.5 157.5t332 403.5t266.5 449q-324 -279 -566.5 -576 t-242.5 -420zM965 932h65q10 0 12 -18.5t4.5 -45t14.5 -44t48 -38t83 -20.5q94 0 242.5 128t257 280.5t108.5 222.5q0 37 -37 37q-256 0 -762 -412q-16 -47 -36 -90z" />
<glyph unicode="S" horiz-adv-x="1619" d="M0 610q0 39 40 63.5t122 24.5q205 0 407 -260q205 -20 465 -20h23q262 158 487 317q92 168 160 277.5t164 228.5q190 242 401 242q55 0 55 -49q0 -119 -196.5 -311.5t-521.5 -413.5q-98 -188 -148 -275q287 23 414 70h6q8 0 8 -11.5t-14 -31.5q-154 -47 -442 -74 q-111 -190 -214.5 -295.5t-207.5 -105.5q-168 0 -318 186q-293 -147 -518 -225q-31 -10 -71 -10t-40 30q0 16 16.5 29.5t43.5 13.5q164 0 545 193q-49 66 -127 182q-539 53 -539 225zM98 618q0 -117 396 -169q-160 213 -322 213q-74 -1 -74 -44zM616 379q78 -109 109 -148 q127 68 244 136h-8q-178 0 -345 12zM750 201q137 -170 249 -170q84 0 167 90t184 260q-125 -10 -293 -14q-156 -88 -307 -166zM1145 418q158 4 231 10q39 68 113 203q-111 -74 -344 -213zM1667 823q258 190 413.5 347t155.5 243q1 21 -24 21q-141 0 -285 -189 q-119 -160 -260 -422z" />
<glyph unicode="T" horiz-adv-x="813" d="M-84 1321q0 31 35 31q20 0 265 -32t527.5 -32t542.5 31q276 240 549 240q113 0 113 -54q0 -139 -631 -231q-209 -209 -506 -682q-111 -174 -219 -336q-240 -356 -391 -356q-56 0 -56 49q0 48 41 110q39 61 62 62h2q27 0 26 -31l-8 -39q0 -10 8 -10q109 0 369 442 q104 178 266 405.5t314 373.5q-354 -45 -676 -45l-455 22q-4 0 -18.5 -12.5t-24.5 -12.5t-14 3q-121 43 -121 104zM1378 1331q152 23 261.5 55.5t154.5 61.5t45 50.5t-53 21.5q-197 0 -408 -189z" />
<glyph unicode="U" horiz-adv-x="1325" d="M2 807q0 82 88 206t220 236.5t305 193.5t323 81q201 0 201 -138q0 -106 -120 -301.5t-265 -373.5q-383 -473 -383 -582q0 -57 73 -57q152 0 453 241q74 182 230.5 402.5t315.5 372t238 151.5q39 0 39 -37q0 -94 -227 -361.5t-504 -500.5q-51 -127 -51 -199 q0 -129 141 -129q51 0 125 39t91.5 56.5t23.5 17.5t6 -8q0 -43 -107.5 -95.5t-216.5 -52.5q-153 0 -153 142q0 61 24 135q-319 -244 -493 -244q-51 0 -84 33t-33 85t81 175t196.5 268.5t230.5 294.5q276 360 277 508q0 111 -158 111q-123 0 -269.5 -74t-260 -175.5 t-190.5 -211t-77 -180.5q0 -84 109 -84q86 0 176 56t150.5 130t98.5 132t44 77q6 25 41 24q10 0 19 -8t9 -19t-58 -106.5t-65.5 -115t-25.5 -19.5l-29 8q-4 0 -45 -33.5t-94 -72.5t-129 -73t-141 -34q-150 0 -150 109zM1030 428q233 209 416.5 432t183.5 299q0 15 -8 15 q-57 0 -262 -252q-207 -256 -330 -494z" />
<glyph unicode="V" horiz-adv-x="784" d="M-13 1372q50 45 136 70q162 43 377 43q264 0 385 -62q47 -25 81.5 -72.5t34.5 -113.5q0 -145 -149 -451q301 254 583.5 449t352.5 195q12 0 23.5 -16.5t11.5 -35t-29 -37.5q-90 -55 -125 -91t-49 -36t-19.5 10.5t-11.5 10.5q-59 0 -294.5 -162t-487.5 -375 q-156 -293 -339 -532.5t-265 -239.5q-16 0 -32.5 13.5t-16.5 31.5q0 190 518 658q221 420 221 598q0 104 -70 153q-72 49 -143 58q-111 12 -194 12t-144 -5t-145 -19.5t-136.5 -52.5t-52.5 -94t65.5 -87t159 -42t185.5 -26.5t157.5 -61.5t65.5 -128q0 -18 -14 -19l-13 13 q-51 98 -286 133q-92 12 -183 29q-208 39 -208 173q0 64 50 109zM223 -4q0 -6 4 -6q37 0 152 160.5t237 379.5q-393 -371 -393 -534z" />
<glyph unicode="W" horiz-adv-x="1409" d="M-131 1296.5q0 67.5 66.5 111.5t166.5 65q190 38 337 38h7q254 0 406 -102t152 -303q0 -92 -60 -248q330 264 422 264q27 0 46.5 -20.5t19.5 -50t-39 -134t-177.5 -401.5t-138.5 -301t6 -8q12 0 39 37q199 276 596.5 641.5t687.5 492.5q59 25 90 25t31 -21.5t-26.5 -37 t-91 -59.5t-85 -62.5t-28.5 -18.5t-10 12.5t-9.5 12.5t-23.5 -6q-248 -117 -631 -486q-403 -391 -569 -635q-59 -86 -85 -103t-38 -17q-25 0 -25 28q0 63 216 507t216 513q0 29 -30 29q-88 0 -392 -268q-139 -315 -382.5 -622.5t-370.5 -307.5q-43 0 -43 51 q35 150 227.5 375t450.5 448q106 244 106 381q0 356 -502 357q-135 0 -235 -23q-193 -39 -209 -137q4 -115 227 -166q94 -20 188.5 -43t160 -70t65.5 -121q0 -16 -12.5 -43.5t-29.5 -27.5t-17 20q0 12 9 26.5t9 22.5q0 57 -242 117q-102 25 -203.5 56.5t-172 88t-70.5 124z M205 -53q0 -13 12 -13q76 0 241 220.5t296 484.5q-227 -219 -388 -415.5t-161 -276.5z" />
<glyph unicode="X" horiz-adv-x="1464" d="M0 750q0 90 88 221t220 251.5t306 207t328 86.5q217 0 217 -236q0 -145 -117 -520q371 297 691.5 527.5t369.5 230.5q8 0 24.5 -14.5t16.5 -28t-83 -94.5t-103 -81q-4 0 -9 7.5t-12 7.5q-55 0 -325.5 -193.5t-603.5 -466.5q-115 -360 -115 -489q0 -168 145 -168 q86 0 167 45t190 154l20 20q12 0 12 -23.5t-59 -82t-158.5 -108.5t-187.5 -50q-225 0 -225 227q0 133 73 361q-451 -373 -616 -557q-29 -31 -40 -34t-24.5 -3t-13.5 10q0 96 729 692q57 150 108.5 321t60.5 225t9 101q0 176 -163 177q-147 0 -302 -79t-265.5 -189.5 t-182.5 -227.5t-72 -197q0 -94 101 -94q143 0 310 149.5t255 288.5q6 8 18 9q27 0 27 -25q0 -6 -47 -72q-106 -145 -111 -180q-2 -10 -12 -10q-18 0 -23 18q0 6 -4 6q-27 -27 -94 -76t-121 -81q-143 -84 -241 -84q-156 0 -156 121z" />
<glyph unicode="Y" horiz-adv-x="1452" d="M-76 -1192q0 121 428 743q-6 2 -20 3q-125 -18 -129 -19q-35 0 -35 21.5t55 27.5q74 16 199 70q127 182 334 459q-256 -170 -363 -170q-43 0 -64.5 23.5t-21.5 92t82 194.5t200 262t235.5 276.5t199.5 278.5t82 233q0 120 -169 120h-3q-141 0 -334.5 -98t-341 -255 t-147.5 -298q0 -96 112 -96q82 0 172 46t158 109q141 131 178 203q18 33 40 33t22 -18q0 -41 -98.5 -142.5t-248 -193.5t-248 -92t-133 47t-34.5 112q0 115 148.5 278t370.5 285.5t406 122.5q231 0 232 -202q0 -100 -79 -237.5t-192.5 -270.5t-228.5 -264 q-270 -309 -270 -449q0 -45 57 -45q90 0 336 188q322 422 576.5 701.5t336.5 279.5q57 0 58 -43q0 -94 -237.5 -343t-538.5 -486q-229 -299 -416 -561q240 121 482.5 280.5t363.5 280.5q16 16 28 16q18 0 19 -24q0 -63 -360.5 -298t-598.5 -347l-49 -68q143 -55 143 -179 t-122.5 -286t-266 -269.5t-224.5 -107.5t-81 76zM14 -1174q0 -35 27 -34q57 0 177 99t221.5 244.5t101.5 248t-99 143.5q-428 -612 -428 -701zM1124 449q231 209 405.5 400t174.5 243q0 14 -16 14q-55 0 -564 -657z" />
<glyph unicode="Z" horiz-adv-x="2007" d="M2 -145q0 39 70.5 104.5t175 128t240 108.5t221.5 46t165 -27q274 162 505 326t400 340t169 283.5t-120 185t-293 115.5t-377 38t-353.5 -58.5t-149.5 -168.5q0 -49 66.5 -80t165 -42t215.5 -25.5t215 -31t164.5 -56.5t66.5 -101q0 -102 -53 -102q-16 0 -16 20l4 39 q0 61 -67.5 95t-170 43t-220.5 22.5t-220.5 29t-170 63.5t-67.5 126q0 129 166 196.5t401.5 67.5t440.5 -47t348 -146.5t143 -222.5t-174 -293q-303 -299 -942 -643q35 -14 154 -65q266 -96 338 -100q111 0 171 6t145 39.5t165 101.5q14 10 31.5 10t17.5 -14t-28.5 -41 t-86 -57.5t-128.5 -57.5q-170 -63 -365 -63q-113 0 -298 87t-222 99q-268 -137 -485.5 -225t-287 -88t-69.5 35zM111 -113q0 -18 22 -18q57 0 233.5 79t401.5 206q-72 14 -131 14q-131 0 -259 -57.5t-197.5 -123t-69.5 -100.5z" />
<glyph unicode="[" horiz-adv-x="835" d="M72 -348l551 1966q2 14 13 27.5t17 13.5h486q33 -1 35 -19q-4 -49 -60 -49h-444q-74 -262 -252 -927.5t-264 -970.5h454q31 0 33 -19q0 -14 -14.5 -30.5t-42.5 -16.5h-482q-29 0 -30 25z" />
<glyph unicode="\" horiz-adv-x="694" d="M365 -258q47 311 47 1042.5t-47 1019.5q-1 51 22 51q14 -4 21 -30q68 -430 67 -1217q0 -520 -39 -848q-18 -35 -40.5 -34.5t-30.5 16.5z" />
<glyph unicode="]" horiz-adv-x="835" d="M72 -354q4 49 59 49h444q74 262 252.5 927.5t264.5 970.5h-455q-31 0 -33 19q0 14 14.5 30.5t43.5 16.5h481q29 0 31 -25l-551 -1966q-2 -14 -13.5 -27.5t-17.5 -13.5h-486q-32 1 -34 19z" />
<glyph unicode="^" horiz-adv-x="671" d="M244 175q0 15 36.5 27.5t96 53.5t75 61.5t37 20.5t39.5 -19q6 -8 13.5 -56t36.5 -91q4 -8 4 -10q0 -10 -12.5 -10t-31 17t-37 56t-18.5 41q-49 -45 -227 -106q-12 0 -12 15z" />
<glyph unicode="_" horiz-adv-x="954" d="M158 -20q0 12 12 16t175 4t409 -12q30 -2 30 -45q0 -10 -18 -11l-578 5q-31 0 -30 43z" />
<glyph unicode="`" horiz-adv-x="671" d="M211 647q0 27 23.5 27t42 -22.5t70.5 -61.5t104 -58q20 -6 20 -21t-12 -15q-172 61 -226 114q-22 23 -22 37z" />
<glyph unicode="a" d="M0 41q0 57 77 154.5t206 177.5t252 80q29 0 48 -14.5t19 -44t-59.5 -89t-102.5 -59.5q-12 0 -12 9t14 21q68 55 68 101q0 29 -51 33q-92 -2 -220 -133.5t-128 -196.5q0 -23 25.5 -23t68.5 35q39 25 145 123q25 25 47 25q29 0 29 -27q0 -10 -6 -16.5t-22.5 -25.5 t-28.5 -36q-37 -53 -37 -69q0 -41 33 -41q43 0 161.5 78.5t216.5 158.5l99 78q14 10 26.5 10t12.5 -14v-4q-158 -133 -333 -250t-231 -117q-65 0 -65 68q0 18 6 32.5t6 20.5t-4 8q-6 0 -78.5 -55t-127 -55t-54.5 57z" />
<glyph unicode="b" horiz-adv-x="475" d="M72 375q0 53 36.5 86t104.5 33t109 -21q201 311 460 657l88 117q20 23 41 23q31 0 35 -31v-14q0 -4 -10 -19q-403 -530 -563 -766q53 -53 53 -124.5t-35 -141.5q139 17 305 158h47q-190 -172 -376 -197q-45 -66 -105.5 -113t-101.5 -47q-49 0 -49 57.5t51 164.5 q-90 80 -90 178zM133 371q0 -61 55 -121q39 72 113 188q-29 16 -63 17q-105 0 -105 -84zM203 109q-1 -43 24 -43q35 0 84 67q-49 0 -98 27q-10 -35 -10 -51zM236 211q49 -31 100 -37q37 66 37 121t-29 100q-69 -102 -108 -184z" />
<glyph unicode="c" horiz-adv-x="499" d="M53 78.5q0 107.5 130 234.5t282 127q45 -4 56 -14t11 -28.5t-37.5 -66.5t-68.5 -48q-35 6 -35 24q0 8 19 27q35 31 34.5 45t-22.5 14q-72 -2 -180.5 -117.5t-108.5 -191.5q0 -57 75 -57t161 53q152 92 305 219l51 41q16 10 27.5 10t11.5 -14v-4q-162 -143 -334 -252 t-287 -109q-90 0 -90 107.5z" />
<glyph unicode="d" horiz-adv-x="565" d="M-57 12q0 86 185 252t296 166q14 0 31 -20q47 70 528 755q51 63 83 63.5t32 -20.5q0 -51 -353 -483q-131 -164 -240.5 -341t-109.5 -269q0 -39 23 -39q27 0 94 47q139 100 244 184l39 33q14 10 26.5 10t12.5 -14v-4q-426 -344 -517 -344q-35 0 -34.5 41t30.5 137 q0 2 -4 2q-236 -195 -313 -195q-53 0 -53 39zM66 80q0 -14 16 -14q51 0 155.5 87t139.5 140l65 100q-6 2 -12 2q-86 0 -225 -131t-139 -184z" />
<glyph unicode="e" horiz-adv-x="528" d="M92 70q0 133 135 273t228 140q51 0 51 -57q-10 -113 -324 -303v-21q0 -68 70 -68h1q71 0 153 48q160 94 299 215l51 43q14 10 26.5 10t12.5 -14v-4q-213 -176 -354.5 -264t-256.5 -88q-92 0 -92 90zM190 172q98 59 166 126t68 94.5t-23 27.5q-45 0 -115.5 -76t-95.5 -172 z" />
<glyph unicode="f" horiz-adv-x="538" d="M-391 -864q0 92 504 813q-31 -2 -43 -2q-104 0 -166 43t-62 95t50.5 83t123.5 31q133 0 213 -86l465 637q0 4 -6 4q-178 -188 -312 -317.5t-179 -164.5l-45 -34l-11 30q156 127 289 262.5t188 206.5l56 72q141 178 174 215q51 55 79.5 55t28.5 -35q0 -31 -120.5 -204.5 t-188.5 -270.5q-211 -297 -262 -364l-111 -156l7 -16q154 55 335 190l150 117q16 10 27.5 10t11.5 -14v-4q-315 -262 -514 -336q6 -29 6 -59q0 -119 -64.5 -269.5t-158.5 -277.5t-206 -214t-200 -87q-59 0 -59 47zM-289 -819q0 -18 25 -19q92 0 207.5 128t196.5 309.5 t81 324.5q0 16 -4 45q-506 -719 -506 -788zM-106 101.5q0 -31.5 56 -69.5t108.5 -38t88.5 6l43 57q-59 106 -190 107q-45 0 -75.5 -15.5t-30.5 -47z" />
<glyph unicode="g" horiz-adv-x="608" d="M-369 -805q0 51 50.5 137t99.5 140l194 204q25 39 101 143.5t100 139.5l88 131l4 8q0 4 -4 4q-121 -100 -200.5 -100t-79.5 46t61 122t148.5 147.5t193 124t186 52.5t80.5 -58q0 -41 -76.5 -98t-94 -57t-17.5 8q0 12 16 22q70 49 70 93.5t-37 44.5q-90 0 -251 -153 t-161 -216q0 -18 30 -18q0 -1 1 -1q30 0 101 49q71 48 108 93l55 69q10 14 26.5 14.5t29 -10t12.5 -20.5l-248 -344l303 190q135 82 271 197l47 41q14 10 26.5 10t12.5 -14v-4q-199 -164 -312 -238l-409 -266l-127 -178q-295 -403 -295 -434q-33 -72 -64 -72q-39 0 -39 51z " />
<glyph unicode="h" horiz-adv-x="661" d="M14 0q0 23 27 57l715 1090q23 35 60.5 35t37.5 -25q0 -14 -11.5 -30.5t-138 -195.5t-146 -212t-178.5 -270.5t-168 -251t-9 -21.5t7 -8t9 2q66 66 179.5 153t156.5 87q16 0 28.5 -11.5t12.5 -37t-80 -139t-80 -147.5t21.5 -34t107.5 57q154 102 283 207l45 37 q14 10 26.5 10t12.5 -12v-6q-162 -135 -318 -242q-156 -119 -216 -119t-60 50q0 53 78 180t78 136t-9 9q-27 0 -163 -117.5t-238 -218.5q-39 -35 -54.5 -35t-15.5 23z" />
<glyph unicode="i" horiz-adv-x="385" d="M63 23q0 59 102.5 224t149.5 165q35 0 35 -27t-94 -145.5t-94 -169.5q0 -29 21.5 -29t107.5 57q154 102 282 207l45 37q16 10 25.5 10t9.5 -12v-6h1q0 -5 -110 -90q-118 -90 -252 -180.5t-169 -90.5q-59 0 -60 50zM365 523.5q0 17.5 32.5 56t52 38.5t31 -12t11.5 -34.5 t-31 -57.5t-53.5 -35t-32.5 13.5t-10 31z" />
<glyph unicode="j" horiz-adv-x="380" d="M-537 -856q0 39 381 571q-51 51 -137 52q-27 4 -26 22q2 16 24 16q4 0 66 -6q53 0 157 35l342 477q4 6 4 13.5t-6 7.5t-12 -6l-106 -88l-9 30l105 88q74 74 102 74q10 0 20.5 -9t10.5 -26q0 -59 -322 -501q82 45 117 92q8 10 20.5 10t12.5 -14q0 -68 -191 -146l-94 -129 q37 -45 37 -129t-84 -206t-188.5 -201.5t-164 -79.5t-59.5 53zM-422 -842q41 0 116 71t135 178.5t60 193.5q0 29 -6 53q-321 -435 -321 -477q0 -18 16 -19zM-168 -227q23 -10 39 -21q12 25 29 41q-43 -12 -66 -16q0 -2 -2 -4zM365 523.5q0 17.5 32.5 56t52 38.5t31 -12 t11.5 -34.5t-31 -57.5t-53.5 -35t-32.5 13.5t-10 31z" />
<glyph unicode="k" horiz-adv-x="651" d="M-4 26.5q0 12.5 29.5 59.5t193.5 276.5t170 240.5t6 15.5t-7 4.5t-11 -3.5t-62 -41.5q-129 -88 -178 -88q-1 0 -1 -1q-48 0 -48 39q0 33 21.5 57.5t48.5 24.5q12 0 20 -27.5t26.5 -27t45 14.5t54.5 34.5t63.5 50t58.5 50.5q68 61 82 75q39 66 295 375q31 39 60.5 39 t29.5 -14.5t-10.5 -27.5t-153.5 -198.5t-288.5 -379t-145.5 -206t10 -12.5q31 33 79 81t165 129t185.5 81t68.5 -37q0 -68 -158 -201t-219 -133l-39 9q-18 0 -30.5 -32t-12.5 -73q0 -125 94 -125q49 0 111 39q131 80 280 205l52 41q14 10 26.5 10t12.5 -14v-4 q-162 -143 -324 -246q-121 -90 -195.5 -90t-104.5 55t-30 115.5t12.5 83t12.5 28t-12 5.5q-18 0 -127 -141.5t-121.5 -141.5t-23.5 7t-11 19.5zM362 377q0 -4 13 -4q20 0 26.5 -32t22.5 -32q53 0 157.5 108.5t104.5 157.5q0 19 -26 19t-101 -54q-76 -54 -137 -110z" />
<glyph unicode="l" horiz-adv-x="495" d="M111 80q0 137 177 406.5t398 484.5t334 215q51 0 51 -45q0 -113 -269.5 -372t-529.5 -441q-76 -144 -76 -220q0 -77 54 -77q53 0 139 61q145 86 283 205l51 43q14 10 26.5 10t12.5 -14v-4q-213 -176 -324 -246q-143 -109 -241 -109q-86 0 -86 103zM301 377 q236 168 461 410.5t225 314.5q0 18 -18 18q-86 0 -305.5 -247.5t-362.5 -495.5z" />
<glyph unicode="m" horiz-adv-x="935" d="M23 18.5q0 14.5 35.5 69.5t93.5 135q88 119 88 133l-4 23q0 10 43 10q25 0 25 -30.5t-71 -136t-71 -109.5t8 -4t189.5 143t218 143t36.5 -25.5t-20.5 -57t-86 -114.5t-69.5 -89.5t-4 -14.5t13.5 -8t202 139.5t215 139.5t26.5 -23q0 -41 -90 -143.5t-90 -130t21.5 -27.5 t107.5 57q154 102 282 207l45 37q16 10 27.5 10t11.5 -12v-6q-432 -360 -534 -361q-59 0 -60 50q0 41 59.5 120.5t59.5 87t-5 7.5t-168 -117t-193 -117q-14 0 -24.5 11.5t-10.5 23.5q0 37 88 149q88 111 88 121t-12 10q-14 0 -291 -225l-103 -82q-27 -23 -40 -22.5t-25 7.5 t-12 21.5z" />
<glyph unicode="n" horiz-adv-x="790" d="M106 8q0 29 115 180q111 152 111 170q0 4 -7.5 4t-177.5 -124l-8 30q145 117 196.5 150t83.5 33t32 -31q0 -20 -116 -167t-116 -158t7 -11t233.5 165t275.5 165q14 0 27.5 -11.5t13.5 -21.5q0 -25 -108.5 -163t-108.5 -156.5t25.5 -18.5t109.5 55q154 100 283 207l45 37 q14 10 26.5 10t12.5 -12v-6q-432 -360 -535 -361q-59 0 -59 49.5t44 117t88 119.5t44 62.5t-6 10.5q-190 -127 -226 -156t-117 -94.5t-105.5 -81.5t-53.5 -16t-29 24z" />
<glyph unicode="o" horiz-adv-x="473" d="M12 64.5q0 87.5 146 232.5q-25 59 -25 124.5t47 106.5t109.5 41t105.5 -41t43 -116q0 -117 -76 -234q9 -2 25 -2q115 0 275 129l34 -10q-201 -168 -346 -168q-16 0 -24 2q-55 -68 -121 -110t-115 -42q-78 0 -78 87.5zM96 76q0 -41 53.5 -41t135.5 108q-55 29 -99 101 q-90 -98 -90 -168zM238 304q33 -72 84 -107q63 106 63 181t-37 110.5t-72 35.5q-72 0 -72 -72q0 -74 34 -148z" />
<glyph unicode="p" horiz-adv-x="688" d="M-592 -805q0 141 278.5 473t571.5 559l180 262v3q0 6 -8 6q-41 -72 -221 -215l-59 -45l-9 30q156 127 289 262.5t188 206.5l56 72q29 39 63.5 39t34.5 -21q0 -8 -5 -14t-47 -66.5t-124 -176t-154 -218.5q119 68 179.5 68t60.5 -25q0 -82 -164 -252q-55 -57 -55 -74.5 t29.5 -17.5t105.5 51q150 100 276 203l46 37q14 10 26 10t12 -12v-6q-432 -360 -534 -361q-59 0 -59 48.5t112.5 180.5t112.5 169q-4 4 -8 4q-57 0 -185 -88q-823 -1153 -936 -1153q-23 0 -38 15t-15 46zM-524 -786q0 -13 12 -13q63 0 702 926q-270 -229 -492 -500.5 t-222 -412.5z" />
<glyph unicode="q" horiz-adv-x="630" d="M-367 -831q0 39 223.5 350t403.5 549q2 4 2 10t-8 6q-100 -88 -186 -88q-57 0 -58 47q0 66 90 174.5t232.5 198.5t263.5 90q63 0 63 -44t-61 -106.5t-104 -62.5q-8 0 -8.5 13t26.5 27.5t51.5 45.5t24.5 53q0 31 -41 31q-98 0 -263 -151.5t-165 -223.5q0 -27 42 -27 t199 138q41 41 54.5 43t34 2t19.5 -21.5t-76 -106.5t-75 -92.5t9 -9.5q41 0 94 21.5t86 42.5l33 22q115 74 272 201l47 39q14 10 26.5 10t12.5 -14v-4q-182 -152 -341 -258.5t-271 -106.5q-10 -2 -11 -26q0 -113 -109.5 -314.5t-250.5 -358.5t-221 -157q-23 0 -41.5 17.5 t-18.5 40.5zM-264 -797q0 -16 12 -16q31 0 107.5 75.5t155.5 179t140.5 225.5t61.5 200q0 12 -4 12q-29 0 -251 -314.5t-222 -361.5z" />
<glyph unicode="r" horiz-adv-x="452" d="M141 268q129 102 150 138v18q0 51 10 69.5t49 51.5t53.5 33t25.5 -10.5t11 -20.5t-7 -23.5t-14 -22.5t-19.5 -22.5t-15.5 -18.5t-6 -17.5t-13.5 -20.5t-10.5 -20.5t16.5 -54.5t16.5 -61.5t-75.5 -92t-75.5 -117.5q0 -25 22 -25q29 0 107 51l24 17q133 92 250 186l43 35 q14 10 26.5 10t12.5 -14v-4q-154 -123 -303.5 -230.5t-218.5 -107.5q-52 0 -52 56q-1 54 49 110t98 96.5t48 54t-15.5 30.5t-25.5 24q-35 -35 -151 -127z" />
<glyph unicode="s" horiz-adv-x="407" d="M8 22.5q0 22.5 12.5 38t22.5 15.5t33.5 -32t46.5 -32q47 0 73.5 100.5t26.5 138.5t-5 38t-9 -4l-59 -47l-9 30q129 102 150 138q12 33 35 32q14 0 14 -10t-14.5 -44t-38 -152.5t-23.5 -137t10 -18.5q143 88 304 219l57 45q16 10 27.5 10t11.5 -14v-4q-158 -133 -333 -250 t-222 -117t-79 17.5t-32 40z" />
<glyph unicode="t" horiz-adv-x="387" d="M66 27q0 78 87 215t190 259t196.5 230.5t101.5 132.5q-225 -20 -346 -49l-41 -8q-16 -2 -16 -31q0 -12 -29 -12t-71 13.5t-42 38t41 32.5q303 53 430 64.5t169 14.5t131 5t120 2q92 4 216 4t150.5 -10t26.5 -39q0 -21 -47 -21l-293 15q-180 0 -358 -15l10 -41 q0 -23 -133 -171t-266 -323t-133 -259q0 -33 23.5 -33t107.5 57q156 102 284 207l46 37q14 10 24 10t10 -12v-6h1q0 -5 -110 -90q-118 -90 -252 -180.5t-169 -90.5q-59 0 -59 54z" />
<glyph unicode="u" horiz-adv-x="591" d="M0 37q0 37 114.5 190.5t161.5 153.5q10 0 19.5 -9.5t9.5 -14.5t-105.5 -125.5t-105.5 -155.5q0 -8 8 -8q39 0 168 104t183.5 161.5t85 57.5t30.5 -26q0 -16 -12 -33t-46 -59t-62 -78q-80 -102 -80 -128t21.5 -26t105.5 57q156 102 284 207l45 37q14 10 24.5 10t10.5 -12 v-6h1q-1 -5 -111 -90q-118 -90 -251.5 -180.5t-168.5 -90.5q-60 1 -60 54q0 31 30 80t32 57t-4 8t-17.5 -11t-125 -86t-156.5 -75q-29 0 -29 37z" />
<glyph unicode="v" horiz-adv-x="524" d="M43 13.5q0 15.5 69.5 139t69.5 133t-8 9.5q-29 -14 -43 -14t-14 9t8 17q86 68 120 68t34 -39t-51.5 -126t-51.5 -101.5t7 -14.5t17.5 8.5t108.5 94.5q334 262 365 262h2q12 0 24.5 -8.5t12.5 -24.5t-47 -58t-76 -42l-33 14q-39 0 -424 -334q-37 -33 -54.5 -33t-26.5 12.5 t-9 28z" />
<glyph unicode="w" horiz-adv-x="765" d="M53 61q0 78 116 218.5t165 140.5q31 0 31 -11.5t-38 -48t-115 -132t-77 -138.5q0 -27 41 -27t180.5 112t225.5 204q33 33 56.5 33t23.5 -15.5t-9.5 -30t-62.5 -75.5q-133 -162 -133 -254q0 -25 18 -25q76 0 162 81t86 177l-12 66q0 16 8 28.5t26.5 12.5t29.5 -27.5 t11 -56.5q0 -104 -114.5 -215t-237.5 -111q-29 0 -45 17.5t-16 45t27.5 81t27.5 65.5t-6 12t-10 -4q-205 -172 -301 -172q-57 0 -58 49z" />
<glyph unicode="x" horiz-adv-x="520" d="M-2 12q0 8 20 29q55 61 191 166q27 121 27 135t-13.5 24.5t-13.5 15.5t12 17q55 39 78 39q31 0 31 -32q0 -16 -33 -132q254 184 295 185q12 0 22.5 -11.5t10.5 -19.5q0 -4 -98.5 -59.5t-243.5 -157.5q-14 -66 -15 -102q0 -68 35 -68q27 0 174 90q119 82 236 176l39 33 q14 10 25 10t11 -16v-2q-418 -344 -514 -344q-81 0 -81 98q0 20 4 61q-86 -63 -152 -129q-25 -20 -33 -20q-14 0 -14 14z" />
<glyph unicode="y" horiz-adv-x="688" d="M-268 -795.5q0 23.5 23.5 70.5t69.5 109.5t87 112.5t104.5 126t94.5 113q-37 33 -83 41t-46 24q6 16 9 18.5t15 3.5t78 18.5t156 56.5q262 334 277 363.5t15 35.5t-8 6t-18 -14q-4 -2 -54.5 -48t-98.5 -85t-111.5 -75t-108.5 -36t-45 33q2 76 103.5 209t136 133t34.5 -19 q0 -10 -93 -126.5t-93 -145.5t19 -29q37 0 212 149.5t216 149.5q12 0 23 -12t11 -27q0 -45 -295 -403q276 154 515 348l45 37q16 10 26 10t10 -10l-2 -8q1 0 1 -1q0 -6 -109 -89q-119 -90 -219.5 -160t-309.5 -176l-145 -178q29 -41 29 -97q0 -94 -80 -209.5t-179.5 -192.5 t-162.5 -77q-18 0 -33.5 13.5t-15.5 37zM-162 -764q0 -6 6 -6q35 0 107 67.5t133 168t61 178.5q0 20 -6 43q-301 -377 -301 -451zM74 -197l61 -36l27 34q33 39 41 52q-59 -27 -94 -36.5t-35 -13.5z" />
<glyph unicode="z" horiz-adv-x="483" d="M-403 -797q0 86 58 187.5t152 195.5q184 190 400 326q-10 106 -137 115q-31 0 -31 18q0 6 28.5 23.5t92 56.5t158 120t94.5 128q0 23 -21 22q-47 0 -180 -106l-64 -51l-8 30q25 18 56 43q184 152 274 152q55 0 55 -60q0 -121 -372 -327q-16 -8 -16.5 -16.5t3.5 -8.5 q102 -27 125 -104q47 29 101.5 54.5t71 25.5t16.5 -14.5t-25 -24.5q-68 -25 -158 -82v-10q0 -123 -127 -307.5t-275.5 -314.5t-217.5 -130q-53 0 -53 59zM-322 -772q0 -31 23 -31q49 0 164 115t219 277.5t119 275.5q-211 -137 -368 -310t-157 -327z" />
<glyph unicode="{" horiz-adv-x="839" d="M238 -78q0 96 105.5 313.5t105.5 311.5q0 55 -24 76.5t-48.5 26.5t-24.5 20q0 6 19 12q86 23 142 104.5t89 362.5t87 353.5t146.5 72.5t227.5 -53q16 -6 16 -26.5t-8 -20.5q-102 43 -189 43t-132 -61.5t-63.5 -184.5t-23 -232.5t-48.5 -216t-136 -149.5q47 -76 51 -144 q0 -86 -105.5 -298t-105.5 -304q6 -86 63.5 -145t182.5 -96q4 0 4 -6.5t-12 -16.5t-22 -10q-285 84 -297 268z" />
<glyph unicode="|" horiz-adv-x="694" d="M104 -186q145 270 397.5 952t307.5 985q2 16 16 33q13 8 19 8q14 0 14 -15.5t-2 -21.5q-63 -328 -271 -940t-407 -1010q-23 -18 -45 -18q-29 0 -29 27z" />
<glyph unicode="}" horiz-adv-x="931" d="M141.5 -266.5q-0.5 20.5 8.5 20.5q102 -43 189 -43t132 61.5t63.5 184.5t22.5 232.5t48 216t136 149.5q-47 76 -51 143q0 86 105.5 298t105.5 304q-6 86 -63.5 145.5t-182.5 96.5q-4 0 -4 6t12.5 16.5t22.5 10.5q285 -84 297 -268q0 -96 -105.5 -313.5t-105.5 -311.5 q0 -55 23.5 -76.5t48 -27t24.5 -19.5q0 -6 -18 -12q-86 -23 -142.5 -105t-89 -362.5t-87 -353t-146.5 -72.5t-227 53q-16 6 -16.5 26.5z" />
<glyph unicode="~" horiz-adv-x="833" d="M322 276q0 10 9 10.5t15 -12.5q31 -49 100 -49l172 19q51 0 91.5 -22.5t40.5 -69.5q0 -12 -9.5 -12.5t-15.5 12.5q-27 41 -82 41l-192 -21q-45 0 -80 27.5t-49 76.5z" />
<glyph unicode="&#xa1;" horiz-adv-x="669" d="M-174 -618q0 10 320.5 503.5t383.5 593.5q23 37 43 37q16 0 17 -22q-2 -12 -314.5 -526.5t-327 -536t-38 -44t-48 -22.5t-36.5 17zM600 641q0 25 26.5 57.5t49 32.5t35 -13t12.5 -30.5t-28.5 -56.5t-49 -39t-33 12t-12.5 37z" />
<glyph unicode="&#xa2;" horiz-adv-x="772" d="M160 564q0 95 98 208t227 148l78 200q14 20 25 21q16 0 16 -23q0 -4 -61 -188q10 2 41.5 0t43 -12.5t11.5 -29t-38 -66.5t-69 -48q-35 6 -34 25q0 8 18 26q35 31 35 45.5t-23 14.5q-72 -2 -180 -118t-108 -192q0 -57 74.5 -57t160.5 53q152 92 305 220l51 40 q14 10 26.5 10.5t12.5 -14.5v-4q-338 -299 -557 -354q-66 -170 -84 -236q-8 -8 -19 -8t-22.5 13.5t-15.5 40.5q20 68 66 184q-78 6 -78 101z" />
<glyph unicode="&#xa3;" horiz-adv-x="1656" d="M0 -59q0 94 165 248.5t351 201.5l172 256h-182q-31 0 -31 43q0 12 12.5 16.5t59.5 4.5h184l64 92h-209q-31 0 -31 43q0 12 12.5 16t106.5 4t166 -2q188 264 329 414q-215 -23 -479 -23q-90 0 -90 27q0 14 24.5 30.5t47.5 16.5q111 -14 259 -14t290 14q244 240 434 240 t190 -64q0 -35 -62.5 -74.5t-201.5 -79.5t-330 -65q-127 -141 -317 -424l217 -8q31 -2 31 -45q0 -10 -19 -10q-125 2 -270 2l-64 -92l242 -11q31 -2 31 -45q0 -10 -19 -10q-145 2 -295 2q-25 -35 -79 -115.5t-82 -121.5h6q205 0 348 -119q59 -49 115 -99q133 -119 284 -118 q70 0 153 44t94 44t11 -10q0 -37 -104 -81t-207.5 -44t-186.5 35.5t-138.5 87t-108.5 102.5q-127 123 -283 123h-8q-164 -233 -294 -360.5t-238 -127.5q-70 0 -70 56zM47 -31q0 -28 37 -28q70 0 169 105.5t234 303.5q-154 -51 -297 -183t-143 -198zM1298 1337 q291 37 406 105q51 28 51 51q0 39 -134 39t-323 -195z" />
<glyph unicode="&#xa4;" horiz-adv-x="925" d="M86 330q0 12 57.5 64t81.5 79q-6 27 -6 59q0 141 117 275q-139 158 -139 174q2 14 32 23q10 -2 144 -158q104 98 229 98q84 0 135 -57l121 96q10 8 23.5 8t13.5 -16q0 -6 -3 -12.5t-126 -116.5q18 -35 18 -88q0 -139 -110 -264l119 -134q10 -10 10 -18q0 -16 -47 -16 q-2 2 -121 129q-106 -92 -217 -92.5t-160 53.5q-135 -121 -147 -121q-25 0 -25 35zM303 561q0 -137 135 -137q94 0 180.5 96t86.5 215q0 82 -44.5 115t-89.5 33q-104 0 -186 -106.5t-82 -215.5z" />
<glyph unicode="&#xa5;" horiz-adv-x="1556" d="M160 1254q0 128 126 195t303 67t308 -73t131 -206q0 -164 -135 -508q94 82 224 208t210 197.5t180 147.5q188 147 389 148q12 0 23.5 -16.5t11.5 -35t-16.5 -29t-40 -24.5t-41.5 -27q-51 -31 -64.5 -30.5t-18.5 10.5t-11 10q-145 0 -367 -178q-121 -100 -194.5 -166.5 t-235.5 -218.5l223 -8q31 -2 31 -45q0 -10 -18 -10q-164 0 -306 2l-12 -13l-35 -80l260 -10q31 -2 31 -45q0 -8 -8 -8h-305q-57 -166 -57.5 -274.5t34.5 -256.5q0 -45 -71 -49q-63 0 -63.5 115t106.5 465l-232 2q-31 0 -31 43q0 12 12.5 16t106.5 4t164 -2q8 31 29 93 l-201 2q-31 0 -31 43q0 12 12.5 16t59.5 4h180q113 369 113 486.5t-110.5 182t-253 64.5t-241 -49t-98.5 -131q0 -104 162 -135q68 -14 136.5 -31.5t115.5 -64.5t47 -129q0 -18 -14 -19l-12 12q-49 96 -226 138q-68 14 -133 32q-147 41 -147 169z" />
<glyph unicode="&#xa6;" horiz-adv-x="694" d="M104 -186q135 254 351 827q6 14 17 14t23.5 -15t14.5 -38q-174 -475 -332 -797q-23 -18 -45 -18q-29 0 -29 27zM578 977q184 526 231 774q2 16 16 33q13 8 19 8q14 0 14 -15.5t-2 -21.5q-45 -227 -219 -778q-10 -33 -25 -33q-18 0 -34 33z" />
<glyph unicode="&#xa7;" horiz-adv-x="1220" d="M-25 176q0 115 124 208t327 93q104 0 168.5 -48t64.5 -144q0 -41 -26 -41q-20 0 -27 22q-41 174 -205.5 174t-251 -69.5t-86.5 -169t96.5 -176t268.5 -76.5q217 0 363.5 132t146.5 286q0 80 -54.5 163.5t-132 153.5t-155.5 135q-186 158 -186 265.5t110 179.5v8 q0 125 135.5 196.5t293 71.5t236.5 -41t79 -102.5t-94.5 -109.5t-258.5 -48q-27 0 -47 14.5t-20 40.5q4 13 18 13l53 -2q301 0 302 84q0 41 -79 73.5t-202 32.5t-229.5 -58.5t-106.5 -154.5q0 -125 195 -274q80 -61 160.5 -126t137 -145t56.5 -162q0 -137 -125 -274 q-43 -141 -188 -258q-76 -59 -188.5 -96t-246.5 -37q-209 0 -317.5 75.5t-108.5 190.5zM489.5 1092.5q-0.5 -62.5 49 -128t122 -124t148.5 -116.5t138.5 -131t80.5 -142q20 49 20.5 112.5t-43.5 138t-112 139t-139 124.5q-176 147 -219 239q-45 -49 -45.5 -111.5z" />
<glyph unicode="&#xa8;" horiz-adv-x="1024" d="M365 523.5q0 17.5 32.5 56t52 38.5t31 -12t11.5 -34.5t-31 -57.5t-53.5 -35t-32.5 13.5t-10 31zM547 523.5q0 17.5 32.5 56t52 38.5t31 -12t11.5 -34.5t-31 -57.5t-53.5 -35t-32.5 13.5t-10 31z" />
<glyph unicode="&#xa9;" horiz-adv-x="833" d="M86 188q0 172 145.5 343t331.5 171q66 0 137 -40q91 -52 91 -191q0 -180 -143.5 -337t-323.5 -157q-121 0 -179.5 57.5t-58.5 153.5zM131 211q0 -188 209 -188q137 0 258.5 114.5t144.5 257.5q-109 -94 -238.5 -177t-225.5 -83q-74 0 -74 86t105.5 190.5t228.5 104.5 q51 -4 54 -14t3 -22.5t-32 -50.5t-56 -38q-27 6 -27 15q0 10 15 24q29 29 28 35q0 12 -20 12q-59 0 -147.5 -93t-88.5 -157q0 -47 64 -47q121 0 418 250v23q0 158 -146 196q-31 8 -57 8q-162 0 -289 -147.5t-127 -298.5z" />
<glyph unicode="&#xaa;" d="M109 864q0 35 71.5 35t138 3t122 7t101.5 8.5t74.5 7.5t30.5 3q12 0 12 -8q0 -12 -22.5 -27.5t-52.5 -18.5q-164 -16 -473 -16q-2 2 -2 6zM207 1014q0 90 149.5 223t305.5 133q57 0 57 -45q0 -31 -50.5 -81t-86.5 -50q-10 0 -10.5 9t8 15.5t18.5 15.5t15 15t14 17 q14 18 14 40.5t-43 26.5q-80 -2 -188.5 -112.5t-108.5 -165.5q0 -20 22.5 -20.5t57.5 30.5q47 29 123 104q20 20 42.5 20.5t22.5 -22.5q0 -6 -8 -18l-20 -27q-51 -59 -51.5 -87.5t31.5 -28.5t133.5 66.5t185.5 133.5l84 68q12 10 22 10t10 -12v-4q-158 -127 -295 -219.5 t-184 -92.5q-55 1 -55 60l10 45q0 4 -5 4t-65.5 -47t-107.5 -47t-47 43z" />
<glyph unicode="&#xab;" horiz-adv-x="1159" d="M354 238q0 31 45 30q145 0 284.5 29t166.5 72q4 4 8 4t10 -10.5t6 -20.5q-2 -49 -155.5 -83t-199.5 -34t-46 -4q0 -8 29 -24q223 -115 254.5 -135.5t31.5 -47.5q0 -41 -28 -41q-8 0 -8 4q0 33 -100.5 85.5t-200 100.5t-97.5 75zM631 197q0 25 39 24q106 0 198.5 43 t120.5 88l4 4q4 0 10.5 -9t6.5 -17q-2 -43 -112 -94.5t-155 -51.5q-12 0 -12 -5t92 -51t134 -72.5t42 -59.5q0 -10 -8 -17.5t-15 -7.5t-7 4q0 27 -85 71t-170 86t-83 65z" />
<glyph unicode="&#xac;" horiz-adv-x="729" d="M115 645q0 12 12 16.5t175 4.5t409 -13q30 -2 30 -45v-2l-94 -266q-4 -14 -16.5 -14t-23.5 11t-11 25q37 121 74 236l-525 4q-31 0 -30 43z" />
<glyph unicode="&#xad;" horiz-adv-x="1087" d="M326 225q0 12 12 16.5t175 4.5t409 -13q30 -2 30 -45q0 -10 -18 -10l-578 4q-31 0 -30 43z" />
<glyph unicode="&#xae;" horiz-adv-x="876" d="M94 210q0 126 77 271.5t216 247.5t293 102q82 0 168 -49q49 -29 79.5 -89t30.5 -144q0 -221 -175 -413.5t-396 -192.5q-150 0 -221.5 70.5t-71.5 196.5zM129 221q0 -110 64.5 -177t216 -67t297.5 123q-33 -8 -48 -8q-51 0 -81.5 42t-38 84t-12.5 113.5t-7 82.5 q-61 -113 -166.5 -232t-146.5 -119q-20 0 -21 17q0 45 101.5 177t226.5 237q8 23 8 47q0 94 -164 94q-31 0 -53 -14q-18 -18 -18 -36t22.5 -30t49 -19.5t49 -29t22.5 -46t-7 -24.5t-7 8q0 41 -75 69t-79 56q-133 -172 -133 -348zM209 88q4 -2 6 -2q29 0 132.5 125t150.5 233 q-117 -100 -203 -205.5t-86 -150.5zM336 651q20 4 33 4q76 0 135 -29.5t59 -88.5l-2 -7q154 115 266 115q49 0 50 -35q0 -55 -96.5 -143t-166.5 -88l-63 6q0 -131 45 -215q31 -57 82 -57q23 0 59 16q86 82 138.5 189.5t52.5 192.5t-20.5 135t-49.5 78t-67 46q-86 25 -125 27 q-174 0 -330 -146zM539 449h12q-2 -12 -2 -22.5t2 -12.5q25 -18 51 -19q70 0 151 83t81 130q0 18 -19 19q-90 0 -260 -135q-4 -14 -16 -43z" />
<glyph unicode="&#xaf;" d="M358 555q0 31 25 31h416q14 0 14 -4q0 -33 -25 -35q-176 -8 -376 -8q-53 0 -54 16z" />
<glyph unicode="&#xb0;" horiz-adv-x="714" d="M293 1170.5q0 48.5 64.5 123t166.5 74.5q43 0 67.5 -24.5t24.5 -63.5q0 -66 -67.5 -138.5t-163.5 -72.5q-43 0 -67.5 26.5t-24.5 75zM348 1186q0 -66 66 -66q57 0 102 48t45 89q0 59 -62.5 59.5t-106.5 -48.5t-44 -82z" />
<glyph unicode="&#xb1;" horiz-adv-x="729" d="M25 371q0 12 12 16t175 4t409 -12q30 -2 30 -45q0 -10 -18 -10l-578 4q-31 0 -30 43zM145 727q0 12 12.5 16.5t103.5 4.5t159 -3q2 4 5 14.5t5 14.5q53 152 68.5 152t27 -12.5t11.5 -26.5l-50 -142l254 -10q31 -2 31 -45q0 -8 -7 -8t-11 2h-287l-66 -184 q-4 -14 -16 -14.5t-23.5 11t-11.5 25.5q45 147 49 162h-223q-31 0 -31 43z" />
<glyph unicode="&#xb2;" horiz-adv-x="808" d="M55.5 358.5q-0.5 55.5 70.5 119t169 63.5q37 0 74 -17q139 152 244.5 319t105.5 268t-117 101t-220 -98t-103 -176q0 -57 67 -57q111 0 174 123q10 16 25 47q23 55 34 55t11 -19q0 -66 -76 -148.5t-186.5 -82.5t-110.5 86q0 96 125 199.5t297 103.5q78 0 122 -37t44 -94 q0 -109 -116 -285t-271 -331q27 -16 74 -56q96 -76 154.5 -75.5t133.5 45.5q10 6 15.5 6t5.5 -6t-17.5 -20.5t-69.5 -40t-91 -25.5t-75 14t-57.5 28.5t-58.5 45t-53 41.5q-74 -70 -148.5 -111t-119.5 -41q-55 0 -55.5 55.5zM94 379q0 -37 51.5 -37t186.5 141 q-35 20 -86 20.5t-101.5 -41.5t-50.5 -83z" />
<glyph unicode="&#xb3;" horiz-adv-x="696" d="M14 356q0 49 78 50q111 0 201 -70q115 49 190.5 154.5t75.5 177t-23.5 94t-85 22.5t-139.5 -39q-8 0 -8 19q0 10 33 24q125 47 256 159t131 186q0 80 -101.5 79.5t-202 -64t-100.5 -142t39 -78.5q43 0 96.5 44t65.5 91t37 47q12 0 12 -18q0 -59 -79.5 -124t-149.5 -65 q-78 0 -78 96.5t128 175t257 78.5q156 0 156 -116q0 -63 -90 -149.5t-285 -182.5l55 4q86 0 129 -33t43 -86q0 -90 -100 -200.5t-233 -167.5q63 -37 124 -37q18 0 18.5 -18.5t-44.5 -18.5t-129 63q-72 -27 -136.5 -26.5t-102.5 24t-38 47.5zM59 350q0 -16 31 -30.5t72 -14.5 t106 21q-72 47 -140.5 47t-68.5 -23z" />
<glyph unicode="&#xb4;" horiz-adv-x="671" d="M217 511q0 15 36 27.5t88 51.5t70.5 61.5t42 22.5t23.5 -27q0 -35 -81 -78t-167 -73q-12 0 -12 15z" />
<glyph unicode="&#xb5;" horiz-adv-x="591" d="M-403 -491.5q0 28.5 42 98t134 189.5t166.5 215t185.5 232.5t151 137.5q10 0 19.5 -9.5t9.5 -15.5t-31 -41q-102 -117 -161 -194q-18 -29 -18.5 -41t7.5 -12q39 0 168 104t183.5 161.5t85 57.5t30.5 -26q0 -16 -12 -33t-46 -59t-62 -78q-80 -102 -80 -128t21.5 -26 t105.5 57q156 102 284 207l45 37q14 10 24.5 10t10.5 -12v-6q8 0 -109.5 -90t-251.5 -180.5t-169 -90.5q-59 0 -60 54q0 31 30 80t32 57t-4 8t-12.5 -6t-52.5 -41t-116.5 -75t-101.5 -40t-41 10q-111 -154 -217 -315.5t-111 -171.5q-29 -53 -59 -53q-20 0 -20 28.5z" />
<glyph unicode="&#xb6;" horiz-adv-x="1325" d="M57 -571q0 27 14.5 65.5t39.5 38.5q8 0 10 -17.5t6 -17.5q25 0 177.5 189.5t316 416t228 319.5t130 219t65.5 200q0 16 -2 24q-178 -397 -563 -397q-168 0 -168 104q0 57 54.5 129t138.5 136.5t201.5 108.5t232.5 44q178 0 199 -112q170 -8 170 -136q0 -100 -92.5 -253.5 t-281 -407.5t-388 -492.5t-226.5 -238.5q-35 0 -34 49q0 27 14 65.5t39 38.5q8 0 10 -17t6 -17q47 0 512 630q166 223 257 375t91 238t-79 110q-37 -172 -408 -684q-203 -279 -404.5 -519.5t-230.5 -240.5q-35 0 -35 50z" />
<glyph unicode="&#xb7;" horiz-adv-x="630" d="M352 156.5q0 17.5 33 56.5t52.5 39t30.5 -12.5t11 -35t-30.5 -57t-53 -34.5t-33 13t-10.5 30.5z" />
<glyph unicode="&#xb8;" horiz-adv-x="595" d="M154 -483q0 59 45 87.5t100 34t100 29t45 68.5q0 106 -225 106q-16 0 -26.5 8.5t-10.5 16.5q0 14 21 14q121 0 203.5 -39t82.5 -114q0 -49 -32.5 -82t-68.5 -45.5t-95.5 -27.5t-78.5 -22.5t-34.5 -28t-20.5 -20.5t-5 15z" />
<glyph unicode="&#xb9;" horiz-adv-x="591" d="M123 295q0 78 119.5 342t261.5 422q-113 -31 -160 -80q-16 -18 -34.5 -18t-18.5 14q0 53 143 92q31 8 96 25q119 123 236 122q43 0 43 -20t-31 -43q-53 -41 -196 -74q-115 -125 -227.5 -342t-155.5 -381q-14 -45 -17.5 -81.5t-9.5 -36.5q-16 0 -32.5 21.5t-16.5 37.5z M606 1110q162 43 162 72q0 8 -16 8q-60 0 -146 -80z" />
<glyph unicode="&#xba;" horiz-adv-x="473" d="M47 836q0 35 71.5 34.5t138.5 3t122 7.5t101 8t75 7t31 3q12 0 12 -8q0 -12 -22.5 -27.5t-53.5 -17.5q-164 -17 -473 -17q-2 2 -2 7zM188 999.5q0 75.5 123 194.5q-20 47 -20 105.5t40 93t93 34.5t90 -34.5t37 -116.5t-64 -180q7 -2 21 -2q96 0 233 108l29 -8 q-170 -143 -295 -143q-14 0 -20 2q-47 -57 -103.5 -93t-97.5 -36q-66 0 -66 75.5zM260 1008q0 -35 46 -35t114 92q-47 23 -84 84q-76 -84 -76 -141zM352.5 1325.5q-0.5 -63.5 28.5 -124t72 -89.5q53 88 53 151.5t-32 94.5t-66 31q-55 0 -55.5 -63.5z" />
<glyph unicode="&#xbb;" horiz-adv-x="1132" d="M281 18q2 43 111.5 94.5t154.5 51.5q12 0 12 5t-92 51t-134 72.5t-42 59.5q0 10 8 17.5t15.5 7.5t7.5 -4q0 -27 85 -71t170 -86t82 -64q0 -25 -38 -25q-106 0 -198.5 -43t-121.5 -88l-4 -4q-4 0 -10 9t-6 17zM416 6q2 49 155.5 83t199.5 34t46 4q0 8 -29 25 q-223 114 -254.5 134.5t-31.5 47.5q0 41 28 41q8 0 9 -4q0 -33 100 -85.5t199.5 -100.5t97.5 -74q0 -31 -45 -31q-145 0 -284.5 -28.5t-166.5 -71.5q-4 -4 -8 -4.5t-10 10t-6 20.5z" />
<glyph unicode="&#xbc;" horiz-adv-x="1560" d="M123 295q0 78 119.5 342t261.5 422q-113 -31 -160 -80q-16 -18 -34.5 -18t-18.5 14q0 53 143 92q31 8 96 25q119 123 236 122q43 0 43 -20t-31 -43q-53 -41 -196 -74q-115 -125 -227.5 -342t-155.5 -381q-14 -45 -17.5 -81.5t-9.5 -36.5q-16 0 -32.5 21.5t-16.5 37.5z M354 -131q141 426 362.5 881.5t405.5 728.5q14 20 25 20q16 0 16 -22.5t-10 -34.5q-172 -252 -412.5 -784.5t-328.5 -833.5q-8 -8 -19.5 -8t-23 13t-15.5 40zM606 1110q162 43 162 72q0 8 -16 8q-60 0 -146 -80zM792.5 369.5q0.5 103.5 107 262.5t268 282.5t294.5 123.5 q94 0 94 -51q0 -39 -47 -87t-75 -48q-8 0 -8.5 10t16 17.5t38 35t21.5 50.5q0 37 -91 36.5t-222 -112t-223.5 -257t-92.5 -239.5q0 -45 20.5 -66.5t59.5 -21.5t146 17q90 219 200 432l39 75q14 10 39 11q8 -1 8 -13l-2 -14q-141 -274 -221 -481q141 33 185.5 33t89.5 -18.5 t45 -39.5q0 -16 -21 -16q-8 0 -64.5 17.5t-97.5 17.5t-143 -19q-61 -166 -63 -237q-2 -18 -17 -19q-18 0 -28.5 15.5t-10.5 25.5q0 53 54 203q-111 -29 -183 -29q-115 0 -114.5 103.5z" />
<glyph unicode="&#xbd;" horiz-adv-x="1560" d="M123 295q0 78 119.5 342t261.5 422q-113 -31 -160 -80q-16 -18 -34.5 -18t-18.5 14q0 53 143 92q31 8 96 25q119 123 236 122q43 0 43 -20t-31 -43q-53 -41 -196 -74q-115 -125 -227.5 -342t-155.5 -381q-14 -45 -17.5 -81.5t-9.5 -36.5q-16 0 -32.5 21.5t-16.5 37.5z M354 -131q141 426 362.5 881.5t405.5 728.5q14 20 25 20q16 0 16 -22.5t-10 -34.5q-172 -252 -412.5 -784.5t-328.5 -833.5q-8 -8 -19.5 -8t-23 13t-15.5 40zM606 1110q162 43 162 72q0 8 -16 8q-60 0 -146 -80zM750 121q0 55 70.5 118.5t168.5 63.5q37 0 74 -16 q139 152 244.5 318.5t105.5 268t-116.5 101.5t-220 -98.5t-103.5 -176.5q0 -57 67 -57q111 0 174 123q10 16 23 47q25 55 37 55q10 0 10 -18q0 -66 -75.5 -149t-186.5 -83t-111 87q0 96 125 199.5t297 103.5q78 0 122 -37t44 -94q0 -109 -115.5 -285t-271.5 -332 q27 -16 74 -55q96 -76 154.5 -76t134.5 45q8 6 14 6t6 -6t-17.5 -20.5t-69.5 -40t-91 -25.5t-75 14.5t-57.5 28.5t-58 45t-53.5 41q-74 -70 -148.5 -110.5t-119.5 -40.5q-55 0 -55 55zM788 141q0 -37 51.5 -37t186.5 142q-35 20 -86 20t-101.5 -42t-50.5 -83z" />
<glyph unicode="&#xbe;" horiz-adv-x="1673" d="M14 355.5q0 -23.5 38 -47t102.5 -23.5t136.5 26q84 -63 129 -63t45 18.5t-19 18.5q-61 0 -124 37q133 57 233 167.5t100 200.5q0 53 -43 86t-129 33q-2 0 -25.5 -2t-29.5 -2q195 96 285 182t90 150q0 117 -156 116q-129 0 -257 -78.5t-128 -175t78 -96.5q70 0 149.5 64.5 t79.5 124.5q0 18 -12 18q-25 0 -37 -47t-65.5 -91t-96.5 -44q-39 0 -39 78.5t100.5 142t202 63.5t101.5 -79q0 -74 -131 -185.5t-256 -159.5q-33 -14 -33 -24q0 -18 5 -18.5t7 2.5q66 37 131.5 36.5t89 -23t23.5 -94t-75.5 -177t-190.5 -154.5q-90 70 -201 70 q-37 0 -57.5 -13.5t-20.5 -37zM59 350q0 23 69 23t140 -47q-66 -20 -106.5 -20.5t-71.5 14t-31 30.5zM430 -131q141 426 362.5 881.5t405.5 728.5q14 20 25 20q16 0 16 -22.5t-10 -34.5q-172 -252 -413 -784.5t-329 -833.5q-8 -8 -19 -8t-22.5 13t-15.5 40zM868 369.5 q0 103.5 106.5 262.5t268.5 282.5t295 123.5q94 0 94 -51q0 -39 -47 -87t-76 -48q-8 0 -8 10t16.5 17.5t38 35t21.5 50.5q0 37 -91 36.5t-222 -112t-223.5 -257t-92.5 -239.5q0 -45 20.5 -66.5t59.5 -21.5t146 17q90 219 198 432l41 75q14 10 39 11q8 -1 8 -13l-2 -14 q-141 -274 -221 -481q141 33 185 33t89 -18.5t45 -39.5q0 -16 -20 -16q-8 0 -64.5 17.5t-98.5 17.5t-142 -19q-61 -166 -64 -237q-2 -18 -16 -19q-18 0 -28.5 15.5t-10.5 25.5q0 53 53 203q-111 -29 -182 -29q-115 0 -115 103.5z" />
<glyph unicode="&#xbf;" horiz-adv-x="849" d="M-123 -653q0 -121 71.5 -171t203 -50t291 63t275.5 178t116 240q0 66 -45.5 104.5t-137.5 38.5q-186 0 -312 -137t-126 -248q0 -31 18 -31q10 0 22.5 20.5t37 71t39.5 78.5q109 205 291 205q143 0 143 -115q0 -109 -93 -208t-223.5 -155t-238.5 -56q-227 0 -227 190 q0 123 54 231.5t136 183.5t177 150.5t177 135t136.5 133t54.5 133t-39 90.5t-96.5 31t-57.5 -23q0 -12 14.5 -26.5t22.5 -14.5l57 4q45 0 46 -49q0 -76 -58.5 -147.5t-145.5 -128t-189.5 -132t-189.5 -153.5t-145.5 -196.5t-58.5 -239.5zM713 559.5q0 22.5 30.5 57t53 34.5 t33 -13t10.5 -30.5t-33 -56.5t-52.5 -39t-30.5 12.5t-11 35z" />
<glyph unicode="&#xc0;" horiz-adv-x="1638" d="M-205 37q0 18 23 18q14 0 35 -8q61 -25 231 -24q305 0 578 239q98 92 100 94q-193 14 -324 52q-233 66 -233 155q0 31 33.5 51.5t89.5 20.5q244 0 463 -219q18 0 26 -2q182 197 445 557q92 125 184 241q193 242 315 242q80 0 80 -70q0 -47 -132 -367t-273 -603l426 30 q16 0 16 -16t-27.5 -34.5t-107.5 -25t-338 -12.5q-209 -408 -295 -407q-57 0 -82 51q-90 182 -211 319l-59 -57q-303 -283 -707 -282q-102 0 -179 15t-77 42zM272 561q0 -51 187 -98q106 -25 258 -41q-190 170 -377 170q-68 0 -68 -31zM852 352q121 -145 197 -309 q11 -29 34 -29q43 0 213 338q-229 -4 -285.5 -4t-158.5 4zM901 410q143 -4 251 -4t173 4q145 287 283.5 606t138.5 366q0 19 -23 19q-68 0 -180 -144.5t-297.5 -408.5t-345.5 -438zM1671 1677q0 27 24.5 27t42 -22.5t70 -61.5t103.5 -57q20 -6 20 -21.5t-12 -15.5 q-172 61 -227 116q-21 21 -21 35z" />
<glyph unicode="&#xc1;" horiz-adv-x="1638" d="M-205 37q0 18 23 18q14 0 35 -8q61 -25 231 -24q305 0 578 239q98 92 100 94q-193 14 -324 52q-233 66 -233 155q0 31 33.5 51.5t89.5 20.5q244 0 463 -219q18 0 26 -2q182 197 445 557q92 125 184 241q193 242 315 242q80 0 80 -70q0 -47 -132 -367t-273 -603l426 30 q16 0 16 -16t-27.5 -34.5t-107.5 -25t-338 -12.5q-209 -408 -295 -407q-57 0 -82 51q-90 182 -211 319l-59 -57q-303 -283 -707 -282q-102 0 -179 15t-77 42zM272 561q0 -51 187 -98q106 -25 258 -41q-190 170 -377 170q-68 0 -68 -31zM852 352q121 -145 197 -309 q11 -29 34 -29q43 0 213 338q-229 -4 -285.5 -4t-158.5 4zM901 410q143 -4 251 -4t173 4q145 287 283.5 606t138.5 366q0 19 -23 19q-68 0 -180 -144.5t-297.5 -408.5t-345.5 -438zM1710 1531q0 15 36 27.5t88 51.5t70.5 61.5t42 22.5t23.5 -27q0 -35 -81 -78t-167 -73 q-12 0 -12 15z" />
<glyph unicode="&#xc2;" horiz-adv-x="1638" d="M-205 37q0 18 23 18q14 0 35 -8q61 -25 231 -24q305 0 578 239q98 92 100 94q-193 14 -324 52q-233 66 -233 155q0 31 33.5 51.5t89.5 20.5q244 0 463 -219q18 0 26 -2q182 197 445 557q92 125 184 241q193 242 315 242q80 0 80 -70q0 -47 -132 -367t-273 -603l426 30 q16 0 16 -16t-27.5 -34.5t-107.5 -25t-338 -12.5q-209 -408 -295 -407q-57 0 -82 51q-90 182 -211 319l-59 -57q-303 -283 -707 -282q-102 0 -179 15t-77 42zM272 561q0 -51 187 -98q106 -25 258 -41q-190 170 -377 170q-68 0 -68 -31zM852 352q121 -145 197 -309 q11 -29 34 -29q43 0 213 338q-229 -4 -285.5 -4t-158.5 4zM901 410q143 -4 251 -4t173 4q145 287 283.5 606t138.5 366q0 19 -23 19q-68 0 -180 -144.5t-297.5 -408.5t-345.5 -438zM1608 1516.5q0 15.5 36.5 27.5t96 53t75 61.5t37 20.5t39.5 -18q6 -8 13.5 -56.5 t36.5 -91.5q4 -8 4 -10q0 -10 -12.5 -10t-31 17.5t-37 56.5t-18.5 41q-49 -45 -227 -107q-12 0 -12 15.5z" />
<glyph unicode="&#xc3;" horiz-adv-x="1638" d="M-205 37q0 18 23 18q14 0 35 -8q61 -25 231 -24q305 0 578 239q98 92 100 94q-193 14 -324 52q-233 66 -233 155q0 31 33.5 51.5t89.5 20.5q244 0 463 -219q18 0 26 -2q182 197 445 557q92 125 184 241q193 242 315 242q80 0 80 -70q0 -47 -132 -367t-273 -603l426 30 q16 0 16 -16t-27.5 -34.5t-107.5 -25t-338 -12.5q-209 -408 -295 -407q-57 0 -82 51q-90 182 -211 319l-59 -57q-303 -283 -707 -282q-102 0 -179 15t-77 42zM272 561q0 -51 187 -98q106 -25 258 -41q-190 170 -377 170q-68 0 -68 -31zM852 352q121 -145 197 -309 q11 -29 34 -29q43 0 213 338q-229 -4 -285.5 -4t-158.5 4zM901 410q143 -4 251 -4t173 4q145 287 283.5 606t138.5 366q0 19 -23 19q-68 0 -180 -144.5t-297.5 -408.5t-345.5 -438zM1583 1665q0 10 9.5 10t15.5 -12q31 -49 100 -49l172 18q51 0 91 -22.5t40 -69.5 q0 -12 -9 -12t-15 12q-27 41 -82 41l-193 -20q-45 0 -80 27.5t-49 76.5z" />
<glyph unicode="&#xc4;" horiz-adv-x="1638" d="M-205 37q0 18 23 18q14 0 35 -8q61 -25 231 -24q305 0 578 239q98 92 100 94q-193 14 -324 52q-233 66 -233 155q0 31 33.5 51.5t89.5 20.5q244 0 463 -219q18 0 26 -2q182 197 445 557q92 125 184 241q193 242 315 242q80 0 80 -70q0 -47 -132 -367t-273 -603l426 30 q16 0 16 -16t-27.5 -34.5t-107.5 -25t-338 -12.5q-209 -408 -295 -407q-57 0 -82 51q-90 182 -211 319l-59 -57q-303 -283 -707 -282q-102 0 -179 15t-77 42zM272 561q0 -51 187 -98q106 -25 258 -41q-190 170 -377 170q-68 0 -68 -31zM852 352q121 -145 197 -309 q11 -29 34 -29q43 0 213 338q-229 -4 -285.5 -4t-158.5 4zM901 410q143 -4 251 -4t173 4q145 287 283.5 606t138.5 366q0 19 -23 19q-68 0 -180 -144.5t-297.5 -408.5t-345.5 -438zM1655 1565.5q0 17.5 32.5 56.5t52 39t31 -12.5t11.5 -35t-31 -57t-53.5 -34.5t-32.5 13 t-10 30.5zM1837 1565.5q0 17.5 33 56.5t52.5 39t30.5 -12.5t11 -35t-30.5 -57t-53 -34.5t-33 13t-10.5 30.5z" />
<glyph unicode="&#xc5;" horiz-adv-x="1638" d="M-205 37q0 18 23 18q14 0 35 -8q61 -25 231 -24q305 0 578 239q98 92 100 94q-193 14 -324 52q-233 66 -233 155q0 31 33.5 51.5t89.5 20.5q244 0 463 -219q18 0 26 -2q182 197 445 557q92 125 184 241q193 242 315 242q80 0 80 -70q0 -47 -132 -367t-273 -603l426 30 q16 0 16 -16t-27.5 -34.5t-107.5 -25t-338 -12.5q-209 -408 -295 -407q-57 0 -82 51q-90 182 -211 319l-59 -57q-303 -283 -707 -282q-102 0 -179 15t-77 42zM272 561q0 -51 187 -98q106 -25 258 -41q-190 170 -377 170q-68 0 -68 -31zM852 352q121 -145 197 -309 q11 -29 34 -29q43 0 213 338q-229 -4 -285.5 -4t-158.5 4zM901 410q143 -4 251 -4t173 4q145 287 283.5 606t138.5 366q0 19 -23 19q-68 0 -180 -144.5t-297.5 -408.5t-345.5 -438zM1761 1579q0 33 38 77t94.5 44t56.5 -60q0 -31 -40 -72.5t-94.5 -41.5t-54.5 53zM1794 1593 q0 -37 36 -37t61.5 27.5t25.5 50.5q0 35 -36 35t-61.5 -28.5t-25.5 -47.5z" />
<glyph unicode="&#xc6;" horiz-adv-x="2521" d="M-205 37q0 18 23 18q14 0 35 -8q61 -25 231 -24q305 0 578 239q98 92 100 94q-193 14 -324 52q-233 66 -233 155q0 31 33.5 51.5t89.5 20.5q244 0 463 -219q18 0 26 -2q182 197 445 557q92 125 184 240.5t172 179t148.5 63.5t74.5 -59q133 -6 216 -6t173 4 q358 113 609 112q90 0 90 -35q0 -125 -740 -133q-260 -90 -449.5 -207.5t-189.5 -192.5t195 -75q119 0 356.5 34t306.5 34q109 0 109 -62q0 -98 -367 -260q-152 -68 -305 -141.5t-259.5 -166.5t-106.5 -187q0 -78 174 -78q96 0 291.5 29.5t336.5 29.5q252 0 252 -139 q0 -16 -18 -16q-10 0 -45 18q-109 55 -238 55q-68 -4 -313.5 -31.5t-310.5 -27.5q-246 0 -246 130t215 279q-160 -6 -172 -6q-209 -408 -295 -407q-57 0 -82 51q-90 182 -211 319l-59 -57q-303 -283 -707 -282q-102 0 -179 15t-77 42zM272 561q0 -51 187 -98 q106 -25 258 -41q-190 170 -377 170q-68 0 -68 -31zM852 352q121 -145 197 -309q11 -29 34 -29q41 0 211 338q-229 -4 -284.5 -4t-157.5 4zM901 410q143 -4 249.5 -4t172.5 4q76 147 184 385q-109 27 -108 90q0 104 264 262q84 209 84 231.5t-23 22.5q-68 0 -180 -144.5 t-297.5 -408.5t-345.5 -438zM1436 414l250 16q119 70 311 161t299.5 147.5t107.5 88.5q0 16 -37 17q-475 -63 -686 -64q-51 0 -73 2q-80 -184 -172 -368zM1786 1214q127 63 287 123q-162 0 -242 4q-29 -86 -45 -127z" />
<glyph unicode="&#xc7;" horiz-adv-x="876" d="M-49 -485q0 59 45 87.5t100.5 34t100.5 29t45 68.5q-1 106 -226 106q-16 0 -26 8.5t-10 16.5q0 14 20 14q121 0 204 -39t83 -114q0 -49 -33 -82t-68.5 -45.5t-95 -27.5t-79 -22.5t-35 -28t-20.5 -20.5t-5 15zM0 84q0 240 332 641q-98 -25 -189 -31q-25 4 -25 26.5 t23 24.5q109 0 238 35q242 276 515 468t462 192q94 0 94 -47q0 -63 -143.5 -182t-372.5 -244t-451 -199q-166 -193 -268 -373t-102 -297q0 -164 209 -164q117 0 258 74t233 146q20 14 35.5 14t15.5 -16q0 -10 -8 -19q-96 -70 -171 -115t-195.5 -89t-231.5 -44 q-258 0 -258 199zM535 827q190 68 383.5 177.5t310.5 207t117 142.5q-1 28 -54 28q-121 0 -335 -160.5t-422 -394.5z" />
<glyph unicode="&#xc8;" horiz-adv-x="1376" d="M63 84q0 92 108 192.5t261.5 181.5t306 152.5t260 129t107.5 87.5q0 16 -37 17q-475 -63 -686 -64q-170 0 -170 76q0 86 207 228.5t508 252.5q-500 4 -846 43q-18 6 -19 25q0 27 46 27q12 0 161 -11q422 -33 573.5 -32.5t241.5 4.5q358 113 609 112q90 0 90 -35 q0 -125 -740 -133q-276 -96 -485 -228t-209 -202q0 -45 107.5 -45t345 34t307.5 34q109 0 109 -62q0 -98 -367 -260q-152 -68 -305.5 -141.5t-260 -166.5t-106.5 -187q0 -78 174 -78q96 0 292 29.5t337 29.5q252 0 252 -139q0 -16 -18 -16q-10 0 -46 18q-109 55 -237 55 q-68 -4 -313.5 -31.5t-311.5 -27.5q-246 0 -246 131zM1155 1739q0 27 24.5 26.5t42 -23t69.5 -61.5t104 -57q20 -6 20 -21.5t-12 -15.5q-172 61 -227 117q-21 21 -21 35z" />
<glyph unicode="&#xc9;" horiz-adv-x="1376" d="M63 84q0 -131 246 -131q66 0 311.5 27.5t313.5 31.5q129 0 237 -55q35 -18 46 -18q18 0 18 16q0 139 -252 139q-141 0 -336.5 -29.5t-292.5 -29.5q-174 0 -174 78q0 94 106.5 187t259 167t306.5 141q367 162 367 260q0 61 -109 62q-70 0 -307.5 -34t-345 -34t-107.5 45 q0 70 209 202t485 228q739 8 740 133q0 35 -90 35q-250 0 -609 -112q-90 -4 -180 -4t-287.5 10t-347 21.5t-161.5 11.5q-45 0 -46 -27q0 -16 19 -25q346 -39 846 -43q-301 -111 -508 -253t-207 -228q0 -76 189.5 -76t666.5 64q37 0 37 -17q0 -31 -107.5 -88t-260 -128.5 t-306 -152.5t-261.5 -181.5t-108 -192.5zM956.5 1535q-0.5 15 35.5 27.5t88.5 51.5t69.5 61.5t42 22.5t25 -27q0 -35 -81 -78t-167 -73q-12 0 -12.5 15z" />
<glyph unicode="&#xca;" horiz-adv-x="1376" d="M63 84q0 -131 246 -131q66 0 311.5 27.5t313.5 31.5q129 0 237 -55q35 -18 46 -18q18 0 18 16q0 139 -252 139q-141 0 -336.5 -29.5t-292.5 -29.5q-174 0 -174 78q0 94 106.5 187t259 167t306.5 141q367 162 367 260q0 61 -109 62q-70 0 -307.5 -34t-345 -34t-107.5 45 q0 70 209 202t485 228q739 8 740 133q0 35 -90 35q-250 0 -609 -112q-90 -4 -180 -4t-287.5 10t-347 21.5t-161.5 11.5q-45 0 -46 -27q0 -16 19 -25q346 -39 846 -43q-301 -111 -508 -253t-207 -228q0 -76 189.5 -76t666.5 64q37 0 37 -17q0 -31 -107.5 -88t-260 -128.5 t-306 -152.5t-261.5 -181.5t-108 -192.5zM1077.5 1571.5q-0.5 15.5 36.5 28t96.5 53.5t74.5 61.5t36.5 20.5t40.5 -19q6 -8 13 -56t36 -91q4 -8 4 -10q0 -10 -12 -10.5t-30.5 17t-37 56.5t-18.5 41q-49 -45 -227 -107q-12 0 -12.5 15.5z" />
<glyph unicode="&#xcb;" horiz-adv-x="1376" d="M63 84q0 -131 246 -131q66 0 311.5 27.5t313.5 31.5q129 0 237 -55q35 -18 46 -18q18 0 18 16q0 139 -252 139q-141 0 -336.5 -29.5t-292.5 -29.5q-174 0 -174 78q0 94 106.5 187t259 167t306.5 141q367 162 367 260q0 61 -109 62q-70 0 -307.5 -34t-345 -34t-107.5 45 q0 70 209 202t485 228q739 8 740 133q0 35 -90 35q-250 0 -609 -112q-90 -4 -180 -4t-287.5 10t-347 21.5t-161.5 11.5q-45 0 -46 -27q0 -16 19 -25q346 -39 846 -43q-301 -111 -508 -253t-207 -228q0 -76 189.5 -76t666.5 64q37 0 37 -17q0 -31 -107.5 -88t-260 -128.5 t-306 -152.5t-261.5 -181.5t-108 -192.5zM924 1594.5q0 17.5 32.5 56.5t52 39t31 -12.5t11.5 -35t-31 -57.5t-53.5 -35t-32.5 13.5t-10 31zM1106 1594.5q0 17.5 32.5 56.5t52 39t31 -12.5t11.5 -35t-31 -57.5t-53.5 -35t-32.5 13.5t-10 31z" />
<glyph unicode="&#xcc;" horiz-adv-x="763" d="M0 716q0 124 209 315.5t508 338t522 146.5q158 0 158 -86q0 -66 -80 -146t-127 -80q-12 0 -12 15.5t8 21.5q43 20 81 65.5t38 84.5q0 74 -154 73.5t-405.5 -129.5t-438 -299t-186.5 -279.5t215 -109.5q82 0 287 33q219 313 317 442q180 233 248 234q10 0 10 -6l-16 -25 q-106 -104 -459 -631q289 53 357.5 53.5t142 -26.5t73.5 -59q0 -12 -11 -20.5t-22.5 -8.5t-105.5 28.5t-181 28.5t-280 -35q-375 -549 -495 -657q-61 -55 -101 -55q-35 0 -34 49q0 27 14 65.5t39 38.5q8 0 10 -17.5t6 -17.5q41 0 152.5 146.5t306.5 429.5q-236 -45 -358 -45 q-236 0 -236 124zM1147 1731q0 27 24.5 26.5t42 -23t69.5 -61.5t103 -57q20 -6 20.5 -21.5t-11.5 -15.5q-172 61 -228 117q-20 21 -20 35z" />
<glyph unicode="&#xcd;" horiz-adv-x="763" d="M0 716q0 124 209 315.5t508 338t522 146.5q158 0 158 -86q0 -66 -80 -146t-127 -80q-12 0 -12 15.5t8 21.5q43 20 81 65.5t38 84.5q0 74 -154 73.5t-405.5 -129.5t-438 -299t-186.5 -279.5t215 -109.5q82 0 287 33q219 313 317 442q180 233 248 234q10 0 10 -6l-16 -25 q-106 -104 -459 -631q289 53 357.5 53.5t142 -26.5t73.5 -59q0 -12 -11 -20.5t-22.5 -8.5t-105.5 28.5t-181 28.5t-280 -35q-375 -549 -495 -657q-61 -55 -101 -55q-35 0 -34 49q0 27 14 65.5t39 38.5q8 0 10 -17.5t6 -17.5q41 0 152.5 146.5t306.5 429.5q-236 -45 -358 -45 q-236 0 -236 124zM1233 1604.5q0 15.5 36 28t88 51t70.5 61t42 23t23.5 -26.5q0 -35 -81 -78t-167 -74q-12 0 -12 15.5z" />
<glyph unicode="&#xce;" horiz-adv-x="763" d="M0 716q0 124 209 315.5t508 338t522 146.5q158 0 158 -86q0 -66 -80 -146t-127 -80q-12 0 -12 15.5t8 21.5q43 20 81 65.5t38 84.5q0 74 -154 73.5t-405.5 -129.5t-438 -299t-186.5 -279.5t215 -109.5q82 0 287 33q219 313 317 442q180 233 248 234q10 0 10 -6l-16 -25 q-106 -104 -459 -631q289 53 357.5 53.5t142 -26.5t73.5 -59q0 -12 -11 -20.5t-22.5 -8.5t-105.5 28.5t-181 28.5t-280 -35q-375 -549 -495 -657q-61 -55 -101 -55q-35 0 -34 49q0 27 14 65.5t39 38.5q8 0 10 -17.5t6 -17.5q41 0 152.5 146.5t306.5 429.5q-236 -45 -358 -45 q-236 0 -236 124zM1128.5 1586.5q-0.5 15.5 36.5 27.5t96.5 53t75 61.5t37 20.5t39.5 -18q6 -8 13.5 -56.5t35.5 -91.5q4 -8 4 -10q0 -10 -12 -10t-30.5 17t-37 56t-18.5 41q-49 -45 -227 -106q-12 0 -12.5 15.5z" />
<glyph unicode="&#xcf;" horiz-adv-x="763" d="M0 716q0 124 209 315.5t508 338t522 146.5q158 0 158 -86q0 -66 -80 -146t-127 -80q-12 0 -12 15.5t8 21.5q43 20 81 65.5t38 84.5q0 74 -154 73.5t-405.5 -129.5t-438 -299t-186.5 -279.5t215 -109.5q82 0 287 33q219 313 317 442q180 233 248 234q10 0 10 -6l-16 -25 q-106 -104 -459 -631q289 53 357.5 53.5t142 -26.5t73.5 -59q0 -12 -11 -20.5t-22.5 -8.5t-105.5 28.5t-181 28.5t-280 -35q-375 -549 -495 -657q-61 -55 -101 -55q-35 0 -34 49q0 27 14 65.5t39 38.5q8 0 10 -17.5t6 -17.5q41 0 152.5 146.5t306.5 429.5q-236 -45 -358 -45 q-236 0 -236 124zM1114 1616.5q0 17.5 33 56.5t52.5 39t30.5 -12t11 -35t-30.5 -57.5t-53 -34.5t-33 13t-10.5 30.5zM1296 1616.5q0 17.5 33 56.5t52.5 39t30.5 -12t11 -35t-30.5 -57.5t-53 -34.5t-33 13t-10.5 30.5z" />
<glyph unicode="&#xd0;" horiz-adv-x="1611" d="M0 -125q0 94 225.5 316.5t440.5 345.5q84 131 116 178q-39 2 -162.5 2t-172 5t-50.5 32q0 12 6.5 15t137.5 3t284 6q256 383 439 572q137 137 233 137q39 0 39 -23q0 -14 -12 -20q-29 -16 -45 -25q-223 -152 -553 -637q63 4 178 15q92 254 318.5 475t435.5 221 q139 0 139 -147.5t-117 -389t-291 -479.5q125 49 262.5 137t181.5 111t66.5 23t35.5 -11.5t13 -25.5q0 -29 -66.5 -41.5t-250.5 -119t-293 -140.5q-147 -195 -283.5 -316t-222.5 -121q-119 0 -119 170q0 47 10.5 136.5t10.5 115.5q0 160 -96 160q-35 0 -74 -12 q-119 -176 -190.5 -274.5t-170.5 -215.5q-188 -223 -342 -223q-61 0 -61 45zM88 -82q0 -31 37 -31q74 0 190.5 146.5t313.5 445.5q-180 -106 -360.5 -295.5t-180.5 -265.5zM801 598q39 12 76.5 12t67.5 -16t42 -47q20 -51 21 -121l-27 -279q0 -114 80 -114q55 0 157.5 96 t223.5 254q-61 -10 -115 -10q-133 0 -196.5 62.5t-63.5 168.5q0 51 12 103h-57q-98 0 -148 2zM1169 666q1 -226 261 -226q29 0 59 6q178 242 306 494t128 380t-106 128q-166 0 -361.5 -209t-263.5 -434q10 2 27 2q43 0 43 -45q-2 -33 -91 -47q-2 -16 -2 -49z" />
<glyph unicode="&#xd1;" horiz-adv-x="1212" d="M2 698q0 111 141.5 287t351.5 314.5t375 138.5q96 0 146.5 -57.5t50.5 -148.5t-80 -261q319 238 445 237q25 0 41 -14t16 -39q0 -41 -167 -264t-335 -467t-168 -336q0 -57 64 -57q96 0 272 176q27 27 45 26q12 0 12 -17t-65.5 -75.5t-162.5 -114t-169 -55.5q-96 0 -96 81 t101.5 250t223.5 329q326 420 326 489q0 12 -14 13q-117 0 -398 -222q-158 -309 -429 -643t-365 -334q-51 0 -51 43q0 133 229 396.5t528 505.5q113 225 113 352q0 156 -166 155q-127 0 -306 -123.5t-306 -281.5t-127 -250q0 -78 102 -78q70 0 199 84t147 117 q88 156 101 172q43 68 69 68q10 0 12.5 -14.5t-3 -28t-17.5 -33t-22.5 -34.5t-27.5 -39.5t-30.5 -43t-21.5 -35.5q-12 -25 -12.5 -57.5t-20.5 -32.5q-14 0 -21.5 12.5t-9.5 14.5q-23 -23 -62.5 -57.5t-142 -92t-182.5 -57.5q-133 0 -133 102zM182 -2q0 -14 8 -14 q55 2 275.5 275t368.5 548q-258 -221 -455 -458.5t-197 -350.5zM1137 1499q0 10 9 10t15 -12q31 -49 101 -49l172 18q51 0 91 -22.5t40 -69.5q0 -12 -9.5 -12t-15.5 12q-27 41 -82 41l-192 -20q-45 0 -80 27.5t-49 76.5z" />
<glyph unicode="&#xd2;" horiz-adv-x="1079" d="M2 268.5q0 149.5 99.5 372.5t252 421t355 336t389.5 138q76 0 111.5 -33t35.5 -84t-24 -92q104 -51 104 -199q0 -199 -169 -480t-406 -472q86 4 179 41t150.5 72t64.5 35t7 -17q0 -41 -155.5 -103.5t-276.5 -62.5h-14q-233 -172 -437 -172q-135 0 -200.5 75t-65.5 224.5z M104 297q1 -277 228 -277q152 0 323 123q-184 14 -274 110.5t-90 237t68.5 291t177 276.5t261 210t306.5 84q31 0 59 -6q27 39 27 78.5t-33 58t-76 18.5q-166 0 -348 -132t-317 -320.5t-223.5 -400.5t-88.5 -351zM393 524q0 -328 305 -348q217 176 379 465t162 485 q0 104 -53 152q-37 -41 -109.5 -91t-118 -90t-45.5 -77l2 -14q0 -25 -14 -25q-27 0 -27 56.5t40 103.5t116 95t100 71q-33 8 -53 8q-176 0 -337.5 -132t-254 -317.5t-92.5 -341.5zM1096 1731q0 27 23.5 26.5t42 -23t70.5 -61.5t103 -57q20 -6 20.5 -21.5t-12.5 -15.5 q-172 61 -225 117q-22 21 -22 35z" />
<glyph unicode="&#xd3;" horiz-adv-x="1079" d="M2 268.5q0 149.5 99.5 372.5t252 421t355 336t389.5 138q76 0 111.5 -33t35.5 -84t-24 -92q104 -51 104 -199q0 -199 -169 -480t-406 -472q86 4 179 41t150.5 72t64.5 35t7 -17q0 -41 -155.5 -103.5t-276.5 -62.5h-14q-233 -172 -437 -172q-135 0 -200.5 75t-65.5 224.5z M104 297q1 -277 228 -277q152 0 323 123q-184 14 -274 110.5t-90 237t68.5 291t177 276.5t261 210t306.5 84q31 0 59 -6q27 39 27 78.5t-33 58t-76 18.5q-166 0 -348 -132t-317 -320.5t-223.5 -400.5t-88.5 -351zM393 524q0 -328 305 -348q217 176 379 465t162 485 q0 104 -53 152q-37 -41 -109.5 -91t-118 -90t-45.5 -77l2 -14q0 -25 -14 -25q-27 0 -27 56.5t40 103.5t116 95t100 71q-33 8 -53 8q-176 0 -337.5 -132t-254 -317.5t-92.5 -341.5zM1178 1600.5q0 15.5 35.5 27.5t88 51t70 61.5t42 23t24.5 -26.5q0 -35 -81 -78t-167 -74 q-12 0 -12 15.5z" />
<glyph unicode="&#xd4;" horiz-adv-x="1079" d="M2 268.5q0 149.5 99.5 372.5t252 421t355 336t389.5 138q76 0 111.5 -33t35.5 -84t-24 -92q104 -51 104 -199q0 -199 -169 -480t-406 -472q86 4 179 41t150.5 72t64.5 35t7 -17q0 -41 -155.5 -103.5t-276.5 -62.5h-14q-233 -172 -437 -172q-135 0 -200.5 75t-65.5 224.5z M104 297q1 -277 228 -277q152 0 323 123q-184 14 -274 110.5t-90 237t68.5 291t177 276.5t261 210t306.5 84q31 0 59 -6q27 39 27 78.5t-33 58t-76 18.5q-166 0 -348 -132t-317 -320.5t-223.5 -400.5t-88.5 -351zM393 524q0 -328 305 -348q217 176 379 465t162 485 q0 104 -53 152q-37 -41 -109.5 -91t-118 -90t-45.5 -77l2 -14q0 -25 -14 -25q-27 0 -27 56.5t40 103.5t116 95t100 71q-33 8 -53 8q-176 0 -337.5 -132t-254 -317.5t-92.5 -341.5zM1020 1604.5q0 15.5 37 28t96 53t74.5 61t37 20.5t40.5 -18q6 -8 13 -56t36 -91q4 -8 4 -11 q0 -10 -12.5 -10t-31 17.5t-36.5 56.5t-18 41q-49 -45 -228 -107q-12 0 -12 15.5z" />
<glyph unicode="&#xd5;" horiz-adv-x="1079" d="M2 268.5q0 149.5 99.5 372.5t252 421t355 336t389.5 138q76 0 111.5 -33t35.5 -84t-24 -92q104 -51 104 -199q0 -199 -169 -480t-406 -472q86 4 179 41t150.5 72t64.5 35t7 -17q0 -41 -155.5 -103.5t-276.5 -62.5h-14q-233 -172 -437 -172q-135 0 -200.5 75t-65.5 224.5z M104 297q1 -277 228 -277q152 0 323 123q-184 14 -274 110.5t-90 237t68.5 291t177 276.5t261 210t306.5 84q31 0 59 -6q27 39 27 78.5t-33 58t-76 18.5q-166 0 -348 -132t-317 -320.5t-223.5 -400.5t-88.5 -351zM393 524q0 -328 305 -348q217 176 379 465t162 485 q0 104 -53 152q-37 -41 -109.5 -91t-118 -90t-45.5 -77l2 -14q0 -25 -14 -25q-27 0 -27 56.5t40 103.5t116 95t100 71q-33 8 -53 8q-176 0 -337.5 -132t-254 -317.5t-92.5 -341.5zM1040 1704q0 10 9.5 10t15.5 -12q31 -49 100 -49l172 18q51 0 91 -22.5t40 -69.5 q0 -12 -9 -12t-15 12q-27 41 -82 41l-193 -21q-45 0 -79.5 28t-49.5 77z" />
<glyph unicode="&#xd6;" horiz-adv-x="1079" d="M2 268.5q0 149.5 99.5 372.5t252 421t355 336t389.5 138q76 0 111.5 -33t35.5 -84t-24 -92q104 -51 104 -199q0 -199 -169 -480t-406 -472q86 4 179 41t150.5 72t64.5 35t7 -17q0 -41 -155.5 -103.5t-276.5 -62.5h-14q-233 -172 -437 -172q-135 0 -200.5 75t-65.5 224.5z M104 297q1 -277 228 -277q152 0 323 123q-184 14 -274 110.5t-90 237t68.5 291t177 276.5t261 210t306.5 84q31 0 59 -6q27 39 27 78.5t-33 58t-76 18.5q-166 0 -348 -132t-317 -320.5t-223.5 -400.5t-88.5 -351zM393 524q0 -328 305 -348q217 176 379 465t162 485 q0 104 -53 152q-37 -41 -109.5 -91t-118 -90t-45.5 -77l2 -14q0 -25 -14 -25q-27 0 -27 56.5t40 103.5t116 95t100 71q-33 8 -53 8q-176 0 -337.5 -132t-254 -317.5t-92.5 -341.5zM1053 1643.5q0 17.5 32.5 56.5t52 39t31 -12.5t11.5 -35t-31 -57.5t-53.5 -35t-32.5 13.5 t-10 31zM1235 1643.5q0 17.5 32.5 56.5t52 39t31 -12.5t11.5 -35t-31 -57.5t-53.5 -35t-32.5 13.5t-10 31z" />
<glyph unicode="&#xd7;" horiz-adv-x="729" d="M117 453q0 6 4 14q129 82 231 158l-135 151l-2 29q0 37 25 37q8 0 10 -2l156 -174q41 31 235 188q6 6 14 6q18 0 18.5 -26.5t-5.5 -40.5l-215 -179l174 -192q8 -8 8 -10q0 -27 -66 -27l-172 188q-53 -39 -217 -149q-8 -2 -16 -2q-47 0 -47 31z" />
<glyph unicode="&#xd8;" horiz-adv-x="1079" d="M2 265.5q0 146.5 94 363.5t239.5 410.5t340 336t377.5 158.5q115 199 137 199q16 0 16 -23t-10 -35l-88 -139q137 -6 137 -119q0 -49 -24 -90q104 -51 104 -199q0 -199 -169 -480t-406 -472q86 4 179 41t150.5 72t64.5 35t7 -17q0 -41 -155.5 -103.5t-276.5 -62.5h-14 q-170 -127 -322 -157q-35 -98 -59 -177q-8 -8 -19.5 -8t-23 13.5t-15.5 40.5q6 18 41 118q-23 -2 -39 -2q-135 0 -200.5 75t-65.5 221.5zM104 295q0 -270 222 -275l82 209q-117 92 -117 269q0 240 193.5 495.5t451.5 331.5q37 70 96 172q-162 -18 -335 -154.5t-300 -320.5 t-210 -388t-83 -339zM393 524q0 -129 49 -213q213 500 471 973q-141 -53 -263 -184t-189.5 -289t-67.5 -287zM399 27q121 20 256 116q-111 8 -190 47q-6 -18 -30.5 -76.5t-35.5 -86.5zM492 252q74 -68 206 -76q217 176 379 465t162 485q0 104 -53 152q-37 -41 -109.5 -91 t-118 -90t-45.5 -77l2 -14q0 -25 -14 -25q-27 0 -27 56.5t40 103.5t116 95t100 71q-33 8 -64.5 8t-82.5 -10q-262 -502 -491 -1053zM1001 1341q57 10 95 10.5t67 -5.5q27 39 27 77.5t-31 57t-69 20.5q-31 -51 -89 -160z" />
<glyph unicode="&#xd9;" horiz-adv-x="1325" d="M2 807q0 82 88 206t220 236.5t305 193.5t323 81q201 0 201 -138q0 -106 -120 -301.5t-265 -373.5q-383 -473 -383 -582q0 -57 73 -57q152 0 453 241q74 182 230.5 402.5t315.5 372t238 151.5q39 0 39 -37q0 -94 -227 -361.5t-504 -500.5q-51 -127 -51 -199 q0 -129 141 -129q51 0 125 39t91.5 56.5t23.5 17.5t6 -8q0 -43 -107.5 -95.5t-216.5 -52.5q-154 0 -153 144q0 59 24 133q-319 -244 -493 -244q-51 0 -84 33t-33 85t81 175t196.5 268.5t230.5 294.5q276 360 277 508q0 111 -158 111q-123 0 -269.5 -74t-260 -175.5 t-190.5 -211t-77 -180.5q0 -84 109 -84q86 0 176 56t150.5 130t98.5 132t44 77q6 25 41 24q10 0 19 -8t9 -19t-58 -106.5t-65.5 -115t-25.5 -19.5l-29 8q-4 0 -45 -33.5t-94 -72.5t-129 -73t-141 -34q-150 0 -150 109zM1030 428q233 209 416.5 432t183.5 299q0 15 -8 15 q-57 0 -262 -252q-207 -256 -330 -494zM1305 1585q0 27 23.5 27t42 -22.5t70.5 -61.5t103 -58q20 -6 20.5 -21t-12.5 -15q-172 61 -225 114q-22 23 -22 37z" />
<glyph unicode="&#xda;" horiz-adv-x="1325" d="M2 807q0 82 88 206t220 236.5t305 193.5t323 81q201 0 201 -138q0 -106 -120 -301.5t-265 -373.5q-383 -473 -383 -582q0 -57 73 -57q152 0 453 241q74 182 230.5 402.5t315.5 372t238 151.5q39 0 39 -37q0 -94 -227 -361.5t-504 -500.5q-51 -127 -51 -199 q0 -129 141 -129q51 0 125 39t91.5 56.5t23.5 17.5t6 -8q0 -43 -107.5 -95.5t-216.5 -52.5q-154 0 -153 144q0 59 24 133q-319 -244 -493 -244q-51 0 -84 33t-33 85t81 175t196.5 268.5t230.5 294.5q276 360 277 508q0 111 -158 111q-123 0 -269.5 -74t-260 -175.5 t-190.5 -211t-77 -180.5q0 -84 109 -84q86 0 176 56t150.5 130t98.5 132t44 77q6 25 41 24q10 0 19 -8t9 -19t-58 -106.5t-65.5 -115t-25.5 -19.5l-29 8q-4 0 -45 -33.5t-94 -72.5t-129 -73t-141 -34q-150 0 -150 109zM1030 428q233 209 416.5 432t183.5 299q0 15 -8 15 q-57 0 -262 -252q-207 -256 -330 -494zM1399 1428.5q0 15.5 35.5 27.5t88 51t70 61.5t42 23t24.5 -26.5q0 -35 -81 -78t-167 -74q-12 0 -12 15.5z" />
<glyph unicode="&#xdb;" horiz-adv-x="1325" d="M2 807q0 82 88 206t220 236.5t305 193.5t323 81q201 0 201 -138q0 -106 -120 -301.5t-265 -373.5q-383 -473 -383 -582q0 -57 73 -57q152 0 453 241q74 182 230.5 402.5t315.5 372t238 151.5q39 0 39 -37q0 -94 -227 -361.5t-504 -500.5q-51 -127 -51 -199 q0 -129 141 -129q51 0 125 39t91.5 56.5t23.5 17.5t6 -8q0 -43 -107.5 -95.5t-216.5 -52.5q-154 0 -153 144q0 59 24 133q-319 -244 -493 -244q-51 0 -84 33t-33 85t81 175t196.5 268.5t230.5 294.5q276 360 277 508q0 111 -158 111q-123 0 -269.5 -74t-260 -175.5 t-190.5 -211t-77 -180.5q0 -84 109 -84q86 0 176 56t150.5 130t98.5 132t44 77q6 25 41 24q10 0 19 -8t9 -19t-58 -106.5t-65.5 -115t-25.5 -19.5l-29 8q-4 0 -45 -33.5t-94 -72.5t-129 -73t-141 -34q-150 0 -150 109zM1030 428q233 209 416.5 432t183.5 299q0 15 -8 15 q-57 0 -262 -252q-207 -256 -330 -494zM1278 1442.5q0 15.5 37 28t96 53.5t74.5 61.5t37 20.5t40.5 -19q6 -8 13 -56t36 -91q4 -8 4 -10q0 -10 -12.5 -10.5t-31 17t-36.5 56.5t-18 41q-49 -45 -228 -107q-12 0 -12 15.5z" />
<glyph unicode="&#xdc;" horiz-adv-x="1325" d="M2 807q0 82 88 206t220 236.5t305 193.5t323 81q201 0 201 -138q0 -106 -120 -301.5t-265 -373.5q-383 -473 -383 -582q0 -57 73 -57q152 0 453 241q74 182 230.5 402.5t315.5 372t238 151.5q39 0 39 -37q0 -94 -227 -361.5t-504 -500.5q-51 -127 -51 -199 q0 -129 141 -129q51 0 125 39t91.5 56.5t23.5 17.5t6 -8q0 -43 -107.5 -95.5t-216.5 -52.5q-154 0 -153 144q0 59 24 133q-319 -244 -493 -244q-51 0 -84 33t-33 85t81 175t196.5 268.5t230.5 294.5q276 360 277 508q0 111 -158 111q-123 0 -269.5 -74t-260 -175.5 t-190.5 -211t-77 -180.5q0 -84 109 -84q86 0 176 56t150.5 130t98.5 132t44 77q6 25 41 24q10 0 19 -8t9 -19t-58 -106.5t-65.5 -115t-25.5 -19.5l-29 8q-4 0 -45 -33.5t-94 -72.5t-129 -73t-141 -34q-150 0 -150 109zM1030 428q233 209 416.5 432t183.5 299q0 15 -8 15 q-57 0 -262 -252q-207 -256 -330 -494zM1309 1492q0 17 32.5 56t52 39t31 -12t11.5 -34.5t-31 -57.5t-53.5 -35t-32.5 13.5t-10 30.5zM1491 1492q0 17 32.5 56t52 39t31 -12t11.5 -34.5t-31 -57.5t-53.5 -35t-32.5 13.5t-10 30.5z" />
<glyph unicode="&#xdd;" horiz-adv-x="1452" d="M-76 -1192q0 121 428 743q-6 2 -20 3q-125 -18 -129 -19q-35 0 -35 21.5t55 27.5q74 16 199 70q127 182 334 459q-256 -170 -363 -170q-43 0 -64.5 23.5t-21.5 92t82 194.5t200 262t235.5 276.5t199.5 278.5t82 233q0 121 -172 120q-141 0 -334.5 -98t-341 -255 t-147.5 -298q0 -96 112 -96q82 0 172 46t158 109q141 131 178 203q18 33 40 33t22 -18q0 -41 -98.5 -142.5t-248 -193.5t-248 -92t-133 47t-34.5 112q0 115 148.5 278t370.5 285.5t406 122.5q231 0 232 -202q0 -100 -79 -237.5t-192.5 -270.5t-228.5 -264 q-270 -309 -270 -449q0 -45 57 -45q90 0 336 188q322 422 576.5 701.5t336.5 279.5q57 0 58 -43q0 -94 -237.5 -343t-538.5 -486q-229 -299 -416 -561q240 121 482.5 280.5t363.5 280.5q16 16 28 16q18 0 19 -24q0 -63 -360.5 -298t-598.5 -347l-49 -68q143 -55 143 -179 t-122.5 -286t-266 -269.5t-224.5 -107.5t-81 76zM14 -1174q0 -35 27 -34q57 0 177 99t221.5 244.5t101.5 248t-99 143.5q-428 -612 -428 -701zM1124 449q231 209 405.5 400t174.5 243q0 14 -16 14q-55 0 -564 -657zM1473 1424.5q0 15.5 35.5 27.5t88 51t69.5 61.5t42 23 t25 -26.5q0 -35 -81 -78t-167 -74q-12 0 -12 15.5z" />
<glyph unicode="&#xde;" horiz-adv-x="798" d="M0 -104q0 109 244.5 387t552.5 508q154 283 153 411q0 276 -469 277q-143 0 -254 -54q-68 -33 -67.5 -82t73 -101t160.5 -93t161 -107.5t73 -140.5q0 -41 -8.5 -61.5t-14.5 -20.5q-10 0 -14 29q0 115 -172 207q-74 39 -148 75q-172 92 -172 199q0 49 45 87t115 59 q133 37 227.5 36.5t178.5 -14.5t175 -47t149.5 -101.5t58.5 -165t-97 -284.5q348 227 582 227q94 0 94 -88q0 -111 -130 -305t-310 -350t-303 -156q-141 0 -152 146q0 33 21 33q14 0 27.5 -31t51 -67t78.5 -36q98 0 242.5 153t248 333t103.5 264q0 45 -37 45 q-203 0 -563 -258q-119 -209 -286.5 -431t-328.5 -375t-239 -153q-49 1 -49 46zM80 -82q0 -10 8 -10q82 0 278.5 240.5t366.5 531.5q-262 -213 -457.5 -439.5t-195.5 -322.5z" />
<glyph unicode="&#xdf;" horiz-adv-x="620" d="M-565 -864q0 123 960 1446q176 244 373 430t301 186q51 0 51 -45q0 -98 -174 -300t-395 -396q-74 -68 -74 -285l2 -84q0 -12 10 -12q143 90 304 219l57 45q14 10 26.5 10t12.5 -14v-4q-158 -133 -333 -250t-222 -117t-79 17.5t-32 40t12.5 38t22.5 15.5t33.5 -32 t46.5 -32q33 0 53 64q31 96 31 223q0 74 92 166q10 10 23 20q197 166 350 359.5t153 263.5q0 25 -22 25q-68 0 -231.5 -172.5t-317.5 -391.5q-47 -68 -139 -195.5t-107.5 -151t-131.5 -187.5t-236.5 -337t-224 -338t-103.5 -198l4 -51q0 -23 -37 -22q-59 0 -59 47z" />
<glyph unicode="&#xe0;" d="M0 41q0 57 77 154.5t206 177.5t252 80q29 0 48 -14.5t19 -44t-59.5 -89t-102.5 -59.5q-12 0 -12 9t14 21q68 55 68 101q0 29 -51 33q-92 -2 -220 -133.5t-128 -196.5q0 -23 25.5 -23t68.5 35q39 25 145 123q25 25 47 25q29 0 29 -27q0 -10 -6 -16.5t-22.5 -25.5 t-28.5 -36q-37 -53 -37 -69q0 -41 33 -41q43 0 161.5 78.5t216.5 158.5l99 78q14 10 26.5 10t12.5 -14v-4q-158 -133 -333 -250t-231 -117q-66 0 -65 70q0 16 6 30.5t6 20.5t-4 8q-6 0 -78.5 -55t-127 -55t-54.5 57zM401 694q0 27 25 27t42 -22.5t69.5 -61.5t103.5 -57 q20 -6 20.5 -21.5t-12.5 -15.5q-172 61 -227 116q-21 21 -21 35z" />
<glyph unicode="&#xe1;" d="M0 41q0 57 77 154.5t206 177.5t252 80q29 0 48 -14.5t19 -44t-59.5 -89t-102.5 -59.5q-12 0 -12 9t14 21q68 55 68 101q0 29 -51 33q-92 -2 -220 -133.5t-128 -196.5q0 -23 25.5 -23t68.5 35q39 25 145 123q25 25 47 25q29 0 29 -27q0 -10 -6 -16.5t-22.5 -25.5 t-28.5 -36q-37 -53 -37 -69q0 -41 33 -41q43 0 161.5 78.5t216.5 158.5l99 78q14 10 26.5 10t12.5 -14v-4q-158 -133 -333 -250t-231 -117q-66 0 -65 70q0 16 6 30.5t6 20.5t-4 8q-6 0 -78.5 -55t-127 -55t-54.5 57zM543 511q0 15 35.5 27.5t88 51.5t70 61.5t42 22.5 t24.5 -27q0 -35 -81 -78t-167 -73q-12 0 -12 15z" />
<glyph unicode="&#xe2;" d="M0 41q0 57 77 154.5t206 177.5t252 80q29 0 48 -14.5t19 -44t-59.5 -89t-102.5 -59.5q-12 0 -12 9t14 21q68 55 68 101q0 29 -51 33q-92 -2 -220 -133.5t-128 -196.5q0 -23 25.5 -23t68.5 35q39 25 145 123q25 25 47 25q29 0 29 -27q0 -10 -6 -16.5t-22.5 -25.5 t-28.5 -36q-37 -53 -37 -69q0 -41 33 -41q43 0 161.5 78.5t216.5 158.5l99 78q14 10 26.5 10t12.5 -14v-4q-158 -133 -333 -250t-231 -117q-66 0 -65 70q0 16 6 30.5t6 20.5t-4 8q-6 0 -78.5 -55t-127 -55t-54.5 57zM346 511q0 15 37 27.5t96.5 53.5t74.5 61.5t36.5 20.5 t40.5 -19q6 -8 13 -56t36 -91q4 -8 4 -10q0 -10 -12.5 -10.5t-30.5 17t-36.5 56.5t-18.5 41q-49 -45 -228 -106q-12 0 -12 15z" />
<glyph unicode="&#xe3;" d="M0 41q0 57 77 154.5t206 177.5t252 80q29 0 48 -14.5t19 -44t-59.5 -89t-102.5 -59.5q-12 0 -12 9t14 21q68 55 68 101q0 29 -51 33q-92 -2 -220 -133.5t-128 -196.5q0 -23 25.5 -23t68.5 35q39 25 145 123q25 25 47 25q29 0 29 -27q0 -10 -6 -16.5t-22.5 -25.5 t-28.5 -36q-37 -53 -37 -69q0 -41 33 -41q43 0 161.5 78.5t216.5 158.5l99 78q14 10 26.5 10t12.5 -14v-4q-158 -133 -333 -250t-231 -117q-66 0 -65 70q0 16 6 30.5t6 20.5t-4 8q-6 0 -78.5 -55t-127 -55t-54.5 57zM338 641q0 10 9 10t15 -12q31 -49 101 -49l172 18 q51 0 91 -22.5t40 -69.5q0 -12 -9 -12t-16 12q-27 41 -82 41l-192 -20q-45 0 -80 27.5t-49 76.5z" />
<glyph unicode="&#xe4;" d="M0 41q0 57 77 154.5t206 177.5t252 80q29 0 48 -14.5t19 -44t-59.5 -89t-102.5 -59.5q-12 0 -12 9t14 21q68 55 68 101q0 29 -51 33q-92 -2 -220 -133.5t-128 -196.5q0 -23 25.5 -23t68.5 35q39 25 145 123q25 25 47 25q29 0 29 -27q0 -10 -6 -16.5t-22.5 -25.5 t-28.5 -36q-37 -53 -37 -69q0 -41 33 -41q43 0 161.5 78.5t216.5 158.5l99 78q14 10 26.5 10t12.5 -14v-4q-158 -133 -333 -250t-231 -117q-66 0 -65 70q0 16 6 30.5t6 20.5t-4 8q-6 0 -78.5 -55t-127 -55t-54.5 57zM408 549.5q0 17.5 32.5 56.5t52 39t31 -12t11.5 -35 t-31 -57.5t-53.5 -34.5t-32.5 13t-10 30.5zM590 549.5q0 17.5 32.5 56.5t52 39t31 -12t11.5 -35t-31 -57.5t-53.5 -34.5t-32.5 13t-10 30.5z" />
<glyph unicode="&#xe5;" d="M0 41q0 57 77 154.5t206 177.5t252 80q29 0 48 -14.5t19 -44t-59.5 -89t-102.5 -59.5q-12 0 -12 9t14 21q68 55 68 101q0 29 -51 33q-92 -2 -220 -133.5t-128 -196.5q0 -23 25.5 -23t68.5 35q39 25 145 123q25 25 47 25q29 0 29 -27q0 -10 -6 -16.5t-22.5 -25.5 t-28.5 -36q-37 -53 -37 -69q0 -41 33 -41q43 0 161.5 78.5t216.5 158.5l99 78q14 10 26.5 10t12.5 -14v-4q-158 -133 -333 -250t-231 -117q-66 0 -65 70q0 16 6 30.5t6 20.5t-4 8q-6 0 -78.5 -55t-127 -55t-54.5 57zM532 543q0 32 38 76.5t94.5 44.5t56.5 -60q0 -31 -40 -73 t-94.5 -42t-54.5 54zM565 557q0 -37 36 -37t61.5 27.5t25.5 50.5q0 35 -36 35t-61.5 -29t-25.5 -47z" />
<glyph unicode="&#xe6;" horiz-adv-x="690" d="M0 41q0 57 77 154.5t206 177.5t252 80q39 0 57 -25q16 4 22 4q53 0 54 -37q-8 -106 -324 -295q0 -66 70.5 -65.5t152.5 47.5q147 88 299 215l52 43q14 10 26 10t12 -14v-4q-213 -176 -354 -264t-256 -88q-92 0 -92 88q0 16 2 24q-2 0 -74.5 -54t-127 -54t-54.5 57z M111 80q0 -23 25.5 -23t60 28t51 41t26.5 21q31 66 96.5 134.5t135.5 111.5q-8 12 -47 17q-92 -2 -220 -133t-128 -197zM352 152q100 59 167 120.5t67 89.5q0 15 -23 15q-47 0 -116.5 -75t-94.5 -150z" />
<glyph unicode="&#xe7;" horiz-adv-x="499" d="M-31 -248.5q0 23.5 21.5 43t48.5 21.5q70 8 70 63q0 42 -39 58q-16 6 -16.5 14t25 8t43 -25.5t17.5 -55.5t-6 -48t-25.5 -30.5t-25.5 -16.5t-41 -12l-33 -11q-8 -4 -26 -26l-7 -6q-6 0 -6 23.5zM53 78.5q0 107.5 130 234.5t282 127q45 -4 56 -14t11 -28.5t-37.5 -66.5 t-68.5 -48q-35 6 -35 24q0 8 19 27q35 31 34.5 45t-22.5 14q-72 -2 -180.5 -117.5t-108.5 -191.5q0 -57 75 -57t161 53q152 92 305 219l51 41q16 10 27.5 10t11.5 -14v-4q-162 -143 -334 -252t-287 -109q-90 0 -90 107.5z" />
<glyph unicode="&#xe8;" horiz-adv-x="536" d="M100 70q0 133 135.5 273t227.5 140q51 0 51 -57q-10 -113 -324 -303v-21q0 -68 71 -67.5t153 47.5q160 94 299 215l51 43q14 10 26.5 10t12.5 -14v-4q-213 -176 -354.5 -264t-255.5 -88q-92 0 -93 90zM199 172q98 59 165.5 126t68 94.5t-22.5 27.5q-45 0 -116 -76 t-95 -172zM305 700q0 27 23.5 27t42 -22.5t71 -61.5t103.5 -57q20 -6 20 -21.5t-12 -15.5q-172 61 -225 115q-23 22 -23 36z" />
<glyph unicode="&#xe9;" horiz-adv-x="536" d="M100 70q0 133 135.5 273t227.5 140q51 0 51 -57q-10 -113 -324 -303v-21q0 -68 71 -67.5t153 47.5q160 94 299 215l51 43q14 10 26.5 10t12.5 -14v-4q-213 -176 -354.5 -264t-255.5 -88q-92 0 -93 90zM199 172q98 59 165.5 126t68 94.5t-22.5 27.5q-45 0 -116 -76 t-95 -172zM446.5 539.5q-0.5 15.5 35.5 28t88.5 51t70.5 61t42 23t24 -26.5q0 -35 -81 -78t-167 -74q-12 0 -12.5 15.5z" />
<glyph unicode="&#xea;" horiz-adv-x="536" d="M100 70q0 133 135.5 273t227.5 140q51 0 51 -57q-10 -113 -324 -303v-21q0 -68 71 -67.5t153 47.5q160 94 299 215l51 43q14 10 26.5 10t12.5 -14v-4q-213 -176 -354.5 -264t-255.5 -88q-92 0 -93 90zM199 172q98 59 165.5 126t68 94.5t-22.5 27.5q-45 0 -116 -76 t-95 -172zM279 531.5q0 15.5 36.5 27.5t96 53t75 61.5t37 20.5t39.5 -18q6 -8 13.5 -56.5t35.5 -91.5q4 -8 4 -10q0 -10 -12 -10t-30.5 17.5t-37 56.5t-18.5 41q-49 -45 -227 -107q-12 0 -12 15.5z" />
<glyph unicode="&#xeb;" horiz-adv-x="536" d="M100 70q0 133 135.5 273t227.5 140q51 0 51 -57q-10 -113 -324 -303v-21q0 -68 71 -67.5t153 47.5q160 94 299 215l51 43q14 10 26.5 10t12.5 -14v-4q-213 -176 -354.5 -264t-255.5 -88q-92 0 -93 90zM199 172q98 59 165.5 126t68 94.5t-22.5 27.5q-45 0 -116 -76 t-95 -172zM342 560.5q0 17.5 33 56t52 38.5t30.5 -12t11.5 -34.5t-30.5 -57.5t-53.5 -35t-33 13.5t-10 31zM524 560.5q0 17.5 33 56t52.5 38.5t30.5 -12t11 -34.5t-30.5 -57.5t-53 -35t-33 13.5t-10.5 31z" />
<glyph unicode="&#xec;" horiz-adv-x="385" d="M63 23q0 59 102.5 224t149.5 165q35 0 35 -27t-94 -145.5t-94 -169.5q0 -29 21.5 -29t107.5 57q154 102 282 207l45 37q16 10 25.5 10t9.5 -12v-6q8 0 -109.5 -90t-251.5 -180.5t-169 -90.5q-60 1 -60 50zM211 657q0 27 23.5 27t42 -22.5t70.5 -61.5t104 -57 q20 -6 20 -21.5t-12 -15.5q-172 61 -226 117q-22 20 -22 34z" />
<glyph unicode="&#xed;" horiz-adv-x="385" d="M63 23q0 59 102.5 224t149.5 165q35 0 35 -27t-94 -145.5t-94 -169.5q0 -29 21.5 -29t107.5 57q154 102 282 207l45 37q16 10 25.5 10t9.5 -12v-6q8 0 -109.5 -90t-251.5 -180.5t-169 -90.5q-60 1 -60 50zM334 511q0 15 36 27.5t88 51.5t69.5 61.5t42 22.5t24.5 -27 q0 -35 -81 -78t-167 -73q-12 0 -12 15z" />
<glyph unicode="&#xee;" horiz-adv-x="385" d="M63 23q0 59 102.5 224t149.5 165q35 0 35 -27t-94 -145.5t-94 -169.5q0 -29 21.5 -29t107.5 57q154 102 282 207l45 37q16 10 25.5 10t9.5 -12v-6q8 0 -109.5 -90t-251.5 -180.5t-169 -90.5q-60 1 -60 50zM197 511q0 15 36.5 27.5t96 53.5t75 61.5t37 20.5t39.5 -19 q6 -8 13.5 -56t35.5 -91l5 -10q0 -10 -12.5 -10.5t-31 17t-37 56.5t-18.5 41q-49 -45 -227 -106q-12 0 -12 15z" />
<glyph unicode="&#xef;" horiz-adv-x="385" d="M63 23q0 59 102.5 224t149.5 165q35 0 35 -27t-94 -145.5t-94 -169.5q0 -29 21.5 -29t107.5 57q154 102 282 207l45 37q16 10 25.5 10t9.5 -12v-6q8 0 -109.5 -90t-251.5 -180.5t-169 -90.5q-60 1 -60 50zM250 523.5q0 17.5 32.5 56t52 38.5t31 -12t11.5 -34.5t-31 -57.5 t-53.5 -35t-32.5 13.5t-10 31zM432 523.5q0 17.5 33 56t52.5 38.5t30.5 -12t11 -34.5t-30.5 -57.5t-53 -35t-33 13.5t-10.5 31z" />
<glyph unicode="&#xf0;" horiz-adv-x="565" d="M-57 12q0 86 185 252t296 166q16 0 31 -22l147 215h-49q-100 0 -126 3t-28 21q0 10 3.5 12.5t89.5 2.5t141 2q86 115 137 219q-174 39 -209 55t-53 29q-39 25 -39 63q0 96 83 155.5t169 59.5t134 -35.5t48 -110.5t-59 -194q45 -20 61.5 -38.5t18.5 -43.5v-10 q0 -12 -4 -12q-6 0 -13 10q-14 33 -84 55q-39 -77 -121 -198l138 10q23 0 22 -33q0 -27 -112 -27l-80 3q-18 -29 -74.5 -112t-88.5 -133t-46.5 -78t-32.5 -65q-33 -68 -33 -112.5t23 -44.5q27 0 94 47q139 100 244 184l39 33q14 10 26.5 10t12.5 -14v-4q-426 -344 -517 -344 q-35 0 -34.5 41t30.5 137q0 2 -4 2q-236 -195 -313 -195q-53 0 -53 39zM66 80q0 -14 16 -14q51 0 155.5 87t139.5 140l67 100q-4 2 -14 2q-86 0 -225 -131t-139 -184zM520 1053q0 -43 62 -68q41 -16 111.5 -34.5t97.5 -26.5q45 106 45 174.5t-32 97.5t-92.5 29t-126 -51 t-65.5 -121z" />
<glyph unicode="&#xf1;" horiz-adv-x="790" d="M106 8q0 29 115 180q111 152 111 170q0 4 -7.5 4t-177.5 -124l-8 30q145 117 196.5 150t83.5 33t32 -31q0 -20 -116 -167t-116 -158t7 -11t233.5 165t275.5 165q14 0 27.5 -11.5t13.5 -21.5q0 -25 -108.5 -163t-108.5 -156.5t25.5 -18.5t109.5 55q154 100 283 207l45 37 q14 10 26.5 10t12.5 -12v-6q-432 -360 -535 -361q-59 0 -59 49.5t44 117t88 119.5t44 62.5t-6 10.5q-190 -127 -226 -156t-117 -94.5t-105.5 -81.5t-53.5 -16t-29 24zM455 655q0 10 9 10.5t15 -12.5q31 -49 101 -49l172 19q51 0 91 -22.5t40 -70.5q0 -12 -9.5 -12t-15.5 12 q-27 41 -82 41l-192 -20q-45 0 -80 27.5t-49 76.5z" />
<glyph unicode="&#xf2;" horiz-adv-x="473" d="M12 64.5q0 87.5 146 232.5q-25 59 -25 124.5t47 106.5t109.5 41t105.5 -41t43 -116q0 -117 -76 -234q9 -2 25 -2q115 0 275 129l34 -10q-201 -168 -346 -168q-16 0 -24 2q-55 -68 -121 -110t-115 -42q-78 0 -78 87.5zM96 76q0 -41 53.5 -41t135.5 108q-55 29 -99 101 q-90 -98 -90 -168zM204.5 450.5q0.5 -73.5 33.5 -146t84 -107.5q63 106 63 181t-37 110.5t-72 35.5q-72 0 -71.5 -73.5zM244 778q0 27 23.5 27t42 -22.5t70.5 -61.5t103 -57q20 -6 20.5 -21.5t-11.5 -15.5q-172 61 -226 114q-22 23 -22 37z" />
<glyph unicode="&#xf3;" horiz-adv-x="473" d="M12.5 64.5q-0.5 -87.5 77.5 -87.5q49 0 114.5 42t121.5 110q8 -2 24 -2q145 0 346 168l-34 10q-160 -129 -275 -129q-16 0 -25 2q76 117 76 234q0 76 -43 116.5t-105.5 40.5t-109.5 -41t-47 -106.5t25 -124.5q-145 -145 -145.5 -232.5zM96 76q0 70 90 168q43 -72 99 -101 q-82 -109 -135.5 -108.5t-53.5 41.5zM205 430q0 94 65 94q41 0 78 -35.5t37 -110.5t-63 -181q-51 35 -84 107.5t-33 125.5zM379 621.5q0 15.5 36 28t88 51t69.5 61t42 23t24.5 -26.5q0 -35 -81 -78t-167 -74q-12 0 -12 15.5z" />
<glyph unicode="&#xf4;" horiz-adv-x="473" d="M12.5 64.5q-0.5 -87.5 77.5 -87.5q49 0 114.5 42t121.5 110q8 -2 24 -2q145 0 346 168l-34 10q-160 -129 -275 -129q-16 0 -25 2q76 117 76 234q0 76 -43 116.5t-105.5 40.5t-109.5 -41t-47 -106.5t25 -124.5q-145 -145 -145.5 -232.5zM96 76q0 70 90 168q43 -72 99 -101 q-82 -109 -135.5 -108.5t-53.5 41.5zM190.5 615.5q-0.5 15.5 36.5 27.5t96.5 53t75 61.5t37 20.5t39.5 -18q6 -8 13.5 -56.5t35.5 -91.5q4 -8 4 -10q0 -10 -12 -10t-30.5 17.5t-37 56.5t-18.5 41q-49 -45 -227 -107q-12 0 -12.5 15.5zM205 430q0 94 65 94q41 0 78 -35.5 t37 -110.5t-63 -181q-51 35 -84 107.5t-33 125.5z" />
<glyph unicode="&#xf5;" horiz-adv-x="473" d="M12.5 64.5q-0.5 -87.5 77.5 -87.5q49 0 114.5 42t121.5 110q8 -2 24 -2q145 0 346 168l-34 10q-160 -129 -275 -129q-16 0 -25 2q76 117 76 234q0 76 -43 116.5t-105.5 40.5t-109.5 -41t-47 -106.5t25 -124.5q-145 -145 -145.5 -232.5zM96 76q0 70 90 168q43 -72 99 -101 q-82 -109 -135.5 -108.5t-53.5 41.5zM182 752q0 10 9.5 10t15.5 -12q31 -49 100 -50l172 19q51 0 91 -22.5t40 -69.5q0 -12 -9 -12.5t-15 12.5q-27 41 -82 41l-193 -21q-45 0 -79.5 27.5t-49.5 77.5zM205 430q0 94 65 94q41 0 78 -35.5t37 -110.5t-63 -181q-51 35 -84 107.5 t-33 125.5z" />
<glyph unicode="&#xf6;" horiz-adv-x="473" d="M12.5 64.5q-0.5 -87.5 77.5 -87.5q49 0 114.5 42t121.5 110q8 -2 24 -2q145 0 346 168l-34 10q-160 -129 -275 -129q-16 0 -25 2q76 117 76 234q0 76 -43 116.5t-105.5 40.5t-109.5 -41t-47 -106.5t25 -124.5q-145 -145 -145.5 -232.5zM96 76q0 70 90 168q43 -72 99 -101 q-82 -109 -135.5 -108.5t-53.5 41.5zM205 430q0 94 65 94q41 0 78 -35.5t37 -110.5t-63 -181q-51 35 -84 107.5t-33 125.5zM229 666.5q0 17.5 33 56.5t52.5 39t30.5 -12.5t11 -35t-30.5 -57t-53 -34.5t-33 13t-10.5 30.5zM412 666.5q0 17.5 32.5 56.5t52 39t31 -12.5 t11.5 -35t-31 -57t-53.5 -34.5t-32.5 13t-10 30.5z" />
<glyph unicode="&#xf7;" horiz-adv-x="729" d="M115 645q0 12 12 16.5t175 4.5t409 -13q30 -2 30 -45q0 -10 -18 -10l-578 4q-31 0 -30 43zM270 404.5q0 17.5 33 56.5t52.5 39t30.5 -12.5t11 -35t-30.5 -57.5t-53 -35t-33 13.5t-10.5 31zM455 781.5q0 17.5 32.5 56.5t52 39t31 -12.5t11.5 -35t-31 -57.5t-53.5 -35 t-32.5 13.5t-10 31z" />
<glyph unicode="&#xf8;" horiz-adv-x="473" d="M12 64.5q0 87.5 146 232.5q-25 59 -25 124.5t47 106.5t99.5 41t85.5 -18q33 66 86 145q10 10 15 10.5t5 -12t-26.5 -50.5t-59.5 -107q53 -43 53 -142.5t-76 -216.5q9 -2 25 -2q115 0 275 129l34 -10q-201 -168 -346 -168q-16 0 -24 2q-82 -102 -174 -137 q-29 -78 -50 -146q-6 -8 -12 -8q-16 0 -16 29q29 88 39 113l-23 -3q-78 0 -78 87.5zM96 76q0 -39 37 -41l72 180q-2 4 -19 29q-90 -98 -90 -168zM170 41q55 25 115 102q-35 16 -58 43q-34 -84 -57 -145zM205 427q0 -56 35 -130l96 203q-31 25 -62.5 24.5t-50 -21 t-18.5 -76.5zM258 262q31 -43 64 -65q63 106 63 200q0 43 -29 82q-41 -84 -98 -217z" />
<glyph unicode="&#xf9;" horiz-adv-x="591" d="M24.5 -113q0.5 37 115 190.5t161.5 153.5q10 0 19.5 -9t9.5 -15t-105.5 -127t-105.5 -154q0 -8 8 -8q39 0 168 104.5t183 162t85 57.5t31 -27q0 -16 -12.5 -32.5t-46 -58.5t-62.5 -79q-80 -102 -80 -128t21.5 -26t105.5 56q156 104 285 209l45 37l10 141q8 0 -109.5 -90 t-251.5 -180.5t-169 -90.5q-60 1 -60 54l25 -150q0 31 29.5 80t31.5 57.5t-4 8.5t-17 -11.5t-125 -86.5t-157 -75q-29 0 -28.5 37zM309 481q0 27 23.5 27t42 -22.5t71 -61.5t103.5 -57q20 -6 20 -21.5t-12 -15.5q-172 61 -225 116q-23 21 -23 35z" />
<glyph unicode="&#xfa;" horiz-adv-x="591" d="M24.5 -113q0.5 37 115 190.5t161.5 153.5q10 0 19.5 -9t9.5 -15t-105.5 -127t-105.5 -154q0 -8 8 -8q39 0 168 104.5t183 162t85 57.5t31 -27q0 -16 -12.5 -32.5t-46 -58.5t-62.5 -79q-80 -102 -80 -128t21.5 -26t105.5 56q156 104 285 209l45 37l10 141q8 0 -109.5 -90 t-251.5 -180.5t-169 -90.5q-60 1 -60 54l25 -150q0 31 29.5 80t31.5 57.5t-4 8.5t-17 -11.5t-125 -86.5t-157 -75q-29 0 -28.5 37zM444.5 351.5q-0.5 15.5 35.5 27.5t88.5 51t69.5 61.5t42 22.5t25 -27q0 -35 -81 -77.5t-167 -73.5q-12 0 -12.5 15.5z" />
<glyph unicode="&#xfb;" horiz-adv-x="591" d="M24.5 47q0.5 37 115 190.5t161.5 153.5q10 0 19.5 -9t9.5 -15.5t-105.5 -127t-105.5 -153.5q0 -8 8 -8q39 0 168 104.5t183 161.5t85 57t31 -26q0 -16 -12.5 -32.5t-46 -58.5t-62.5 -79q-80 -102 -80 -128t21.5 -26t105.5 55q156 104 285 209l45 37q10 0 10 -12v-6 q8 0 -109.5 -90t-251.5 -180.5t-169 -90.5q-60 1 -60 54l25 10q0 31 29.5 80t31.5 57t-4 8t-17 -11t-125 -86t-157 -75q-29 0 -28.5 37zM299 521.5q0 15.5 37 27.5t96.5 53t74.5 61.5t36.5 20.5t40.5 -18q6 -8 13 -56.5t36 -91.5q4 -8 4 -10q0 -10 -12.5 -10t-31 17 t-36.5 56t-18 41q-49 -45 -228 -106q-12 0 -12 15.5z" />
<glyph unicode="&#xfc;" horiz-adv-x="591" d="M24.5 47q0.5 37 115 190.5t161.5 153.5q10 0 19.5 -9t9.5 -15.5t-105.5 -127t-105.5 -153.5q0 -8 8 -8q39 0 168 104.5t183 161.5t85 57t31 -26q0 -16 -12.5 -32.5t-46 -58.5t-62.5 -79q-80 -102 -80 -128t21.5 -26t105.5 55q156 104 285 209l45 37q10 0 10 -12v-6 q8 0 -109.5 -90t-251.5 -180.5t-169 -90.5q-60 1 -60 54l25 10q0 31 29.5 80t31.5 57t-4 8t-17 -11t-125 -86t-157 -75q-29 0 -28.5 37zM356 533.5q0 17.5 33 56.5t52.5 39t30.5 -12.5t11 -35t-30.5 -57.5t-53 -35t-33 13.5t-10.5 31zM539 533.5q0 17.5 32.5 56.5t52 39 t31 -12.5t11.5 -35t-31 -57.5t-53.5 -35t-32.5 13.5t-10 31z" />
<glyph unicode="&#xfd;" horiz-adv-x="688" d="M-268 -795.5q0 23.5 23.5 70.5t69.5 109.5t87 112.5t104.5 126t94.5 113q-37 33 -83 41t-46 24q6 16 9 18.5t15 3.5t78 18.5t156 56.5q262 334 277 363.5t15 35.5t-8 6t-18 -14q-4 -2 -54.5 -48t-98.5 -85t-111.5 -75t-108.5 -36t-45 33q2 76 103.5 209t136 133t34.5 -19 q0 -10 -93 -126.5t-93 -145.5t19 -29q37 0 212 149.5t216 149.5q12 0 23 -12t11 -27q0 -45 -295 -403q276 154 515 348l45 37q16 10 26 10t10 -10l-2 -8q10 0 -108.5 -90t-219 -160t-309.5 -176l-145 -178q29 -41 29 -97q0 -94 -80 -209.5t-179.5 -192.5t-162.5 -77 q-18 0 -33.5 13.5t-15.5 37zM-162 -764q0 -6 6 -6q35 0 107 67.5t133 168t61 178.5q0 20 -6 43q-301 -377 -301 -451zM74 -197l61 -36l27 34q33 39 41 52q-59 -27 -94 -36.5t-35 -13.5zM504 511q0 15 35.5 27.5t88 51.5t71 61.5t42 22.5t23.5 -27q0 -35 -81 -78t-167 -73 q-12 0 -12 15z" />
<glyph unicode="&#xfe;" horiz-adv-x="688" d="M-592 -805q0 141 278.5 473t571.5 559l180 262v3q0 6 -8 6q-41 -72 -221 -215l-59 -45l-9 30q270 219 480 473l241 316q29 39 64 39t35 -21q0 -8 -2.5 -11t-56.5 -74.5t-113.5 -151.5t-75 -100.5t-62.5 -90.5q-152 -217 -209 -295q119 68 179.5 68t60.5 -25 q0 -82 -164 -252q-55 -57 -55 -74.5t29.5 -17.5t105.5 51q150 100 276 203l46 37q14 10 26 10t12 -12v-6q-451 -360 -534 -361q-59 0 -59 48.5t112.5 180.5t112.5 169q-4 4 -8 4q-57 0 -185 -88q-823 -1153 -936 -1153q-23 0 -38 15t-15 46zM-524 -786q0 -13 12 -13 q63 0 702 926q-270 -229 -492 -500.5t-222 -412.5z" />
<glyph unicode="&#xff;" horiz-adv-x="688" d="M-268 -795.5q0 23.5 23.5 70.5t69.5 109.5t87 112.5t104.5 126t94.5 113q-37 33 -83 41t-46 24q6 16 9 18.5t15 3.5t78 18.5t156 56.5q262 334 277 363.5t15 35.5t-8 6t-18 -14q-4 -2 -54.5 -48t-98.5 -85t-111.5 -75t-108.5 -36t-45 33q2 76 103.5 209t136 133t34.5 -19 q0 -10 -93 -126.5t-93 -145.5t19 -29q37 0 212 149.5t216 149.5q12 0 23 -12t11 -27q0 -45 -295 -403q276 154 515 348l45 37q16 10 26 10t10 -10l-2 -8q10 0 -108.5 -90t-219 -160t-309.5 -176l-145 -178q29 -41 29 -97q0 -94 -80 -209.5t-179.5 -192.5t-162.5 -77 q-18 0 -33.5 13.5t-15.5 37zM-162 -764q0 -6 6 -6q35 0 107 67.5t133 168t61 178.5q0 20 -6 43q-301 -377 -301 -451zM74 -197l61 -36l27 34q33 39 41 52q-59 -27 -94 -36.5t-35 -13.5zM428 523.5q0 17.5 33 56t52 38.5t30.5 -12t11.5 -34.5t-30.5 -57.5t-53 -35t-33 13.5 t-10.5 31zM610 523.5q0 17.5 33 56t52.5 38.5t30.5 -12t11 -34.5t-30.5 -57.5t-53 -35t-33 13.5t-10.5 31z" />
<glyph unicode="&#x152;" horiz-adv-x="1746" d="M2 248q0 244 193.5 578.5t459.5 535.5q-129 10 -202 18q-18 6 -19 25q0 27 45 27q16 0 252 -19q197 123 367 123q76 0 111.5 -33t35.5 -86l-2 -28h72q51 0 141 4q358 113 608 112q90 0 90 -35q0 -125 -739 -133q-260 -90 -449.5 -207.5t-189.5 -192.5t195 -75 q119 0 356.5 34t306.5 34q109 0 109 -62q0 -98 -367 -260q-152 -68 -305 -141.5t-259.5 -166.5t-106.5 -187q0 -78 174 -78q96 0 291.5 29.5t336.5 29.5q252 0 252 -139q0 -16 -18 -16q-10 0 -45 18q-109 55 -238 55q-68 -4 -313.5 -31.5t-310.5 -27.5q-229 0 -246 113 q-164 -96 -309 -97q-276 0 -277 279zM104 279q0 -121 56.5 -190t173.5 -69t254 80q2 25 12 50q-158 25 -233.5 117.5t-75.5 243.5t96 335t265 324.5t356 172.5q-199 8 -293 15q-246 -184 -428.5 -512t-182.5 -567zM393 532q0 -287 228 -344q49 80 171.5 166t261 155 t270.5 130t219 110.5t87 77.5q0 16 -37 17q-475 -63 -686 -64q-283 0 -282 105q0 61 99 147t240.5 160t178.5 113q-31 10 -66 10q-176 0 -337.5 -132t-254 -317.5t-92.5 -333.5zM793 1409q172 -12 393 -18q4 25 4 49t-33 42.5t-76 18.5q-137 0 -288 -92zM1223 1329l20 -12 q37 12 55 20h-71z" />
<glyph unicode="&#x153;" horiz-adv-x="710" d="M12 64.5q0 87.5 146 232.5q-25 59 -25 124.5t47 106.5t109.5 41t105.5 -41t43 -116q0 -33 -12 -90q117 111 208 110.5t91 -59.5q0 -72 -112.5 -157t-245.5 -93q-2 -6 -2 -21q0 -68 70.5 -67.5t152.5 47.5q160 94 301 215l49 43q16 10 27.5 10t11.5 -14v-4 q-213 -176 -354.5 -264t-255.5 -88q-92 0 -93 92q-100 -94 -184 -95q-78 0 -78 87.5zM96 76q0 -41 52.5 -41t138.5 110q-60 31 -101 99q-90 -98 -90 -168zM204.5 450.5q0.5 -73.5 33.5 -146t84 -107.5q63 106 63 181t-37 110.5t-72 35.5q-72 0 -71.5 -73.5zM381 172 q119 14 189.5 64.5t70.5 97.5q0 43 -50 43t-114.5 -65.5t-95.5 -139.5z" />
<glyph unicode="&#x178;" horiz-adv-x="1452" d="M-76 -1192q0 121 428 743q-6 2 -20 3q-125 -18 -129 -19q-35 0 -35 21.5t55 27.5q74 16 199 70q127 182 334 459q-256 -170 -363 -170q-43 0 -64.5 23.5t-21.5 92t82 194.5t200 262t235.5 276.5t199.5 278.5t82 233q0 121 -172 120q-141 0 -334.5 -98t-341 -255 t-147.5 -298q0 -96 112 -96q82 0 172 46t158 109q141 131 178 203q18 33 40 33t22 -18q0 -41 -98.5 -142.5t-248 -193.5t-248 -92t-133 47t-34.5 112q0 115 148.5 278t370.5 285.5t406 122.5q231 0 232 -202q0 -100 -79 -237.5t-192.5 -270.5t-228.5 -264 q-270 -309 -270 -449q0 -45 57 -45q90 0 336 188q322 422 576.5 701.5t336.5 279.5q57 0 58 -43q0 -94 -237.5 -343t-538.5 -486q-229 -299 -416 -561q240 121 482.5 280.5t363.5 280.5q16 16 28 16q18 0 19 -24q0 -63 -360.5 -298t-598.5 -347l-49 -68q143 -55 143 -179 t-122.5 -286t-266 -269.5t-224.5 -107.5t-81 76zM14 -1174q0 -35 27 -34q57 0 177 99t221.5 244.5t101.5 248t-99 143.5q-428 -612 -428 -701zM1124 449q231 209 405.5 400t174.5 243q0 14 -16 14q-55 0 -564 -657zM1378 1393.5q0 17.5 33 56.5t52.5 39t30.5 -12.5t11 -35 t-30.5 -57t-53 -34.5t-33 13t-10.5 30.5zM1561 1393.5q0 17.5 32.5 56.5t52 39t31 -12.5t11.5 -35t-31 -57t-53.5 -34.5t-32.5 13t-10 30.5z" />
<glyph unicode="&#x2c6;" horiz-adv-x="671" d="M217 511q0 15 37 27.5t96.5 53.5t74.5 61.5t36.5 20.5t40.5 -19q6 -8 13 -56t36 -91q4 -8 4 -10q0 -10 -12.5 -10.5t-30.5 17t-36.5 56.5t-18.5 41q-49 -45 -228 -106q-12 0 -12 15z" />
<glyph unicode="&#x2dc;" horiz-adv-x="790" d="M201 655q0 10 9 10.5t15 -12.5q31 -49 101 -49l172 19q51 0 91 -22.5t40 -70.5q0 -12 -9.5 -12t-15.5 12q-27 41 -82 41l-192 -20q-45 0 -80 27.5t-49 76.5z" />
<glyph unicode="&#x2000;" horiz-adv-x="927" />
<glyph unicode="&#x2001;" horiz-adv-x="1855" />
<glyph unicode="&#x2002;" horiz-adv-x="927" />
<glyph unicode="&#x2003;" horiz-adv-x="1855" />
<glyph unicode="&#x2004;" horiz-adv-x="618" />
<glyph unicode="&#x2005;" horiz-adv-x="463" />
<glyph unicode="&#x2006;" horiz-adv-x="309" />
<glyph unicode="&#x2007;" horiz-adv-x="309" />
<glyph unicode="&#x2008;" horiz-adv-x="231" />
<glyph unicode="&#x2009;" horiz-adv-x="371" />
<glyph unicode="&#x200a;" horiz-adv-x="103" />
<glyph unicode="&#x2010;" horiz-adv-x="1087" d="M326 225q0 12 12 16.5t175 4.5t409 -13q30 -2 30 -45q0 -10 -18 -10l-578 4q-31 0 -30 43z" />
<glyph unicode="&#x2011;" horiz-adv-x="1087" d="M326 225q0 12 12 16.5t175 4.5t409 -13q30 -2 30 -45q0 -10 -18 -10l-578 4q-31 0 -30 43z" />
<glyph unicode="&#x2012;" horiz-adv-x="1087" d="M326 225q0 12 12 16.5t175 4.5t409 -13q30 -2 30 -45q0 -10 -18 -10l-578 4q-31 0 -30 43z" />
<glyph unicode="&#x2013;" horiz-adv-x="866" d="M291 207q0 39 22 39h418q14 -1 14 -13q0 -33 -22 -34q-178 -10 -296 -10.5t-127 4t-9 14.5z" />
<glyph unicode="&#x2014;" horiz-adv-x="1316" d="M291 208q0 11 10 24.5t35 13.5h833q27 -1 27 -13q0 -33 -45 -34q-354 -10 -573.5 -10.5t-239 0.5t-31.5 4q-16 4 -16 15z" />
<glyph unicode="&#x2018;" horiz-adv-x="684" d="M360 985q0 57 91.5 128t197.5 77q20 0 20.5 -6t-20 -11.5t-40 -11.5t-44 -16t-43.5 -23q-45 -29 -45 -59l2 -55q0 -25 -16 -44.5t-41 -19.5q-61 0 -62 41z" />
<glyph unicode="&#x2019;" horiz-adv-x="696" d="M522.5 950q-0.5 6 20 11.5t40 11.5t44 16t43.5 23q45 29 45 59l-2 55q0 25 16 44.5t41 19.5q61 0 61 -41q0 -57 -91 -128t-197 -77q-20 0 -20.5 6z" />
<glyph unicode="&#x201a;" horiz-adv-x="421" d="M-4 -143.5q0 6.5 20.5 11.5t40 11t44 16.5t42.5 22.5q45 29 45 59l-2 56q0 25 16.5 44t41.5 19q61 0 61 -41q0 -57 -91 -127.5t-198 -77.5q-20 0 -20 6.5z" />
<glyph unicode="&#x201c;" horiz-adv-x="876" d="M360 985q0 57 91.5 128t197.5 77q20 0 20.5 -6t-20 -11.5t-40 -11.5t-44 -16t-43.5 -23q-45 -29 -45 -59l2 -55q0 -25 -16 -44.5t-41 -19.5q-61 0 -62 41zM553 981q0 57 91 128t198 77q20 0 20 -6t-20.5 -11.5t-40 -11.5t-44 -16.5t-42.5 -22.5q-45 -29 -45 -59l2 -55 q0 -25 -16.5 -44.5t-41.5 -19.5q-61 0 -61 41z" />
<glyph unicode="&#x201d;" horiz-adv-x="888" d="M522.5 950q-0.5 6 20 11.5t40 11.5t44 16t43.5 23q45 29 45 59l-2 55q0 25 16 44.5t41 19.5q61 0 61 -41q0 -57 -91 -128t-197 -77q-20 0 -20.5 6zM715 946q0 6 20.5 11.5t40 11.5t44 16t42.5 23q45 29 45 59l-2 55q0 25 16.5 44.5t41.5 19.5q61 0 61 -41q0 -57 -91 -128 t-198 -77q-20 0 -20 6z" />
<glyph unicode="&#x201e;" horiz-adv-x="626" d="M-4 -143.5q0 6.5 20.5 11.5t40 11t44 16.5t42.5 22.5q45 29 45 59l-2 56q0 25 16.5 44t41.5 19q61 0 61 -41q0 -57 -91 -127.5t-198 -77.5q-20 0 -20 6.5zM201 -143.5q0 6.5 20.5 11.5t40 11t44 16.5t42.5 22.5q45 29 45 59l-2 56q0 25 16.5 44t41.5 19q61 0 61 -41 q0 -57 -91 -127.5t-198 -77.5q-20 0 -20 6.5z" />
<glyph unicode="&#x2022;" horiz-adv-x="876" d="M399 180q0 57 45 90t83 33t66 -23.5t28 -60.5t-49.5 -79t-87.5 -42t-59.5 20.5t-23.5 41.5z" />
<glyph unicode="&#x2026;" horiz-adv-x="1175" d="M205 -11.5q0 17.5 32.5 56.5t52 39t31 -12.5t11.5 -35t-31 -57t-53.5 -34.5t-32.5 13t-10 30.5zM553 -11.5q0 17.5 32.5 56.5t52 39t31 -12.5t11.5 -35t-31 -57t-53.5 -34.5t-32.5 13t-10 30.5zM883 -11.5q0 17.5 32.5 56.5t52 39t31 -12.5t11.5 -35t-31 -57t-53.5 -34.5 t-32.5 13t-10 30.5z" />
<glyph unicode="&#x202f;" horiz-adv-x="371" />
<glyph unicode="&#x2039;" horiz-adv-x="1024" d="M354 238q0 31 45 30q145 0 284.5 29t166.5 72q4 4 8 4t10 -10.5t6 -20.5q-2 -49 -155.5 -83t-199.5 -34t-46 -4q0 -8 29 -24q223 -115 254.5 -135.5t31.5 -47.5q0 -41 -28 -41q-8 0 -8 4q0 33 -100.5 85.5t-200 100.5t-97.5 75z" />
<glyph unicode="&#x203a;" horiz-adv-x="1024" d="M281 -14q2 49 165.5 80.5t213 31.5t49.5 4q0 8 -29 25q-168 88 -207 112t-39 44q0 55 31 55q8 0 8 -4q0 -41 177 -128t177 -119t-45 -32q-152 0 -301 -27.5t-176 -68.5q-4 -4 -8 -4t-10 10t-6 21z" />
<glyph unicode="&#x205f;" horiz-adv-x="463" />
<glyph unicode="&#x20ac;" horiz-adv-x="933" d="M-53 580q0 12 12 16t59 4h162q16 31 53 92h-176q-31 0 -30 43q0 12 12 16.5t59 4.5h176q63 96 119 164q-186 -61 -354 -80q-25 4 -25 26.5t23 24.5q164 2 424 113q207 250 425 415.5t365 165.5q68 0 68 -41q0 -86 -235.5 -265t-540.5 -304q-78 -104 -152 -223l232 -9 q31 -2 30 -45q0 -10 -18 -10q-131 2 -283 2q-18 -31 -51 -92l242 -10q30 -2 30 -45q0 -10 -18 -11q-139 2 -287 3q-109 -223 -108 -369q0 -203 219 -203q117 0 258 74t233 145q20 14 36 14.5t16 -16.5q0 -10 -9 -18q-96 -70 -170.5 -115t-195.5 -89t-232 -44 q-285 0 -284 242q0 156 114 381h-168q-31 0 -30 43zM627 1081q231 117 412.5 248t181.5 180q0 19 -33 19q-94 0 -248 -125t-313 -322z" />
<glyph unicode="&#x2122;" horiz-adv-x="1304" d="M346 448.5q0 18.5 14.5 40t24.5 21.5t10 -10l-4 -15q0 -4 4 -4q39 0 133 158q104 180 207 283q-57 -8 -155 -9h-117l-17 -8q-2 0 -4 2q-43 16 -43 37q0 10 9 10h4q131 -20 213 -20t133 8q106 92 205 92q41 0 41 -26q0 -51 -228 -82q-63 -63 -146 -194.5t-146.5 -216.5 t-108.5 -85q-29 0 -29 18.5zM633 641q0 66 102.5 165t198.5 99q57 0 57 -65q0 -43 -18 -88q70 51 102.5 51t32.5 -25q0 -31 -49 -111.5t-98 -146.5l-50 -63v-4q29 18 99 84q170 160 219 159q27 0 26 -14q0 -23 -86 -134.5t-86 -138t19 -26.5q25 0 62.5 23.5t56.5 44.5 q12 0 12 -5q0 -14 -60.5 -52t-98.5 -38t-38 29q0 49 79 150.5t85 123.5q0 6 -13 6.5t-100.5 -75.5t-132.5 -120t-67 -67q-39 -39 -45 -38h-4q-18 8 -19 12q0 14 47 76q209 256 209 313q0 12 -25.5 12t-88.5 -55q-63 -129 -153.5 -243.5t-139.5 -114.5q-18 0 -19 14 q0 41 89 151.5t188 192.5q0 2 1 2t17.5 40t16.5 71q0 51 -52.5 51t-147.5 -99.5t-95 -146.5q0 -16 28.5 -16t73.5 38.5t61.5 64.5t21.5 26t5 -6q0 -29 -64.5 -85.5t-111.5 -56.5t-47 35zM676 391q0 -8 8 -8q20 0 97 100.5t130 200.5q-84 -76 -159.5 -170t-75.5 -123z M799 946q166 27 166 60q-1 8 -19 8q-70 0 -147 -68z" />
<glyph unicode="&#x25fc;" horiz-adv-x="460" d="M0 0v461h461v-461h-461z" />
<glyph unicode="&#xfb01;" horiz-adv-x="917" d="M-391 -864q0 98 530 850q-31 -6 -55 -6q-119 0 -180.5 31.5t-61.5 74.5t47.5 72.5t122.5 29.5q147 0 219 -71l463 633q0 4 -6 4q-178 -188 -313 -317.5t-180 -164.5l-45 -34l-9 30q156 127 289 262.5t188 206.5l56 72q141 178 174 215q51 55 79.5 55t28.5 -29.5 t-110.5 -191.5t-264 -375t-196.5 -278l-102 -146q197 76 450 242q82 111 116 111t34 -27t-94.5 -145.5t-94.5 -169.5q0 -29 21.5 -29t107.5 57q154 102 283 207l45 37q16 10 25.5 10t9.5 -12v-6q8 0 -110 -90t-252 -180.5t-169 -90.5q-59 1 -59 50q0 61 100 221 q-49 -35 -175 -102.5t-238 -110.5q14 -41 14 -94q0 -119 -64.5 -269.5t-158.5 -277.5t-206 -214t-200 -87q-59 0 -59 47zM-289 -819q0 -18 25 -19q92 0 207.5 128t196.5 309.5t81 324.5q0 18 -4 47q-506 -719 -506 -790zM-106 111q0 -35 55 -66t112.5 -31t104.5 11l27 34 q-53 100 -197 101q-102 0 -102 -49zM897 523.5q0 17.5 33 56t52 38.5t30.5 -12t11.5 -34.5t-30.5 -57.5t-53 -35t-33 13.5t-10.5 31z" />
<glyph unicode="&#xfb02;" horiz-adv-x="1028" d="M-391 -864q0 98 528 850q-29 -6 -53 -6q-119 0 -180.5 31.5t-61.5 74.5t47.5 72.5t122.5 29.5q147 0 219 -71l463 633q0 4 -6 4q-178 -188 -313 -317.5t-180 -164.5l-45 -34l-9 30q156 127 289 262.5t188 206.5l56 72q141 178 174 215q51 55 79.5 55t28.5 -29.5 t-110.5 -191.5t-264 -375t-196.5 -278l-109 -152q178 63 431 236q86 176 249.5 387t333.5 360.5t262 149.5q51 0 52 -45q0 -111 -242 -355.5t-559 -466.5q-74 -143 -74 -215.5t53.5 -72.5t139.5 61q145 86 282 205l51 43q14 10 26.5 10t12.5 -14v-4q-213 -176 -323 -246 q-143 -109 -242 -109q-86 0 -86 103q0 66 41 160q-221 -145 -399 -215q12 -41 12 -88q0 -119 -64.5 -269.5t-158.5 -277.5t-206 -214t-200 -87q-59 0 -59 47zM-289 -819q0 -18 25 -19q92 0 207.5 128t196.5 309.5t81 324.5q0 18 -4 47q-506 -719 -506 -790zM-106 111 q0 -35 55 -66t116.5 -31t100.5 9q16 25 27 36q-53 100 -197 101q-102 0 -102 -49zM838 383q268 203 479 424t211 291q0 22 -27 22q-84 0 -303 -245.5t-360 -491.5z" />
</font>
</defs>
</svg>
