<?xml version="1.0" standalone="no"?>
<!DOCTYPE svg PUBLIC "-//W3C//DTD SVG 1.1//EN" "http://www.w3.org/Graphics/SVG/1.1/DTD/svg11.dtd" >
<svg xmlns="http://www.w3.org/2000/svg" xmlns:xlink="http://www.w3.org/1999/xlink" version="1.1">
<metadata></metadata>
<defs>
<font id="muskregular" horiz-adv-x="501" >
<font-face units-per-em="2048" ascent="1524" descent="-524" />
<missing-glyph horiz-adv-x="491" />
<glyph unicode="&#xfb01;" horiz-adv-x="1126" d="M61 852v51h136v234q0 156 101.5 234.5t268.5 78.5q81 0 157 -27.5t127 -68t81.5 -85.5t30.5 -81q0 -35 -25.5 -60.5t-60.5 -25.5t-60.5 25.5t-25.5 60.5q0 20 -6.5 45.5t-23.5 57t-41.5 57t-65.5 42.5t-91 17q-32 0 -57.5 -3t-61 -18.5t-59 -42t-40.5 -78.5t-17 -124 v-238h217v-51h-217l2 -852h-133v852h-136zM793 821q1 9 8 15q107 84 131 84q8 0 8 -7v-913h-133l-4 719q0 24 -3 47.5t-5.5 34.5t-1.5 20z" />
<glyph unicode="&#xfb02;" horiz-adv-x="1107" d="M61 852v51h136v234q0 137 105 225t284 88q159 0 255.5 -65t96.5 -146v-1239h-133l-6 1073q0 7 -0.5 34.5t-1 48.5t-5.5 54t-13 57.5t-24 52t-38 45.5t-57 30t-78 12q-23 0 -47.5 -3.5t-64 -19t-69 -42t-51.5 -79t-22 -122.5v-238h217v-51h-217q0 -142 1 -426t1 -426h-133 v852h-136z" />
<glyph horiz-adv-x="0" />
<glyph horiz-adv-x="0" />
<glyph unicode="&#xd;" horiz-adv-x="512" />
<glyph unicode=" "  horiz-adv-x="491" />
<glyph unicode="&#x09;" horiz-adv-x="491" />
<glyph unicode="&#xa0;" horiz-adv-x="491" />
<glyph unicode="!" horiz-adv-x="458" d="M143 80q0 35 25.5 60.5t60.5 25.5t60.5 -25.5t25.5 -60.5t-25.5 -60.5t-60.5 -25.5t-60.5 25.5t-25.5 60.5zM145 1411h164q0 -176 -10.5 -434.5t-21.5 -428.5l-11 -171h-76q-5 71 -13 188t-20.5 393.5t-11.5 452.5z" />
<glyph unicode="&#x22;" horiz-adv-x="548" d="M82 1092v403h135v-86l-63 -317h-72zM332 1092v403h135v-86l-64 -317h-71z" />
<glyph unicode="#" horiz-adv-x="1259" d="M143 508h166l88 405h-149v66h164l96 434h137l-96 -434h336l96 434h137l-96 -434h135v-66h-149l-88 -405h135v-66h-150l-96 -442h-137l96 442h-336l-96 -442h-137l96 442h-150zM446 508h336l88 405h-335z" />
<glyph unicode="$" horiz-adv-x="1261" d="M143 285q0 65 41 114q17 23 44 41.5t51 18.5q5 -2 8 -11.5t4 -27.5t1 -33t-0.5 -42t-0.5 -40q0 -107 78 -185.5t204 -90.5v641q-51 19 -80.5 31t-79.5 35.5t-80.5 44t-68.5 51.5t-59 63t-36 74.5t-15 89.5q0 153 110 257t309 116v108h95v-108q100 -5 176.5 -33 t119.5 -70.5t64 -90t21 -99.5q0 -45 -19.5 -82.5t-40.5 -54.5t-33 -17q-28 0 -28 125q0 104 -68 184.5t-192 94.5v-603q7 -2 20 -7q172 -63 250 -113q180 -114 180 -304q0 -73 -21.5 -134.5t-70.5 -116t-140 -88t-218 -39.5v-95h-95v95q-202 7 -316 87.5t-114 213.5z M293 1112q0 -52 16 -94.5t38.5 -70t63.5 -52.5t74 -39.5t88 -34.5v568q-138 -13 -209 -91t-71 -186zM668 29q135 17 220 102.5t85 200.5q0 52 -17 94.5t-42.5 72.5t-68 56.5t-82 44t-95.5 37.5v-608z" />
<glyph unicode="%" horiz-adv-x="1660" d="M143 1047q0 47 8.5 94.5t30 96.5t52.5 86.5t81 61t111 23.5q76 0 133 -35t88 -91.5t45.5 -116t14.5 -119.5q0 -59 -14.5 -118.5t-45.5 -116.5t-88 -92.5t-133 -35.5t-133.5 35.5t-88.5 92.5t-46 116.5t-15 118.5zM276 1044q0 -43 8 -93t24.5 -100.5t47.5 -84t70 -33.5 q38 0 69 33.5t48 84t26 101t9 92.5q0 43 -9.5 95t-27 102.5t-48 84.5t-67.5 34t-67.5 -34t-47.5 -85t-26 -102.5t-9 -94.5zM516 0l522 1413h136l-527 -1413h-131zM954 358q0 60 15 119.5t46 116t88.5 92t133.5 35.5t133 -35.5t88 -92t45.5 -116t14.5 -119.5 q0 -59 -14.5 -118.5t-45.5 -116t-88 -92t-133 -35.5t-133.5 35.5t-88.5 92t-46 116t-15 118.5zM1087 356q0 -43 8 -93t24.5 -100.5t47.5 -84t70 -33.5q38 0 69 33.5t48 84t26 101t9 92.5q0 43 -9.5 95t-27 102.5t-48 84.5t-67.5 34t-67.5 -34t-47.5 -85t-26 -102.5t-9 -94.5 z" />
<glyph unicode="&#x26;" horiz-adv-x="1593" d="M143 399q0 70 25 130.5t63 100.5t84 70t87 44t73 16q-1 1 -15.5 14t-24 22.5l-28.5 28.5t-33 35.5t-32 39t-30.5 45t-24 46.5t-17.5 49.5t-6 49.5q0 152 116.5 244.5t293.5 92.5q186 0 302 -96t116 -235q0 -95 -47 -169.5t-113.5 -110.5t-134.5 -36q-14 0 -20.5 4.5t-6 9 t3.5 5.5q69 33 95 54q96 77 96 247q0 116 -77.5 199t-211.5 83q-72 0 -126 -20t-83 -48.5t-46.5 -66.5t-22.5 -66.5t-5 -56.5q0 -48 21.5 -102t48 -94.5t72 -90.5t72.5 -75.5t69 -63.5l430 -389q39 109 39 246q0 22 45.5 44t73.5 22q10 0 10 -5q0 -224 -92 -376l268 -240 h-152l-176 162q-162 -170 -454 -170q-231 0 -378 113t-147 294zM276 377q0 -82 37.5 -148t98 -106.5t132 -62t144.5 -21.5q254 0 373 182l-531 494q-10 0 -34 -6.5t-63.5 -29t-73 -57t-58.5 -99t-25 -146.5z" />
<glyph unicode="'" horiz-adv-x="299" d="M82 1092v403h135v-86l-63 -317h-72z" />
<glyph unicode="(" horiz-adv-x="604" d="M174 246.5q-60 354.5 3 703.5t241 684h104q-525 -1056 0 -2070h-104q-184 328 -244 682.5z" />
<glyph unicode=")" horiz-adv-x="604" d="M45 -436q495 1013 0 2070h105q178 -335 241 -684t3 -703.5t-244 -682.5h-105z" />
<glyph unicode="*" horiz-adv-x="794" d="M82 1268l33 90l243 -101l-8 269h96l-8 -269l242 101l33 -90l-248 -88l166 -209l-78 -53l-156 227l-157 -227l-76 53l164 211z" />
<glyph unicode="+" horiz-adv-x="1132" d="M143 547v80h363v381h121v-381h362v-80h-362v-387h-121v387h-363z" />
<glyph unicode="," horiz-adv-x="380" d="M102 -182v403h136v-86l-64 -317h-72z" />
<glyph unicode="-" horiz-adv-x="948" d="M143 547v80h662v-80h-662z" />
<glyph unicode="." horiz-adv-x="458" d="M143 80q0 35 25.5 60.5t60.5 25.5t60.5 -25.5t25.5 -60.5t-25.5 -60.5t-60.5 -25.5t-60.5 25.5t-25.5 60.5z" />
<glyph unicode="/" horiz-adv-x="784" d="M61 0l588 1415h135l-591 -1415h-132z" />
<glyph unicode="0" horiz-adv-x="1308" d="M123 707q0 77 11.5 156t35 162.5t66 155.5t99.5 129.5t140 90.5t182 33q117 0 210.5 -48t151.5 -123t97 -174t54.5 -193.5t15.5 -188.5q0 -66 -8 -133t-26.5 -139.5t-46 -137t-70 -123t-95.5 -100.5t-126 -67t-157 -25q-99 0 -182 33t-140 90t-99.5 128.5t-66 155 t-35 162t-11.5 156.5zM266 707q0 -197 46.5 -351t136 -242.5t208.5 -88.5q117 0 205 88.5t134 242.5t46 351q0 196 -46 350.5t-134.5 244t-204.5 89.5q-119 0 -209 -89.5t-136 -244t-46 -350.5z" />
<glyph unicode="1" horiz-adv-x="690" d="M98 1208l330 211q2 2 6 2q10 0 10 -8v-1413h-133l-2 1212l-190 -73z" />
<glyph unicode="2" horiz-adv-x="1122" d="M61 0v74q61 56 155.5 139.5t148.5 131.5t128 118.5t116 118.5t90.5 112.5t73 119t41.5 119.5t17 132q0 317 -307 317q-45 0 -86.5 -16.5t-73 -40t-62 -47.5t-65 -40.5t-69.5 -16.5q-32 0 -39 23.5t5 48t28 28.5q196 106 364 106q206 0 320.5 -108t114.5 -283 q0 -83 -35 -169.5t-95 -168.5t-159 -183.5t-206.5 -199.5t-258.5 -232q-25 -21 -37 -32q189 1 384.5 24t227.5 23q81 0 134 -13t69 -34q17 -25 11.5 -38t-25.5 -13h-910z" />
<glyph unicode="3" horiz-adv-x="1200" d="M128 196.5q9 32.5 30 32.5q10 0 16 -4q9 -5 44.5 -38t75 -65t109 -59.5t144.5 -27.5q393 0 393 346q0 76 -22 136t-57 97t-82 61.5t-94 34t-97 9.5l-215 -2v61h215q60 0 112.5 16t97.5 49.5t71 92.5t26 137q0 146 -82 227.5t-254 81.5q-54 0 -112.5 -28t-97.5 -61 t-75.5 -65.5t-48.5 -37.5q-8 -4 -10 -4q-20 0 -31 32.5t-1 70.5t42 50q191 88 346 88q116 0 207 -30t145 -81t81.5 -114t27.5 -133q0 -115 -59.5 -199t-167.5 -131q272 -109 272 -364q0 -84 -31 -153.5t-93 -124t-166.5 -85t-241.5 -30.5q-84 0 -173.5 20.5t-134.5 38.5 t-69 31q-28 15 -38.5 53.5t-1.5 71z" />
<glyph unicode="4" horiz-adv-x="1222" d="M61 365v73l725 973h123v-973h191v-73h-191v-365h-135v365h-713zM170 438h604v805z" />
<glyph unicode="5" horiz-adv-x="1163" d="M128 126.5q-8 37.5 2.5 70t31.5 32.5h4q9 -3 32.5 -25.5t55.5 -51t73.5 -57t100 -47.5t121.5 -19q78 0 139.5 20.5t101 55t65.5 83.5t37 102t11 113q0 158 -107 258.5t-280 100.5q-68 0 -156.5 -10t-143.5 -20l-54 -11l53 690h741q21 0 27.5 -13t-10.5 -38 q-31 -47 -191 -47q-44 0 -177 22t-265 25l-37 -555q182 33 295 33q56 0 115 -14.5t118 -47.5t105 -80t75 -119t29 -157q0 -95 -27.5 -173t-84 -138t-150.5 -93.5t-219 -33.5q-122 0 -235 33.5t-162 60.5q-26 13 -34 50.5z" />
<glyph unicode="6" horiz-adv-x="1183" d="M123 612q0 177 34 318.5t89 232t130 150.5t152 85t160 25q148 0 236 -45q39 -21 19 -46q-20 -23 -62 -23q-24 0 -43 8q-3 1 -26 13t-45.5 22t-58 19t-67.5 9q-179 0 -283 -204.5t-104 -550.5q14 37 35 73.5t56.5 77.5t77.5 71.5t102 50.5t128 20q100 0 179 -36.5 t128.5 -99.5t75 -145.5t25.5 -177.5q0 -133 -55 -241.5t-160 -173t-242 -64.5q-122 0 -215 46t-150.5 131t-86.5 199.5t-29 255.5zM274 467q0 -206 91 -323t229 -117q168 0 250 109.5t82 336.5q0 175 -88 276t-236 101q-78 0 -155 -56.5t-125 -146t-48 -180.5z" />
<glyph unicode="7" horiz-adv-x="1050" d="M43.5 1400q5.5 13 26.5 13h917q29 -2 19 -33q-89 -136 -156 -252.5t-132.5 -258t-108 -273.5t-68.5 -286t-27 -310h-133q-1 156 31.5 315t83 292.5t126.5 276t146.5 249.5t159.5 229h-47q-155 0 -284.5 -12t-213 -23.5t-125.5 -11.5q-81 0 -134 13t-69 34 q-17 25 -11.5 38z" />
<glyph unicode="8" horiz-adv-x="1126" d="M82 395q0 128 61.5 228t147.5 141q-164 110 -164 303q0 170 118.5 268.5t325.5 98.5q103 0 183 -26t126 -65.5t76 -92t40 -98.5t10 -93q0 -151 -71 -242.5t-157 -103.5q58 -26 102.5 -55t83.5 -70.5t59.5 -98.5t20.5 -127q0 -175 -117 -271.5t-362 -96.5 q-216 0 -349.5 116t-133.5 285zM215 412q0 -111 52.5 -197.5t131.5 -130t166 -43.5q157 0 253.5 74.5t96.5 228.5q0 50 -19 93t-50.5 74t-78.5 58.5t-94.5 46t-107.5 35.5q-141 38 -231 88q-119 -129 -119 -327zM262 1092q0 -60 26 -110.5t74 -87.5t101.5 -63t122.5 -49 q102 -33 168 -61q2 3 19.5 27.5t31.5 48.5t30.5 59.5t26.5 79t10 88.5q0 93 -31 173t-101 134.5t-169 54.5q-81 0 -142.5 -25t-97 -68t-52.5 -93.5t-17 -107.5z" />
<glyph unicode="9" horiz-adv-x="1183" d="M123 944q0 133 55 241.5t160 173t242 64.5q122 0 215 -46t150.5 -131t86.5 -199.5t29 -255.5q0 -177 -34 -318.5t-89 -232t-130 -150.5t-152 -85t-160 -25q-148 0 -236 45q-39 21 -19 46q19 23 62 23q24 0 43 -8q3 -1 26 -13t45.5 -22t58 -19t67.5 -9q179 0 283 204.5 t104 550.5q-14 -37 -35 -73.5t-56.5 -77.5t-78 -71.5t-102.5 -50.5t-128 -20q-132 0 -226 63.5t-137.5 165.5t-43.5 230zM258 930q0 -175 88 -276t236 -101q78 0 154.5 56.5t124.5 146t48 180.5q0 206 -90.5 323t-228.5 117q-168 0 -250 -109.5t-82 -336.5z" />
<glyph unicode=":" horiz-adv-x="458" d="M143 78q0 35 25.5 60.5t60.5 25.5t60.5 -25.5t25.5 -60.5t-25.5 -60.5t-60.5 -25.5t-60.5 25.5t-25.5 60.5zM143 834q0 35 25.5 60.5t60.5 25.5t60.5 -25.5t25.5 -60.5t-25.5 -60.5t-60.5 -25.5t-60.5 25.5t-25.5 60.5z" />
<glyph unicode=";" horiz-adv-x="458" d="M143 834q0 35 25.5 60.5t60.5 25.5t60.5 -25.5t25.5 -60.5t-25.5 -60.5t-60.5 -25.5t-60.5 25.5t-25.5 60.5zM168 -182v403h135v-86l-63 -317h-72z" />
<glyph unicode="&#x3c;" horiz-adv-x="1042" d="M143 641v55l756 375v-127l-602 -280l602 -271v-129z" />
<glyph unicode="=" horiz-adv-x="1030" d="M184 379v80h662v-80h-662zM184 696v80h662v-80h-662z" />
<glyph unicode="&#x3e;" horiz-adv-x="1042" d="M143 264v129l602 271l-602 280v127l756 -375v-55z" />
<glyph unicode="?" horiz-adv-x="1097" d="M146 1220q-7 34 2.5 71t31.5 44q199 92 344 92q206 0 318 -92t112 -245q0 -63 -24 -121t-62.5 -102.5t-85 -86t-93 -80t-85 -76t-62.5 -81.5t-24 -90v-154h-129v127q0 59 23.5 115t60.5 101t82 88.5t90 85t82 83t60.5 91t23.5 100.5q0 128 -78.5 209t-202.5 81 q-55 0 -116 -28t-103 -61t-81 -65.5t-50 -37.5q-2 -2 -8 -2q-19 0 -26 34zM367 78q0 35 25.5 60.5t60.5 25.5t60.5 -25.5t25.5 -60.5t-25.5 -60.5t-60.5 -25.5t-60.5 25.5t-25.5 60.5z" />
<glyph unicode="@" horiz-adv-x="1740" d="M143 465q0 209 104.5 386t284.5 280.5t392 103.5q192 0 345 -85.5t240.5 -243.5t87.5 -361q0 -108 -24.5 -195.5t-63.5 -142t-90.5 -91t-102 -51t-102.5 -14.5q-46 0 -82.5 12t-58 31t-37 43.5t-19.5 49.5t-5.5 48t4.5 39q-52 -78 -126.5 -124t-162.5 -46 q-77 0 -127.5 37t-69.5 96.5t-18.5 126.5t18.5 134q41 160 176 279.5t289 119.5q177 0 271 -109l-111 -385q-14 -54 -19.5 -104.5t-1 -97.5t29 -75t67.5 -28q44 0 90 33t84.5 89.5t63 143t24.5 183.5q0 120 -40 234.5t-111.5 205.5t-181 147t-236.5 56q-106 0 -206.5 -41 t-179.5 -112.5t-139 -163t-92.5 -197.5t-32.5 -211q0 -107 32 -214.5t92 -199t138.5 -163t177.5 -112t204 -40.5q54 0 103 14.5t83.5 35t62.5 41t52.5 35t42.5 13.5q53 -2 94 -25q27 -15 12 -26q-6 -5 -17.5 -14t-52.5 -32t-89 -40.5t-126.5 -32t-164.5 -14.5 q-158 0 -301.5 61t-247 165t-165 247t-61.5 301zM638.5 276q3.5 -55 30 -90.5t74.5 -35.5q83 0 177 108.5t145 280.5l61 211q-15 40 -54.5 68.5t-94.5 29.5q-42 0 -84 -23.5t-76 -60.5t-64 -84.5t-51 -93.5t-34 -88q-17 -52 -25 -109.5t-4.5 -112.5z" />
<glyph unicode="A" horiz-adv-x="1284" d="M21.5 11q-0.5 6 3.5 16l559 1384h127l553 -1411h-138l-174 451h-643l-123 -351q-14 -44 -61 -72t-94 -28q-3 0 -6 2.5t-3.5 8.5zM336 522h590l-299 774z" />
<glyph unicode="B" horiz-adv-x="1251" d="M184 1415l434 19q218 0 336.5 -97t118.5 -262q0 -76 -25 -136t-71 -100t-95 -65t-112 -45q193 -22 295 -106t102 -254q0 -387 -522 -387q-90 0 -459 18zM319 70q60 -11 86.5 -15.5t88.5 -9t141 -4.5q56 0 107 9t104 33t91 60.5t62.5 98t24.5 139.5q0 49 -10.5 90t-27 71 t-45 53.5t-55.5 39t-67.5 26.5t-71.5 16.5t-78.5 8.5t-77.5 3.5t-77 0.5h-195v-620zM319 743h156q49 0 94 5t99.5 17t99 36t82.5 59t59 90.5t21 124.5q0 76 -28 138t-73.5 100t-99.5 58t-111 20q-177 0 -299 -23v-625z" />
<glyph unicode="C" horiz-adv-x="1366" d="M92 707q0 78 13.5 156.5t41.5 162t78.5 155.5t118.5 129.5t167 90.5t218 33q128 0 228.5 -38.5t164.5 -97.5q94 -84 127 -155q11 -29 11 -60q0 -13 -2 -26q-6 -46 -23.5 -82.5t-32.5 -36.5q-24 0 -49 46.5t-54.5 120t-51.5 107.5q-114 179 -318 179q-117 0 -213.5 -63 t-156 -164t-91.5 -219.5t-32 -237.5q0 -120 32 -238.5t91.5 -218.5t156 -162.5t213.5 -62.5q76 0 142.5 25.5t117.5 72t87.5 93.5t70.5 106q8 12 41.5 24t60.5 12q22 0 29 -7t0 -27q-35 -74 -83 -133.5t-114 -107.5t-156 -74.5t-196 -26.5q-103 0 -191 25t-152 67 t-115 100.5t-84 123t-55 137t-31 139.5t-9 133z" />
<glyph unicode="D" horiz-adv-x="1421" d="M166 1413l491 21q122 0 225.5 -33t175 -90.5t125.5 -129.5t85 -155.5t46 -162.5t15 -156q0 -67 -9 -133.5t-32 -139t-58 -137t-90 -123t-124.5 -100.5t-166 -67t-210.5 -25q-127 0 -213 15.5t-258 68.5zM301 123q71 -42 169.5 -70t191.5 -28q102 0 189.5 41t147.5 109.5 t103.5 157t63.5 184t20 190.5q0 94 -22 190t-67 184.5t-106.5 157.5t-148.5 110.5t-185 41.5q-211 0 -356 -56v-1212z" />
<glyph unicode="E" horiz-adv-x="1185" d="M182 1413h862q30 0 30 -16q0 -10 -13 -27q-42 -55 -205 -55q-44 0 -113 11.5t-178.5 23t-247.5 12.5v-637h576v-72h-576v-602q151 0 270 11.5t193.5 23.5t116.5 12q81 0 134 -13t69 -34q17 -25 11.5 -38t-26.5 -13h-901z" />
<glyph unicode="F" horiz-adv-x="1021" d="M182 1413h862q30 0 30 -16q0 -10 -13 -27q-42 -55 -205 -55q-42 0 -109.5 11.5t-175.5 23.5t-249 12v-637h557v-72h-557v-653h-138z" />
<glyph unicode="G" horiz-adv-x="1404" d="M92 707q0 78 13.5 156.5t41.5 162t78.5 155.5t118.5 129.5t167 90.5t218 33q83 0 152.5 -11t136.5 -38t119.5 -77.5t85.5 -123.5q12 -32 12 -65q0 -9 -1 -19q-4 -43 -19.5 -77t-30.5 -34q-21 0 -48 45.5t-61.5 117.5t-56.5 105q-54 79 -126.5 106.5t-162.5 27.5 q-117 0 -213.5 -63t-156 -164t-91.5 -219.5t-32 -237.5q0 -120 32 -238.5t91.5 -218.5t156 -162.5t213.5 -62.5q123 0 242 58t176 146v363h-399v72h524v-451q-96 -117 -223 -174t-320 -57q-103 0 -191 25t-152 67t-115 100.5t-84 123t-55 137t-31 139.5t-9 133z" />
<glyph unicode="H" horiz-adv-x="1372" d="M182 1413h135v-688h736v688h135v-1413h-133l-2 653h-736v-653h-133z" />
<glyph unicode="I" d="M182 1413h135v-1413h-133z" />
<glyph unicode="J" horiz-adv-x="747" d="M14 8v64q100 -19 166 -19q67 0 116.5 16t78 45.5t46 65t23.5 82.5t8 88v53v39q-1 35 -1 52l-2 919h135v-960q0 -93 -8.5 -161t-31.5 -128.5t-62.5 -97.5t-103 -58.5t-151.5 -21.5q-84 0 -213 22z" />
<glyph unicode="K" horiz-adv-x="1224" d="M172 1413h137v-850q193 213 399 458t298 390q0 2 4 2q13 0 30 -17.5t21 -43.5q1 -5 1 -10q0 -34 -30 -84q-34 -57 -100 -123q-105 -105 -375 -408h2q89 -80 210 -225.5t231 -278.5t176 -190q18 -14 -2 -28q-16 -11 -44 -11q-73 0 -124.5 22.5t-92.5 79.5 q-23 30 -96.5 149.5t-156.5 238t-154 186.5q-138 -155 -197 -228v-442h-133z" />
<glyph unicode="L" horiz-adv-x="1024" d="M160 1413h135v-1362q165 3 299.5 25t171.5 22q82 0 128.5 -16t74.5 -51q15 -22 12.5 -26.5t-18.5 -4.5h-9h-792z" />
<glyph unicode="M" horiz-adv-x="1738" d="M145 82l142 1331h139l444 -1286l439 1286h141l145 -1413h-125l-122 1210l-420 -1210h-137l-426 1235l-97 -1067q-10 -64 -42.5 -115t-71.5 -51q-11 0 -11 39q0 17 2 41z" />
<glyph unicode="N" horiz-adv-x="1380" d="M182 1413h152l760 -1257l-2 1257h104v-1413h-145l-764 1255l20 -1073q0 -65 -37 -123.5t-71 -58.5q-10 0 -12.5 7t-2.5 26z" />
<glyph unicode="O" horiz-adv-x="1452" d="M92 707q0 78 13.5 156.5t41.5 162t78.5 155.5t118.5 129.5t167 90.5t218 33q140 0 252 -48t181 -123t115.5 -174t64.5 -193.5t18 -188.5q0 -78 -13.5 -156.5t-41.5 -162t-78 -155t-117.5 -128.5t-165.5 -90t-215 -33q-103 0 -191 25t-152 67t-115 100.5t-84 123t-55 137 t-31 139.5t-9 133zM236 707q0 -120 32 -238.5t91.5 -218.5t156 -162.5t213.5 -62.5q115 0 210 62.5t154.5 162.5t91.5 219t32 238t-32 238t-91.5 219.5t-154.5 163.5t-210 63q-117 0 -213.5 -63t-156 -164t-91.5 -219.5t-32 -237.5z" />
<glyph unicode="P" horiz-adv-x="1169" d="M182 1415l434 19q258 0 380 -108.5t122 -352.5q0 -106 -35 -186.5t-92.5 -129t-142.5 -79t-173 -41.5t-196 -11q-111 0 -162 6v-532h-133zM317 600q79 -6 166 -6q111 0 196.5 18.5t154 60t105 117.5t36.5 183q0 110 -29.5 192.5t-80.5 130.5t-113.5 71.5t-135.5 23.5 q-177 0 -299 -23v-768z" />
<glyph unicode="Q" horiz-adv-x="1464" d="M92 707q0 78 13.5 156.5t41.5 162t78.5 155.5t118.5 129.5t167 90.5t218 33q140 0 252 -48t181 -123t115.5 -174t64.5 -193.5t18 -188.5q0 -79 -13 -159t-44.5 -165.5t-79 -156.5t-123 -129t-170.5 -87q45 -8 122.5 -27t168.5 -36.5t206 -28.5q20 -2 14 -21.5t-34 -35.5 q-75 -43 -139 -43q-50 0 -101 22q-27 12 -77 41t-86 46.5t-110.5 34.5t-170.5 20h-4q-101 1 -187.5 26.5t-149.5 68t-113.5 101t-83 123t-54 136t-30.5 138t-9 132.5zM236 707q0 -120 32 -238.5t91.5 -218.5t156 -162.5t213.5 -62.5q115 0 210 62.5t154.5 162.5t91.5 219 t32 238t-32 238t-91.5 219.5t-154.5 163.5t-210 63q-117 0 -213.5 -63t-156 -164t-91.5 -219.5t-32 -237.5z" />
<glyph unicode="R" horiz-adv-x="1253" d="M182 1415l434 19q253 0 377.5 -114.5t124.5 -346.5q0 -179 -103 -281.5t-280 -140.5q76 -74 168 -180t170.5 -195.5t140.5 -142.5q18 -14 -1 -28q-15 -11 -44 -11q-73 0 -124.5 22.5t-92.5 79.5q-23 31 -73.5 115.5t-110.5 170.5t-127 153q-79 -9 -180 -9q-79 0 -144 6 v-532h-133zM317 600q65 -6 144 -6q514 0 514 379q0 103 -29.5 184.5t-80.5 131.5t-114.5 76t-134.5 26q-177 0 -299 -23v-768z" />
<glyph unicode="S" horiz-adv-x="1241" d="M133 285q0 65 41 114q17 23 43.5 41.5t50.5 18.5q5 -2 8 -11t4 -28t1.5 -33t0 -42.5t-0.5 -39.5q0 -116 90 -197t233 -81q157 0 258 89t101 216q0 48 -12.5 87t-38.5 69t-54.5 52.5t-73.5 43.5t-81 35t-90 33l-9 3q-162 62 -215 88q-210 105 -241 259q-5 28 -5 57 q0 163 123 269t344 106q113 0 199 -26t134 -70t71.5 -94t23.5 -105q0 -45 -19.5 -82.5t-40 -54.5t-32.5 -17q-28 0 -28 125q0 115 -81 198t-227 83q-159 0 -243 -80.5t-84 -198.5q0 -30 5.5 -57t13 -48t23.5 -41t28.5 -33.5t36.5 -29t39.5 -24.5t46 -22t47 -19.5t51.5 -19.5 t51 -19t58.5 -21.5t64 -23.5t63 -25.5t65.5 -31t59.5 -35.5t56.5 -42.5t46 -49.5t38.5 -59t22.5 -68.5t9 -80.5q0 -60 -14 -112.5t-50 -103t-91.5 -86t-144.5 -57t-204 -21.5q-220 0 -345.5 82t-125.5 221z" />
<glyph unicode="T" horiz-adv-x="1200" d="M-49 1370q-13 17 -13 28q0 15 29 15h1266q29 0 29 -15q0 -10 -13 -28q-42 -55 -205 -55q-50 0 -173 19t-203 24v-1358h-133l-3 1358q-82 -5 -204.5 -24t-171.5 -19q-163 0 -205 55z" />
<glyph unicode="U" horiz-adv-x="1413" d="M182 631v782h135l-2 -741q0 -173 5 -225q24 -278 195 -362q78 -38 185 -40q73 0 132 16t99 44.5t71 67t47 83t28 93.5t14 99q2 48 5 96q2 24 2 46.5t-2 43.5v38l-2 741h135v-782q0 -84 -3.5 -146t-16 -133.5t-34.5 -121.5t-61 -99.5t-92.5 -79.5t-132 -49t-178.5 -20 q-102 0 -182 18.5t-135 48.5t-94.5 79t-62 99.5t-35.5 122.5t-16.5 134t-3.5 147z" />
<glyph unicode="V" horiz-adv-x="1257" d="M20 1413h152l473 -1284l387 1118q26 78 86 130.5t109 52.5q15 0 8 -17l-541 -1413h-135z" />
<glyph unicode="W" horiz-adv-x="1923" d="M20 1413h146l371 -1247l350 1247h117l407 -1255l281 1081q15 57 57.5 102.5t81 64.5t61.5 19q12 0 9 -12l-437 -1413h-141l-379 1223l-356 -1223h-131z" />
<glyph unicode="X" horiz-adv-x="1222" d="M25 0l522 700l-508 713h170l432 -614l367 555q55 67 186 67q13 0 1 -17q-2 -1 -3 -3l-492 -686l502 -715h-153l-447 623l-401 -576q-47 -61 -168 -61q-17 0 -8 14z" />
<glyph unicode="Y" horiz-adv-x="1261" d="M20 1413h175l467 -754l395 693q28 44 79.5 63t92.5 19q18 0 4 -21l-539 -856v-557h-133l-2 557z" />
<glyph unicode="Z" horiz-adv-x="1095" d="M43 12l809 1350q-187 -2 -369 -24.5t-215 -22.5q-167 0 -202 47q-17 25 -11.5 38t25.5 13h956q6 0 8 -1.5t1 -6t-7 -14.5l-819 -1340q151 0 280 11.5t213.5 23.5t125.5 12q167 0 202 -47q17 -25 11.5 -38t-25.5 -13h-971q-18 0 -12 12z" />
<glyph unicode="[" horiz-adv-x="688" d="M184 -436v2070l484 2v-71h-349v-1932h349v-67z" />
<glyph unicode="\" horiz-adv-x="784" d="M61 1415h136l587 -1415h-131z" />
<glyph unicode="]" horiz-adv-x="688" d="M20 -367h349v1932h-349v71l484 -2v-2070l-484 2v67z" />
<glyph unicode="^" horiz-adv-x="970" d="M82 737l377 756h55l375 -756h-127l-277 602l-274 -602h-129z" />
<glyph unicode="_" horiz-adv-x="1056" d="M41 -297h975v-80h-975v80z" />
<glyph unicode="`" horiz-adv-x="524" d="M84 1454q-10 17 23 24q14 3 32 3q44 0 88.5 -19t65.5 -57l149 -272h-71z" />
<glyph unicode="a" horiz-adv-x="884" d="M88 203q0 51 23.5 96.5t60.5 78.5t89 62t101 47.5t104.5 34t93 23t71.5 12.5v66q0 53 -7.5 94.5t-18 68t-30 45.5t-34.5 28t-40 14t-38.5 5.5t-38.5 0.5q-70 0 -112.5 -40t-63.5 -91q-3 -6 -10.5 -24.5t-12 -28.5t-12 -26.5t-13.5 -26t-12.5 -20t-12.5 -15.5t-11 -5 q-21 0 -31 36q-8 28 -8 59q0 9 1 18q3 40 15 53q126 154 340 154q134 0 209.5 -101t75.5 -266v-555q0 -4 -12 -4q-37 0 -80 33.5t-43 101.5v45q-18 -41 -39 -71.5t-54 -60t-82 -45t-112 -15.5q-256 0 -256 219zM231 182q0 -73 32.5 -113t98.5 -40q53 0 99 25.5t76.5 64.5 t52.5 85q22 48 32 90q9 39 9 69v6v147q-400 -78 -400 -334z" />
<glyph unicode="b" horiz-adv-x="1091" d="M168.5 1398q0.5 9 7.5 15q107 84 131 84q8 0 8 -8v-733q153 166 299 166q188 0 289 -115t101 -328q0 -234 -111 -364.5t-291 -130.5q-56 0 -106.5 16.5t-86.5 43.5t-57.5 48.5t-36.5 42.5q-17 -19 -48.5 -58.5t-48.5 -58t-25 -18.5q-11 0 -11 41v1255q0 25 -3.5 47.5 t-7 34t-3 20.5zM315 377q0 -83 36 -163t102.5 -133.5t144.5 -53.5q116 0 189 120t73 334q0 78 -13.5 146t-42 126t-80 92t-120.5 34q-45 0 -94 -25t-87.5 -62t-66 -71.5t-41.5 -61.5v-282z" />
<glyph unicode="c" horiz-adv-x="946" d="M88 451q0 61 15 123.5t49.5 125.5t84 112t125.5 79.5t168 30.5q142 0 277 -105q23 -18 31 -68q4 -24 4 -45q0 -26 -5 -48q-9 -42 -28 -42t-39 23t-44.5 67t-29.5 52q-1 1 -14 23t-23.5 34t-29.5 30t-45.5 27t-57.5 9q-75 0 -134 -40t-92.5 -104t-51 -137t-17.5 -147 t16.5 -146.5t50 -136.5t92.5 -103.5t134 -39.5q81 0 147.5 47.5t100.5 120.5q8 20 34.5 33.5t47.5 13.5q6 0 9.5 -3.5t2.5 -7.5q-22 -55 -48 -95.5t-65.5 -77t-97 -55.5t-131.5 -19q-92 0 -167.5 30.5t-124 79.5t-82 112t-48 125t-14.5 122z" />
<glyph unicode="d" horiz-adv-x="1071" d="M88 449q0 218 97 345.5t280 127.5q163 0 313 -131l2 505q0 25 -3.5 47.5t-7 34t-3 20.5t7.5 15q104 82 129 82q8 0 8 -8v-1487q0 -4 -8 -4q-34 0 -80.5 42.5t-46.5 117.5v39q-28 -95 -102.5 -153t-196.5 -58q-180 0 -284.5 113.5t-104.5 351.5zM231 451q0 -204 63 -314 t185 -110q115 0 204.5 129t92.5 352l2 194q-23 26 -49.5 51.5t-65.5 56.5t-85.5 50t-90.5 19q-63 0 -111 -29t-75 -72t-43.5 -103.5t-21.5 -113t-5 -110.5z" />
<glyph unicode="e" horiz-adv-x="946" d="M88 451q0 62 12 123.5t42 125.5t75 112t118 79t165 31q66 0 120 -20t91 -57.5t64 -79.5t44.5 -97.5t27.5 -99.5t17 -97h-633v-20q0 -48 7.5 -101t27 -112t48.5 -105.5t77.5 -77t108.5 -30.5q81 0 147.5 47.5t100.5 120.5q8 20 34 33.5t47 13.5q6 0 10 -3.5t3 -7.5 q-22 -55 -48 -95.5t-65.5 -77t-97 -55.5t-131.5 -19q-92 0 -165 31t-118 79t-75 112t-42 125t-12 122zM236 522h505q-9 65 -24 120.5t-42 112.5t-72 90.5t-103 33.5q-64 0 -114 -33.5t-79.5 -89.5t-46 -113t-24.5 -121z" />
<glyph unicode="f" horiz-adv-x="624" d="M61 852v51h136v234q0 136 77 224.5t203 88.5q154 0 234 -104q19 -30 19 -74q0 -45 -14 -88q-13 -41 -28 -41q-12 0 -22 7t-18.5 23t-13 28t-12 34.5t-10.5 30.5q-14 41 -53.5 91t-85.5 50q-145 0 -145 -266v-238h217v-51h-217l2 -852h-133v852h-136z" />
<glyph unicode="g" horiz-adv-x="1036" d="M31 -197q0 121 92 205q55 51 94 51q8 0 12 -4q2 -2 -10.5 -31.5t-28.5 -91.5t-16 -129q0 -56 20.5 -109.5t57.5 -97t94.5 -70t126.5 -26.5q134 0 215.5 92.5t81.5 210.5q0 124 -75.5 204.5t-233.5 80.5q-318 0 -318 115q0 67 152 104q-90 36 -136 113t-46 184 q0 149 88 233.5t262 84.5q152 8 258 8q143 0 283 -10q16 -3 10 -21q-2 -4 -7 -21t-9.5 -27.5t-13 -23.5t-22 -19.5t-30.5 -6.5q-33 0 -76 22q-86 45 -201 58q156 -82 156 -277q0 -148 -88.5 -236.5t-259.5 -88.5q-37 0 -73.5 -5.5t-69.5 -24t-33 -46.5q0 -32 29.5 -41.5 t95.5 -9.5h51h2q115 -1 202.5 -28t140.5 -75t79 -110t26 -136q0 -147 -119.5 -246.5t-320.5 -99.5q-203 0 -322.5 99t-119.5 247zM256 604q0 -76 19 -136t67.5 -101.5t120.5 -44.5q103 0 154 80.5t51 201.5q0 122 -50.5 198.5t-154.5 76.5q-106 0 -156.5 -76.5t-50.5 -198.5 z" />
<glyph unicode="h" horiz-adv-x="1079" d="M164.5 1397q0.5 10 7.5 16q107 84 131 84q8 0 8 -8v-911q8 48 28 102t54 111t89.5 94t121.5 37q73 0 130 -26.5t92 -70t57.5 -104.5t31.5 -124.5t9 -135.5l-2 -463l-129 2v459q0 65 -5 117t-19 101t-36 82t-57 52.5t-82 19.5q-70 0 -123.5 -43.5t-82.5 -106t-47.5 -144 t-24 -143t-5.5 -118.5v-276h-133l-2 1292q0 24 -3.5 48t-6 35.5t-2 21.5z" />
<glyph unicode="i" d="M166 1188q0 35 25.5 60.5t60.5 25.5t60.5 -25.5t25.5 -60.5t-25.5 -60.5t-60.5 -25.5t-60.5 25.5t-25.5 60.5zM168 821q1 9 8 15q107 84 131 84q8 0 8 -7v-913h-133l-4 719q0 24 -3 47.5t-5.5 34.5t-1.5 20z" />
<glyph unicode="j" horiz-adv-x="493" d="M-31 -492q0 5 11.5 9.5t31.5 8.5t27 7q26 7 46 17.5t35.5 22t26.5 31.5t18.5 35t12.5 45t7.5 50t3 60t0.5 65.5t-0.5 77t-0.5 83.5l-4 699q0 24 -3 47.5t-5.5 34.5t-1.5 20t8 15q107 84 131 84q9 0 9 -7l-3 -1052q0 -44 -1.5 -76t-9 -75t-20 -73.5t-37 -62.5t-58 -52 t-84.5 -33t-115 -13q-9 0 -17 10t-8 22zM164 1188q0 35 25.5 60.5t60.5 25.5t60.5 -25.5t25.5 -60.5t-25.5 -60.5t-60.5 -25.5t-60.5 25.5t-25.5 60.5z" />
<glyph unicode="k" horiz-adv-x="956" d="M152 1396q1 9 8 15q107 84 133 84q6 0 6 -6v-1075q4 4 56 50t68.5 61t65 60t76 73.5t69 72t76 86t66.5 86.5q3 6 17 6q26 0 43 -30q10 -22 9.5 -46t-22.5 -54.5t-63 -59.5q-99 -68 -293 -219q33 -33 196 -208t265 -263q18 -14 -1 -28q-15 -11 -44 -11q-73 0 -124.5 22.5 t-92.5 79.5q-20 27 -62 94.5t-89.5 129.5t-115.5 128q-62 -48 -100 -92v-352h-133l-4 1294q0 24 -3 47.5t-5.5 34.5t-1.5 20z" />
<glyph unicode="l" horiz-adv-x="483" d="M166 1396q1 9 8 15q107 84 131 84q8 0 8 -6v-1489h-133l-4 1294q0 24 -3 47.5t-5.5 34.5t-1.5 20z" />
<glyph unicode="m" horiz-adv-x="1562" d="M160.5 822q0.5 10 7.5 16q107 84 129 84q8 0 8 -9v-256q2 32 19.5 75.5t48 86.5t80.5 73t108 30q227 0 279 -279q14 71 47.5 132t92.5 104t132 43q54 0 98 -16t73.5 -41.5t52 -64t35.5 -77t21 -87.5t11 -88.5t4 -86.5v-461h-131v459q-5 372 -180 372q-52 0 -93.5 -23 t-67.5 -59.5t-44 -85t-26 -95.5t-9 -95l-2 -473h-129v459q-5 372 -180 372q-52 0 -93.5 -23t-67.5 -59.5t-44 -85t-26 -95.5t-9 -95v-473h-133v717q0 24 -3.5 48t-6 35.5t-2 21.5z" />
<glyph unicode="n" horiz-adv-x="1083" d="M162.5 822q0.5 10 7.5 16q107 84 131 84q8 0 8 -9v-335q8 48 28 102t54 111t89.5 94t121.5 37q73 0 130 -26.5t92 -70t57.5 -104.5t31.5 -124.5t9 -135.5l-2 -461h-129v459q0 65 -5 117t-19 101t-36 82t-57 52.5t-82 19.5q-60 0 -107.5 -30.5t-77 -83t-50.5 -112 t-30.5 -127.5t-13.5 -117.5t-4 -94.5v-266h-133l-2 717q0 24 -3.5 48t-6 35.5t-2 21.5z" />
<glyph unicode="o" horiz-adv-x="997" d="M88 451q0 62 12 123.5t42 125.5t75 112t118 79t165 31q91 0 164 -31t117.5 -79t74.5 -112t41.5 -125.5t11.5 -123.5q0 -61 -11.5 -122t-41.5 -125t-74.5 -112t-117.5 -79t-164 -31q-92 0 -165 31t-118 79t-75 112t-42 125t-12 122zM231 451q0 -48 7.5 -101t27 -112 t48.5 -105.5t77.5 -77t108.5 -30.5t107.5 30.5t76.5 77t48 105.5t26.5 112t7.5 101q0 49 -7.5 102.5t-26.5 113t-48 105.5t-76.5 76.5t-107.5 30.5t-108.5 -30.5t-77.5 -76.5t-48.5 -105.5t-27 -113t-7.5 -102.5z" />
<glyph unicode="p" horiz-adv-x="1085" d="M161 831q0 9 7 15q104 82 131 82q8 0 8 -8l2 -306q0 69 38 139.5t108.5 118.5t152.5 48q181 0 284 -114.5t103 -354.5q0 -215 -102.5 -343t-288.5 -128q-169 0 -295 122v-626h-133v1253q0 25 -4 47.5t-7.5 34t-3.5 20.5zM309 219q17 -27 31.5 -47.5t42.5 -50.5 t56.5 -49.5t69.5 -34t85 -14.5q69 0 121 38.5t81 102.5t42.5 136t13.5 151q0 205 -62 315.5t-184 110.5q-121 0 -209 -117.5t-88 -325.5v-215z" />
<glyph unicode="q" horiz-adv-x="1071" d="M88 453q0 240 104.5 354.5t284.5 114.5q89 0 167 -30.5t132 -74.5q36 42 71.5 65t51.5 23q12 0 12 -41v-1388h-135v637q-38 -51 -109.5 -91t-164.5 -40q-187 0 -300.5 130t-113.5 341zM231 451q0 -76 17.5 -149.5t50.5 -136.5t89 -101.5t126 -38.5q82 0 151 40.5 t111 92.5v385q0 76 -11.5 133.5t-34.5 93t-49 58.5t-63 33.5t-67.5 14t-71.5 3.5q-122 0 -185 -111t-63 -317z" />
<glyph unicode="r" horiz-adv-x="761" d="M164.5 822q0.5 10 7.5 16q107 84 131 84q8 0 8 -9v-301q14 73 52 141.5t103 117.5t140 49q46 0 90 -27q17 -19 17 -82t-17 -63q-29 0 -77 36.5t-64 38.5h-12q-53 0 -95 -37t-66 -90t-40.5 -121t-22 -122t-6.5 -101l-2 -352h-133l-2 717q0 24 -3.5 48t-6 35.5t-2 21.5z " />
<glyph unicode="s" horiz-adv-x="841" d="M119 676q4 116 92.5 182t218.5 66q187 0 254 -99q30 -44 30 -90q0 -29 -12 -59q-8 -22 -26 -40t-35 -18q-7 0 -13.5 26t-16 66t-19.5 62q-21 46 -62 77.5t-98 31.5q-75 0 -120 -47t-48 -123q-1 -9 -1 -18q1 -53 33 -82q38 -34 132 -70q8 -3 26 -10q36 -13 55.5 -21 t55.5 -25t57.5 -31.5t48 -38.5t41 -48.5t23.5 -58.5q7 -26 7 -53q0 -9 -1 -19q-3 -49 -22.5 -92.5t-56 -81t-98.5 -59t-142 -21.5q-104 0 -172.5 24t-102.5 88q-28 50 -28 100q0 33 12 66q10 29 32 52t34 18q5 -2 11 -26.5t17.5 -66.5t26.5 -75q61 -129 170 -129 q76 0 123.5 43t50.5 119q1 7 1 14q0 131 -194 201q-118 44 -159 68q-125 72 -125 192v6z" />
<glyph unicode="t" horiz-adv-x="638" d="M66 852v51h129v141q0 24 -3 47.5t-5.5 34.5t-1.5 20t8 15q107 84 131 84q8 0 8 -6l-4 -336h217v-51h-217v-363q0 -202 26 -306.5t97 -104.5q40 0 86 28q10 5 22 5q29 0 29 -13q0 -23 -66 -63q-79 -49 -141 -49q-90 0 -137 99.5t-47 281.5l-2 485h-129z" />
<glyph unicode="u" horiz-adv-x="1009" d="M143 440l2 463h129v-461q0 -83 9 -151.5t30 -130t62 -96.5t98 -35t103 30.5t75.5 84t50.5 113t32 129.5t16 122.5t6 101.5v293h133l2 -903q0 -6 -10 -6q-33 0 -79 46.5t-46 121.5v123q-7 -35 -20 -72t-38 -80t-56.5 -76t-78 -55t-100.5 -22q-73 0 -130 26.5t-92 69.5 t-57.5 104t-31.5 124.5t-9 135.5z" />
<glyph unicode="v" horiz-adv-x="888" d="M20 903h134l307 -797l270 699q16 43 44.5 69.5t48 33.5t34.5 7q14 0 8 -12l-364 -903h-135z" />
<glyph unicode="w" horiz-adv-x="1216" d="M20 903h136l204 -753l205 753h101l231 -753l174 690q11 35 49.5 52t71.5 17q8 0 8 -3q1 -1 0 -3l-262 -903h-129l-197 729l-211 -729h-137z" />
<glyph unicode="x" horiz-adv-x="802" d="M20 903h148l252 -371l203 324q20 29 60 41t67 12q20 -1 18 -6l-303 -436l317 -467h-147l-256 377l-213 -332q-18 -26 -60 -39.5t-69 -13.5q-6 0 -9.5 2t-0.5 6l309 438z" />
<glyph unicode="y" horiz-adv-x="940" d="M18 908.5q0 2.5 4 4.5t13 2q140 0 188 -108l264 -688l314 784h135l-576 -1427h-129l220 549l-431 878q-2 3 -2 5.5z" />
<glyph unicode="z" horiz-adv-x="804" d="M35 900q3 3 8 3h659q25 0 41 -7.5t18.5 -17t-1.5 -18.5l-551 -807h127q36 0 137 16.5t160 16.5q81 0 125 -47q24 -25 14 -36q-3 -3 -8 -3h-670q-30 0 -44 10.5t-5 24.5l557 813h-147q-65 0 -163 -18.5t-163 -18.5q-53 0 -85 46q-21 31 -9 43z" />
<glyph unicode="{" horiz-adv-x="792" d="M143 565v94q307 79 230 428q-23 99 -17 173t34.5 126t68 87t84 55.5t82 31t61.5 12.5l25 3v-51q-7 0 -18 -1t-42 -9.5t-57.5 -23.5t-54.5 -49t-43 -80t-14 -121.5t24 -168.5q14 -55 14 -105.5t-10.5 -89.5t-30.5 -74.5t-43 -61t-51.5 -49.5t-51.5 -39.5t-48 -31.5 q-9 -5 -13 -8q25 -14 42 -25t46 -31t49 -40.5t43.5 -47.5t37 -58.5t23 -68.5t8 -81t-14.5 -92q-33 -138 -25 -228t44.5 -138.5t77.5 -71t73 -26.5l33 -3v-51q-6 0 -15 1t-39 6.5t-56 15t-64 26.5t-64 42t-56.5 60.5t-41 82.5t-17.5 108t15 137q80 363 -228 436z" />
<glyph unicode="|" horiz-adv-x="493" d="M184 -436v2070h125v-2070h-125z" />
<glyph unicode="}" horiz-adv-x="792" d="M82 1524v51q6 0 16 -1t39.5 -7t57.5 -15.5t64.5 -28t66 -42.5t56.5 -62t41 -83.5t14.5 -110t-17.5 -138.5q-77 -349 229 -428v-94q-307 -73 -227 -436q26 -135 3 -225t-79 -141t-114 -76t-103 -31l-45 -6v51q7 0 18.5 1t42.5 10t57.5 25t55 51.5t43 82.5t13 124.5 t-26.5 172.5q-11 43 -13.5 83t2.5 72.5t18.5 64t28 55.5t36.5 47.5t40 39.5t43.5 33.5t41 27t36.5 21.5q-94 60 -134 98q-153 145 -99 361q31 135 22.5 222.5t-45 134.5t-77 68.5t-73.5 24.5z" />
<glyph unicode="~" horiz-adv-x="1144" d="M143 461q0 96 78 147t189 51q76 0 147 -24q97 -33 191 -33q90 0 148 30.5t58 90.5h47q0 -96 -83.5 -148.5t-202.5 -52.5q-85 0 -158 27q-91 33 -178 33q-83 0 -136 -30t-53 -91h-47z" />
<glyph unicode="&#xa1;" horiz-adv-x="458" d="M143 895q0 35 25.5 60.5t60.5 25.5t60.5 -25.5t25.5 -60.5t-25.5 -60.5t-60.5 -25.5t-60.5 25.5t-25.5 60.5zM145 -436q-1 176 10.5 434.5t22.5 429.5l12 170h76q43 -638 43 -1034h-164z" />
<glyph unicode="&#xa2;" horiz-adv-x="1067" d="M143 451q0 60 15 122t49 124.5t83 111.5t124 80.5t166 32.5l36 249h101l-39 -262q92 -21 184 -92q23 -18 31 -68t-1 -92.5t-28 -42.5q-26 0 -50 29.5t-40.5 67.5t-44.5 80t-59 61l-119 -825q10 -2 29 -2q81 0 147 47.5t100 120.5q8 20 34.5 33.5t47.5 13.5q6 0 10 -3.5 t3 -7.5q-22 -55 -48 -95.5t-65.5 -77t-97 -55.5t-131.5 -19q-23 0 -35 2l-25 -177h-100l26 193q-78 23 -139 74t-95.5 115.5t-51.5 131t-17 130.5zM287 451q0 -112 43 -225.5t125 -166.5l118 820q-72 -2 -129.5 -45.5t-90 -109.5t-49.5 -136.5t-17 -136.5z" />
<glyph unicode="&#xa3;" horiz-adv-x="1316" d="M143 0v51h13q54 3 94.5 37.5t63 91t33.5 121t11 137.5v203h-215v51h215v217q0 103 19.5 180.5t63.5 137.5t121.5 90.5t187.5 30.5q75 0 142 -23t109.5 -52t81.5 -71.5t54 -65.5t30 -49q4 -12 -23 -23t-61 -11q-77 0 -88 49q-2 8 -7 22t-23.5 49t-41.5 61.5t-62.5 48.5 t-84.5 22q-72 0 -125.5 -21.5t-84 -55t-48.5 -83.5t-23.5 -97t-5.5 -106l-4 -250h402v-51h-404v-139q0 -173 -57 -289t-147 -162h88q155 0 276 11.5t196 23.5t117 12q81 0 134 -13t69 -34q17 -25 11.5 -38t-25.5 -13h-1002z" />
<glyph unicode="&#xa4;" horiz-adv-x="876" d="M143 463l82 80q-62 80 -55 182q6 82 55 145l-78 80l50 49l77 -79q74 53 183 53q82 -6 143 -53l80 79l49 -49l-80 -80q63 -77 56 -180q-7 -83 -54 -145l82 -82l-49 -49l-82 80q-68 -56 -182 -56q-81 6 -146 56l-81 -80zM246 725q-9 -83 50 -147t144 -64h19q77 9 128 70 t44 141q-10 82 -69 127t-144 45q-68 -8 -115.5 -55t-56.5 -117z" />
<glyph unicode="&#xa5;" horiz-adv-x="1499" d="M143 1413h174l447 -768l473 768h119l-539 -856v-72h264v-79h-264v-158h264v-80h-264v-168h-133l-2 168h-262v80h262v158h-262v79h262v72z" />
<glyph unicode="&#xa6;" horiz-adv-x="493" d="M184 430h125v-866h-125v866zM184 770v864h125v-864h-125z" />
<glyph unicode="&#xa8;" horiz-adv-x="593" d="M82 1266q0 35 25.5 60.5t60.5 25.5t60.5 -25.5t25.5 -60.5t-25.5 -60.5t-60.5 -25.5t-60.5 25.5t-25.5 60.5zM338 1266q0 35 25.5 60.5t60.5 25.5t60.5 -25.5t25.5 -60.5t-25.5 -60.5t-60.5 -25.5t-60.5 25.5t-25.5 60.5z" />
<glyph unicode="&#xa9;" horiz-adv-x="1484" d="M143 518q0 122 47.5 233.5t128 191.5t191.5 127.5t233 47.5q121 0 231.5 -47.5t191 -127.5t128 -191.5t47.5 -233.5q0 -161 -80.5 -299t-218.5 -218.5t-299 -80.5q-162 0 -300.5 80.5t-219 218.5t-80.5 299zM225 518q0 -105 40.5 -200.5t109.5 -164.5t165.5 -110 t202.5 -41q141 0 260.5 69t189 188t69.5 259q0 216 -152 368t-367 152q-106 0 -202.5 -41t-165.5 -110.5t-109.5 -165.5t-40.5 -203zM373 524q0 65 21.5 131.5t64 127.5t118 100t171.5 39q134 0 233 -88q18 -16 24.5 -58t0 -78t-22.5 -36q-17 0 -33.5 19.5t-37 56.5 t-25.5 44q-18 29 -54.5 55.5t-84.5 26.5q-64 0 -116 -31.5t-83 -82t-47.5 -109t-16.5 -117.5q0 -88 26 -162.5t85.5 -126t144.5 -51.5q72 0 127.5 31t81.5 90q7 16 30 27.5t40 11.5q13 0 10 -8q-19 -47 -40.5 -81t-55 -65t-82 -47t-111.5 -16q-78 0 -142 26t-105 67 t-69 94.5t-40 106t-12 103.5z" />
<glyph unicode="&#xac;" horiz-adv-x="1380" d="M143 803v80h1094v-535h-127v455h-967z" />
<glyph unicode="&#xad;" horiz-adv-x="948" d="M143 547v80h662v-80h-662z" />
<glyph unicode="&#xae;" horiz-adv-x="1484" d="M143 518q0 122 47.5 233.5t128 191.5t191.5 127.5t233 47.5q121 0 231.5 -47.5t191 -127.5t128 -191.5t47.5 -233.5q0 -161 -80.5 -299t-218.5 -218.5t-299 -80.5q-162 0 -300.5 80.5t-219 218.5t-80.5 299zM225 518q0 -105 40.5 -200.5t109.5 -164.5t165.5 -110 t202.5 -41q141 0 260.5 69t189 188t69.5 259q0 216 -152 368t-367 152q-106 0 -202.5 -41t-165.5 -110.5t-109.5 -165.5t-40.5 -203zM489 893l250 10q258 0 258 -241q0 -175 -196 -218q45 -44 126 -139.5t120 -128.5q7 -3 -8 -9q-25 -9 -50 -9q-83 0 -121 51 q-11 14 -53 99.5t-86 129.5q-62 -4 -88 -4q-35 0 -55 2v-274h-94zM586 500q14 0 43 -1t45 -1q46 0 78.5 6t64.5 23.5t49 54.5t17 94q0 170 -144 170q-99 0 -153 -12v-334z" />
<glyph unicode="&#xaf;" horiz-adv-x="618" d="M82 1186v80h455v-80h-455z" />
<glyph unicode="&#xb1;" horiz-adv-x="1224" d="M184 195v79h854v-79h-854zM195 854v80h362v381h121v-381h362v-80h-362v-387h-121v387h-362z" />
<glyph unicode="&#xb4;" horiz-adv-x="524" d="M82 1133l149 272q21 38 65.5 57t88.5 19q54 0 57 -19q1 -4 -2 -8l-286 -321h-72z" />
<glyph unicode="&#xb7;" horiz-adv-x="458" d="M143 582q0 35 25.5 60.5t60.5 25.5t60.5 -25.5t25.5 -60.5t-25.5 -60.5t-60.5 -25.5t-60.5 25.5t-25.5 60.5z" />
<glyph unicode="&#xb8;" horiz-adv-x="493" d="M82 -362l16 49q32 -4 54 -4q57 0 96 21t39 63q0 44 -23 62.5t-69 18.5q-4 0 -14 -1t-15 -1l70 174h102l-51 -133q20 0 39.5 -5t40 -16.5t33 -35.5t12.5 -57q0 -40 -22 -69t-59 -44t-77.5 -22t-85.5 -7q-42 0 -86 7z" />
<glyph unicode="&#xbf;" horiz-adv-x="1097" d="M143 330q0 63 24 121t62.5 102.5t85 86t93.5 80t85.5 76t62.5 81.5t24 90v153h20q52 -4 80.5 -46t28.5 -81q0 -59 -24 -115t-62.5 -101t-85 -88t-93.5 -85t-85.5 -83.5t-62.5 -90.5t-24 -100q0 -126 84.5 -208.5t210.5 -82.5q55 0 116.5 28t103 61t81 65.5t50.5 37.5 q2 2 8 2q19 0 26 -34t-2.5 -71t-31.5 -44q-199 -92 -345 -92q-206 0 -318 92.5t-112 245.5zM541 1341q0 35 25.5 60.5t60.5 25.5t60.5 -25.5t25.5 -60.5t-25.5 -60.5t-60.5 -25.5t-60.5 25.5t-25.5 60.5z" />
<glyph unicode="&#xc0;" horiz-adv-x="1284" d="M21.5 11q-0.5 6 3.5 16l559 1384h127l553 -1411h-138l-174 451h-643l-123 -351q-14 -44 -61 -72t-94 -28q-3 0 -6 2.5t-3.5 8.5zM336 522h590l-299 774zM424 1894q-10 17 23 24q14 3 32 3q44 0 88.5 -19t65.5 -57l149 -272h-71z" />
<glyph unicode="&#xc1;" horiz-adv-x="1284" d="M21.5 11q-0.5 6 3.5 16l559 1384h127l553 -1411h-138l-174 451h-643l-123 -351q-14 -44 -61 -72t-94 -28q-3 0 -6 2.5t-3.5 8.5zM336 522h590l-299 774zM535 1573l149 272q21 38 65.5 57t88.5 19q54 0 57 -19q1 -4 -2 -8l-287 -321h-71z" />
<glyph unicode="&#xc2;" horiz-adv-x="1284" d="M21.5 11q-0.5 6 3.5 16l559 1384h127l553 -1411h-138l-174 451h-643l-123 -351q-14 -44 -61 -72t-94 -28q-3 0 -6 2.5t-3.5 8.5zM336 522h590l-299 774zM348 1587q1 3 4 6l264 322h97l264 -322q14 -14 -17 -17q-6 -1 -14 -1q-23 0 -48 5.5t-32 12.5l-196 193h-8 l-199 -193q-7 -7 -32 -12.5t-48 -5.5q-37 0 -35 12z" />
<glyph unicode="&#xc3;" horiz-adv-x="1284" d="M21.5 11q-0.5 6 3.5 16l559 1384h127l553 -1411h-138l-174 451h-643l-123 -351q-14 -44 -61 -72t-94 -28q-3 0 -6 2.5t-3.5 8.5zM336 522h590l-299 774zM403 1575q0 88 40 139t120 51q50 0 99 -16q80 -25 135 -25q98 0 98 72h27q0 -89 -39.5 -139.5t-118.5 -50.5 q-50 0 -102 16q-91 27 -138 27q-43 0 -68.5 -18t-25.5 -56h-27z" />
<glyph unicode="&#xc4;" horiz-adv-x="1284" d="M21.5 11q-0.5 6 3.5 16l559 1384h127l553 -1411h-138l-174 451h-643l-123 -351q-14 -44 -61 -72t-94 -28q-3 0 -6 2.5t-3.5 8.5zM336 522h590l-299 774zM451 1679q0 35 25.5 60.5t60.5 25.5t60.5 -25.5t25.5 -60.5t-25.5 -60.5t-60.5 -25.5t-60.5 25.5t-25.5 60.5z M707 1679q0 35 25.5 60.5t60.5 25.5t60.5 -25.5t25.5 -60.5t-25.5 -60.5t-60.5 -25.5t-60.5 25.5t-25.5 60.5z" />
<glyph unicode="&#xc5;" horiz-adv-x="1284" d="M21.5 11q-0.5 6 3.5 16l559 1384h127l553 -1411h-138l-174 451h-643l-123 -351q-14 -44 -61 -72t-94 -28q-3 0 -6 2.5t-3.5 8.5zM336 522h590l-299 774zM461 1634q0 86 58.5 144.5t146.5 58.5q85 0 143.5 -59t58.5 -144q0 -88 -58 -146t-144 -58q-89 0 -147 57.5 t-58 146.5zM551 1634q0 -47 33.5 -79.5t81.5 -32.5q46 0 79 32.5t33 79.5t-33 80t-79 33q-47 0 -81 -33t-34 -80z" />
<glyph unicode="&#xc6;" horiz-adv-x="1798" d="M21.5 11q-0.5 6 3.5 16l747 1386h957q49 0 16 -43q-42 -55 -205 -55q-38 0 -257 22.5t-396 24.5l123 -637h567v-72h-553l119 -602q116 0 200 11.5t138.5 23.5t99.5 12q81 0 134 -13t69 -34q17 -25 11.5 -38t-26.5 -13h-751l-88 451h-572l-176 -328q-70 -123 -151 -123 q-3 0 -6 2.5t-3.5 8.5zM385 522h533l-138 719z" />
<glyph unicode="&#xc7;" horiz-adv-x="1366" d="M92 707q0 78 13.5 156.5t41.5 162t78.5 155.5t118.5 129.5t167 90.5t218 33q128 0 228.5 -38.5t164.5 -97.5q94 -84 127 -155q15 -40 9 -86t-23.5 -82.5t-32.5 -36.5q-24 0 -49 46.5t-54.5 120t-51.5 107.5q-114 179 -318 179q-117 0 -213.5 -63t-156 -164t-91.5 -219.5 t-32 -237.5q0 -120 32 -238.5t91.5 -218.5t156 -162.5t213.5 -62.5q76 0 142.5 25.5t117.5 72t87.5 93.5t70.5 106q8 12 41.5 24t60.5 12q22 0 29 -7t0 -27q-69 -147 -195 -239.5t-315 -102.5l-47 -121q20 0 39.5 -5t40 -17t33 -36t12.5 -57q0 -40 -22 -68.5t-59 -43.5 t-77.5 -22t-85.5 -7q-48 0 -86 6l16 49q32 -4 54 -4q57 0 96 21t39 63q0 44 -23 63t-69 19q-4 0 -14 -1t-15 -1l66 164q-107 8 -196 45.5t-150 95t-106.5 127.5t-71.5 150t-38 155.5t-12 149.5z" />
<glyph unicode="&#xc8;" horiz-adv-x="1185" d="M182 1413h862q50 0 17 -43q-42 -55 -205 -55q-44 0 -113 11.5t-178.5 23t-247.5 12.5v-637h576v-72h-576v-602q151 0 270 11.5t193.5 23.5t116.5 12q81 0 134 -13t69 -34q17 -25 11.5 -38t-26.5 -13h-901zM389 1896q-10 17 23 24q14 3 32 3q44 0 88.5 -19t65.5 -57 l150 -272h-72z" />
<glyph unicode="&#xc9;" horiz-adv-x="1185" d="M182 1413h862q50 0 17 -43q-42 -55 -205 -55q-44 0 -113 11.5t-178.5 23t-247.5 12.5v-637h576v-72h-576v-602q151 0 270 11.5t193.5 23.5t116.5 12q81 0 134 -13t69 -34q17 -25 11.5 -38t-26.5 -13h-901zM500 1575l149 272q21 38 65.5 57t88.5 19q54 0 57 -19 q1 -4 -2 -8l-287 -321h-71z" />
<glyph unicode="&#xca;" horiz-adv-x="1185" d="M182 1413h862q50 0 17 -43q-42 -55 -205 -55q-44 0 -113 11.5t-178.5 23t-247.5 12.5v-637h576v-72h-576v-602q151 0 270 11.5t193.5 23.5t116.5 12q81 0 134 -13t69 -34q17 -25 11.5 -38t-26.5 -13h-901zM313 1589q1 3 4 6l265 322h96l264 -322q14 -14 -17 -17 q-6 -1 -14 -1q-23 0 -48 5.5t-32 12.5l-196 193h-8l-199 -193q-7 -7 -32 -12.5t-48 -5.5q-37 0 -35 12z" />
<glyph unicode="&#xcb;" horiz-adv-x="1185" d="M182 1413h862q50 0 17 -43q-42 -55 -205 -55q-44 0 -113 11.5t-178.5 23t-247.5 12.5v-637h576v-72h-576v-602q151 0 270 11.5t193.5 23.5t116.5 12q81 0 134 -13t69 -34q17 -25 11.5 -38t-26.5 -13h-901zM416 1681q0 35 25.5 60.5t60.5 25.5t60.5 -25.5t25.5 -60.5 t-25.5 -60.5t-60.5 -25.5t-60.5 25.5t-25.5 60.5zM672 1681q0 35 25.5 60.5t60.5 25.5t60.5 -25.5t25.5 -60.5t-25.5 -60.5t-60.5 -25.5t-60.5 25.5t-25.5 60.5z" />
<glyph unicode="&#xcc;" d="M10 1896q-10 16 23 24l33 3q44 0 88 -19t65 -57l150 -272h-72zM182 1413h135v-1413h-133z" />
<glyph unicode="&#xcd;" d="M121 1575l149 272q21 38 65.5 57t88.5 19q54 0 57 -19q1 -4 -2 -8l-286 -321h-72zM182 1413h135v-1413h-133z" />
<glyph unicode="&#xce;" d="M-65 1589q0 2 4 6l264 322h96l264 -322q14 -14 -17 -17q-6 -1 -14 -1q-23 0 -47.5 5.5t-31.5 12.5l-197 193h-8l-199 -193q-7 -7 -32 -12.5t-48 -5.5q-36 0 -34 12zM182 1413h135v-1413h-133z" />
<glyph unicode="&#xcf;" d="M37 1681q0 35 25.5 60.5t60.5 25.5t60.5 -25.5t25.5 -60.5t-25.5 -60.5t-60.5 -25.5t-60.5 25.5t-25.5 60.5zM182 1413h135v-1413h-133zM293 1681q0 35 25.5 60.5t60.5 25.5t60.5 -25.5t25.5 -60.5t-25.5 -60.5t-60.5 -25.5t-60.5 25.5t-25.5 60.5z" />
<glyph unicode="&#xd0;" horiz-adv-x="1458" d="M2 700v80h201v633l491 21q122 0 225.5 -33t175 -90.5t125.5 -129.5t85 -155.5t46 -162.5t15 -156q0 -67 -9 -133.5t-32 -139t-58 -137t-90 -123t-124.5 -100.5t-166 -67t-210.5 -25q-127 0 -213 15.5t-258 68.5v634h-203zM338 123q71 -42 169 -70t191 -28q102 0 189.5 41 t148 109.5t103.5 157t63.5 184t20.5 190.5q0 94 -22 190t-67 184.5t-106.5 157.5t-148.5 110.5t-185 41.5q-211 0 -356 -56v-555h326v-80h-326v-577z" />
<glyph unicode="&#xd1;" horiz-adv-x="1380" d="M182 1413h152l760 -1257l-2 1257h104v-1413h-145l-764 1255l20 -1073q0 -65 -37 -123.5t-71 -58.5q-10 0 -12.5 7t-2.5 26zM461 1534q0 88 40 139t120 51q49 0 98 -16q80 -25 135 -25q98 0 98 72h27q0 -89 -39.5 -139.5t-118.5 -50.5q-50 0 -102 16q-91 27 -137 27 q-43 0 -69 -18t-26 -56h-26z" />
<glyph unicode="&#xd2;" horiz-adv-x="1452" d="M92 707q0 78 13.5 156.5t41.5 162t78.5 155.5t118.5 129.5t167 90.5t218 33q140 0 252 -48t181 -123t115.5 -174t64.5 -193.5t18 -188.5q0 -78 -13.5 -156.5t-41.5 -162t-78 -155t-117.5 -128.5t-165.5 -90t-215 -33q-103 0 -191 25t-152 67t-115 100.5t-84 123t-55 137 t-31 139.5t-9 133zM236 707q0 -120 32 -238.5t91.5 -218.5t156 -162.5t213.5 -62.5q115 0 210 62.5t154.5 162.5t91.5 219t32 238t-32 238t-91.5 219.5t-154.5 163.5t-210 63q-117 0 -213.5 -63t-156 -164t-91.5 -219.5t-32 -237.5zM487 1917q-10 16 23 24l33 3q44 0 88 -19 t65 -57l150 -273h-72z" />
<glyph unicode="&#xd3;" horiz-adv-x="1452" d="M92 707q0 78 13.5 156.5t41.5 162t78.5 155.5t118.5 129.5t167 90.5t218 33q140 0 252 -48t181 -123t115.5 -174t64.5 -193.5t18 -188.5q0 -78 -13.5 -156.5t-41.5 -162t-78 -155t-117.5 -128.5t-165.5 -90t-215 -33q-103 0 -191 25t-152 67t-115 100.5t-84 123t-55 137 t-31 139.5t-9 133zM236 707q0 -120 32 -238.5t91.5 -218.5t156 -162.5t213.5 -62.5q115 0 210 62.5t154.5 162.5t91.5 219t32 238t-32 238t-91.5 219.5t-154.5 163.5t-210 63q-117 0 -213.5 -63t-156 -164t-91.5 -219.5t-32 -237.5zM598 1595l150 273q21 38 65 57t88 19 q54 0 57 -19q1 -4 -2 -8l-286 -322h-72z" />
<glyph unicode="&#xd4;" horiz-adv-x="1452" d="M92 707q0 78 13.5 156.5t41.5 162t78.5 155.5t118.5 129.5t167 90.5t218 33q140 0 252 -48t181 -123t115.5 -174t64.5 -193.5t18 -188.5q0 -78 -13.5 -156.5t-41.5 -162t-78 -155t-117.5 -128.5t-165.5 -90t-215 -33q-103 0 -191 25t-152 67t-115 100.5t-84 123t-55 137 t-31 139.5t-9 133zM236 707q0 -120 32 -238.5t91.5 -218.5t156 -162.5t213.5 -62.5q115 0 210 62.5t154.5 162.5t91.5 219t32 238t-32 238t-91.5 219.5t-154.5 163.5t-210 63q-117 0 -213.5 -63t-156 -164t-91.5 -219.5t-32 -237.5zM412 1609l4 7l264 321h96l264 -321 q14 -14 -15 -18q-7 -1 -15 -1q-22 0 -47.5 6t-32.5 13l-197 192h-8l-199 -192q-7 -7 -32.5 -13t-47.5 -6q-36 0 -34 12z" />
<glyph unicode="&#xd5;" horiz-adv-x="1452" d="M92 707q0 78 13.5 156.5t41.5 162t78.5 155.5t118.5 129.5t167 90.5t218 33q140 0 252 -48t181 -123t115.5 -174t64.5 -193.5t18 -188.5q0 -78 -13.5 -156.5t-41.5 -162t-78 -155t-117.5 -128.5t-165.5 -90t-215 -33q-103 0 -191 25t-152 67t-115 100.5t-84 123t-55 137 t-31 139.5t-9 133zM236 707q0 -120 32 -238.5t91.5 -218.5t156 -162.5t213.5 -62.5q115 0 210 62.5t154.5 162.5t91.5 219t32 238t-32 238t-91.5 219.5t-154.5 163.5t-210 63q-117 0 -213.5 -63t-156 -164t-91.5 -219.5t-32 -237.5zM467 1597q0 88 40 139.5t120 51.5 q49 0 98 -16q80 -25 135 -25q98 0 98 72h27q0 -89 -39.5 -140t-118.5 -51q-47 0 -102 17q-87 26 -137 26q-43 0 -68.5 -18t-25.5 -56h-27z" />
<glyph unicode="&#xd6;" horiz-adv-x="1452" d="M92 707q0 78 13.5 156.5t41.5 162t78.5 155.5t118.5 129.5t167 90.5t218 33q140 0 252 -48t181 -123t115.5 -174t64.5 -193.5t18 -188.5q0 -78 -13.5 -156.5t-41.5 -162t-78 -155t-117.5 -128.5t-165.5 -90t-215 -33q-103 0 -191 25t-152 67t-115 100.5t-84 123t-55 137 t-31 139.5t-9 133zM236 707q0 -120 32 -238.5t91.5 -218.5t156 -162.5t213.5 -62.5q115 0 210 62.5t154.5 162.5t91.5 219t32 238t-32 238t-91.5 219.5t-154.5 163.5t-210 63q-117 0 -213.5 -63t-156 -164t-91.5 -219.5t-32 -237.5zM514 1702q0 35 25.5 60.5t60.5 25.5 t60.5 -25.5t25.5 -60.5t-25.5 -60.5t-60.5 -25.5t-60.5 25.5t-25.5 60.5zM770 1702q0 35 25.5 60.5t60.5 25.5t60.5 -25.5t25.5 -60.5t-25.5 -60.5t-60.5 -25.5t-60.5 25.5t-25.5 60.5z" />
<glyph unicode="&#xd7;" horiz-adv-x="958" d="M143 418l265 264l-261 262l70 72l262 -262l262 260l72 -72l-262 -262l264 -262l-72 -70l-262 262l-268 -266z" />
<glyph unicode="&#xd8;" horiz-adv-x="1452" d="M92 707q0 78 13.5 156.5t41.5 162t78.5 155.5t118.5 129.5t167 90.5t218 33t219 -35l15 37h104l-33 -76q88 -48 154 -126.5t102 -169.5t53 -180t17 -177q0 -78 -13.5 -156.5t-41.5 -162t-78 -155t-117.5 -128.5t-165.5 -90t-215 -33q-143 0 -260 49l-20 -51h-101l39 94 q-79 51 -138.5 127.5t-92.5 163.5t-48.5 172.5t-15.5 169.5zM236 707q0 -151 49 -298t141 -245l496 1175q-90 52 -193 52q-117 0 -213.5 -63t-156 -164t-91.5 -219.5t-32 -237.5zM500 98q98 -73 229 -73q115 0 210 62.5t154.5 162.5t91.5 219t32 238q0 160 -57 317.5 t-159 255.5z" />
<glyph unicode="&#xd9;" horiz-adv-x="1413" d="M182 631v782h135l-2 -741q0 -173 5 -225q24 -278 195 -362q78 -38 185 -40q73 0 132 16t99 44.5t71 67t47 83t28 93.5t14 98.5t5 97t0 89.5v38l-2 741h135v-782q0 -84 -3.5 -146t-16 -133.5t-34.5 -121.5t-61 -99.5t-92.5 -79.5t-132 -49t-178.5 -20q-102 0 -182 18.5 t-135 48.5t-94.5 79t-62 99.5t-35.5 122.5t-16.5 134t-3.5 147zM463 1896q-10 17 23 24q14 3 32 3q44 0 88.5 -19t65.5 -57l149 -272h-71z" />
<glyph unicode="&#xda;" horiz-adv-x="1413" d="M182 631v782h135l-2 -741q0 -173 5 -225q24 -278 195 -362q78 -38 185 -40q73 0 132 16t99 44.5t71 67t47 83t28 93.5t14 98.5t5 97t0 89.5v38l-2 741h135v-782q0 -84 -3.5 -146t-16 -133.5t-34.5 -121.5t-61 -99.5t-92.5 -79.5t-132 -49t-178.5 -20q-102 0 -182 18.5 t-135 48.5t-94.5 79t-62 99.5t-35.5 122.5t-16.5 134t-3.5 147zM573 1575l150 272q21 38 65.5 57t88.5 19q54 0 57 -19q1 -4 -2 -8l-287 -321h-72z" />
<glyph unicode="&#xdb;" horiz-adv-x="1413" d="M182 631v782h135l-2 -741q0 -173 5 -225q24 -278 195 -362q78 -38 185 -40q73 0 132 16t99 44.5t71 67t47 83t28 93.5t14 98.5t5 97t0 89.5v38l-2 741h135v-782q0 -84 -3.5 -146t-16 -133.5t-34.5 -121.5t-61 -99.5t-92.5 -79.5t-132 -49t-178.5 -20q-102 0 -182 18.5 t-135 48.5t-94.5 79t-62 99.5t-35.5 122.5t-16.5 134t-3.5 147zM387 1589q1 3 4 6l264 322h97l264 -322q14 -14 -17 -17q-6 -1 -14 -1q-23 0 -48 5.5t-32 12.5l-196 193h-9l-198 -193q-7 -7 -32 -12.5t-48 -5.5q-37 0 -35 12z" />
<glyph unicode="&#xdc;" horiz-adv-x="1413" d="M182 631v782h135l-2 -741q0 -173 5 -225q24 -278 195 -362q78 -38 185 -40q73 0 132 16t99 44.5t71 67t47 83t28 93.5t14 98.5t5 97t0 89.5v38l-2 741h135v-782q0 -84 -3.5 -146t-16 -133.5t-34.5 -121.5t-61 -99.5t-92.5 -79.5t-132 -49t-178.5 -20q-102 0 -182 18.5 t-135 48.5t-94.5 79t-62 99.5t-35.5 122.5t-16.5 134t-3.5 147zM489 1681q0 35 25.5 60.5t60.5 25.5t61 -25.5t26 -60.5t-26 -60.5t-61 -25.5t-60.5 25.5t-25.5 60.5zM745 1681q0 35 25.5 60.5t60.5 25.5t61 -25.5t26 -60.5t-26 -60.5t-61 -25.5t-60.5 25.5t-25.5 60.5z" />
<glyph unicode="&#xdd;" horiz-adv-x="1261" d="M20 1413h175l467 -754l395 693q28 44 79.5 63t92.5 19q18 0 4 -21l-539 -856v-557h-133l-2 557zM492 1575l149 272q21 38 65.5 57t88.5 19q54 0 57 -19q1 -4 -2 -8l-287 -321h-71z" />
<glyph unicode="&#xde;" horiz-adv-x="1224" d="M188 0v1487h129v-270h306q232 0 373 -123t141 -351q0 -229 -141 -352t-373 -123h-306v-268h-129zM317 338h269q213 0 317.5 100t104.5 305q0 406 -422 406h-269v-811z" />
<glyph unicode="&#xdf;" horiz-adv-x="1196" d="M152 0v874q0 249 114.5 398t298.5 149q181 0 282 -82t101 -209q0 -60 -23 -108.5t-55 -79t-64.5 -56.5t-55.5 -53.5t-23 -56.5q0 -22 21.5 -44t55.5 -42.5t75 -44t82.5 -53.5t75.5 -65t55.5 -84.5t21.5 -106.5q0 -154 -102 -256.5t-256 -102.5q-87 0 -167.5 39t-125.5 88 l45 41q45 -51 121 -83.5t133 -32.5q59 0 103.5 24.5t69 64t36.5 83.5t12 90q0 67 -19.5 120.5t-50.5 88t-69 62.5t-76 50t-69 44.5t-50.5 52.5t-19.5 67q0 41 19 75.5t46 62.5t54 58.5t46 78.5t19 108q0 94 -80.5 153.5t-179.5 59.5q-74 0 -127.5 -38.5t-84 -108.5 t-44.5 -156.5t-14 -194.5l-4 -874h-127z" />
<glyph unicode="&#xe0;" horiz-adv-x="884" d="M88 203q0 51 23.5 96.5t60.5 78.5t89 62t101 47.5t104.5 34t93 23t71.5 12.5v66q0 53 -7.5 94.5t-18 68t-30 45.5t-34.5 28t-40 14t-38.5 5.5t-38.5 0.5q-70 0 -112.5 -40t-63.5 -91q-3 -6 -10.5 -24.5t-12 -28.5t-12 -26.5t-13.5 -26t-12.5 -20t-12.5 -15.5t-11 -5 q-21 0 -31 36.5t-7 76.5t15 53q126 154 340 154q134 0 209.5 -101t75.5 -266v-555q0 -4 -12 -4q-37 0 -80 33.5t-43 101.5v45q-18 -41 -39 -71.5t-54 -60t-82 -45t-112 -15.5q-256 0 -256 219zM199 1405q-10 17 23 24q14 3 32 3q44 0 88.5 -19t65.5 -57l149 -273h-72z M231 182q0 -73 32.5 -113t98.5 -40q53 0 99 25.5t76.5 64.5t52.5 85.5t32 89t9 75.5v147q-400 -78 -400 -334z" />
<glyph unicode="&#xe1;" horiz-adv-x="884" d="M88 203q0 51 23.5 96.5t60.5 78.5t89 62t101 47.5t104.5 34t93 23t71.5 12.5v66q0 53 -7.5 94.5t-18 68t-30 45.5t-34.5 28t-40 14t-38.5 5.5t-38.5 0.5q-70 0 -112.5 -40t-63.5 -91q-3 -6 -10.5 -24.5t-12 -28.5t-12 -26.5t-13.5 -26t-12.5 -20t-12.5 -15.5t-11 -5 q-21 0 -31 36.5t-7 76.5t15 53q126 154 340 154q134 0 209.5 -101t75.5 -266v-555q0 -4 -12 -4q-37 0 -80 33.5t-43 101.5v45q-18 -41 -39 -71.5t-54 -60t-82 -45t-112 -15.5q-256 0 -256 219zM231 182q0 -73 32.5 -113t98.5 -40q53 0 99 25.5t76.5 64.5t52.5 85.5t32 89 t9 75.5v147q-400 -78 -400 -334zM309 1083l150 273q21 38 65 57t88 19q53 0 58 -18l-2 -9l-287 -322h-72z" />
<glyph unicode="&#xe2;" horiz-adv-x="884" d="M88 203q0 51 23.5 96.5t60.5 78.5t89 62t101 47.5t104.5 34t93 23t71.5 12.5v66q0 53 -7.5 94.5t-18 68t-30 45.5t-34.5 28t-40 14t-38.5 5.5t-38.5 0.5q-70 0 -112.5 -40t-63.5 -91q-3 -6 -10.5 -24.5t-12 -28.5t-12 -26.5t-13.5 -26t-12.5 -20t-12.5 -15.5t-11 -5 q-21 0 -31 36.5t-7 76.5t15 53q126 154 340 154q134 0 209.5 -101t75.5 -266v-555q0 -4 -12 -4q-37 0 -80 33.5t-43 101.5v45q-18 -41 -39 -71.5t-54 -60t-82 -45t-112 -15.5q-256 0 -256 219zM123 1098l4 6l264 321h96l265 -321q14 -14 -15 -18l-16 -1q-22 0 -47.5 6 t-32.5 13l-197 192h-8l-198 -192q-7 -7 -32.5 -13t-47.5 -6q-37 0 -35 13zM231 182q0 -73 32.5 -113t98.5 -40q53 0 99 25.5t76.5 64.5t52.5 85.5t32 89t9 75.5v147q-400 -78 -400 -334z" />
<glyph unicode="&#xe3;" horiz-adv-x="884" d="M88 203q0 51 23.5 96.5t60.5 78.5t89 62t101 47.5t104.5 34t93 23t71.5 12.5v66q0 53 -7.5 94.5t-18 68t-30 45.5t-34.5 28t-40 14t-38.5 5.5t-38.5 0.5q-70 0 -112.5 -40t-63.5 -91q-3 -6 -10.5 -24.5t-12 -28.5t-12 -26.5t-13.5 -26t-12.5 -20t-12.5 -15.5t-11 -5 q-21 0 -31 36.5t-7 76.5t15 53q126 154 340 154q134 0 209.5 -101t75.5 -266v-555q0 -4 -12 -4q-37 0 -80 33.5t-43 101.5v45q-18 -41 -39 -71.5t-54 -60t-82 -45t-112 -15.5q-256 0 -256 219zM178 1085q0 88 40 139.5t120 51.5q49 0 98 -16q80 -25 135 -25q99 0 99 72h26 q0 -90 -39 -140.5t-118 -50.5q-48 0 -103 17q-87 26 -137 26q-43 0 -68.5 -18t-25.5 -56h-27zM231 182q0 -73 32.5 -113t98.5 -40q53 0 99 25.5t76.5 64.5t52.5 85.5t32 89t9 75.5v147q-400 -78 -400 -334z" />
<glyph unicode="&#xe4;" horiz-adv-x="884" d="M88 203q0 51 23.5 96.5t60.5 78.5t89 62t101 47.5t104.5 34t93 23t71.5 12.5v66q0 53 -7.5 94.5t-18 68t-30 45.5t-34.5 28t-40 14t-38.5 5.5t-38.5 0.5q-70 0 -112.5 -40t-63.5 -91q-3 -6 -10.5 -24.5t-12 -28.5t-12 -26.5t-13.5 -26t-12.5 -20t-12.5 -15.5t-11 -5 q-21 0 -31 36.5t-7 76.5t15 53q126 154 340 154q134 0 209.5 -101t75.5 -266v-555q0 -4 -12 -4q-37 0 -80 33.5t-43 101.5v45q-18 -41 -39 -71.5t-54 -60t-82 -45t-112 -15.5q-256 0 -256 219zM225 1190q0 35 25.5 60.5t60.5 25.5t60.5 -25.5t25.5 -60.5t-25.5 -60.5 t-60.5 -25.5t-60.5 25.5t-25.5 60.5zM231 182q0 -73 32.5 -113t98.5 -40q53 0 99 25.5t76.5 64.5t52.5 85.5t32 89t9 75.5v147q-400 -78 -400 -334zM481 1190q0 35 25.5 60.5t60.5 25.5t60.5 -25.5t25.5 -60.5t-25.5 -60.5t-60.5 -25.5t-60.5 25.5t-25.5 60.5z" />
<glyph unicode="&#xe5;" horiz-adv-x="884" d="M88 203q0 51 23.5 96.5t60.5 78.5t89 62t101 47.5t104.5 34t93 23t71.5 12.5v66q0 53 -7.5 94.5t-18 68t-30 45.5t-34.5 28t-40 14t-38.5 5.5t-38.5 0.5q-70 0 -112.5 -40t-63.5 -91q-3 -6 -10.5 -24.5t-12 -28.5t-12 -26.5t-13.5 -26t-12.5 -20t-12.5 -15.5t-11 -5 q-21 0 -31 36.5t-7 76.5t15 53q126 154 340 154q134 0 209.5 -101t75.5 -266v-555q0 -4 -12 -4q-37 0 -80 33.5t-43 101.5v45q-18 -41 -39 -71.5t-54 -60t-82 -45t-112 -15.5q-256 0 -256 219zM231 182q0 -73 32.5 -113t98.5 -40q53 0 99 25.5t76.5 64.5t52.5 85.5t32 89 t9 75.5v147q-400 -78 -400 -334zM236 1288q0 86 58 144.5t146 58.5q85 0 144 -59t59 -144q0 -88 -58.5 -146.5t-144.5 -58.5q-89 0 -146.5 58t-57.5 147zM326 1288q0 -47 33.5 -79.5t80.5 -32.5q46 0 79.5 32.5t33.5 79.5t-33.5 80t-79.5 33q-47 0 -80.5 -33t-33.5 -80z" />
<glyph unicode="&#xe6;" horiz-adv-x="1406" d="M47 203q0 51 23.5 96.5t60.5 78.5t89 62t101 47.5t104.5 34t93 23t71.5 12.5v66q0 53 -7.5 94.5t-18 68t-30 45.5t-34.5 28t-40 14t-38.5 5.5t-38.5 0.5q-51 0 -89.5 -20.5t-58 -51.5t-34.5 -66.5t-23.5 -66.5t-22.5 -51.5t-32 -20.5q-21 0 -31 36.5t-7 76.5t15 53 q126 154 340 154q83 0 144.5 -41t97.5 -115q109 156 319 156q57 0 105 -16t82.5 -41.5t63 -63.5t46.5 -76.5t32.5 -86t22 -85.5t13.5 -82h-633v-20q0 -48 7.5 -101t26.5 -112t48 -105.5t77.5 -77t108.5 -30.5q81 0 147.5 47.5t100.5 120.5q8 20 34.5 33.5t47.5 13.5 q6 0 9.5 -3.5t2.5 -7.5q-22 -55 -48 -95.5t-65.5 -77t-97 -55.5t-131.5 -19q-78 0 -143 21.5t-110 60.5t-75.5 85t-49.5 103q-22 -60 -48.5 -105t-64 -83.5t-90 -59t-117.5 -20.5q-256 0 -256 219zM190 182q0 -72 33 -112.5t99 -40.5q39 0 84.5 27.5t87 77t69 130 t27.5 174.5v78q-400 -78 -400 -334zM737 522h506q-9 64 -24 120t-42 113t-72.5 90.5t-103.5 33.5q-64 0 -114 -33.5t-79.5 -89.5t-46 -113t-24.5 -121z" />
<glyph unicode="&#xe7;" horiz-adv-x="946" d="M88 451q0 61 15 123.5t49.5 125.5t84 112t125.5 79.5t168 30.5q142 0 277 -105q23 -18 31 -68t-1 -92.5t-28 -42.5t-39 23t-44.5 67t-29.5 52q-1 1 -14 23t-23.5 34t-29.5 30t-45.5 27t-57.5 9q-75 0 -134 -40t-92.5 -104t-51 -137t-17.5 -147t16.5 -146.5t50 -136.5 t92.5 -103.5t134 -39.5q81 0 147.5 47.5t100.5 120.5q8 20 34.5 33.5t47.5 13.5q6 0 9.5 -3.5t2.5 -7.5q-42 -108 -110.5 -171.5t-190.5 -73.5l-49 -127q20 0 39.5 -5t40 -17t33 -36t12.5 -57q0 -40 -22 -68.5t-59 -43.5t-77.5 -22t-85.5 -7q-49 0 -86 6l17 49q32 -4 53 -4 q57 0 96 21t39 63q0 44 -23 63t-69 19q-4 0 -14 -1t-15 -1l68 170q-97 12 -172.5 61t-118 118t-63.5 142t-21 144z" />
<glyph unicode="&#xe8;" horiz-adv-x="946" d="M88 451q0 62 12 123.5t42 125.5t75 112t118 79t165 31q66 0 120 -20t91 -57.5t64 -79.5t44.5 -97.5t27.5 -99.5t17 -97h-633v-20q0 -48 7.5 -101t27 -112t48.5 -105.5t77.5 -77t108.5 -30.5q81 0 147.5 47.5t100.5 120.5q8 20 34 33.5t47 13.5q6 0 10 -3.5t3 -7.5 q-22 -55 -48 -95.5t-65.5 -77t-97 -55.5t-131.5 -19q-92 0 -165 31t-118 79t-75 112t-42 125t-12 122zM236 522h505q-9 65 -24 120.5t-42 112.5t-72 90.5t-103 33.5q-64 0 -114 -33.5t-79.5 -89.5t-46 -113t-24.5 -121zM260 1405q-10 17 23 24q14 3 32 3q44 0 88.5 -19 t65.5 -57l149 -273h-71z" />
<glyph unicode="&#xe9;" horiz-adv-x="946" d="M88 451q0 62 12 123.5t42 125.5t75 112t118 79t165 31q66 0 120 -20t91 -57.5t64 -79.5t44.5 -97.5t27.5 -99.5t17 -97h-633v-20q0 -48 7.5 -101t27 -112t48.5 -105.5t77.5 -77t108.5 -30.5q81 0 147.5 47.5t100.5 120.5q8 20 34 33.5t47 13.5q6 0 10 -3.5t3 -7.5 q-22 -55 -48 -95.5t-65.5 -77t-97 -55.5t-131.5 -19q-92 0 -165 31t-118 79t-75 112t-42 125t-12 122zM236 522h505q-9 65 -24 120.5t-42 112.5t-72 90.5t-103 33.5q-64 0 -114 -33.5t-79.5 -89.5t-46 -113t-24.5 -121zM371 1083l149 273q21 38 65.5 57t88.5 19q54 0 57 -19 q1 -4 -2 -8l-287 -322h-71z" />
<glyph unicode="&#xea;" horiz-adv-x="946" d="M88 451q0 62 12 123.5t42 125.5t75 112t118 79t165 31q66 0 120 -20t91 -57.5t64 -79.5t44.5 -97.5t27.5 -99.5t17 -97h-633v-20q0 -48 7.5 -101t27 -112t48.5 -105.5t77.5 -77t108.5 -30.5q81 0 147.5 47.5t100.5 120.5q8 20 34 33.5t47 13.5q6 0 10 -3.5t3 -7.5 q-22 -55 -48 -95.5t-65.5 -77t-97 -55.5t-131.5 -19q-92 0 -165 31t-118 79t-75 112t-42 125t-12 122zM184 1098l4 6l265 321h96l264 -321q14 -14 -15 -18l-16 -1q-22 0 -47.5 6t-32.5 13l-196 192h-8l-199 -192q-7 -7 -32.5 -13t-47.5 -6q-37 0 -35 13zM236 522h505 q-9 65 -24 120.5t-42 112.5t-72 90.5t-103 33.5q-64 0 -114 -33.5t-79.5 -89.5t-46 -113t-24.5 -121z" />
<glyph unicode="&#xeb;" horiz-adv-x="946" d="M88 451q0 62 12 123.5t42 125.5t75 112t118 79t165 31q66 0 120 -20t91 -57.5t64 -79.5t44.5 -97.5t27.5 -99.5t17 -97h-633v-20q0 -48 7.5 -101t27 -112t48.5 -105.5t77.5 -77t108.5 -30.5q81 0 147.5 47.5t100.5 120.5q8 20 34 33.5t47 13.5q6 0 10 -3.5t3 -7.5 q-22 -55 -48 -95.5t-65.5 -77t-97 -55.5t-131.5 -19q-92 0 -165 31t-118 79t-75 112t-42 125t-12 122zM236 522h505q-9 65 -24 120.5t-42 112.5t-72 90.5t-103 33.5q-64 0 -114 -33.5t-79.5 -89.5t-46 -113t-24.5 -121zM287 1190q0 35 25.5 60.5t60.5 25.5t60.5 -25.5 t25.5 -60.5t-25.5 -60.5t-60.5 -25.5t-60.5 25.5t-25.5 60.5zM543 1190q0 35 25.5 60.5t60.5 25.5t60.5 -25.5t25.5 -60.5t-25.5 -60.5t-60.5 -25.5t-60.5 25.5t-25.5 60.5z" />
<glyph unicode="&#xec;" d="M45 1405q-10 17 23 24q14 3 32 3q44 0 88.5 -19t65.5 -57l149 -273h-71zM168 821q1 9 8 15q107 84 131 84q8 0 8 -7v-913h-133l-4 719q0 24 -3 47.5t-5.5 34.5t-1.5 20z" />
<glyph unicode="&#xed;" d="M74 1083l149 273q21 38 65.5 57t88.5 19q54 0 57 -19q1 -4 -2 -8l-287 -322h-71zM168 821q1 9 8 15q107 84 131 84q8 0 8 -7v-913h-133l-4 719q0 24 -3 47.5t-5.5 34.5t-1.5 20z" />
<glyph unicode="&#xee;" d="M-72 1098l4 6l265 321h96l264 -321q14 -14 -15 -18l-16 -1q-22 0 -47.5 6t-32.5 13l-196 192h-8l-199 -192q-7 -7 -32.5 -13t-47.5 -6q-37 0 -35 13zM168 821q1 9 8 15q107 84 131 84q8 0 8 -7v-913h-133l-4 719q0 24 -3 47.5t-5.5 34.5t-1.5 20z" />
<glyph unicode="&#xef;" d="M51 1190q0 35 25.5 60.5t60.5 25.5t60.5 -25.5t25.5 -60.5t-25.5 -60.5t-60.5 -25.5t-60.5 25.5t-25.5 60.5zM168 821q1 9 8 15q107 84 131 84q8 0 8 -7v-913h-133l-4 719q0 24 -3 47.5t-5.5 34.5t-1.5 20zM266 1190q0 35 25.5 60.5t60.5 25.5t60.5 -25.5t25.5 -60.5 t-25.5 -60.5t-60.5 -25.5t-60.5 25.5t-25.5 60.5z" />
<glyph unicode="&#xf0;" horiz-adv-x="1183" d="M123 459q0 128 43.5 230t137.5 165.5t226 63.5q68 0 128 -20t102.5 -50.5t78 -71.5t56.5 -77.5t35 -73.5q0 382 -187 602l-251 -146l-31 54l239 137q-173 164 -419 164l20 57q274 0 477 -176l234 135l30 -53l-219 -125q238 -250 238 -662q0 -141 -29 -255.5t-86.5 -199.5 t-150.5 -131t-215 -46q-137 0 -242 64.5t-160 173t-55 241.5zM258 473q0 -227 82 -336.5t250 -109.5q138 0 228.5 117t90.5 323q0 91 -48 180.5t-124.5 146t-154.5 56.5q-148 0 -236 -101t-88 -276z" />
<glyph unicode="&#xf1;" horiz-adv-x="1083" d="M162.5 822q0.5 10 7.5 16q107 84 131 84q8 0 8 -9v-335q8 48 28 102t54 111t89.5 94t121.5 37q73 0 130 -26.5t92 -70t57.5 -104.5t31.5 -124.5t9 -135.5l-2 -461h-129v459q0 65 -5 117t-19 101t-36 82t-57 52.5t-82 19.5q-60 0 -107.5 -30.5t-77 -83t-50.5 -112 t-30.5 -127.5t-13.5 -117.5t-4 -94.5v-266h-133l-2 717q0 24 -3.5 48t-6 35.5t-2 21.5zM319 1042q0 88 40 139.5t120 51.5q50 0 99 -16q80 -25 135 -25q98 0 98 72h27q0 -89 -39.5 -140t-118.5 -51q-47 0 -102 17q-87 26 -138 26q-43 0 -68.5 -18t-25.5 -56h-27z" />
<glyph unicode="&#xf2;" horiz-adv-x="997" d="M88 451q0 62 12 123.5t42 125.5t75 112t118 79t165 31q91 0 164 -31t117.5 -79t74.5 -112t41.5 -125.5t11.5 -123.5q0 -61 -11.5 -122t-41.5 -125t-74.5 -112t-117.5 -79t-164 -31q-92 0 -165 31t-118 79t-75 112t-42 125t-12 122zM231 451q0 -48 7.5 -101t27 -112 t48.5 -105.5t77.5 -77t108.5 -30.5t107.5 30.5t76.5 77t48 105.5t26.5 112t7.5 101q0 49 -7.5 102.5t-26.5 113t-48 105.5t-76.5 76.5t-107.5 30.5t-108.5 -30.5t-77.5 -76.5t-48.5 -105.5t-27 -113t-7.5 -102.5zM258 1405q-10 17 23 24q14 3 32 3q44 0 88.5 -19t65.5 -57 l149 -273h-71z" />
<glyph unicode="&#xf3;" horiz-adv-x="997" d="M88 451q0 62 12 123.5t42 125.5t75 112t118 79t165 31q91 0 164 -31t117.5 -79t74.5 -112t41.5 -125.5t11.5 -123.5q0 -61 -11.5 -122t-41.5 -125t-74.5 -112t-117.5 -79t-164 -31q-92 0 -165 31t-118 79t-75 112t-42 125t-12 122zM231 451q0 -48 7.5 -101t27 -112 t48.5 -105.5t77.5 -77t108.5 -30.5t107.5 30.5t76.5 77t48 105.5t26.5 112t7.5 101q0 49 -7.5 102.5t-26.5 113t-48 105.5t-76.5 76.5t-107.5 30.5t-108.5 -30.5t-77.5 -76.5t-48.5 -105.5t-27 -113t-7.5 -102.5zM369 1083l149 273q21 38 65.5 57t88.5 19q54 0 57 -19 q1 -4 -2 -8l-287 -322h-71z" />
<glyph unicode="&#xf4;" horiz-adv-x="997" d="M88 451q0 62 12 123.5t42 125.5t75 112t118 79t165 31q91 0 164 -31t117.5 -79t74.5 -112t41.5 -125.5t11.5 -123.5q0 -61 -11.5 -122t-41.5 -125t-74.5 -112t-117.5 -79t-164 -31q-92 0 -165 31t-118 79t-75 112t-42 125t-12 122zM182 1098l4 6l265 321h96l264 -321 q14 -14 -15 -18l-16 -1q-22 0 -47.5 6t-32.5 13l-196 192h-8l-199 -192q-7 -7 -32.5 -13t-47.5 -6q-37 0 -35 13zM231 451q0 -48 7.5 -101t27 -112t48.5 -105.5t77.5 -77t108.5 -30.5t107.5 30.5t76.5 77t48 105.5t26.5 112t7.5 101q0 49 -7.5 102.5t-26.5 113t-48 105.5 t-76.5 76.5t-107.5 30.5t-108.5 -30.5t-77.5 -76.5t-48.5 -105.5t-27 -113t-7.5 -102.5z" />
<glyph unicode="&#xf5;" horiz-adv-x="997" d="M88 451q0 62 12 123.5t42 125.5t75 112t118 79t165 31q91 0 164 -31t117.5 -79t74.5 -112t41.5 -125.5t11.5 -123.5q0 -61 -11.5 -122t-41.5 -125t-74.5 -112t-117.5 -79t-164 -31q-92 0 -165 31t-118 79t-75 112t-42 125t-12 122zM231 451q0 -48 7.5 -101t27 -112 t48.5 -105.5t77.5 -77t108.5 -30.5t107.5 30.5t76.5 77t48 105.5t26.5 112t7.5 101q0 49 -7.5 102.5t-26.5 113t-48 105.5t-76.5 76.5t-107.5 30.5t-108.5 -30.5t-77.5 -76.5t-48.5 -105.5t-27 -113t-7.5 -102.5zM238 1085q0 89 39.5 140t119.5 51q50 0 99 -16 q80 -25 135 -25q98 0 98 72h27q0 -89 -39.5 -140t-118.5 -51q-47 0 -102 17q-87 26 -138 26q-43 0 -68.5 -18t-25.5 -56h-26z" />
<glyph unicode="&#xf6;" horiz-adv-x="997" d="M88 451q0 62 12 123.5t42 125.5t75 112t118 79t165 31q91 0 164 -31t117.5 -79t74.5 -112t41.5 -125.5t11.5 -123.5q0 -61 -11.5 -122t-41.5 -125t-74.5 -112t-117.5 -79t-164 -31q-92 0 -165 31t-118 79t-75 112t-42 125t-12 122zM231 451q0 -48 7.5 -101t27 -112 t48.5 -105.5t77.5 -77t108.5 -30.5t107.5 30.5t76.5 77t48 105.5t26.5 112t7.5 101q0 49 -7.5 102.5t-26.5 113t-48 105.5t-76.5 76.5t-107.5 30.5t-108.5 -30.5t-77.5 -76.5t-48.5 -105.5t-27 -113t-7.5 -102.5zM285 1190q0 35 25.5 60.5t60.5 25.5t60.5 -25.5t25.5 -60.5 t-25.5 -60.5t-60.5 -25.5t-60.5 25.5t-25.5 60.5zM541 1190q0 35 25.5 60.5t60.5 25.5t60.5 -25.5t25.5 -60.5t-25.5 -60.5t-60.5 -25.5t-60.5 25.5t-25.5 60.5z" />
<glyph unicode="&#xf7;" horiz-adv-x="989" d="M143 649v80h703v-80h-703zM410 377q0 35 25.5 60.5t60.5 25.5t60.5 -25.5t25.5 -60.5t-25.5 -60.5t-60.5 -25.5t-60.5 25.5t-25.5 60.5zM410 997q0 35 25.5 60.5t60.5 25.5t60.5 -25.5t25.5 -60.5t-25.5 -60.5t-60.5 -25.5t-60.5 25.5t-25.5 60.5z" />
<glyph unicode="&#xf8;" horiz-adv-x="997" d="M88 451q0 62 12 123.5t42 125.5t75 112t118 79t165 31q74 0 135 -21l24 62h84l-38 -93q106 -61 155 -178.5t49 -240.5q0 -61 -11.5 -122t-41.5 -125t-74.5 -112t-117.5 -79t-164 -31q-89 0 -162 28l-12 -30h-80l26 65q-66 43 -109 116.5t-59 144.5t-16 145zM231 451 q0 -76 19.5 -163.5t60.5 -152.5l299 711q-51 33 -110 33q-60 0 -108.5 -30.5t-77.5 -76.5t-48.5 -105.5t-27 -113t-7.5 -102.5zM365 74q58 -49 135 -49q60 0 107.5 30.5t76.5 77t48 105.5t26.5 112t7.5 101q0 85 -23.5 180.5t-72.5 159.5z" />
<glyph unicode="&#xf9;" horiz-adv-x="1009" d="M143 440l2 463h129v-461q0 -83 9 -151.5t30 -130t62 -96.5t98 -35t103 30.5t75.5 84t50.5 113t32 129.5t16 122.5t6 101.5v293h133l2 -903q0 -6 -10 -6q-33 0 -79 46.5t-46 121.5v123q-7 -35 -20 -72t-38 -80t-56.5 -76t-78 -55t-100.5 -22q-73 0 -130 26.5t-92 69.5 t-57.5 104t-31.5 124.5t-9 135.5zM268 1386q-10 16 23 24l33 3q44 0 88 -19t65 -57l150 -272h-72z" />
<glyph unicode="&#xfa;" horiz-adv-x="1009" d="M143 440l2 463h129v-461q0 -83 9 -151.5t30 -130t62 -96.5t98 -35t103 30.5t75.5 84t50.5 113t32 129.5t16 122.5t6 101.5v293h133l2 -903q0 -6 -10 -6q-33 0 -79 46.5t-46 121.5v123q-7 -35 -20 -72t-38 -80t-56.5 -76t-78 -55t-100.5 -22q-73 0 -130 26.5t-92 69.5 t-57.5 104t-31.5 124.5t-9 135.5zM379 1065l149 272q21 38 65.5 57t88.5 19q54 0 57 -19q1 -4 -2 -8l-286 -321h-72z" />
<glyph unicode="&#xfb;" horiz-adv-x="1009" d="M143 440l2 463h129v-461q0 -83 9 -151.5t30 -130t62 -96.5t98 -35t103 30.5t75.5 84t50.5 113t32 129.5t16 122.5t6 101.5v293h133l2 -903q0 -6 -10 -6q-33 0 -79 46.5t-46 121.5v123q-7 -35 -20 -72t-38 -80t-56.5 -76t-78 -55t-100.5 -22q-73 0 -130 26.5t-92 69.5 t-57.5 104t-31.5 124.5t-9 135.5zM193 1079q0 2 4 6l264 322h96l264 -322q14 -14 -15 -17l-15 -1q-23 0 -48 5.5t-32 12.5l-197 193h-8l-199 -193q-7 -7 -32 -12.5t-48 -5.5q-36 0 -34 12z" />
<glyph unicode="&#xfc;" horiz-adv-x="1009" d="M143 440l2 463h129v-461q0 -83 9 -151.5t30 -130t62 -96.5t98 -35t103 30.5t75.5 84t50.5 113t32 129.5t16 122.5t6 101.5v293h133l2 -903q0 -6 -10 -6q-33 0 -79 46.5t-46 121.5v123q-7 -35 -20 -72t-38 -80t-56.5 -76t-78 -55t-100.5 -22q-73 0 -130 26.5t-92 69.5 t-57.5 104t-31.5 124.5t-9 135.5zM295 1171q0 35 25.5 60.5t60.5 25.5t60.5 -25.5t25.5 -60.5t-25.5 -60.5t-60.5 -25.5t-60.5 25.5t-25.5 60.5zM551 1171q0 35 25.5 60.5t60.5 25.5t60.5 -25.5t25.5 -60.5t-25.5 -60.5t-60.5 -25.5t-60.5 25.5t-25.5 60.5z" />
<glyph unicode="&#xfd;" horiz-adv-x="940" d="M18 908.5q0 2.5 4 4.5t13 2q140 0 188 -108l264 -688l314 784h135l-576 -1427h-129l220 549l-431 878q-2 3 -2 5.5zM369 1065l149 272q21 38 65.5 57t88.5 19q54 0 57 -19q1 -4 -2 -8l-287 -321h-71z" />
<glyph unicode="&#xfe;" horiz-adv-x="1124" d="M164 -436v1925h129v-764q1 27 11.5 62.5t35.5 78.5t60.5 78.5t94 59.5t128.5 24q97 0 170.5 -42.5t117.5 -116.5t66 -167t22 -202q0 -93 -23 -181.5t-67 -164t-118.5 -121t-167.5 -45.5q-68 0 -125.5 21.5t-93.5 54t-61.5 72.5t-37 75.5t-12.5 64.5v-712h-129zM293 451 q0 -63 18.5 -133t53 -134.5t91 -106.5t124.5 -42q75 0 132.5 45.5t89 118.5t47 150.5t15.5 154.5q0 65 -6 124.5t-24.5 126t-49 114.5t-83.5 80t-123 32q-66 0 -122 -48t-89.5 -120.5t-52.5 -146.5t-21 -136v-79z" />
<glyph unicode="&#xff;" horiz-adv-x="940" d="M18 908.5q0 2.5 4 4.5t13 2q140 0 188 -108l264 -688l314 784h135l-576 -1427h-129l220 549l-431 878q-2 3 -2 5.5zM285 1171q0 35 25.5 60.5t60.5 25.5t60.5 -25.5t25.5 -60.5t-25.5 -60.5t-60.5 -25.5t-60.5 25.5t-25.5 60.5zM541 1171q0 35 25.5 60.5t60.5 25.5 t60.5 -25.5t25.5 -60.5t-25.5 -60.5t-60.5 -25.5t-60.5 25.5t-25.5 60.5z" />
<glyph unicode="&#x152;" horiz-adv-x="1912" d="M72 707q0 78 13.5 156.5t41.5 162t78.5 155.5t118.5 129.5t167 90.5t218 33q146 0 272 -60v39h862q50 0 17 -43q-42 -55 -205 -55q-44 0 -113 11.5t-178.5 23t-247.5 12.5v-637h576v-72h-576v-602q151 0 270 11.5t193.5 23.5t116.5 12q167 0 202 -47q17 -25 11.5 -38 t-25.5 -13h-901v45q-120 -63 -274 -63q-103 0 -191 25t-152 67t-115 100.5t-84 123t-55 137t-31 139.5t-9 133zM215 707q0 -95 19.5 -190.5t61 -184t98.5 -157t139 -109.5t176 -41q85 0 150 30.5t124 91.5l-2 1121q-60 61 -123.5 92t-148.5 31q-94 0 -176 -41.5t-139 -110.5 t-98.5 -158t-61 -184.5t-19.5 -189.5z" />
<glyph unicode="&#x153;" horiz-adv-x="1505" d="M27 451q0 62 11.5 123.5t41.5 125.5t75 112t118 79t165 31q230 0 340 -191q110 191 342 191q57 0 105 -16t82.5 -41.5t63 -63.5t46.5 -76.5t32.5 -86t22 -85.5t13.5 -82h-633v-20q0 -48 7.5 -101t26.5 -112t48 -105.5t77.5 -77t108.5 -30.5q81 0 147.5 47.5t100.5 120.5 q8 20 34.5 33.5t47.5 13.5q6 0 9.5 -3.5t2.5 -7.5q-22 -55 -48 -95.5t-65.5 -77t-97 -55.5t-131.5 -19q-232 0 -342 188q-110 -188 -340 -188q-92 0 -165 31t-118 79t-75 112t-41.5 125t-11.5 122zM170 451q0 -48 7.5 -101t26.5 -112t48 -105.5t77.5 -77t108.5 -30.5 t108 30.5t77 77t48 105.5t26.5 112t7.5 101q0 63 -13 131t-41.5 138t-83.5 114.5t-129 44.5q-60 0 -108.5 -30.5t-77.5 -76.5t-48 -105.5t-26.5 -113t-7.5 -102.5zM856 522h506q-9 64 -24 120t-42 113t-72.5 90.5t-103.5 33.5q-64 0 -114 -33.5t-79.5 -89.5t-46 -113 t-24.5 -121z" />
<glyph unicode="&#x178;" horiz-adv-x="1261" d="M20 1413h175l467 -754l395 693q28 44 79.5 63t92.5 19q18 0 4 -21l-539 -856v-557h-133l-2 557zM408 1681q0 35 25.5 60.5t60.5 25.5t60.5 -25.5t25.5 -60.5t-25.5 -60.5t-60.5 -25.5t-60.5 25.5t-25.5 60.5zM664 1681q0 35 25.5 60.5t60.5 25.5t60.5 -25.5t25.5 -60.5 t-25.5 -60.5t-60.5 -25.5t-60.5 25.5t-25.5 60.5z" />
<glyph unicode="&#x2c6;" horiz-adv-x="800" d="M84 1084l4 6l264 321h97l264 -321q14 -14 -15 -18l-16 -1q-22 0 -47.5 6t-32.5 13l-196 192h-9l-198 -192q-7 -7 -32.5 -13t-47.5 -6q-37 0 -35 13z" />
<glyph unicode="&#x2dc;" horiz-adv-x="681" d="M82 1157q0 88 40 139.5t120 51.5q46 0 98 -17q77 -24 135 -24q98 0 98 71h27q0 -89 -39.5 -139.5t-118.5 -50.5q-50 0 -102 16q-91 27 -137 27q-43 0 -68.5 -18t-25.5 -56h-27z" />
<glyph unicode="&#x2000;" horiz-adv-x="972" />
<glyph unicode="&#x2001;" horiz-adv-x="1944" />
<glyph unicode="&#x2002;" horiz-adv-x="972" />
<glyph unicode="&#x2003;" horiz-adv-x="1944" />
<glyph unicode="&#x2004;" horiz-adv-x="648" />
<glyph unicode="&#x2005;" horiz-adv-x="486" />
<glyph unicode="&#x2006;" horiz-adv-x="324" />
<glyph unicode="&#x2007;" horiz-adv-x="324" />
<glyph unicode="&#x2008;" horiz-adv-x="243" />
<glyph unicode="&#x2009;" horiz-adv-x="388" />
<glyph unicode="&#x200a;" horiz-adv-x="108" />
<glyph unicode="&#x2010;" horiz-adv-x="948" d="M143 547v80h662v-80h-662z" />
<glyph unicode="&#x2011;" horiz-adv-x="948" d="M143 547v80h662v-80h-662z" />
<glyph unicode="&#x2012;" horiz-adv-x="948" d="M143 547v80h662v-80h-662z" />
<glyph unicode="&#x2013;" horiz-adv-x="1150" d="M143 547v80h865v-80h-865z" />
<glyph unicode="&#x2014;" horiz-adv-x="1585" d="M143 547v80h1299v-80h-1299z" />
<glyph unicode="&#x2018;" horiz-adv-x="299" d="M82 1092v86l63 317h72v-403h-135z" />
<glyph unicode="&#x2019;" horiz-adv-x="299" d="M82 1092v403h135v-86l-63 -317h-72z" />
<glyph unicode="&#x201a;" horiz-adv-x="299" d="M82 168h135v-86l-63 -318h-72v404z" />
<glyph unicode="&#x201c;" horiz-adv-x="548" d="M82 1092v86l63 317h72v-403h-135zM332 1092v86l63 317h72v-403h-135z" />
<glyph unicode="&#x201d;" horiz-adv-x="548" d="M82 1092v403h135v-86l-63 -317h-72zM332 1092v403h135v-86l-64 -317h-71z" />
<glyph unicode="&#x201e;" horiz-adv-x="548" d="M82 168h135v-86l-63 -318h-72v404zM332 168h135v-86l-64 -318h-71v404z" />
<glyph unicode="&#x202f;" horiz-adv-x="388" />
<glyph unicode="&#x205f;" horiz-adv-x="486" />
<glyph unicode="&#x20ac;" horiz-adv-x="1533" d="M143 772l58 74h86q14 83 42.5 161t79.5 156t118 135.5t164.5 93t213.5 35.5q130 0 234 -24.5t207 -91.5q22 -14 33 -36.5t11 -44.5t-5.5 -42t-16 -32.5t-22.5 -12.5q-9 0 -19 10q-33 36 -53 56t-63.5 57t-79.5 57.5t-88 37.5t-103 17q-81 0 -155 -31t-131 -83.5 t-103.5 -121.5t-76.5 -144t-46 -152h696l-51 -74h-655q-8 -74 2 -166h586l-56 -74h-516q22 -95 65 -182.5t104 -160t146 -115.5t181 -43q90 0 163 41t144 112q15 15 51 15q50 0 82 -22.5t0 -53.5q-190 -141 -465 -141q-111 0 -206 33t-161 86t-117 126.5t-81 148t-47 156.5 h-143l57 74h74q-10 95 -5 166h-133z" />
<glyph unicode="&#x2122;" horiz-adv-x="1224" d="M1 1479.5q2 9.5 9 9.5h529q8 0 10.5 -9.5t-4.5 -17.5q-35 -35 -74 -35q-19 0 -61 7.5t-70 9.5v-475h-129v475q-30 -2 -72 -9.5t-59 -7.5q-39 0 -74 35q-7 8 -5 17.5zM573 969q20 416 23 520h149l138 -449l121 449h137l22 -520h-135l-2 422l-113 -422h-120l-146 438 l-20 -438h-54z" />
<glyph unicode="&#x25fc;" horiz-adv-x="911" d="M0 0v911h911v-911h-911z" />
</font>
</defs>
</svg>
