<?xml version="1.0" standalone="no"?>
<!DOCTYPE svg PUBLIC "-//W3C//DTD SVG 1.1//EN" "http://www.w3.org/Graphics/SVG/1.1/DTD/svg11.dtd" >
<svg xmlns="http://www.w3.org/2000/svg" xmlns:xlink="http://www.w3.org/1999/xlink" version="1.1">
<metadata></metadata>
<defs>
<font id="noirpro-lightuploaded_file" horiz-adv-x="1212" >
<font-face units-per-em="2048" ascent="1495" descent="-553" />
<missing-glyph horiz-adv-x="655" />
<glyph horiz-adv-x="0" />
<glyph unicode="&#xd;" horiz-adv-x="681" />
<glyph unicode=" "  horiz-adv-x="655" />
<glyph unicode="&#x09;" horiz-adv-x="655" />
<glyph unicode="&#xa0;" horiz-adv-x="655" />
<glyph unicode="!" horiz-adv-x="557" d="M147 114.5q0 55.5 38 93.5t93.5 38t93.5 -38t38 -93.5t-38 -93t-93.5 -37.5t-93.5 37.5t-38 93zM180 1376h197l-49 -983h-99z" />
<glyph unicode="&#x22;" horiz-adv-x="819" d="M115 1376h180l-33 -360h-115zM524 1376h181l-33 -360h-115z" />
<glyph unicode="#" horiz-adv-x="1409" d="M115 360v99h243l72 426h-233v98h249l66 393h115l-66 -393h389l66 393h114l-65 -393h229v-98h-245l-72 -426h235v-99h-251l-60 -360h-115l62 360h-389l-62 -360h-114l59 360h-227zM473 459h389l72 426h-389z" />
<glyph unicode="$" horiz-adv-x="1146" d="M82 207l65 117q70 -92 180.5 -150.5t254.5 -58.5q145 0 248.5 76.5t103.5 187.5q0 100 -78 166.5t-268 101.5q-262 47 -359.5 138.5t-97.5 240.5q0 147 114.5 250.5t303.5 114.5v149h82v-149q221 -10 368 -162l-61 -113q-133 145 -350 146q-139 0 -232.5 -60.5 t-93.5 -167.5q0 -104 79 -161.5t261 -94.5q254 -51 358.5 -142t104.5 -265q0 -147 -123 -259t-311 -126v-150h-82v148q-102 4 -190.5 33.5t-145.5 71.5t-86 68.5t-45 49.5z" />
<glyph unicode="%" horiz-adv-x="1540" d="M115 1114q0 117 80.5 198t199.5 81q115 0 196 -81t81 -198t-81 -197.5t-196 -80.5q-119 0 -199.5 80.5t-80.5 197.5zM213 1114q0 -72 54.5 -126t126 -54t125.5 54t54 126t-54 126t-125.5 54t-126 -54t-54.5 -126zM242 0l958 1376h98l-958 -1376h-98zM868 262 q0 117 81 198t200 81q115 0 195.5 -81t80.5 -198t-80.5 -197.5t-195.5 -80.5q-119 0 -200 80.5t-81 197.5zM967 262q0 -72 54 -126t126 -54t126 54t54 126t-54 126t-126 54t-126 -54t-54 -126z" />
<glyph unicode="&#x26;" horiz-adv-x="1476" d="M115 360q0 250 291 371q-209 190 -209 326q0 145 104.5 240.5t286.5 95.5q170 0 274.5 -98.5t104.5 -243.5q0 -61 -27 -116.5t-57.5 -89.5t-88 -69t-85 -47t-80.5 -35l321 -305l238 266h172l-316 -354l318 -301h-191l-213 203q-104 -106 -207.5 -162.5t-232.5 -56.5 q-176 0 -289.5 109.5t-113.5 266.5zM246 367q0 -98 79.5 -175t196.5 -77q172 0 342 180l-362 346q-100 -39 -178 -108.5t-78 -165.5zM328 1065q0 -25 11 -53.5t23.5 -49t41 -52t42 -44t48 -45.5t38.5 -37q74 31 97.5 42.5t77 40t73 51t38 58.5t18.5 79q0 90 -69 148.5 t-179 58.5q-125 0 -192.5 -54.5t-67.5 -142.5z" />
<glyph unicode="'" horiz-adv-x="409" d="M115 1376h180l-33 -360h-115z" />
<glyph unicode="(" horiz-adv-x="573" d="M115 622.5q0 266.5 71.5 516.5t190.5 434l115 -57q-246 -391 -246 -893t246 -893l-115 -58q-119 184 -190.5 434t-71.5 516.5z" />
<glyph unicode=")" horiz-adv-x="573" d="M82 -270q246 391 246 893t-246 893l115 57q119 -184 190.5 -434t71.5 -516.5t-72 -516t-190 -434.5z" />
<glyph unicode="*" horiz-adv-x="909" d="M115 1165l47 119l233 -96l-4 254h127l-4 -254l234 96l47 -119l-242 -88l160 -205l-107 -75l-151 209l-146 -209l-108 75l155 205z" />
<glyph unicode="+" horiz-adv-x="950" d="M115 573v99h311v311h98v-311h312v-99h-312v-311h-98v311h-311z" />
<glyph unicode="," horiz-adv-x="475" d="M82 -197l82 394h196l-180 -394h-98z" />
<glyph unicode="-" horiz-adv-x="753" d="M115 475v131h524v-131h-524z" />
<glyph unicode="." horiz-adv-x="491" d="M115 114.5q0 55.5 37.5 93.5t93 38t93.5 -38t38 -93.5t-38 -93t-93.5 -37.5t-93 37.5t-37.5 93z" />
<glyph unicode="/" horiz-adv-x="1015" d="M115 -164l655 1704h131l-655 -1704h-131z" />
<glyph unicode="0" d="M115 688q0 309 136 507t355 198q217 0 354.5 -198t137.5 -507t-137.5 -506.5t-354.5 -197.5q-219 0 -355 197.5t-136 506.5zM246 688q0 -250 104.5 -411.5t256 -161.5t256 161.5t104.5 411.5t-104.5 412t-256 162t-256 -162t-104.5 -412z" />
<glyph unicode="1" horiz-adv-x="688" d="M147 1135v127l361 147v-1409h-131v1221z" />
<glyph unicode="2" d="M115 0l553 545q233 229 233 409q0 139 -86 223.5t-225 84.5q-141 0 -220 -89.5t-91 -230.5l-132 25q12 176 131 301t311.5 125t317.5 -117t125 -309q0 -154 -67.5 -265.5t-227.5 -267.5l-315 -303h676v-131h-983z" />
<glyph unicode="3" horiz-adv-x="1179" d="M115 410l125 24q8 -57 27.5 -107.5t58.5 -101.5t109.5 -80.5t166.5 -29.5q156 0 244 87t88 191q0 131 -117 192.5t-309 61.5v131q88 2 171 21.5t152.5 76t69.5 140.5q0 113 -85 179.5t-214 66.5q-96 0 -162.5 -28t-100.5 -77t-49.5 -94t-21.5 -105l-123 25 q14 180 129 295t316 115q213 0 327.5 -114t114.5 -247q0 -98 -57 -183t-172 -124q115 -23 188.5 -112t73.5 -207q0 -168 -127 -295t-348 -127q-209 0 -335 117.5t-140 308.5z" />
<glyph unicode="4" d="M49 262l885 1147v-1016h164v-131h-164v-262h-131v262h-754zM303 393h500v656z" />
<glyph unicode="5" horiz-adv-x="1179" d="M115 393l133 17q12 -125 103 -210t239 -85q152 0 248 95t96 249q0 141 -86 234t-227 93q-213 0 -340 -229h-136l119 819h670v-131h-569l-70 -475q43 55 128 101.5t208 46.5q180 0 307 -122t127 -331t-140.5 -345t-334.5 -136q-197 0 -330 116.5t-145 292.5z" />
<glyph unicode="6" d="M115 516q0 164 49 320.5t170 306t301 233.5h283q-18 -4 -52.5 -14t-123.5 -51t-165.5 -96.5t-158.5 -159t-123 -226.5q139 121 332 121q203 0 337 -131t134 -317q0 -229 -138.5 -373.5t-353.5 -144.5q-217 0 -354 145t-137 387zM246 477q0 -154 101.5 -258t259 -104 t259 104.5t101.5 257.5q0 152 -97.5 247t-263.5 95q-156 0 -258 -97t-102 -245z" />
<glyph unicode="7" horiz-adv-x="1048" d="M115 1245v131h917l-606 -1376h-147l557 1245h-721z" />
<glyph unicode="8" d="M115 416q0 104 63.5 202.5t151.5 137.5q-70 41 -111 116.5t-41 151.5q0 164 123 266.5t305 102.5q180 0 304 -103.5t124 -265.5q0 -76 -41.5 -150.5t-111.5 -117.5q88 -37 152.5 -136.5t64.5 -203.5q0 -195 -141.5 -313.5t-350.5 -118.5t-350 118.5t-141 313.5zM246 410 q0 -127 104.5 -211t256 -84t256 84t104.5 211q0 125 -104.5 203.5t-256 78.5t-256 -78.5t-104.5 -203.5zM311 1028q0 -98 84 -155.5t211 -57.5t211 57.5t84 155.5q0 100 -85 167t-210 67t-210 -67t-85 -167z" />
<glyph unicode="9" d="M115 874q0 229 138 374t353 145q217 0 354.5 -145.5t137.5 -387.5q0 -164 -49.5 -320.5t-170 -306t-300.5 -233.5h-283q18 4 52 14.5t123 51t166 96t159 159t123 226.5q-139 -121 -332 -121q-203 0 -337 131t-134 317zM246 899q0 -152 97 -247t263 -95q156 0 258.5 97.5 t102.5 244.5q0 154 -101.5 258.5t-259 104.5t-259 -104.5t-101.5 -258.5z" />
<glyph unicode=":" horiz-adv-x="491" d="M115 114.5q0 55.5 37.5 93.5t93 38t93.5 -38t38 -93.5t-38 -93t-93.5 -37.5t-93 37.5t-37.5 93zM115 868.5q0 55.5 37.5 93t93 37.5t93.5 -37.5t38 -93t-38 -93.5t-93.5 -38t-93 38t-37.5 93.5z" />
<glyph unicode=";" horiz-adv-x="507" d="M82 -197l82 394h196l-180 -394h-98zM131 868.5q0 55.5 38 93t93 37.5t93 -37.5t38 -93t-38 -93.5t-93 -38t-93 38t-38 93.5z" />
<glyph unicode="&#x3c;" horiz-adv-x="1048" d="M115 573v99l819 377v-115l-688 -311l688 -312v-114z" />
<glyph unicode="=" horiz-adv-x="1015" d="M115 426v98h786v-98h-786zM115 721v98h786v-98h-786z" />
<glyph unicode="&#x3e;" horiz-adv-x="1048" d="M115 197v114l688 312l-688 311v115l819 -377v-99z" />
<glyph unicode="?" horiz-adv-x="1048" d="M115 1180q139 213 393 213q209 0 317.5 -120t108.5 -274q0 -63 -21.5 -119.5t-66.5 -104.5t-77 -74.5t-89 -69.5q-68 -51 -87.5 -99.5t-21.5 -138.5h-125q-4 193 115 291q18 16 64.5 49t69 53.5t52 54t43 72.5t13.5 86q0 111 -80 187t-213 76q-113 0 -188.5 -52.5 t-112.5 -124.5zM377 114.5q0 55.5 38 93.5t93 38t93 -38t38 -93.5t-38 -93t-93 -37.5t-93 37.5t-38 93z" />
<glyph unicode="@" horiz-adv-x="2228" d="M115 589.5q0 276.5 136 510t369.5 370t509.5 136.5q258 0 484.5 -125t363 -341t136.5 -464q0 -231 -129.5 -388t-327.5 -157q-227 0 -299 203q-117 -166 -309 -166q-180 0 -285 130t-90 310q14 186 133 311t293 125q88 0 163.5 -40.5t112.5 -106.5l10 119h127l-47 -484 q-12 -119 35 -194.5t164 -75.5q49 0 100.5 20.5t102.5 64.5t82.5 130t31.5 203q0 217 -123.5 402.5t-318 289t-407.5 103.5q-225 0 -429 -116t-331 -323t-127 -446q0 -238 127 -441.5t330.5 -321.5t429.5 -122q186 -2 321 62l47 -123q-158 -70 -371 -70q-276 0 -509.5 136 t-369.5 369.5t-136 510zM803 612q-10 -131 55.5 -222t198.5 -91q123 0 201 90t88 219q8 111 -54.5 208t-197.5 97q-121 0 -201 -87t-90 -214z" />
<glyph unicode="A" horiz-adv-x="1343" d="M16 0l656 1409l655 -1409h-147l-136 295h-745l-135 -295h-148zM358 426h627l-313 688z" />
<glyph unicode="B" horiz-adv-x="1146" d="M147 0v1376h363q227 0 358 -93t131 -267q0 -90 -47.5 -170t-115.5 -107q100 -20 164.5 -118.5t64.5 -206.5q0 -182 -120 -298t-322 -116h-476zM279 131h311q162 0 253 65.5t91 194.5q0 131 -91 197.5t-253 66.5h-311v-524zM279 786h278q311 0 311 229.5t-311 229.5h-278 v-459z" />
<glyph unicode="C" horiz-adv-x="1310" d="M82 688q0 291 209 498t504 207q115 0 233.5 -43t200.5 -119l-53 -119q-162 150 -390 150q-238 0 -405.5 -168t-167.5 -405.5t167.5 -405.5t405.5 -168q229 0 390 149l53 -119q-82 -76 -201 -118.5t-233 -42.5q-295 0 -504 206.5t-209 497.5z" />
<glyph unicode="D" horiz-adv-x="1310" d="M147 0v1376h379q332 0 517.5 -194.5t185.5 -493.5q0 -297 -188.5 -492.5t-514.5 -195.5h-379zM279 131h260q256 0 407.5 155.5t151.5 401.5t-151.5 401.5t-407.5 155.5h-260v-1114z" />
<glyph unicode="E" horiz-adv-x="1015" d="M147 0v1376h754v-131h-622v-491h524v-131h-524v-492h622v-131h-754z" />
<glyph unicode="F" horiz-adv-x="983" d="M147 0v1376h754v-131h-622v-491h524v-131h-524v-623h-132z" />
<glyph unicode="G" horiz-adv-x="1540" d="M82 688q0 291 207 498t497 207q203 0 361 -103.5t248 -281.5l-133 -37q-68 133 -193 212t-283 79q-238 0 -405.5 -168t-167.5 -405.5t168 -405.5t405 -168q209 0 355.5 134t177.5 341h-582v131h721v-33q0 -295 -191.5 -499.5t-480.5 -204.5q-291 0 -497.5 206.5 t-206.5 497.5z" />
<glyph unicode="H" horiz-adv-x="1277" d="M147 0v1376h132v-622h720v622h131v-1376h-131v623h-720v-623h-132z" />
<glyph unicode="I" horiz-adv-x="425" d="M147 0v1376h132v-1376h-132z" />
<glyph unicode="J" horiz-adv-x="917" d="M82 111l82 106q29 -45 86 -73.5t127 -28.5q158 0 226.5 100t68.5 293v868h131v-852q0 -540 -424 -540h-2q-86 0 -171 38.5t-124 88.5z" />
<glyph unicode="K" horiz-adv-x="1081" d="M147 0v1376h132v-622l540 622h180l-606 -682l639 -694h-180l-573 623v-623h-132z" />
<glyph unicode="L" horiz-adv-x="950" d="M147 0v1376h132v-1245h589v-131h-721z" />
<glyph unicode="M" horiz-adv-x="1703" d="M82 0l233 1409l537 -1155l537 1155l233 -1409h-135l-156 979l-479 -1012l-479 1012l-156 -979h-135z" />
<glyph unicode="N" horiz-adv-x="1376" d="M147 0v1409l951 -1098v1065h131v-1409l-950 1098v-1065h-132z" />
<glyph unicode="O" horiz-adv-x="1572" d="M82 688q0 291 207 498t497.5 207t497.5 -207t207 -498t-207 -497.5t-497.5 -206.5t-497.5 206.5t-207 497.5zM213 688.5q0 -239.5 167 -406.5t406.5 -167t406.5 167t167 406.5t-167 406.5t-406.5 167t-406.5 -167t-167 -406.5z" />
<glyph unicode="P" horiz-adv-x="1146" d="M147 0v1376h394q262 0 393 -114.5t131 -317.5q0 -199 -123 -325.5t-336 -126.5h-327v-492h-132zM279 623h327q145 0 236.5 74.5t91.5 234.5t-96.5 236.5t-241.5 76.5h-317v-622z" />
<glyph unicode="Q" horiz-adv-x="1572" d="M82 688q0 291 207 498t497.5 207t497.5 -207t207 -498q0 -279 -193 -483l193 -205h-180l-109 119q-188 -135 -416 -135q-291 0 -497.5 206.5t-206.5 497.5zM213 688.5q0 -239.5 166.5 -406.5t406.5 -167q184 0 328 102l-278 307h163l211 -225q150 166 150 389 q0 240 -167 407t-406.5 167t-406.5 -167t-167 -406.5z" />
<glyph unicode="R" horiz-adv-x="1179" d="M147 0v1376h394q262 0 393 -114.5t131 -317.5q0 -170 -92 -291t-256 -151l381 -502h-156l-371 492h-292v-492h-132zM279 623h327q145 0 236.5 74.5t91.5 234.5t-96.5 236.5t-241.5 76.5h-317v-622z" />
<glyph unicode="S" horiz-adv-x="1146" d="M82 207l65 117q70 -92 180.5 -150.5t254.5 -58.5q145 0 248.5 76.5t103.5 187.5q0 100 -78 166.5t-268 101.5q-262 47 -359.5 138.5t-97.5 240.5q0 156 127 261.5t332 105.5q248 0 409 -164l-61 -113q-133 145 -350 146q-139 0 -232.5 -60.5t-93.5 -167.5 q0 -104 79 -161.5t261 -94.5q254 -51 358.5 -142t104.5 -265q0 -158 -139.5 -272.5t-347.5 -114.5q-109 0 -203 28.5t-154.5 71.5t-91.5 71.5t-47 51.5z" />
<glyph unicode="T" horiz-adv-x="1015" d="M82 1245v131h852v-131h-361v-1245h-131v1245h-360z" />
<glyph unicode="U" d="M115 573v803h131v-819q0 -217 95 -329.5t265 -112.5t265.5 112.5t95.5 329.5v819h131v-803q0 -283 -129 -436t-363 -153q-240 0 -365.5 152.5t-125.5 436.5z" />
<glyph unicode="V" horiz-adv-x="1277" d="M16 1376h148l475 -1097l475 1097h148l-623 -1409z" />
<glyph unicode="W" horiz-adv-x="1966" d="M33 1376h147l422 -1048l381 1081l381 -1081l422 1048h147l-573 -1409l-377 1073l-377 -1073z" />
<glyph unicode="X" horiz-adv-x="1277" d="M49 0l508 711l-475 665h168l389 -557l389 557h168l-475 -665l508 -711h-170l-420 598l-420 -598h-170z" />
<glyph unicode="Y" horiz-adv-x="1146" d="M16 1376h148l409 -631l410 631h147l-491 -753v-623h-131v623z" />
<glyph unicode="Z" horiz-adv-x="1146" d="M82 0l758 1245h-725v131h950l-758 -1245h725v-131h-950z" />
<glyph unicode="[" horiz-adv-x="622" d="M147 -426v2130h328v-131h-196v-1868h196v-131h-328z" />
<glyph unicode="\" horiz-adv-x="1015" d="M115 1540h131l655 -1704h-131z" />
<glyph unicode="]" horiz-adv-x="622" d="M147 -295h197v1868h-197v131h328v-2130h-328v131z" />
<glyph unicode="^" horiz-adv-x="1048" d="M115 918l360 524h98l361 -524h-131l-279 409l-278 -409h-131z" />
<glyph unicode="_" horiz-adv-x="1114" d="M82 -66h950v-131h-950v131z" />
<glyph unicode="`" horiz-adv-x="1671" d="M639 1769h164l164 -262h-99z" />
<glyph unicode="a" horiz-adv-x="1245" d="M82 491.5q0 210.5 148.5 359t359.5 148.5q238 0 377 -190v174h131v-983h-131v174q-139 -190 -377 -190q-211 0 -359.5 148.5t-148.5 359zM213 491.5q0 -155.5 110.5 -266t266 -110.5t266.5 110.5t111 266t-111 266t-266.5 110.5t-266 -110.5t-110.5 -266z" />
<glyph unicode="b" horiz-adv-x="1245" d="M147 0v1442h132v-633q139 190 376 190q211 0 359.5 -148.5t148.5 -359t-148.5 -359t-359.5 -148.5q-238 0 -376 190v-174h-132zM279 491.5q0 -155.5 110.5 -266t266 -110.5t266 110.5t110.5 266t-110.5 266t-266 110.5t-266 -110.5t-110.5 -266z" />
<glyph unicode="c" horiz-adv-x="1015" d="M82 491.5q0 217.5 144.5 362.5t385.5 145q195 0 322 -102l-57 -119q-102 90 -267 90q-178 0 -287.5 -108.5t-109.5 -267.5q0 -162 108.5 -269.5t288.5 -107.5q158 0 269 98l55 -119q-120 -110 -318 -110h-4q-244 0 -387 145t-143 362.5z" />
<glyph unicode="d" horiz-adv-x="1245" d="M82 491.5q0 210.5 148.5 359t359.5 148.5q238 0 377 -190v633h131v-1442h-131v174q-139 -190 -377 -190q-211 0 -359.5 148.5t-148.5 359zM213 491.5q0 -155.5 110.5 -266t266 -110.5t266.5 110.5t111 266t-111 266t-266.5 110.5t-266 -110.5t-110.5 -266z" />
<glyph unicode="e" horiz-adv-x="1114" d="M82 492q0 219 134 363t355 144q201 0 331 -136t130 -367q0 -37 -6 -70h-809q14 -139 120.5 -225t264.5 -86q178 0 316 106l49 -119q-140 -118 -365 -118h-4q-236 0 -376 146t-140 362zM217 557h682q-6 119 -90 215t-244 96q-162 0 -252 -96t-96 -215z" />
<glyph unicode="f" horiz-adv-x="688" d="M82 852v131h131v102q0 197 53 285t180 88q63 0 127 -28v-127q-47 24 -102 24h-4q-66 0 -94.5 -41t-28.5 -141v-162h229v-131h-229v-852h-131v852h-131z" />
<glyph unicode="g" horiz-adv-x="1245" d="M82 491.5q0 210.5 148.5 359t359.5 148.5q238 0 377 -190v174h131v-922q0 -301 -135.5 -451.5t-380.5 -150.5q-264 0 -467 164l65 115q180 -147 402 -148q180 0 282.5 110t102.5 333v141q-139 -190 -377 -190q-211 0 -359.5 148.5t-148.5 359zM213 491.5 q0 -155.5 110.5 -266t266 -110.5t266.5 110.5t111 266t-111 266t-266.5 110.5t-266 -110.5t-110.5 -266z" />
<glyph unicode="h" horiz-adv-x="1114" d="M147 0v1442h132v-611q41 66 133 117t190 51q207 0 302 -113.5t95 -336.5v-549h-131v582q0 286 -260 286h-2q-123 0 -225 -81.5t-102 -213.5v-573h-132z" />
<glyph unicode="i" horiz-adv-x="425" d="M98 1261.5q0 47.5 34 81t81 33.5t81 -33.5t34 -81t-34 -81t-81 -33.5t-81 33.5t-34 81zM147 0v983h132v-983h-132z" />
<glyph unicode="j" horiz-adv-x="425" d="M-49 -422q104 23 150 97.5t46 234.5v1073h132v-1053q0 -145 -27 -242.5t-78 -142.5t-91 -61t-99 -25zM98 1261.5q0 47.5 34 81t81 33.5t81 -33.5t34 -81t-34 -81t-81 -33.5t-81 33.5t-34 81z" />
<glyph unicode="k" horiz-adv-x="983" d="M147 0v1442h132v-889l475 430h180l-524 -475l557 -508h-181l-507 455v-455h-132z" />
<glyph unicode="l" horiz-adv-x="425" d="M147 0v1442h132v-1442h-132z" />
<glyph unicode="m" horiz-adv-x="1638" d="M147 0v983h132v-131q111 147 274 147q215 0 299 -172q129 172 324 172q170 0 259 -98t89 -319v-582h-131v598q0 270 -222 270q-98 0 -184 -72.5t-86 -189.5v-606h-131v614q0 119 -59.5 186.5t-161.5 67.5q-98 0 -184 -72.5t-86 -189.5v-606h-132z" />
<glyph unicode="n" horiz-adv-x="1114" d="M147 0v983h132v-152q41 66 133 117t190 51q207 0 302 -113.5t95 -336.5v-549h-131v582q0 286 -260 286h-2q-123 0 -225 -81.5t-102 -213.5v-573h-132z" />
<glyph unicode="o" horiz-adv-x="1179" d="M82 491.5q0 210.5 148.5 359t359.5 148.5t359.5 -148.5t148.5 -359t-148.5 -359t-359.5 -148.5t-359.5 148.5t-148.5 359zM213 491.5q0 -153.5 111.5 -265t265 -111.5t265.5 111.5t112 265t-112 265t-265.5 111.5t-265 -111.5t-111.5 -265z" />
<glyph unicode="p" horiz-adv-x="1245" d="M147 -524v1507h132v-174q139 190 376 190q211 0 359.5 -148.5t148.5 -359t-148.5 -359t-359.5 -148.5q-238 0 -376 190v-698h-132zM279 491.5q0 -155.5 110.5 -266t266 -110.5t266 110.5t110.5 266t-110.5 266t-266 110.5t-266 -110.5t-110.5 -266z" />
<glyph unicode="q" horiz-adv-x="1245" d="M82 491.5q0 210.5 148.5 359t359.5 148.5q238 0 377 -190v174h131v-1507h-131v698q-139 -190 -377 -190q-211 0 -359.5 148.5t-148.5 359zM213 491.5q0 -155.5 110.5 -266t266 -110.5t266.5 110.5t111 266t-111 266t-266.5 110.5t-266 -110.5t-110.5 -266z" />
<glyph unicode="r" horiz-adv-x="786" d="M147 0v983h132v-211q49 104 166.5 165.5t259.5 61.5v-149q-47 12 -92 12q-58 0 -113 -20q-100 -35 -160.5 -131.5t-60.5 -239.5v-471h-132z" />
<glyph unicode="s" horiz-adv-x="917" d="M82 123l57 119q51 -57 144.5 -91t185.5 -36h9q88 0 156 38q71 40 71 115q0 127 -226 174q-213 41 -288.5 106.5t-75.5 178.5q0 123 99 197.5t265 74.5q172 0 324 -94l-49 -119q-35 27 -116 53.5t-157 28.5h-18q-217 0 -217 -142q0 -34 23.5 -60.5t68.5 -44t80 -27 t88 -21.5q186 -39 258 -112.5t72 -186.5q0 -119 -97.5 -204.5t-265.5 -85.5q-131 0 -239.5 47t-151.5 92z" />
<glyph unicode="t" horiz-adv-x="655" d="M82 852v131h131v393h131v-393h197v-131h-197v-541q0 -141 39 -170q35 -26 77 -26q38 0 81 22v-133q-53 -20 -113 -20q-88 0 -138 48t-63.5 116t-13.5 174v530h-131z" />
<glyph unicode="u" horiz-adv-x="1114" d="M115 434v549h131v-582q0 -286 260 -286h2q123 0 225.5 82t102.5 213v573h131v-983h-131v152q-41 -66 -133.5 -117t-190.5 -51q-207 0 -302 113.5t-95 336.5z" />
<glyph unicode="v" horiz-adv-x="983" d="M16 983h148l328 -721l327 721h148l-475 -1016z" />
<glyph unicode="w" horiz-adv-x="1540" d="M33 983h147l295 -692l295 725l295 -725l295 692h147l-442 -1016l-295 725l-295 -725z" />
<glyph unicode="x" horiz-adv-x="1015" d="M49 0l379 522l-348 461h160l268 -369l268 369h160l-348 -461l379 -522h-160l-299 416l-299 -416h-160z" />
<glyph unicode="y" horiz-adv-x="983" d="M16 983h154l322 -754l321 754h154l-666 -1507h-149l262 585z" />
<glyph unicode="z" horiz-adv-x="950" d="M82 0l549 852h-516v131h753l-553 -852h521v-131h-754z" />
<glyph unicode="{" horiz-adv-x="688" d="M115 623q68 18 132 82.5t64 146.5v479q0 55 1 85t7.5 74t19.5 69.5t35.5 55.5t60.5 51.5t89 37.5l49 -123q-78 -18 -104.5 -73.5t-26.5 -143.5v-442q0 -240 -137 -299q137 -59 137 -299v-443q0 -88 27 -143t104 -74l-49 -123q-61 20 -103 50t-63.5 58.5t-32 79t-12.5 84 t-2 101.5v479q0 82 -64.5 146.5t-131.5 83.5z" />
<glyph unicode="|" horiz-adv-x="393" d="M147 -524v2097h99v-2097h-99z" />
<glyph unicode="}" horiz-adv-x="688" d="M115 -336q78 18 104.5 73.5t26.5 143.5v443q0 240 137 299q-137 59 -137 299v442q0 88 -26.5 143.5t-104.5 73.5l49 123q61 -20 103 -50t63.5 -58.5t32 -79t12.5 -84t2 -101.5v-479q0 -82 64.5 -146.5t131.5 -82.5q-68 -18 -132 -83t-64 -147v-479q0 -55 -1 -85t-7.5 -74 t-19.5 -69.5t-35.5 -55t-60.5 -51t-89 -38.5z" />
<glyph unicode="~" horiz-adv-x="999" d="M115 547q45 84 100 112.5t131 28.5q39 0 217 -61q74 -29 125 -15.5t82 76.5l115 -55q-45 -84 -100.5 -112.5t-131.5 -28.5q-57 0 -217 61q-74 29 -125 15.5t-82 -76.5z" />
<glyph unicode="&#xa1;" horiz-adv-x="557" d="M147 868.5q0 55.5 38 93t93.5 37.5t93.5 -37.5t38 -93t-38 -93.5t-93.5 -38t-93.5 38t-38 93.5zM180 -393l49 983h99l49 -983h-197z" />
<glyph unicode="&#xa2;" horiz-adv-x="1015" d="M82 492q0 201 126 343t341 162v150h82v-148q182 -6 303 -102l-57 -119q-102 90 -267 90q-178 0 -287.5 -108.5t-109.5 -267.5q0 -162 108.5 -269.5t288.5 -107.5q158 0 269 98l55 -119q-113 -104 -303 -110v-148h-82v150q-217 18 -342 160.5t-125 345.5z" />
<glyph unicode="&#xa3;" horiz-adv-x="1146" d="M82 164q14 41 100 115q41 37 63.5 84t22.5 106t-3 87t-11 83h-172v98h143q-45 166 -45 262q0 158 117 276t309 118q125 0 212 -38t181 -126l-69 -103q-135 135 -305 136q-127 0 -220.5 -66t-93.5 -195q0 -45 8.5 -93t23.5 -107.5t17 -63.5h377v-98h-348 q61 -307 -139 -467q84 33 168 28t137 -23.5t113.5 -40t95.5 -21.5q129 0 192 131l109 -66q-92 -197 -301 -196q-82 0 -191 47q-74 41 -187.5 39t-156.5 -70z" />
<glyph unicode="&#xa4;" horiz-adv-x="1019" d="M115 328l166 168q-49 72 -49.5 159.5t49.5 159.5l-166 172l67 64l164 -168q74 51 166 51q88 0 164 -53l162 170l67 -64l-168 -170q51 -69 51 -161.5t-51 -161.5l168 -166l-63 -68l-170 166q-72 -49 -160 -49q-92 0 -166 53l-168 -170zM330 655.5q0 -71.5 54 -126 t126 -54.5t126 54.5t54 126t-54 126t-126 54.5t-126 -54.5t-54 -126z" />
<glyph unicode="&#xa5;" horiz-adv-x="1277" d="M82 1376h147l410 -631l410 631h147l-491 -753h229v-82h-229v-148h229v-82h-229v-311h-132v311h-229v82h229v148h-229v82h229z" />
<glyph unicode="&#xa6;" horiz-adv-x="393" d="M147 197h99v-721h-99v721zM147 852v721h99v-721h-99z" />
<glyph unicode="&#xa7;" d="M115 -121l65 117q70 -92 180.5 -150.5t253.5 -58.5q145 0 249 77t104 187q0 100 -78 167t-268 101q-262 47 -359.5 138.5t-97.5 240.5q0 158 127 263q-127 88 -127 262q0 156 127 261t332 105q248 0 409 -164l-61 -112q-133 145 -350 145q-139 0 -232.5 -60.5 t-93.5 -166.5q0 -104 79 -161.5t261 -94.5q254 -51 358.5 -142.5t104.5 -265.5q0 -141 -115 -252q115 -94 115 -272q0 -158 -139.5 -272.5t-348.5 -114.5q-109 0 -203 28.5t-154 71.5t-91 72t-47 51zM295 707q0 -104 79 -162t261 -94q137 -29 225 -64q106 76 107 188 q0 100 -78 167t-268 102q-111 20 -197 49q-129 -61 -129 -186z" />
<glyph unicode="&#xa8;" horiz-adv-x="1671" d="M573 1606q0 41 29 69.5t70 28.5t69.5 -28.5t28.5 -69.5t-28.5 -70t-69.5 -29t-70 29t-29 70zM901 1606q0 41 28.5 69.5t69.5 28.5t70 -28.5t29 -69.5t-29 -70t-70 -29t-69.5 29t-28.5 70z" />
<glyph unicode="&#xa9;" horiz-adv-x="1359" d="M115 901q0 240 162.5 402.5t402.5 162.5t402.5 -162.5t162.5 -402t-162.5 -402.5t-402.5 -163q-238 0 -401.5 165t-163.5 400zM172 901q0 -213 147.5 -360.5t360.5 -147.5t360.5 147.5t147.5 360.5t-147.5 360.5t-360.5 147.5t-360.5 -147.5t-147.5 -360.5zM395 901 q0 129 92.5 220t223.5 91q115 0 190 -71l-22 -54q-72 68 -172 68q-104 0 -179 -74.5t-75 -179t75 -179.5t179 -75q100 0 172 68l22 -53q-76 -72 -190 -72q-131 0 -223.5 91t-92.5 220z" />
<glyph unicode="&#xaa;" horiz-adv-x="737" d="M115 1130q0 106 74.5 180t179.5 74q121 0 188 -94v86h66v-491h-66v88q-70 -96 -188 -96q-104 0 -179 74.5t-75 178.5zM180 1130.5q0 -77.5 55.5 -133t133 -55.5t133 55.5t55.5 133t-55.5 133t-133 55.5t-133 -55.5t-55.5 -133z" />
<glyph unicode="&#xab;" d="M115 541l327 442h131l-327 -442l327 -443h-131zM573 541l328 442h131l-327 -442l327 -443h-131z" />
<glyph unicode="&#xac;" d="M115 573v99h983v-443h-99v344h-884z" />
<glyph unicode="&#xad;" horiz-adv-x="753" d="M115 475v131h524v-131h-524z" />
<glyph unicode="&#xae;" horiz-adv-x="1425" d="M147 901q0 240 163 402.5t402.5 162.5t402.5 -162.5t163 -402t-162.5 -402.5t-402.5 -163q-238 0 -402 165t-164 400zM205 901q0 -213 147.5 -360.5t360.5 -147.5t360.5 147.5t147.5 360.5t-147.5 360.5t-360.5 147.5t-360.5 -147.5t-147.5 -360.5zM520 594v614h176 q117 0 175.5 -51t58.5 -141q0 -76 -41 -130.5t-113 -68.5l170 -223h-69l-166 219h-131v-219h-60zM580 872h145q147 0 147 138q0 72 -43 105.5t-108 33.5h-141v-277z" />
<glyph unicode="&#xaf;" horiz-adv-x="1671" d="M573 1540v98h525v-98h-525z" />
<glyph unicode="&#xb0;" horiz-adv-x="786" d="M115 1114q0 117 80.5 198t199.5 81q115 0 196 -81t81 -198t-81 -197.5t-196 -80.5q-119 0 -199.5 80.5t-80.5 197.5zM213 1114q0 -72 54.5 -126t126 -54t125.5 54t54 126t-54 126t-125.5 54t-126 -54t-54.5 -126z" />
<glyph unicode="&#xb1;" horiz-adv-x="950" d="M115 115v98h721v-98h-721zM115 819v99h311v311h98v-311h312v-99h-312v-311h-98v311h-311z" />
<glyph unicode="&#xb2;" horiz-adv-x="720" d="M115 852l276 272q117 117 117 205q0 70 -43 112t-112.5 42t-109.5 -44t-46 -116l-66 12q6 88 65.5 150.5t156 62.5t158.5 -58t62 -155q0 -76 -33.5 -132t-113.5 -134l-158 -151h338v-66h-491z" />
<glyph unicode="&#xb3;" horiz-adv-x="704" d="M115 1057l63 12q8 -63 49 -111.5t131 -48.5q78 0 122 43t44 97q0 127 -213 127v65q74 2 135.5 30.5t61.5 88.5q0 57 -42 90t-108 33q-152 0 -165 -152l-62 12q6 90 63.5 147.5t157.5 57.5q106 0 163.5 -56t57.5 -124q1 -113 -114 -154q57 -10 94 -55t37 -104 q0 -84 -63.5 -147.5t-174.5 -63.5q-104 0 -166.5 59.5t-70.5 153.5z" />
<glyph unicode="&#xb4;" horiz-adv-x="1671" d="M705 1507l163 262h164l-229 -262h-98z" />
<glyph unicode="&#xb6;" horiz-adv-x="1245" d="M115 1071q0 127 84 216t211 89h720v-98h-196v-1745h-98v1745h-328v-1745h-98v1227q-127 0 -211 90t-84 221z" />
<glyph unicode="&#xb7;" horiz-adv-x="491" d="M115 688q0 55 37.5 93t93 38t93.5 -38t38 -93t-38 -93t-93.5 -38t-93 38t-37.5 93z" />
<glyph unicode="&#xb8;" horiz-adv-x="1671" d="M557 -494l90 84q47 -98 172 -98q86 0 141.5 54.5t55.5 127.5q0 61 -46 103.5t-118 42.5q-76 0 -137 -49l-66 98l121 131h131l-94 -104q125 31 216 -38t91 -186q0 -127 -86 -211t-223 -84q-162 0 -248 129z" />
<glyph unicode="&#xb9;" horiz-adv-x="638" d="M213 1436v63l180 74v-705h-65v611z" />
<glyph unicode="&#xba;" horiz-adv-x="737" d="M115 1130q0 106 75 180t179 74q106 0 180 -73.5t74 -180.5q0 -104 -74 -178.5t-180 -74.5q-104 0 -179 74.5t-75 178.5zM180 1130.5q0 -77.5 55.5 -133t133 -55.5t133 55.5t55.5 133t-55.5 133t-133 55.5t-133 -55.5t-55.5 -133z" />
<glyph unicode="&#xbb;" d="M180 98l328 443l-328 442h131l328 -442l-328 -443h-131zM639 98l328 443l-328 442h131l328 -442l-328 -443h-131z" />
<glyph unicode="&#xbc;" horiz-adv-x="1794" d="M213 1255v64l180 74v-705h-65v610zM344 0l959 1376h98l-959 -1376h-98zM1155 131l442 574v-508h82v-66h-82v-131h-65v131h-377zM1282 197h250v327z" />
<glyph unicode="&#xbd;" horiz-adv-x="1826" d="M213 1255v64l180 74v-705h-65v610zM344 0l959 1376h98l-959 -1376h-98zM1221 0l276 272q117 117 117 205q0 70 -43 112t-112.5 42t-109.5 -44t-46 -116l-66 12q6 88 65.5 150.5t155.5 62.5t158.5 -58t62.5 -155q0 -76 -33.5 -132t-113.5 -134l-158 -151h338v-66h-491z " />
<glyph unicode="&#xbe;" horiz-adv-x="1859" d="M115 893l63 12q8 -63 49 -111.5t131 -48.5q78 0 122 43t44 97q0 127 -213 127v65q74 2 135.5 31t61.5 88q0 57 -42 90t-108 33q-152 0 -165 -152l-62 13q6 90 63.5 147t157.5 57q106 0 163.5 -56t57.5 -124q1 -112 -114 -153q57 -10 94 -55.5t37 -104.5 q0 -84 -63.5 -147.5t-174.5 -63.5q-104 0 -166.5 59.5t-70.5 153.5zM410 0l958 1376h98l-958 -1376h-98zM1221 131l442 574v-508h82v-66h-82v-131h-66v131h-376zM1348 197h249v327z" />
<glyph unicode="&#xbf;" horiz-adv-x="1048" d="M115 -16q0 63 21.5 119.5t66.5 104.5t76.5 74.5t89.5 69.5q68 51 87 99.5t21 138.5h125q4 -193 -115 -291q-18 -16 -64 -49t-68.5 -53.5t-52.5 -54t-43 -72.5t-13 -86q0 -111 80 -187t213 -76q113 0 188.5 52.5t112.5 124.5l94 -95q-139 -213 -393 -213 q-209 0 -317.5 120t-108.5 274zM410 868.5q0 55.5 37.5 93t93 37.5t93.5 -37.5t38 -93t-38 -93.5t-93.5 -38t-93 38t-37.5 93.5z" />
<glyph unicode="&#xc0;" horiz-adv-x="1343" d="M16 0l656 1409l655 -1409h-147l-136 295h-745l-135 -295h-148zM358 426h627l-313 688zM442 1769h164l164 -262h-98z" />
<glyph unicode="&#xc1;" horiz-adv-x="1343" d="M16 0l656 1409l655 -1409h-147l-136 295h-745l-135 -295h-148zM358 426h627l-313 688zM573 1507l164 262h164l-229 -262h-99z" />
<glyph unicode="&#xc2;" horiz-adv-x="1343" d="M16 0l656 1409l655 -1409h-147l-136 295h-745l-135 -295h-148zM358 426h627l-313 688zM377 1507l295 279l295 -279h-154l-141 148l-142 -148h-153z" />
<glyph unicode="&#xc3;" horiz-adv-x="1343" d="M16 0l656 1409l655 -1409h-147l-136 295h-745l-135 -295h-148zM344 1542q74 135 209 135q39 0 131 -35q72 -35 126 -29.5t85 64.5l104 -30q-68 -139 -204 -140q-43 0 -140 37q-150 63 -206 -37zM358 426h627l-313 688z" />
<glyph unicode="&#xc4;" horiz-adv-x="1343" d="M16 0l656 1409l655 -1409h-147l-136 295h-745l-135 -295h-148zM358 426h627l-313 688zM410 1606q0 41 28.5 69.5t69.5 28.5t69.5 -28.5t28.5 -69.5t-28.5 -70t-69.5 -29t-69.5 29t-28.5 70zM737 1606q0 41 29 69.5t70 28.5t69.5 -28.5t28.5 -69.5t-28.5 -70t-69.5 -29 t-70 29t-29 70z" />
<glyph unicode="&#xc5;" horiz-adv-x="1343" d="M16 0l656 1409l655 -1409h-147l-136 295h-745l-135 -295h-148zM358 426h627l-313 688zM459 1687.5q0 90.5 61.5 152t151.5 61.5t151.5 -61.5t61.5 -152t-61.5 -151.5t-151.5 -61t-151.5 61t-61.5 151.5zM557 1687.5q0 -47.5 34 -81t81 -33.5t80.5 33.5t33.5 81t-33.5 81 t-80.5 33.5t-81 -33.5t-34 -81z" />
<glyph unicode="&#xc6;" horiz-adv-x="1605" d="M16 0l721 1376h754v-131h-623v-491h525v-131h-525v-492h623v-131h-754v295h-422l-151 -295h-148zM383 426h354v688z" />
<glyph unicode="&#xc7;" horiz-adv-x="1310" d="M82 688q0 291 209 498t504 207q115 0 233.5 -43t200.5 -119l-53 -119q-162 150 -390 150q-238 0 -405.5 -168t-167.5 -405.5t168 -405.5t405 -168q229 0 390 149l53 -119q-152 -141 -387 -159l-84 -90q125 31 216 -38t91 -186q0 -127 -86 -211t-223 -84q-162 0 -248 129 l90 84q47 -98 172 -98q86 0 141.5 54.5t55.5 127.5q0 61 -46.5 103.5t-117.5 42.5q-76 0 -137 -49l-66 98l113 119q-268 31 -449.5 230.5t-181.5 469.5z" />
<glyph unicode="&#xc8;" horiz-adv-x="1015" d="M147 0v1376h754v-131h-622v-491h524v-131h-524v-492h622v-131h-754zM328 1769h164l163 -262h-98z" />
<glyph unicode="&#xc9;" horiz-adv-x="1015" d="M147 0v1376h754v-131h-622v-491h524v-131h-524v-492h622v-131h-754zM393 1507l164 262h164l-229 -262h-99z" />
<glyph unicode="&#xca;" horiz-adv-x="1015" d="M147 0v1376h754v-131h-622v-491h524v-131h-524v-492h622v-131h-754zM213 1507l295 279l295 -279h-154l-141 148l-141 -148h-154z" />
<glyph unicode="&#xcb;" horiz-adv-x="1015" d="M147 0v1376h754v-131h-622v-491h524v-131h-524v-492h622v-131h-754zM246 1606q0 41 28.5 69.5t69.5 28.5t69.5 -28.5t28.5 -69.5t-28.5 -70t-69.5 -29t-69.5 29t-28.5 70zM573 1606q0 41 29 69.5t70 28.5t69.5 -28.5t28.5 -69.5t-28.5 -70t-69.5 -29t-70 29t-29 70z" />
<glyph unicode="&#xcc;" horiz-adv-x="425" d="M-49 1769h164l164 -262h-99zM147 0v1376h132v-1376h-132z" />
<glyph unicode="&#xcd;" horiz-adv-x="425" d="M147 0v1376h132v-1376h-132zM147 1507l164 262h164l-229 -262h-99z" />
<glyph unicode="&#xce;" horiz-adv-x="425" d="M-82 1507l295 279l295 -279h-154l-141 148l-141 -148h-154zM147 0v1376h132v-1376h-132z" />
<glyph unicode="&#xcf;" horiz-adv-x="425" d="M-49 1606q0 41 28.5 69.5t69.5 28.5t69.5 -28.5t28.5 -69.5t-28.5 -70t-69.5 -29t-69.5 29t-28.5 70zM147 0v1376h132v-1376h-132zM279 1606q0 41 28.5 69.5t69.5 28.5t69.5 -28.5t28.5 -69.5t-28.5 -70t-69.5 -29t-69.5 29t-28.5 70z" />
<glyph unicode="&#xd0;" horiz-adv-x="1343" d="M49 639v98h131v639h379q332 0 517.5 -194.5t185.5 -493.5q0 -297 -188.5 -492.5t-514.5 -195.5h-379v639h-131zM311 131h260q256 0 407.5 155.5t151.5 401.5t-151.5 401.5t-407.5 155.5h-260v-508h131v-98h-131v-508z" />
<glyph unicode="&#xd1;" horiz-adv-x="1376" d="M147 0v1409l951 -1098v1065h131v-1409l-950 1098v-1065h-132zM360 1542q74 135 209 135q39 0 131 -35q72 -35 126 -29.5t85 64.5l105 -30q-68 -139 -205 -140q-43 0 -139 37q-150 63 -207 -37z" />
<glyph unicode="&#xd2;" horiz-adv-x="1572" d="M82 688q0 291 207 498t497.5 207t497.5 -207t207 -498t-207 -497.5t-497.5 -206.5t-497.5 206.5t-207 497.5zM213 688.5q0 -239.5 167 -406.5t406.5 -167t406.5 167t167 406.5t-167 406.5t-406.5 167t-406.5 -167t-167 -406.5zM557 1769h164l164 -262h-99z" />
<glyph unicode="&#xd3;" horiz-adv-x="1572" d="M82 688q0 291 207 498t497.5 207t497.5 -207t207 -498t-207 -497.5t-497.5 -206.5t-497.5 206.5t-207 497.5zM213 688.5q0 -239.5 167 -406.5t406.5 -167t406.5 167t167 406.5t-167 406.5t-406.5 167t-406.5 -167t-167 -406.5zM688 1507l164 262h164l-230 -262h-98z" />
<glyph unicode="&#xd4;" horiz-adv-x="1572" d="M82 688q0 291 207 498t497.5 207t497.5 -207t207 -498t-207 -497.5t-497.5 -206.5t-497.5 206.5t-207 497.5zM213 688.5q0 -239.5 167 -406.5t406.5 -167t406.5 167t167 406.5t-167 406.5t-406.5 167t-406.5 -167t-167 -406.5zM492 1507l294 279l295 -279h-153l-142 148 l-141 -148h-153z" />
<glyph unicode="&#xd5;" horiz-adv-x="1572" d="M82 688q0 291 207 498t497.5 207t497.5 -207t207 -498t-207 -497.5t-497.5 -206.5t-497.5 206.5t-207 497.5zM213 688.5q0 -239.5 167 -406.5t406.5 -167t406.5 167t167 406.5t-167 406.5t-406.5 167t-406.5 -167t-167 -406.5zM459 1542q74 135 209 135q39 0 131 -35 q72 -35 126 -29.5t85 64.5l104 -30q-68 -139 -205 -140q-43 0 -139 37q-150 63 -207 -37z" />
<glyph unicode="&#xd6;" horiz-adv-x="1572" d="M82 688q0 291 207 498t497.5 207t497.5 -207t207 -498t-207 -497.5t-497.5 -206.5t-497.5 206.5t-207 497.5zM213 688.5q0 -239.5 167 -406.5t406.5 -167t406.5 167t167 406.5t-167 406.5t-406.5 167t-406.5 -167t-167 -406.5zM524 1606q0 41 29 69.5t70 28.5t69.5 -28.5 t28.5 -69.5t-28.5 -70t-69.5 -29t-70 29t-29 70zM852 1606q0 41 28.5 69.5t69.5 28.5t70 -28.5t29 -69.5t-29 -70t-70 -29t-69.5 29t-28.5 70z" />
<glyph unicode="&#xd7;" horiz-adv-x="872" d="M115 371l254 252l-254 251l69 70l252 -254l252 254l70 -70l-254 -251l254 -252l-70 -70l-252 254l-252 -254z" />
<glyph unicode="&#xd8;" horiz-adv-x="1572" d="M82 688q0 291 207 498t497 207q238 0 431 -146l110 129h98l-153 -178q219 -209 219 -510q0 -291 -207 -497.5t-498 -206.5q-238 0 -430 145l-110 -129h-99l154 178q-219 209 -219 510zM213 688q0 -244 172 -412l745 873q-152 113 -344 113q-240 0 -406.5 -167 t-166.5 -407zM442 227q151 -112 344 -112q240 0 407 167t167 406q0 244 -172 412z" />
<glyph unicode="&#xd9;" d="M115 573v803h131v-819q0 -217 95 -329.5t265 -112.5t265.5 112.5t95.5 329.5v819h131v-803q0 -283 -129 -436t-363 -153q-240 0 -365.5 152.5t-125.5 436.5zM393 1769h164l164 -262h-98z" />
<glyph unicode="&#xda;" d="M115 573v803h131v-819q0 -217 95 -329.5t265 -112.5t265.5 112.5t95.5 329.5v819h131v-803q0 -283 -129 -436t-363 -153q-240 0 -365.5 152.5t-125.5 436.5zM492 1507l163 262h164l-229 -262h-98z" />
<glyph unicode="&#xdb;" d="M115 573v803h131v-819q0 -217 95 -329.5t265 -112.5t265.5 112.5t95.5 329.5v819h131v-803q0 -283 -129 -436t-363 -153q-240 0 -365.5 152.5t-125.5 436.5zM311 1507l295 279l295 -279h-153l-142 148l-141 -148h-154z" />
<glyph unicode="&#xdc;" d="M115 573v803h131v-819q0 -217 95 -329.5t265 -112.5t265.5 112.5t95.5 329.5v819h131v-803q0 -283 -129 -436t-363 -153q-240 0 -365.5 152.5t-125.5 436.5zM344 1606q0 41 28.5 69.5t69.5 28.5t70 -28.5t29 -69.5t-29 -70t-70 -29t-69.5 29t-28.5 70zM672 1606 q0 41 28.5 69.5t69.5 28.5t69.5 -28.5t28.5 -69.5t-28.5 -70t-69.5 -29t-69.5 29t-28.5 70z" />
<glyph unicode="&#xdd;" horiz-adv-x="1146" d="M16 1376h148l409 -631l410 631h147l-491 -753v-623h-131v623zM475 1507l164 262h164l-230 -262h-98z" />
<glyph unicode="&#xde;" horiz-adv-x="1146" d="M147 0v1442h132v-279h262q262 0 393 -114.5t131 -317.5q0 -199 -123 -325.5t-336 -126.5h-327v-279h-132zM279 410h327q145 0 236.5 74.5t91.5 234.5t-96.5 236.5t-241.5 76.5h-317v-622z" />
<glyph unicode="&#xdf;" horiz-adv-x="1081" d="M115 0h131v1032q0 135 68.5 215t199.5 80q121 0 188.5 -66.5t67.5 -179.5q0 -150 -135 -217q-90 -45 -324 -45v-131h67.5h69t58.5 -1t59.5 -3t49 -5t50 -9t42.5 -15q162 -66 161 -237q0 -193 -155.5 -262.5t-401.5 -24.5v-131q104 -16 199 -16q244 0 366.5 126t122.5 308 q0 133 -74.5 236.5t-199.5 131.5q68 35 122 111t54 193q0 150 -104.5 259t-280.5 109q-29 0 -60.5 -3t-98 -28.5t-115.5 -68.5t-88 -137.5t-39 -221.5v-999z" />
<glyph unicode="&#xe0;" horiz-adv-x="1245" d="M82 491.5q0 210.5 148.5 359t359.5 148.5q238 0 377 -190v174h131v-983h-131v174q-139 -190 -377 -190q-211 0 -359.5 148.5t-148.5 359zM213 491.5q0 -155.5 110.5 -266t266 -110.5t266.5 110.5t111 266t-111 266t-266.5 110.5t-266 -110.5t-110.5 -266zM524 1376h164 l164 -262h-98z" />
<glyph unicode="&#xe1;" horiz-adv-x="1245" d="M82 491.5q0 210.5 148.5 359t359.5 148.5q238 0 377 -190v174h131v-983h-131v174q-139 -190 -377 -190q-211 0 -359.5 148.5t-148.5 359zM213 491.5q0 -155.5 110.5 -266t266 -110.5t266.5 110.5t111 266t-111 266t-266.5 110.5t-266 -110.5t-110.5 -266zM557 1114 l164 262h164l-230 -262h-98z" />
<glyph unicode="&#xe2;" horiz-adv-x="1245" d="M82 491.5q0 210.5 148.5 359t359.5 148.5q238 0 377 -190v174h131v-983h-131v174q-139 -190 -377 -190q-211 0 -359.5 148.5t-148.5 359zM213 491.5q0 -155.5 110.5 -266t266 -110.5t266.5 110.5t111 266t-111 266t-266.5 110.5t-266 -110.5t-110.5 -266zM360 1114 l295 279l295 -279h-153l-142 148l-141 -148h-154z" />
<glyph unicode="&#xe3;" horiz-adv-x="1245" d="M82 491.5q0 210.5 148.5 359t359.5 148.5q238 0 377 -190v174h131v-983h-131v174q-139 -190 -377 -190q-211 0 -359.5 148.5t-148.5 359zM213 491.5q0 -155.5 110.5 -266t266 -110.5t266.5 110.5t111 266t-111 266t-266.5 110.5t-266 -110.5t-110.5 -266zM328 1149 q74 135 209 135q39 0 131 -35q72 -35 126 -29.5t85 64.5l104 -31q-68 -139 -205 -139q-43 0 -139 37q-150 63 -207 -37z" />
<glyph unicode="&#xe4;" horiz-adv-x="1245" d="M82 491.5q0 210.5 148.5 359t359.5 148.5q238 0 377 -190v174h131v-983h-131v174q-139 -190 -377 -190q-211 0 -359.5 148.5t-148.5 359zM213 491.5q0 -155.5 110.5 -266t266 -110.5t266.5 110.5t111 266t-111 266t-266.5 110.5t-266 -110.5t-110.5 -266zM393 1212 q0 41 29 70t69.5 29t69.5 -29t29 -70t-29 -69.5t-69.5 -28.5t-69.5 28.5t-29 69.5zM721 1212q0 41 28.5 70t69.5 29t70 -29t29 -70t-29 -69.5t-70 -28.5t-69.5 28.5t-28.5 69.5z" />
<glyph unicode="&#xe5;" horiz-adv-x="1245" d="M82 491.5q0 210.5 148.5 359t359.5 148.5q238 0 377 -190v174h131v-983h-131v174q-139 -190 -377 -190q-211 0 -359.5 148.5t-148.5 359zM213 491.5q0 -155.5 110.5 -266t266 -110.5t266.5 110.5t111 266t-111 266t-266.5 110.5t-266 -110.5t-110.5 -266zM459 1261.5 q0 90.5 61.5 152t151.5 61.5t151.5 -61.5t61.5 -152t-61.5 -151.5t-151.5 -61t-151.5 61t-61.5 151.5zM557 1261.5q0 -47.5 34 -81t81 -33.5t80.5 33.5t33.5 81t-33.5 81t-80.5 33.5t-81 -33.5t-34 -81z" />
<glyph unicode="&#xe6;" horiz-adv-x="1867" d="M82 295q0 90 52 167t163 113q129 35 274.5 30t264.5 -32q0 139 -93.5 217t-222.5 78q-94 0 -187 -32.5t-143 -77.5l-67 110q174 131 418 131q121 0 224 -62.5t148 -154.5q139 217 412 217q201 0 331 -136t130 -367q0 -37 -6 -70h-809q14 -139 120.5 -225t264.5 -86 q178 0 315 106l49 -119q-141 -119 -368 -118q-242 0 -385 155v-139h-131v133q-51 -61 -157 -105t-228 -44q-168 0 -268.5 83t-100.5 228zM213 299q0 -98 74.5 -141t167.5 -43q133 0 257 80.5t124 164.5v82q-141 33 -312 33q-311 0 -311 -176zM971 557h682q-6 119 -90 215 t-244 96q-162 0 -252 -96t-96 -215z" />
<glyph unicode="&#xe7;" horiz-adv-x="1015" d="M82 492q0 217 144.5 362t385.5 145q195 0 322 -102l-57 -119q-102 90 -267 90q-178 0 -287.5 -108.5t-109.5 -267.5q0 -162 108.5 -269.5t288.5 -107.5q158 0 269 98l55 -119q-111 -100 -291 -110l-82 -88q125 31 216 -38t91 -186q0 -127 -86 -211t-223 -84 q-162 0 -248 129l90 84q47 -98 172 -98q86 0 141.5 54.5t55.5 127.5q0 61 -46 103.5t-118 42.5q-76 0 -137 -49l-66 98l113 121q-203 29 -318.5 168t-115.5 334z" />
<glyph unicode="&#xe8;" horiz-adv-x="1114" d="M82 492q0 219 134 363t355 144q201 0 331 -136t130 -367q0 -37 -6 -70h-809q14 -139 120.5 -225t264.5 -86q178 0 316 106l49 -119q-141 -119 -369 -118q-236 0 -376 146t-140 362zM217 557h682q-6 119 -90 215t-244 96q-162 0 -252 -96t-96 -215zM360 1376h164l164 -262 h-98z" />
<glyph unicode="&#xe9;" horiz-adv-x="1114" d="M82 492q0 219 134 363t355 144q201 0 331 -136t130 -367q0 -37 -6 -70h-809q14 -139 120.5 -225t264.5 -86q178 0 316 106l49 -119q-141 -119 -369 -118q-236 0 -376 146t-140 362zM217 557h682q-6 119 -90 215t-244 96q-162 0 -252 -96t-96 -215zM475 1114l164 262h164 l-230 -262h-98z" />
<glyph unicode="&#xea;" horiz-adv-x="1114" d="M82 492q0 219 134 363t355 144q201 0 331 -136t130 -367q0 -37 -6 -70h-809q14 -139 120.5 -225t264.5 -86q178 0 316 106l49 -119q-141 -119 -369 -118q-236 0 -376 146t-140 362zM217 557h682q-6 119 -90 215t-244 96q-162 0 -252 -96t-96 -215zM262 1114l295 279 l295 -279h-154l-141 148l-141 -148h-154z" />
<glyph unicode="&#xeb;" horiz-adv-x="1114" d="M82 492q0 219 134 363t355 144q201 0 331 -136t130 -367q0 -37 -6 -70h-809q14 -139 120.5 -225t264.5 -86q178 0 316 106l49 -119q-141 -119 -369 -118q-236 0 -376 146t-140 362zM217 557h682q-6 119 -90 215t-244 96q-162 0 -252 -96t-96 -215zM295 1212q0 41 28.5 70 t69.5 29t70 -29t29 -70t-29 -69.5t-70 -28.5t-69.5 28.5t-28.5 69.5zM623 1212q0 41 28.5 70t69.5 29t69.5 -29t28.5 -70t-28.5 -69.5t-69.5 -28.5t-69.5 28.5t-28.5 69.5z" />
<glyph unicode="&#xec;" horiz-adv-x="425" d="M-49 1376h164l164 -262h-99zM147 0v983h132v-983h-132z" />
<glyph unicode="&#xed;" horiz-adv-x="425" d="M147 0v983h132v-983h-132zM147 1114l164 262h164l-229 -262h-99z" />
<glyph unicode="&#xee;" horiz-adv-x="425" d="M-82 1114l295 279l295 -279h-154l-141 148l-141 -148h-154zM147 0v983h132v-983h-132z" />
<glyph unicode="&#xef;" horiz-adv-x="425" d="M-49 1212q0 41 28.5 70t69.5 29t69.5 -29t28.5 -70t-28.5 -69.5t-69.5 -28.5t-69.5 28.5t-28.5 69.5zM147 0v983h132v-983h-132zM279 1212q0 41 28.5 70t69.5 29t69.5 -29t28.5 -70t-28.5 -69.5t-69.5 -28.5t-69.5 28.5t-28.5 69.5z" />
<glyph unicode="&#xf0;" horiz-adv-x="1179" d="M82 491.5q0 210.5 148.5 359t359.5 148.5q66 0 112 -16q-29 31 -69.5 66.5t-70.5 57t-69.5 51.5t-48.5 36l-329 -115v99l243 84l-178 137l103 76l213 -160l372 129v-101l-284 -98q293 -223 403.5 -404.5t110.5 -348.5q0 -211 -148.5 -359.5t-359.5 -148.5t-359.5 148.5 t-148.5 359zM213 491.5q0 -153.5 111.5 -265t265 -111.5t265.5 111.5t112 265t-112 265t-265.5 111.5t-265 -111.5t-111.5 -265z" />
<glyph unicode="&#xf1;" horiz-adv-x="1114" d="M147 0v983h132v-152q41 66 133 117t190 51q207 0 302 -113.5t95 -336.5v-549h-131v582q0 287 -262 286q-123 0 -225 -81.5t-102 -213.5v-573h-132zM229 1149q74 135 209 135q39 0 131 -35q72 -35 126 -29.5t85 64.5l105 -31q-68 -139 -205 -139q-43 0 -139 37 q-150 63 -207 -37z" />
<glyph unicode="&#xf2;" horiz-adv-x="1179" d="M82 491.5q0 210.5 148.5 359t359.5 148.5t359.5 -148.5t148.5 -359t-148.5 -359t-359.5 -148.5t-359.5 148.5t-148.5 359zM213 491.5q0 -153.5 111.5 -265t265 -111.5t265.5 111.5t112 265t-112 265t-265.5 111.5t-265 -111.5t-111.5 -265zM360 1376h164l164 -262h-98z " />
<glyph unicode="&#xf3;" horiz-adv-x="1179" d="M82 491.5q0 210.5 148.5 359t359.5 148.5t359.5 -148.5t148.5 -359t-148.5 -359t-359.5 -148.5t-359.5 148.5t-148.5 359zM213 491.5q0 -153.5 111.5 -265t265 -111.5t265.5 111.5t112 265t-112 265t-265.5 111.5t-265 -111.5t-111.5 -265zM492 1114l163 262h164 l-229 -262h-98z" />
<glyph unicode="&#xf4;" horiz-adv-x="1179" d="M82 491.5q0 210.5 148.5 359t359.5 148.5t359.5 -148.5t148.5 -359t-148.5 -359t-359.5 -148.5t-359.5 148.5t-148.5 359zM213 491.5q0 -153.5 111.5 -265t265 -111.5t265.5 111.5t112 265t-112 265t-265.5 111.5t-265 -111.5t-111.5 -265zM295 1114l295 279l295 -279 h-154l-141 148l-141 -148h-154z" />
<glyph unicode="&#xf5;" horiz-adv-x="1179" d="M82 491.5q0 210.5 148.5 359t359.5 148.5t359.5 -148.5t148.5 -359t-148.5 -359t-359.5 -148.5t-359.5 148.5t-148.5 359zM213 491.5q0 -153.5 111.5 -265t265 -111.5t265.5 111.5t112 265t-112 265t-265.5 111.5t-265 -111.5t-111.5 -265zM262 1149q74 135 209 135 q39 0 131 -35q72 -35 126 -29.5t85 64.5l105 -31q-68 -139 -205 -139q-43 0 -140 37q-150 63 -206 -37z" />
<glyph unicode="&#xf6;" horiz-adv-x="1179" d="M82 491.5q0 210.5 148.5 359t359.5 148.5t359.5 -148.5t148.5 -359t-148.5 -359t-359.5 -148.5t-359.5 148.5t-148.5 359zM213 491.5q0 -153.5 111.5 -265t265 -111.5t265.5 111.5t112 265t-112 265t-265.5 111.5t-265 -111.5t-111.5 -265zM328 1212q0 41 28.5 70 t69.5 29t69.5 -29t28.5 -70t-28.5 -69.5t-69.5 -28.5t-69.5 28.5t-28.5 69.5zM655 1212q0 41 29 70t70 29t69.5 -29t28.5 -70t-28.5 -69.5t-69.5 -28.5t-70 28.5t-29 69.5z" />
<glyph unicode="&#xf7;" horiz-adv-x="950" d="M115 573v99h721v-99h-721zM344 262q0 55 38 93t93 38t93 -38t38 -93t-38 -93t-93 -38t-93 38t-38 93zM344 983q0 55 38 93t93 38t93 -38t38 -93t-38 -93t-93 -38t-93 38t-38 93z" />
<glyph unicode="&#xf8;" horiz-adv-x="1179" d="M82 492q0 211 148.5 359t359.5 148q170 0 303 -100l74 84h98l-115 -133q147 -152 148 -358q0 -211 -148.5 -359.5t-359.5 -148.5q-170 0 -303 100l-74 -84h-98l114 133q-147 152 -147 359zM213 492q0 -147 104 -259l490 566q-100 70 -217 69q-154 0 -265.5 -111 t-111.5 -265zM373 184q100 -69 217 -69q154 0 265.5 111.5t111.5 265.5q0 147 -105 258z" />
<glyph unicode="&#xf9;" horiz-adv-x="1114" d="M115 434v549h131v-582q0 -287 262 -286q123 0 225.5 82t102.5 213v573h131v-983h-131v152q-41 -66 -133.5 -117t-190.5 -51q-207 0 -302 113.5t-95 336.5zM311 1376h164l164 -262h-98z" />
<glyph unicode="&#xfa;" horiz-adv-x="1114" d="M115 434v549h131v-582q0 -287 262 -286q123 0 225.5 82t102.5 213v573h131v-983h-131v152q-41 -66 -133.5 -117t-190.5 -51q-207 0 -302 113.5t-95 336.5zM442 1114l164 262h164l-229 -262h-99z" />
<glyph unicode="&#xfb;" horiz-adv-x="1114" d="M115 434v549h131v-582q0 -287 262 -286q123 0 225.5 82t102.5 213v573h131v-983h-131v152q-41 -66 -133.5 -117t-190.5 -51q-207 0 -302 113.5t-95 336.5zM246 1114l295 279l295 -279h-154l-141 148l-142 -148h-153z" />
<glyph unicode="&#xfc;" horiz-adv-x="1114" d="M115 434v549h131v-582q0 -287 262 -286q123 0 225.5 82t102.5 213v573h131v-983h-131v152q-41 -66 -133.5 -117t-190.5 -51q-207 0 -302 113.5t-95 336.5zM279 1212q0 41 28.5 70t69.5 29t69.5 -29t28.5 -70t-28.5 -69.5t-69.5 -28.5t-69.5 28.5t-28.5 69.5zM606 1212 q0 41 29 70t69.5 29t69.5 -29t29 -70t-29 -69.5t-69.5 -28.5t-69.5 28.5t-29 69.5z" />
<glyph unicode="&#xfd;" horiz-adv-x="983" d="M16 983h154l322 -754l321 754h154l-666 -1507h-149l262 585zM393 1114l164 262h164l-229 -262h-99z" />
<glyph unicode="&#xfe;" horiz-adv-x="1245" d="M147 -524v1966h132v-633q139 190 376 190q211 0 359.5 -148.5t148.5 -359t-148.5 -359t-359.5 -148.5q-238 0 -376 190v-698h-132zM279 491.5q0 -155.5 110.5 -266t266 -110.5t266 110.5t110.5 266t-110.5 266t-266 110.5t-266 -110.5t-110.5 -266z" />
<glyph unicode="&#xff;" horiz-adv-x="983" d="M16 983h154l322 -754l321 754h154l-666 -1507h-149l262 585zM229 1212q0 41 29 70t70 29t69.5 -29t28.5 -70t-28.5 -69.5t-69.5 -28.5t-70 28.5t-29 69.5zM557 1212q0 41 28.5 70t69.5 29t70 -29t29 -70t-29 -69.5t-70 -28.5t-69.5 28.5t-28.5 69.5z" />
<glyph unicode="&#x152;" horiz-adv-x="2228" d="M82 688q0 291 207 498t497 207q174 0 326 -80t248 -215v278h754v-131h-623v-491h524v-131h-524v-492h623v-131h-754v279q-96 -135 -247.5 -215t-326.5 -80q-291 0 -497.5 206.5t-206.5 497.5zM213 688.5q0 -239.5 167 -406.5t406.5 -167t406.5 167t167 406.5t-167 406.5 t-406.5 167t-406.5 -167t-167 -406.5z" />
<glyph unicode="&#x153;" horiz-adv-x="1998" d="M82 491.5q0 210.5 148.5 359t359.5 148.5q137 0 252.5 -67.5t183.5 -181.5q61 117 172 183t258 66q201 0 331 -136t130 -367q0 -37 -6 -70h-809q14 -139 120.5 -225t264.5 -86q178 0 315 106l49 -119q-141 -119 -368 -118q-156 0 -273.5 67.5t-181.5 184.5 q-68 -115 -183.5 -183.5t-254.5 -68.5q-211 0 -359.5 148.5t-148.5 359zM213 491.5q0 -153.5 111.5 -265t265 -111.5t265.5 111.5t112 265t-112 265t-265.5 111.5t-265 -111.5t-111.5 -265zM1102 557h682q-6 119 -90 215t-244 96q-162 0 -252 -96t-96 -215z" />
<glyph unicode="&#x178;" horiz-adv-x="1146" d="M16 1376h148l409 -631l410 631h147l-491 -753v-623h-131v623zM311 1606q0 41 29 69.5t70 28.5t69.5 -28.5t28.5 -69.5t-28.5 -70t-69.5 -29t-70 29t-29 70zM639 1606q0 41 28.5 69.5t69.5 28.5t70 -28.5t29 -69.5t-29 -70t-70 -29t-69.5 29t-28.5 70z" />
<glyph unicode="&#x2c6;" horiz-adv-x="1671" d="M541 1507l295 279l294 -279h-153l-141 148l-142 -148h-153z" />
<glyph unicode="&#x2dc;" horiz-adv-x="1671" d="M508 1542q74 135 209 135q39 0 131 -35q72 -35 126 -29.5t85 64.5l104 -30q-68 -139 -205 -140q-43 0 -139 37q-150 63 -207 -37z" />
<glyph unicode="&#x2000;" horiz-adv-x="950" />
<glyph unicode="&#x2001;" horiz-adv-x="1901" />
<glyph unicode="&#x2002;" horiz-adv-x="950" />
<glyph unicode="&#x2003;" horiz-adv-x="1901" />
<glyph unicode="&#x2004;" horiz-adv-x="633" />
<glyph unicode="&#x2005;" horiz-adv-x="475" />
<glyph unicode="&#x2006;" horiz-adv-x="316" />
<glyph unicode="&#x2007;" horiz-adv-x="316" />
<glyph unicode="&#x2008;" horiz-adv-x="237" />
<glyph unicode="&#x2009;" horiz-adv-x="380" />
<glyph unicode="&#x200a;" horiz-adv-x="105" />
<glyph unicode="&#x2010;" horiz-adv-x="753" d="M115 475v131h524v-131h-524z" />
<glyph unicode="&#x2011;" horiz-adv-x="753" d="M115 475v131h524v-131h-524z" />
<glyph unicode="&#x2012;" horiz-adv-x="753" d="M115 475v131h524v-131h-524z" />
<glyph unicode="&#x2013;" horiz-adv-x="1015" d="M115 475v131h786v-131h-786z" />
<glyph unicode="&#x2014;" d="M115 475v131h983v-131h-983z" />
<glyph unicode="&#x2018;" horiz-adv-x="442" d="M82 1049l180 327h98l-81 -327h-197z" />
<glyph unicode="&#x2019;" horiz-adv-x="442" d="M82 1049l82 327h196l-180 -327h-98z" />
<glyph unicode="&#x201a;" horiz-adv-x="442" d="M82 -66l82 328h196l-180 -328h-98z" />
<glyph unicode="&#x201c;" horiz-adv-x="901" d="M82 1049l180 327h98l-81 -327h-197zM541 1049l180 327h98l-82 -327h-196z" />
<glyph unicode="&#x201d;" horiz-adv-x="901" d="M82 1049l82 327h196l-180 -327h-98zM541 1049l82 327h196l-180 -327h-98z" />
<glyph unicode="&#x201e;" horiz-adv-x="901" d="M82 -66l82 328h196l-180 -328h-98zM541 -66l82 328h196l-180 -328h-98z" />
<glyph unicode="&#x2022;" horiz-adv-x="1540" d="M573 688q0 82 57.5 139.5t139.5 57.5t139.5 -57.5t57.5 -139.5t-57.5 -139t-139.5 -57t-139.5 57t-57.5 139z" />
<glyph unicode="&#x2026;" horiz-adv-x="1605" d="M115 114.5q0 55.5 37.5 93.5t93 38t93.5 -38t38 -93.5t-38 -93t-93.5 -37.5t-93 37.5t-37.5 93zM672 114.5q0 55.5 38 93.5t93 38t93 -38t38 -93.5t-38 -93t-93 -37.5t-93 37.5t-38 93zM1229 114.5q0 55.5 38 93.5t93 38t93 -38t38 -93.5t-38 -93t-93 -37.5t-93 37.5 t-38 93z" />
<glyph unicode="&#x202f;" horiz-adv-x="380" />
<glyph unicode="&#x2039;" horiz-adv-x="753" d="M115 541l327 442h131l-327 -442l327 -443h-131z" />
<glyph unicode="&#x203a;" horiz-adv-x="753" d="M180 98l328 443l-328 442h131l328 -442l-328 -443h-131z" />
<glyph unicode="&#x205f;" horiz-adv-x="475" />
<glyph unicode="&#x20ac;" horiz-adv-x="1441" d="M82 532v82h135q-4 49 -4 74t4 74h-135v82h149q55 238 249 393.5t446 155.5q115 0 233.5 -43t200.5 -119l-53 -119q-162 150 -389 150q-197 0 -349.5 -117t-203.5 -301h520l-31 -82h-506q-4 -49 -4 -73.5t4 -74.5h457l-29 -82h-411q51 -184 203.5 -300.5t349.5 -116.5 q229 0 389 149l53 -119q-82 -76 -201 -118.5t-233 -42.5q-252 0 -445.5 155.5t-249.5 392.5h-149z" />
<glyph unicode="&#x2122;" horiz-adv-x="1327" d="M115 1317v59h381v-59h-162v-555h-58v555h-161zM530 762l105 624l237 -512l238 512l102 -624h-59l-70 434l-211 -448l-213 448l-69 -434h-60z" />
<glyph unicode="&#x25fc;" horiz-adv-x="983" d="M0 0v983h983v-983h-983z" />
</font>
</defs>
</svg>
