<?xml version="1.0" standalone="no"?>
<!DOCTYPE svg PUBLIC "-//W3C//DTD SVG 1.1//EN" "http://www.w3.org/Graphics/SVG/1.1/DTD/svg11.dtd" >
<svg xmlns="http://www.w3.org/2000/svg" xmlns:xlink="http://www.w3.org/1999/xlink" version="1.1">
<metadata></metadata>
<defs>
<font id="noirpro-regularuploaded_file" horiz-adv-x="1245" >
<font-face units-per-em="2048" ascent="1495" descent="-553" />
<missing-glyph horiz-adv-x="655" />
<glyph horiz-adv-x="0" />
<glyph unicode="&#xd;" horiz-adv-x="681" />
<glyph unicode=" "  horiz-adv-x="655" />
<glyph unicode="&#x09;" horiz-adv-x="655" />
<glyph unicode="&#xa0;" horiz-adv-x="655" />
<glyph unicode="!" horiz-adv-x="589" d="M147 131.5q0 61.5 43 104.5t105 43q63 0 105 -43t42 -104.5t-42 -104.5t-105 -43q-61 0 -104.5 43t-43.5 104.5zM164 1376h262l-66 -983h-131z" />
<glyph unicode="&#x22;" horiz-adv-x="851" d="M115 1376h213l-33 -426h-148zM524 1376h213l-32 -426h-148z" />
<glyph unicode="#" horiz-adv-x="1409" d="M115 360v132h252l59 360h-229v131h252l65 393h148l-66 -393h322l65 393h147l-65 -393h229v-131h-252l-59 -360h229v-132h-251l-60 -360h-147l61 360h-321l-60 -360h-153l63 360h-229zM514 492h322l59 360h-322z" />
<glyph unicode="$" horiz-adv-x="1212" d="M82 207l98 176q182 -203 434 -203q154 0 237 57.5t83 157.5q0 156 -313 211q-272 47 -382 142.5t-110 244.5q0 164 116.5 274.5t327.5 123.5v149h99v-149q240 -16 397 -162l-94 -178q-150 145 -354 145q-141 0 -218 -51t-77 -144q0 -78 71.5 -121.5t239.5 -76.5 q256 -49 374.5 -140.5t118.5 -259.5q0 -170 -123.5 -285.5t-334.5 -131.5v-150h-99v148q-106 4 -200 34.5t-155.5 74.5t-90.5 68.5t-45 45.5z" />
<glyph unicode="%" horiz-adv-x="1605" d="M115 1098q0 123 86 209t211 86q123 0 208 -86t85 -209q0 -125 -85 -210t-208 -85q-125 0 -211 85t-86 210zM246 1097.5q0 -65.5 49 -114.5t114.5 -49t114.5 49t49 114.5t-49 115t-114.5 49.5t-114.5 -49.5t-49 -115zM258 0l959 1376h131l-959 -1376h-131zM901 279 q0 123 86 208.5t211 85.5q123 0 208 -86t85 -208q0 -125 -85 -210t-208 -85q-125 0 -211 85t-86 210zM1032 278.5q0 -65.5 49 -114.5t115 -49t115 49t49 114.5t-49 114.5t-115 49t-115 -49t-49 -114.5z" />
<glyph unicode="&#x26;" horiz-adv-x="1509" d="M115 383q0 129 74.5 223t183.5 142q-172 164 -172 301q0 139 110.5 241.5t315.5 102.5q186 0 295.5 -104.5t109.5 -252.5q0 -78 -33.5 -142.5t-88 -106.5t-103.5 -67.5t-100 -41.5l237 -232l193 209h256l-312 -344l314 -311h-277l-166 170q-182 -186 -407 -186 q-197 0 -313.5 109.5t-116.5 289.5zM311 377q0 -90 63.5 -143.5t174.5 -53.5q139 0 264 129l-299 301q-203 -82 -203 -233zM397 1049q0 -35 21.5 -74t44 -61.5t61.5 -58.5t45 -42q133 47 200 100.5t67 124.5q0 68 -60.5 113t-159.5 45q-109 0 -164 -45t-55 -102z" />
<glyph unicode="'" horiz-adv-x="442" d="M115 1376h213l-33 -426h-148z" />
<glyph unicode="(" horiz-adv-x="622" d="M115 622.5q0 266.5 71.5 516.5t190.5 434l164 -90q-229 -367 -229.5 -860.5t229.5 -860.5l-164 -90q-119 184 -190.5 434t-71.5 516.5z" />
<glyph unicode=")" horiz-adv-x="622" d="M82 -238q229 367 229 860.5t-229 860.5l164 90q119 -184 190.5 -434t71.5 -516.5t-71.5 -516t-190.5 -434.5z" />
<glyph unicode="*" horiz-adv-x="909" d="M115 1153l57 141l219 -98l-10 246h147l-10 -246l219 98l58 -141l-234 -78l158 -196l-119 -86l-145 204l-140 -204l-122 86l155 196z" />
<glyph unicode="+" horiz-adv-x="983" d="M115 557v131h311v311h131v-311h311v-131h-311v-311h-131v311h-311z" />
<glyph unicode="," horiz-adv-x="540" d="M82 -229l98 458h246l-213 -458h-131z" />
<glyph unicode="-" horiz-adv-x="786" d="M115 459v164h557v-164h-557z" />
<glyph unicode="." horiz-adv-x="524" d="M115 131q0 63 43 105.5t104 42.5q63 0 105.5 -42t42.5 -106q0 -61 -42.5 -104t-105.5 -43q-61 0 -104 43t-43 104z" />
<glyph unicode="/" horiz-adv-x="1048" d="M115 -164l655 1704h164l-655 -1704h-164z" />
<glyph unicode="0" d="M115 688q0 297 142 501t365.5 204t365.5 -204t142 -501t-142 -500.5t-365 -203.5q-225 0 -366.5 203.5t-141.5 500.5zM311 688q0 -211 91.5 -359.5t220.5 -148.5t220 148.5t91 359.5t-91 359.5t-220 148.5t-220.5 -148.5t-91.5 -359.5z" />
<glyph unicode="1" horiz-adv-x="753" d="M147 1081v181l426 147v-1409h-196v1155z" />
<glyph unicode="2" d="M115 0l503 553q86 94 126 141t82 119t42 125q0 117 -72.5 187.5t-189.5 70.5q-113 0 -182.5 -74.5t-77.5 -187.5l-201 33q12 176 136.5 301t324.5 125q199 0 329 -124t130 -319q0 -127 -72.5 -240.5t-234.5 -283.5l-215 -229h587v-197h-1015z" />
<glyph unicode="3" horiz-adv-x="1212" d="M115 426l196 33q35 -279 307 -279q131 0 207 65.5t76 164.5q0 117 -91 156.5t-269 39.5v197q53 0 102 9t104.5 28.5t88 60.5t32.5 98q0 76 -65.5 136.5t-184.5 60.5q-143 0 -203.5 -71.5t-72.5 -190.5l-197 33q16 186 144.5 306t316.5 120q219 0 339 -121t120 -256 q0 -193 -164 -289q80 -27 138.5 -113t58.5 -188q0 -176 -122 -309t-370 -133q-219 0 -348 120.5t-143 321.5z" />
<glyph unicode="4" d="M49 229l918 1180v-983h163v-197h-163v-229h-197v229h-721zM438 426h332v455z" />
<glyph unicode="5" horiz-adv-x="1212" d="M115 410l204 20q10 -100 90 -175t197 -75q121 0 208 81t87 198q0 115 -73.5 188.5t-190.5 73.5q-84 0 -165 -43t-126 -121h-201l123 819h699v-196h-531l-53 -353q108 91 266 91q180 0 314.5 -122t134.5 -331t-145.5 -345t-346 -136t-340 123.5t-151.5 302.5z" />
<glyph unicode="6" d="M115 516q0 229 120.5 468t360.5 392h348q-14 -4 -40.5 -15t-100.5 -51t-138.5 -89.5t-139 -134.5t-122.5 -183q107 60 259 60q207 0 337.5 -136.5t130.5 -324.5q0 -229 -142 -373.5t-365 -144.5q-225 0 -366.5 145t-141.5 387zM311 477q0 -125 88 -211t223.5 -86 t223.5 86t88 211t-85 207t-226 82q-135 0 -223.5 -83t-88.5 -206z" />
<glyph unicode="7" horiz-adv-x="1114" d="M115 1180v196h983l-590 -1376h-229l507 1180h-671z" />
<glyph unicode="8" d="M115 424q0 221 184 332q-119 84 -119 252q0 164 128 274.5t315 110.5q184 0 313 -111t129 -274.5t-121 -251.5q186 -106 186 -332q0 -195 -147 -317.5t-360 -122.5t-360.5 122.5t-147.5 317.5zM311 417.5q0 -100.5 91.5 -169t220.5 -68.5t220 68.5t91 169t-91 169 t-220 68.5t-220.5 -68.5t-91.5 -169zM377 1016q0 -74 71.5 -127t174 -53t174 53t71.5 127t-71.5 127t-174 53t-174 -53t-71.5 -127z" />
<glyph unicode="9" d="M115 874q0 229 142 374t366 145q225 0 366 -145.5t141 -387.5q0 -229 -120.5 -467.5t-360.5 -392.5h-348q14 4 41 15.5t100.5 51t138 89t139.5 134.5t122 183q-106 -59 -258 -59q-207 0 -338 136t-131 324zM311 899q0 -125 85 -207t227 -82q135 0 223 83t88 206 q0 125 -88 211t-223.5 86t-223.5 -86t-88 -211z" />
<glyph unicode=":" horiz-adv-x="524" d="M115 131.5q0 61.5 43 104.5t104 43q63 0 105.5 -43t42.5 -104.5t-42.5 -104.5t-105.5 -43q-61 0 -104 43t-43 104.5zM115 852q0 63 43 105t104 42q63 0 105.5 -42t42.5 -105q0 -61 -42.5 -104t-105.5 -43q-61 0 -104 43t-43 104z" />
<glyph unicode=";" horiz-adv-x="565" d="M82 -229l98 458h246l-213 -458h-131zM156 852q0 63 43 105t104 42q63 0 105.5 -42t42.5 -105q0 -61 -42.5 -104t-105.5 -43q-61 0 -104 43t-43 104z" />
<glyph unicode="&#x3c;" horiz-adv-x="1081" d="M115 557v131l852 393v-163l-656 -295l656 -295v-164z" />
<glyph unicode="=" horiz-adv-x="1048" d="M115 410v131h819v-131h-819zM115 705v131h819v-131h-819z" />
<glyph unicode="&#x3e;" horiz-adv-x="1081" d="M115 164v164l655 295l-655 295v163l852 -393v-131z" />
<glyph unicode="?" horiz-adv-x="1081" d="M115 1196q178 197 409 197q217 0 330 -120t113 -274q0 -104 -47.5 -179t-145.5 -156q-150 -123 -151 -271h-197q-8 182 125 322q18 18 89 81.5t100.5 106.5t29.5 96q0 84 -64.5 140.5t-179.5 56.5q-193 0 -297 -160zM377 131.5q0 61.5 43 104.5t104 43q63 0 105.5 -43 t42.5 -104.5t-42 -104.5t-106 -43q-61 0 -104 43t-43 104.5z" />
<glyph unicode="@" horiz-adv-x="2228" d="M115 589.5q0 276.5 136 510t369.5 370t509.5 136.5q258 0 484.5 -125t363 -341t136.5 -464q0 -227 -128 -386t-346 -159q-209 0 -288 182q-102 -145 -305 -145q-193 0 -303.5 130t-96.5 312q14 184 140 309t303 125q84 0 158.5 -37.5t103.5 -84.5l8 94h192l-47 -484 q-8 -90 30 -147t130 -57q88 0 170 80.5t82 265.5q0 307 -232.5 521t-554.5 214q-340 0 -579.5 -238.5t-239.5 -580.5q0 -338 240 -576.5t579 -242.5q186 -2 314 57l57 -184q-158 -70 -371 -70q-276 0 -509.5 136t-369.5 369.5t-136 510zM840 612q-10 -102 48 -185t173 -83 q111 0 180.5 75.5t79.5 188.5q8 96 -48 180t-175 84q-98 0 -173 -74.5t-85 -185.5z" />
<glyph unicode="A" horiz-adv-x="1343" d="M16 0l656 1409l655 -1409h-213l-133 295h-619l-133 -295h-213zM453 492h438l-219 483z" />
<glyph unicode="B" horiz-adv-x="1179" d="M147 0v1376h412q225 0 349 -92t124 -268q0 -100 -47 -175t-117 -102q115 -27 172.5 -120t57.5 -205q0 -182 -120 -298t-323 -116h-508zM344 197h279q131 0 204.5 55t73.5 165.5t-73.5 166t-204.5 55.5h-279v-442zM344 836h246q246 0 246 172t-246 172h-246v-344z" />
<glyph unicode="C" horiz-adv-x="1310" d="M82 688q0 291 210 498t507 207q117 0 231.5 -41t198.5 -119l-84 -184q-143 147 -359 147q-211 0 -359 -148.5t-148 -359.5t148 -359.5t359 -148.5q215 0 359 150l84 -185q-84 -78 -200 -119.5t-230 -41.5q-297 0 -507 206.5t-210 497.5z" />
<glyph unicode="D" horiz-adv-x="1343" d="M147 0v1376h412q332 0 517.5 -194.5t185.5 -493.5q0 -297 -188.5 -492.5t-514.5 -195.5h-412zM344 197h266q199 0 327 142t128 349t-128 349.5t-327 142.5h-266v-983z" />
<glyph unicode="E" horiz-adv-x="1048" d="M147 0v1376h787v-196h-590v-394h492v-196h-492v-393h590v-197h-787z" />
<glyph unicode="F" horiz-adv-x="1015" d="M147 0v1376h787v-196h-590v-394h492v-196h-492v-590h-197z" />
<glyph unicode="G" horiz-adv-x="1540" d="M82 688q0 291 207 498t497 207q203 0 361 -103.5t248 -281.5l-199 -58q-59 113 -166.5 179.5t-243.5 66.5q-211 0 -359 -148.5t-148 -359.5t148 -359.5t359 -148.5q182 0 305 105.5t158 271.5h-512v197l717 -2q4 -37 4 -64q0 -295 -191.5 -499.5t-480.5 -204.5 q-291 0 -497.5 206.5t-206.5 497.5z" />
<glyph unicode="H" horiz-adv-x="1343" d="M147 0v1376h197v-590h655v590h197v-1376h-197v590h-655v-590h-197z" />
<glyph unicode="I" horiz-adv-x="491" d="M147 0v1376h197v-1376h-197z" />
<glyph unicode="J" horiz-adv-x="950" d="M82 111l98 168q68 -98 197 -99q133 0 197.5 87t64.5 241v868h197v-852q0 -270 -125 -405t-334 -135q-86 0 -171 38.5t-124 88.5z" />
<glyph unicode="K" horiz-adv-x="1212" d="M147 0v1376h197v-606l524 606h262l-606 -674l639 -702h-262l-557 606v-606h-197z" />
<glyph unicode="L" horiz-adv-x="983" d="M147 0v1376h197v-1179h557v-197h-754z" />
<glyph unicode="M" horiz-adv-x="1703" d="M82 0l233 1409l537 -1040l537 1040l233 -1409h-201l-131 815l-438 -848l-438 848l-131 -815h-201z" />
<glyph unicode="N" horiz-adv-x="1441" d="M147 0v1409l951 -975v942h196v-1409l-950 975v-942h-197z" />
<glyph unicode="O" horiz-adv-x="1572" d="M82 688q0 291 207 498t497.5 207t497.5 -207t207 -498t-207 -497.5t-497.5 -206.5t-497.5 206.5t-207 497.5zM279 688q0 -213 147 -360.5t360 -147.5t360.5 147.5t147.5 360.5t-147.5 360.5t-360.5 147.5t-360 -147.5t-147 -360.5z" />
<glyph unicode="P" horiz-adv-x="1179" d="M147 0v1376h426q260 0 392.5 -118.5t132.5 -321.5q0 -199 -125 -330t-338 -131h-291v-475h-197zM344 672h293q117 0 190.5 62.5t73.5 189.5t-80 191.5t-196 64.5h-281v-508z" />
<glyph unicode="Q" horiz-adv-x="1572" d="M82 688q0 291 207 498t497.5 207t497.5 -207t207 -498q0 -268 -176 -465l209 -223h-246l-96 104q-179 -120 -392 -120h-4q-291 0 -497.5 206.5t-206.5 497.5zM279 688q0 -213 147 -360.5t360 -147.5q141 0 263 72l-246 272h229l148 -157q114 136 114 318 q0 216 -147.5 363.5t-360.5 147.5t-360 -147.5t-147 -360.5z" />
<glyph unicode="R" horiz-adv-x="1212" d="M147 0v1376h426q260 0 392.5 -118.5t132.5 -321.5q0 -162 -85 -281.5t-237 -160.5l354 -494h-229l-342 475h-215v-475h-197zM344 672h293q117 0 190.5 62.5t73.5 189.5q0 129 -72.5 192.5t-187.5 63.5h-297v-508z" />
<glyph unicode="S" horiz-adv-x="1212" d="M82 207l98 176q182 -203 434 -203q154 0 237 57.5t83 157.5q0 156 -313 211q-272 47 -382 142.5t-110 244.5q0 174 131 287t365 113q268 0 444 -164l-94 -178q-150 145 -354 145q-141 0 -218 -51t-77 -144q0 -78 71.5 -121.5t239.5 -76.5q256 -49 374.5 -140.5 t118.5 -259.5q0 -184 -141 -301.5t-379 -117.5q-115 0 -216 29.5t-167.5 74.5t-97.5 71.5t-47 47.5z" />
<glyph unicode="T" horiz-adv-x="1081" d="M82 1180v196h917v-196h-360v-1180h-197v1180h-360z" />
<glyph unicode="U" horiz-adv-x="1277" d="M115 606v770h196v-835q0 -162 87 -261.5t241 -99.5q152 0 240 99.5t88 261.5v835h196v-770q0 -285 -132 -453.5t-392 -168.5q-266 0 -395 167.5t-129 454.5z" />
<glyph unicode="V" horiz-adv-x="1277" d="M16 1376h213l410 -946l410 946h213l-623 -1409z" />
<glyph unicode="W" horiz-adv-x="1966" d="M33 1376h213l360 -905l377 938l377 -938l360 905h213l-573 -1409l-377 951l-377 -951z" />
<glyph unicode="X" horiz-adv-x="1343" d="M49 0l500 711l-467 665h235l355 -512l354 512h236l-467 -665l499 -711h-237l-385 555l-385 -555h-238z" />
<glyph unicode="Y" horiz-adv-x="1212" d="M16 1376h222l368 -631l369 631h221l-491 -819v-557h-197v557z" />
<glyph unicode="Z" d="M82 0l741 1180h-708v196h1048l-741 -1179h708v-197h-1048z" />
<glyph unicode="[" horiz-adv-x="688" d="M147 -426v2130h394v-197h-197v-1736h197v-197h-394z" />
<glyph unicode="\" horiz-adv-x="1048" d="M115 1540h164l655 -1704h-164z" />
<glyph unicode="]" horiz-adv-x="688" d="M147 -229h197v1736h-197v197h394v-2130h-394v197z" />
<glyph unicode="^" horiz-adv-x="1114" d="M115 918l364 524h156l364 -524h-180l-262 393l-262 -393h-180z" />
<glyph unicode="_" horiz-adv-x="1146" d="M82 -66h983v-163h-983v163z" />
<glyph unicode="`" horiz-adv-x="1671" d="M590 1769h229l164 -262h-131z" />
<glyph unicode="a" d="M82 492q0 213 139 360t352 147q205 0 328 -159v143h197v-983h-197v143q-122 -159 -325 -159h-3q-213 0 -352 147.5t-139 360.5zM279 491.5q0 -129.5 91 -220.5t220 -91t220 91t91 220.5t-91 220.5t-220 91t-220 -91t-91 -220.5z" />
<glyph unicode="b" d="M147 0v1442h197v-602q122 159 325 159h3q213 0 352 -147t139 -360t-139 -360.5t-352 -147.5q-205 0 -328 159v-143h-197zM344 491.5q0 -129.5 91 -220.5t220 -91t220.5 91t91.5 220.5t-91.5 220.5t-220.5 91t-220 -91t-91 -220.5z" />
<glyph unicode="c" horiz-adv-x="1015" d="M82 491.5q0 217.5 143.5 362.5t380.5 145q203 0 328 -112l-84 -182q-102 98 -242 98q-135 0 -232 -91t-97 -218q0 -129 96 -221.5t233 -92.5q141 0 242 101l84 -185q-118 -112 -324 -112h-4q-240 0 -382 145t-142 362.5z" />
<glyph unicode="d" d="M82 492q0 213 139 360t352 147q205 0 328 -159v602h197v-1442h-197v143q-122 -159 -325 -159h-3q-213 0 -352 147.5t-139 360.5zM279 491.5q0 -129.5 91 -220.5t220 -91t220 91t91 220.5t-91 220.5t-220 91t-220 -91t-91 -220.5z" />
<glyph unicode="e" horiz-adv-x="1114" d="M82 492q0 217 134 362t355 145q201 0 331 -139.5t130 -372.5q0 -45 -6 -86h-743q23 -111 109.5 -166t209.5 -55q160 0 299 99l66 -177q-140 -118 -365 -118h-4q-248 0 -382 144t-134 364zM283 582h548q-4 84 -71.5 152.5t-196.5 68.5q-125 0 -200.5 -69.5t-79.5 -151.5z " />
<glyph unicode="f" horiz-adv-x="753" d="M82 786v197h131v119q0 174 82 265t217 91q74 0 127 -33v-192q-43 29 -98 29q-131 0 -131 -166v-113h229v-197h-229v-786h-197v786h-131z" />
<glyph unicode="g" d="M82 492q0 213 139 360t352 147q205 0 328 -159v143h197v-922q0 -299 -140.5 -450.5t-384.5 -151.5q-246 0 -458 164l98 176q57 -43 94 -67.5t112 -50t154 -25.5q154 0 241 98.5t87 278.5v110q-122 -159 -325 -159h-3q-213 0 -352 147.5t-139 360.5zM279 491.5 q0 -129.5 91 -220.5t220 -91t220 91t91 220.5t-91 220.5t-220 91t-220 -91t-91 -220.5z" />
<glyph unicode="h" horiz-adv-x="1146" d="M147 0v1442h197v-574q114 131 307 131q186 0 283.5 -115.5t97.5 -334.5v-549h-196v549q0 125 -50.5 189.5t-171.5 64.5q-98 0 -184 -73t-86 -189v-541h-197z" />
<glyph unicode="i" horiz-adv-x="491" d="M98 1294.5q0 61.5 43 104.5t104.5 43t104.5 -43t43 -104.5t-43 -104.5t-104.5 -43t-104.5 43t-43 104.5zM147 0v983h197v-983h-197z" />
<glyph unicode="j" horiz-adv-x="491" d="M-66 -360q100 20 156.5 85.5t56.5 208.5v1049h197v-1020q0 -92 -14.5 -167t-35 -124t-55 -88t-62 -59.5t-69.5 -35.5t-66 -19.5t-58 -10.5zM98 1294.5q0 61.5 43 104.5t104.5 43t104.5 -43t43 -104.5t-43 -104.5t-104.5 -43t-104.5 43t-43 104.5z" />
<glyph unicode="k" horiz-adv-x="1048" d="M147 0v1442h197v-860l393 401h262l-491 -475l524 -508h-262l-426 418v-418h-197z" />
<glyph unicode="l" horiz-adv-x="491" d="M147 0v1442h197v-1442h-197z" />
<glyph unicode="m" horiz-adv-x="1703" d="M147 0v983h197v-115q37 41 63.5 64.5t83 45t127.5 21.5q193 0 283 -155q78 84 157 119.5t183 35.5q164 0 256 -116.5t92 -333.5v-549h-196v549q0 254 -189 254q-94 0 -165.5 -72t-71.5 -190v-541h-197v549q0 254 -188 254q-94 0 -166 -72t-72 -190v-541h-197z" />
<glyph unicode="n" horiz-adv-x="1146" d="M147 0v983h197v-115q114 131 307 131q178 0 279.5 -110.5t101.5 -323.5v-565h-196v549q0 125 -50.5 189.5t-171.5 64.5q-98 0 -184 -73t-86 -189v-541h-197z" />
<glyph unicode="o" horiz-adv-x="1179" d="M82 491.5q0 210.5 148.5 359t359.5 148.5t359.5 -148.5t148.5 -359t-148.5 -359t-359.5 -148.5t-359.5 148.5t-148.5 359zM279 491.5q0 -126.5 92 -219t219 -92.5t219 92.5t92 219t-92 219t-219 92.5t-219 -92.5t-92 -219z" />
<glyph unicode="p" d="M147 -524v1507h197v-143q123 159 328 159q213 0 352 -147t139 -360t-139 -360.5t-352 -147.5q-205 0 -328 159v-667h-197zM344 491.5q0 -129.5 91 -220.5t220 -91t220.5 91t91.5 220.5t-91.5 220.5t-220.5 91t-220 -91t-91 -220.5z" />
<glyph unicode="q" d="M82 492q0 213 139 360t352 147q205 0 328 -159v143h197v-1507h-197v667q-122 -159 -325 -159h-3q-213 0 -352 147.5t-139 360.5zM279 491.5q0 -129.5 91 -220.5t220 -91t220 91t91 220.5t-91 220.5t-220 91t-220 -91t-91 -220.5z" />
<glyph unicode="r" horiz-adv-x="819" d="M147 0v983h197v-211q51 106 153.5 166.5t239.5 60.5v-215q-37 12 -76 12q-51 0 -104 -20q-213 -82 -213 -338v-438h-197z" />
<glyph unicode="s" horiz-adv-x="983" d="M82 123l78 192q57 -57 156.5 -95t185.5 -40h11q85 0 137 29q56 31 55 76q0 51 -47.5 78.5t-145.5 46.5q-229 41 -313 112.5t-84 196.5t109.5 202.5t289.5 77.5q182 0 356 -94l-67 -184q-39 29 -122 54.5t-167 27.5h-15q-75 -1 -129 -19q-60 -20 -59 -67q0 -25 15.5 -42.5 t47.5 -28.5t60.5 -18t75.5 -16q23 -4 33 -6q358 -70 358 -299q0 -150 -102.5 -236.5t-290.5 -86.5q-143 0 -261 47t-165 92z" />
<glyph unicode="t" horiz-adv-x="720" d="M82 786v197h131v393h197v-393h196v-197h-196v-409q0 -141 39 -170q28 -22 65 -22q40 0 92 26v-199q-57 -28 -139 -28h-6q-248 0 -248 338v464h-131z" />
<glyph unicode="u" horiz-adv-x="1146" d="M115 418v565h196v-549q0 -125 50.5 -189.5t170.5 -64.5q98 0 184.5 73t86.5 189v541h196v-983h-196v115q-114 -131 -307 -131q-178 0 -279.5 110.5t-101.5 323.5z" />
<glyph unicode="v" horiz-adv-x="983" d="M16 983h213l263 -573l262 573h213l-475 -1016z" />
<glyph unicode="w" horiz-adv-x="1540" d="M33 983h213l229 -586l295 619l295 -619l229 586h213l-426 -1016l-311 631l-311 -631z" />
<glyph unicode="x" horiz-adv-x="1081" d="M49 0l375 522l-344 461h233l228 -324l227 324h233l-344 -461l375 -522h-233l-258 371l-258 -371h-234z" />
<glyph unicode="y" horiz-adv-x="1048" d="M16 983h220l288 -680l289 680h219l-665 -1507h-215l262 587z" />
<glyph unicode="z" horiz-adv-x="983" d="M82 0l483 786h-450v197h786l-487 -786h454v-197h-786z" />
<glyph unicode="{" horiz-adv-x="786" d="M115 623q68 18 132 82.5t64 146.5v479q0 274 295 373l66 -180q-82 -18 -123 -78t-41 -139v-385q0 -240 -137 -299q137 -59 137 -299v-385q0 -80 41 -139.5t123 -78.5l-66 -180q-295 98 -295 373v479q0 82 -64.5 146.5t-131.5 83.5z" />
<glyph unicode="|" horiz-adv-x="425" d="M147 -524v2097h132v-2097h-132z" />
<glyph unicode="}" horiz-adv-x="786" d="M115 -279q82 18 123 78t41 140v385q0 240 137 299q-137 59 -137 299v385q0 80 -41 139t-123 78l65 180q295 -98 295 -373v-479q0 -82 64.5 -146.5t132.5 -82.5q-68 -18 -132.5 -83t-64.5 -147v-479q0 -274 -295 -373z" />
<glyph unicode="~" horiz-adv-x="1064" d="M115 545q49 92 109.5 122.5t142.5 30.5q23 0 57.5 -8t60 -17t66.5 -23.5t51 -18.5q80 -31 135 -17t90 84l123 -59q-49 -92 -109.5 -123t-142.5 -31q-25 0 -59.5 8.5t-58 16.5t-67.5 23.5t-50 17.5q-80 33 -135.5 18.5t-89.5 -84.5z" />
<glyph unicode="&#xa1;" horiz-adv-x="589" d="M147 852q0 61 43.5 104t104.5 43q63 0 105 -43t42 -104t-42 -104t-105 -43q-61 0 -104.5 43t-43.5 104zM164 -393l65 983h131l66 -983h-262z" />
<glyph unicode="&#xa2;" horiz-adv-x="1015" d="M82 492q0 201 124 342t335 161v152h98v-148q184 -10 295 -112l-84 -182q-102 98 -242 98q-135 0 -232 -91t-97 -218q0 -129 96 -221.5t233 -92.5q142 1 242 101l84 -185q-104 -98 -295 -112v-148h-98v152q-213 20 -336 160.5t-123 343.5z" />
<glyph unicode="&#xa3;" horiz-adv-x="1212" d="M82 229q23 59 94 115q53 41 78 92t21.5 95t-9.5 92h-184v131h147q-49 147 -49 245q0 160 125 277t336 117q129 0 229.5 -37t198.5 -127l-102 -164q-133 131 -308 131q-119 0 -200.5 -58.5t-81.5 -185.5q0 -39 23.5 -115.5t25.5 -82.5h344v-131h-311q20 -100 -7.5 -207 t-125.5 -180q129 23 193.5 10t144 -39.5t122.5 -26.5q47 0 97.5 31.5t83.5 99.5l163 -94q-59 -123 -154 -178t-190 -55q-18 0 -33.5 1t-26.5 2t-26.5 4t-21.5 5t-22.5 8t-19.5 7t-22.5 9.5t-23.5 10.5q-215 94 -295 -31z" />
<glyph unicode="&#xa4;" horiz-adv-x="1044" d="M115 330l159 164q-47 72 -47 161.5t49 161.5l-161 166l84 80l159 -162q76 49 166 49q92 0 166 -51l156 164l84 -80l-162 -164q49 -76 49 -164q0 -92 -49 -163l162 -160l-80 -84l-164 160q-72 -47 -162 -48q-94 0 -168 52l-161 -164zM358 655.5q0 -65.5 49.5 -114.5 t115 -49t114.5 49t49 114.5t-49 114.5t-114.5 49t-115 -49t-49.5 -114.5z" />
<glyph unicode="&#xa5;" horiz-adv-x="1343" d="M82 1376h221l369 -631l368 631h222l-492 -819h229v-98h-229v-131h229v-99h-229v-229h-197v229h-229v99h229v131h-229v98h229z" />
<glyph unicode="&#xa6;" horiz-adv-x="425" d="M147 197h132v-721h-132v721zM147 852v721h132v-721h-132z" />
<glyph unicode="&#xa7;" horiz-adv-x="1277" d="M115 -121l98 176q182 -203 434 -202q154 0 237 57t83 158q0 156 -314 211q-272 47 -381.5 142t-109.5 245q0 166 117 274q-117 92 -117 250q0 174 131 286.5t364 112.5q268 0 445 -164l-94 -178q-150 145 -355 146q-141 0 -218 -51.5t-77 -143.5q0 -78 72 -122t240 -77 q256 -49 374.5 -140t118.5 -259q1 -161 -110 -272q111 -92 110 -252q0 -184 -141 -302t-379 -118q-115 0 -216 29.5t-167.5 74.5t-97.5 72t-47 47zM358 674q0 -78 72 -122t240 -77q117 -23 198 -51q98 59 99 168q0 156 -314 211q-82 12 -170 39q-125 -47 -125 -168z" />
<glyph unicode="&#xa8;" horiz-adv-x="1671" d="M541 1622q0 49 33.5 82t80.5 33q49 0 82 -33t33 -82q0 -47 -33 -81t-82 -34q-47 0 -80.5 34t-33.5 81zM901 1622q0 49 34 82t81 33q49 0 81.5 -33t32.5 -82q0 -47 -32.5 -81t-81.5 -34q-47 0 -81 34t-34 81z" />
<glyph unicode="&#xa9;" horiz-adv-x="1425" d="M115 901q0 254 172 426t426 172t426 -172t172 -426t-172 -426t-426 -172q-252 0 -425 175t-173 423zM205 901q0 -213 147.5 -360.5t360.5 -147.5t360.5 147.5t147.5 360.5t-147.5 360.5t-360.5 147.5t-360.5 -147.5t-147.5 -360.5zM428 901q0 129 93 220t224 91 q111 0 191 -69l-39 -82q-59 63 -158 63q-92 0 -157.5 -65.5t-65.5 -157.5t65.5 -157.5t157.5 -65.5q98 0 158 65l39 -81q-78 -72 -191 -72q-131 0 -224 91t-93 220z" />
<glyph unicode="&#xaa;" horiz-adv-x="737" d="M115 1130.5q0 106.5 69.5 180t176 73.5t163.5 -79v71h99v-491h-99v71q-61 -80 -164 -79q-106 0 -175.5 73.5t-69.5 180zM213 1130.5q0 -65.5 45 -110.5t110.5 -45t110.5 45t45 110.5t-45 110.5t-110.5 45t-110.5 -45t-45 -110.5z" />
<glyph unicode="&#xab;" horiz-adv-x="1277" d="M115 541l327 442h181l-328 -442l328 -443h-181zM590 541l328 442h180l-328 -442l328 -443h-180z" />
<glyph unicode="&#xac;" d="M115 557v131h1015v-459h-131v328h-884z" />
<glyph unicode="&#xad;" horiz-adv-x="786" d="M115 459v164h557v-164h-557z" />
<glyph unicode="&#xae;" horiz-adv-x="1425" d="M115 901q0 254 172 426t426 172t426 -172t172 -426t-172 -426t-426 -172q-252 0 -425 175t-173 423zM205 901q0 -213 147.5 -360.5t360.5 -147.5t360.5 147.5t147.5 360.5t-147.5 360.5t-360.5 147.5t-360.5 -147.5t-147.5 -360.5zM514 594v614h191q117 0 175 -53 t58 -143q0 -72 -38 -125t-105 -72l157 -221h-102l-152 213h-96v-213h-88zM602 893h131q51 0 84 28.5t33 84.5q0 115 -117 114h-131v-227z" />
<glyph unicode="&#xaf;" horiz-adv-x="1671" d="M557 1540v115h557v-115h-557z" />
<glyph unicode="&#xb0;" horiz-adv-x="819" d="M115 1098q0 123 86 209t211 86q123 0 208 -86t85 -209q0 -125 -85 -210t-208 -85q-125 0 -211 85t-86 210zM246 1097.5q0 -65.5 49 -114.5t114.5 -49t114.5 49t49 114.5t-49 115t-114.5 49.5t-114.5 -49.5t-49 -115z" />
<glyph unicode="&#xb1;" horiz-adv-x="983" d="M115 98v131h753v-131h-753zM115 803v131h311v311h131v-311h311v-131h-311v-311h-131v311h-311z" />
<glyph unicode="&#xb2;" horiz-adv-x="737" d="M115 852l252 276q125 137 125 193q0 57 -36 93t-96 36q-55 0 -89.5 -37t-39.5 -94l-100 16q6 88 67.5 150.5t161.5 62.5q98 0 164 -61.5t66 -159.5q0 -63 -36 -119.5t-118 -142.5l-106 -115h293v-98h-508z" />
<glyph unicode="&#xb3;" horiz-adv-x="720" d="M115 1065l98 16q18 -139 154 -139q66 0 103.5 33t37.5 82q0 57 -45 77.5t-135 20.5v98q164 6 164 99q0 39 -33 68.5t-92 29.5q-125 0 -138 -131l-98 16q8 92 71.5 152.5t157.5 60.5q111 0 170.5 -59t59.5 -129q0 -96 -82 -143q41 -14 69.5 -57.5t28.5 -94.5 q0 -88 -60.5 -154.5t-185.5 -66.5q-109 0 -173 60.5t-72 160.5z" />
<glyph unicode="&#xb4;" horiz-adv-x="1671" d="M688 1507l164 262h229l-262 -262h-131z" />
<glyph unicode="&#xb6;" horiz-adv-x="1409" d="M115 1036q0 141 93 240.5t234 99.5h852v-164h-196v-1679h-164v1679h-328v-1679h-164v1159q-141 0 -234 99.5t-93 244.5z" />
<glyph unicode="&#xb7;" horiz-adv-x="524" d="M115 688q0 63 43 105.5t104 42.5q63 0 105.5 -42t42.5 -106q0 -61 -42.5 -104t-105.5 -43q-61 0 -104 43t-43 104z" />
<glyph unicode="&#xb8;" horiz-adv-x="1671" d="M565 -494l99 93q51 -90 163 -91q78 0 129.5 47.5t51.5 118.5q0 61 -43 103.5t-105 42.5q-76 0 -137 -49l-66 98l125 131h148l-92 -98q115 27 199.5 -43t84.5 -187q0 -127 -88 -211t-221 -84q-162 0 -248 129z" />
<glyph unicode="&#xb9;" horiz-adv-x="671" d="M213 1409v90l213 74v-705h-98v578z" />
<glyph unicode="&#xba;" horiz-adv-x="737" d="M115 1130q0 106 75 180t179 74q106 0 180 -73.5t74 -180.5q0 -104 -74 -178.5t-180 -74.5q-104 0 -179 74.5t-75 178.5zM213 1130.5q0 -63.5 46 -109.5t109.5 -46t109.5 46t46 109q0 66 -45 111t-110 45q-63 0 -109.5 -46t-46.5 -109.5z" />
<glyph unicode="&#xbb;" horiz-adv-x="1277" d="M180 98l328 443l-328 442h180l328 -442l-328 -443h-180zM655 98l328 443l-328 442h181l327 -442l-327 -443h-181z" />
<glyph unicode="&#xbc;" horiz-adv-x="1843" d="M213 1229v90l213 74v-705h-98v578zM360 0l959 1376h131l-958 -1376h-132zM1188 115l459 590v-492h82v-98h-82v-115h-99v115h-360zM1382 213h166v227z" />
<glyph unicode="&#xbd;" horiz-adv-x="1875" d="M213 1229v90l213 74v-705h-98v578zM360 0l959 1376h131l-958 -1376h-132zM1253 0l252 276q125 137 125 193q0 57 -35.5 93t-95.5 36q-55 0 -90 -37t-39 -94l-100 16q6 88 67.5 150.5t161.5 62.5q98 0 164 -61.5t66 -159.5q0 -63 -36 -119.5t-118 -142.5l-107 -115h293 v-98h-508z" />
<glyph unicode="&#xbe;" horiz-adv-x="1892" d="M115 901l98 17q18 -139 154 -140q66 0 103.5 33t37.5 82q0 57 -45 77.5t-135 20.5v99q164 6 164 98q0 39 -33 68.5t-92 29.5q-125 0 -138 -131l-98 16q8 92 71.5 152.5t157.5 60.5q111 0 170.5 -59t59.5 -129q0 -96 -82 -143q41 -14 69.5 -57.5t28.5 -94.5 q0 -88 -60.5 -154.5t-185.5 -66.5q-109 0 -173 60.5t-72 160.5zM410 0l958 1376h131l-958 -1376h-131zM1237 115l459 590v-492h82v-98h-82v-115h-99v115h-360zM1432 213h165v227z" />
<glyph unicode="&#xbf;" horiz-adv-x="1081" d="M115 -16q0 104 47 179t145 156q150 123 152 271h196q8 -182 -125 -322q-18 -18 -88.5 -81.5t-100.5 -106.5t-30 -96q0 -84 64.5 -140.5t179.5 -56.5q193 0 297 160l115 -160q-179 -197 -410 -197q-217 0 -329.5 120t-112.5 274zM410 852q0 61 42 104t105 43 q61 0 104.5 -43t43.5 -104t-43.5 -104t-104.5 -43q-63 0 -105 43t-42 104z" />
<glyph unicode="&#xc0;" horiz-adv-x="1343" d="M16 0l656 1409l655 -1409h-213l-133 295h-619l-133 -295h-213zM377 1769h229l164 -262h-131zM453 492h438l-219 483z" />
<glyph unicode="&#xc1;" horiz-adv-x="1343" d="M16 0l656 1409l655 -1409h-213l-133 295h-619l-133 -295h-213zM453 492h438l-219 483zM573 1507l164 262h230l-262 -262h-132z" />
<glyph unicode="&#xc2;" horiz-adv-x="1343" d="M16 0l656 1409l655 -1409h-213l-133 295h-619l-133 -295h-213zM360 1507l312 279l311 -279h-203l-108 107l-109 -107h-203zM453 492h438l-219 483z" />
<glyph unicode="&#xc3;" horiz-adv-x="1343" d="M16 0l656 1409l655 -1409h-213l-133 295h-619l-133 -295h-213zM311 1554q82 150 226 150q51 0 139 -35q80 -39 139 -35t92 70l125 -43q-76 -154 -221 -154q-53 0 -147 37q-78 37 -136.5 32t-91.5 -69zM453 492h438l-219 483z" />
<glyph unicode="&#xc4;" horiz-adv-x="1343" d="M16 0l656 1409l655 -1409h-213l-133 295h-619l-133 -295h-213zM377 1622q0 49 33.5 82t81.5 33q49 0 81.5 -33t32.5 -82q0 -47 -32.5 -81t-81.5 -34q-47 0 -81 34t-34 81zM453 492h438l-219 483zM737 1622q0 49 34 82t81 33q49 0 82 -33t33 -82q0 -47 -33 -81t-82 -34 q-47 0 -81 34t-34 81z" />
<glyph unicode="&#xc5;" horiz-adv-x="1343" d="M16 0l656 1409l655 -1409h-213l-133 295h-619l-133 -295h-213zM442 1704q0 94 68 161.5t162 67.5t161.5 -67.5t67.5 -161.5t-67.5 -161.5t-161.5 -67.5t-162 67.5t-68 161.5zM453 492h438l-219 483zM557 1704q0 -47 34 -81t81 -34t80.5 34t33.5 81t-33.5 81t-80.5 34 t-81 -34t-34 -81z" />
<glyph unicode="&#xc6;" horiz-adv-x="1638" d="M16 0l721 1376h787v-196h-590v-394h491v-196h-491v-393h590v-197h-787v295h-356l-152 -295h-213zM483 492h254v491z" />
<glyph unicode="&#xc7;" horiz-adv-x="1310" d="M82 688q0 291 210 498t507 207q117 0 231.5 -41t198.5 -119l-84 -184q-143 147 -359 147q-211 0 -359 -148.5t-148 -359.5t148 -359.5t359 -148.5q215 0 359 150l84 -185q-152 -139 -371 -159l-78 -84q115 27 200 -43t85 -187q0 -127 -88 -211t-221 -84q-162 0 -248 129 l98 93q51 -90 164 -91q78 0 129 47.5t51 118.5q0 61 -43 103.5t-104 42.5q-76 0 -137 -49l-66 98l115 119q-268 33 -450.5 232.5t-182.5 467.5z" />
<glyph unicode="&#xc8;" horiz-adv-x="1048" d="M147 0v1376h787v-196h-590v-394h492v-196h-492v-393h590v-197h-787zM295 1769h229l164 -262h-131z" />
<glyph unicode="&#xc9;" horiz-adv-x="1048" d="M147 0v1376h787v-196h-590v-394h492v-196h-492v-393h590v-197h-787zM393 1507l164 262h229l-262 -262h-131z" />
<glyph unicode="&#xca;" horiz-adv-x="1048" d="M147 0v1376h787v-196h-590v-394h492v-196h-492v-393h590v-197h-787zM213 1507l311 279l312 -279h-203l-109 107l-108 -107h-203z" />
<glyph unicode="&#xcb;" horiz-adv-x="1048" d="M147 0v1376h787v-196h-590v-394h492v-196h-492v-393h590v-197h-787zM229 1622q0 49 34 82t81 33q49 0 82 -33t33 -82q0 -47 -33 -81t-82 -34q-47 0 -81 34t-34 81zM590 1622q0 49 33.5 82t81.5 33q49 0 81.5 -33t32.5 -82q0 -47 -32.5 -81t-81.5 -34q-47 0 -81 34t-34 81 z" />
<glyph unicode="&#xcc;" horiz-adv-x="491" d="M-49 1769h229l164 -262h-131zM147 0v1376h197v-1376h-197z" />
<glyph unicode="&#xcd;" horiz-adv-x="491" d="M147 0v1376h197v-1376h-197zM147 1507l164 262h230l-262 -262h-132z" />
<glyph unicode="&#xce;" horiz-adv-x="491" d="M-66 1507l312 279l311 -279h-203l-108 107l-109 -107h-203zM147 0v1376h197v-1376h-197z" />
<glyph unicode="&#xcf;" horiz-adv-x="491" d="M-49 1622q0 49 33.5 82t81.5 33q49 0 81.5 -33t32.5 -82q0 -47 -32.5 -81t-81.5 -34q-47 0 -81 34t-34 81zM147 0v1376h197v-1376h-197zM311 1622q0 49 34 82t81 33q49 0 82 -33t33 -82q0 -47 -33 -81t-82 -34q-47 0 -81 34t-34 81z" />
<glyph unicode="&#xd0;" horiz-adv-x="1376" d="M49 623v131h131v622h412q332 0 517 -194.5t185 -493.5q0 -297 -188 -492.5t-514 -195.5h-412v623h-131zM377 197h266q199 0 327 142t128 349t-128 349.5t-327 142.5h-266v-426h131v-131h-131v-426z" />
<glyph unicode="&#xd1;" horiz-adv-x="1441" d="M147 0v1409l951 -975v942h196v-1409l-950 975v-942h-197zM360 1554q82 150 226 150q51 0 139 -35q80 -39 139 -35t92 70l125 -43q-76 -154 -221 -154q-53 0 -147 37q-78 37 -136.5 32t-91.5 -69z" />
<glyph unicode="&#xd2;" horiz-adv-x="1572" d="M82 688q0 291 207 498t497.5 207t497.5 -207t207 -498t-207 -497.5t-497.5 -206.5t-497.5 206.5t-207 497.5zM279 688q0 -213 147 -360.5t360 -147.5t360.5 147.5t147.5 360.5t-147.5 360.5t-360.5 147.5t-360 -147.5t-147 -360.5zM508 1769h229l164 -262h-131z" />
<glyph unicode="&#xd3;" horiz-adv-x="1572" d="M82 688q0 291 207 498t497.5 207t497.5 -207t207 -498t-207 -497.5t-497.5 -206.5t-497.5 206.5t-207 497.5zM279 688q0 -213 147 -360.5t360 -147.5t360.5 147.5t147.5 360.5t-147.5 360.5t-360.5 147.5t-360 -147.5t-147 -360.5zM672 1507l164 262h229l-262 -262h-131z " />
<glyph unicode="&#xd4;" horiz-adv-x="1572" d="M82 688q0 291 207 498t497.5 207t497.5 -207t207 -498t-207 -497.5t-497.5 -206.5t-497.5 206.5t-207 497.5zM279 688q0 -213 147 -360.5t360 -147.5t360.5 147.5t147.5 360.5t-147.5 360.5t-360.5 147.5t-360 -147.5t-147 -360.5zM475 1507l311 279l312 -279h-203 l-109 107l-108 -107h-203z" />
<glyph unicode="&#xd5;" horiz-adv-x="1572" d="M82 688q0 291 207 498t497.5 207t497.5 -207t207 -498t-207 -497.5t-497.5 -206.5t-497.5 206.5t-207 497.5zM279 688q0 -213 147 -360.5t360 -147.5t360.5 147.5t147.5 360.5t-147.5 360.5t-360.5 147.5t-360 -147.5t-147 -360.5zM426 1554q82 150 225 150q51 0 140 -35 q80 -39 139 -35t92 70l125 -43q-76 -154 -221 -154q-53 0 -148 37q-78 37 -136 32t-91 -69z" />
<glyph unicode="&#xd6;" horiz-adv-x="1572" d="M82 688q0 291 207 498t497.5 207t497.5 -207t207 -498t-207 -497.5t-497.5 -206.5t-497.5 206.5t-207 497.5zM279 688q0 -213 147 -360.5t360 -147.5t360.5 147.5t147.5 360.5t-147.5 360.5t-360.5 147.5t-360 -147.5t-147 -360.5zM492 1622q0 49 33.5 82t80.5 33 q49 0 82 -33t33 -82q0 -47 -33 -81t-82 -34q-47 0 -80.5 34t-33.5 81zM852 1622q0 49 34 82t81 33q49 0 81.5 -33t32.5 -82q0 -47 -32.5 -81t-81.5 -34q-47 0 -81 34t-34 81z" />
<glyph unicode="&#xd7;" horiz-adv-x="897" d="M115 383l241 240l-241 239l94 94l240 -241l239 241l94 -94l-241 -239l241 -240l-94 -94l-239 241l-240 -241z" />
<glyph unicode="&#xd8;" horiz-adv-x="1572" d="M82 688q0 291 207 498t497 207q238 0 424 -142l109 125h115l-156 -182q213 -209 213 -506q0 -291 -207 -497.5t-498 -206.5q-238 0 -424 141l-108 -125h-115l156 182q-213 209 -213 506zM279 688q0 -211 145 -356l659 770q-133 94 -297 94q-213 0 -360 -147.5 t-147 -360.5zM489 274q133 -94 297 -94q213 0 360.5 147.5t147.5 360.5q0 211 -145 356z" />
<glyph unicode="&#xd9;" horiz-adv-x="1277" d="M115 606v770h196v-835q0 -162 87 -261.5t241 -99.5q152 0 240 99.5t88 261.5v835h196v-770q0 -285 -132 -453.5t-392 -168.5q-266 0 -395 167.5t-129 454.5zM377 1769h229l164 -262h-131z" />
<glyph unicode="&#xda;" horiz-adv-x="1277" d="M115 606v770h196v-835q0 -162 87 -261.5t241 -99.5q152 0 240 99.5t88 261.5v835h196v-770q0 -285 -132 -453.5t-392 -168.5q-266 0 -395 167.5t-129 454.5zM508 1507l164 262h229l-262 -262h-131z" />
<glyph unicode="&#xdb;" horiz-adv-x="1277" d="M115 606v770h196v-835q0 -162 87 -261.5t241 -99.5q152 0 240 99.5t88 261.5v835h196v-770q0 -285 -132 -453.5t-392 -168.5q-266 0 -395 167.5t-129 454.5zM328 1507l311 279l311 -279h-202l-109 107l-109 -107h-202z" />
<glyph unicode="&#xdc;" horiz-adv-x="1277" d="M115 606v770h196v-835q0 -162 87 -261.5t241 -99.5q152 0 240 99.5t88 261.5v835h196v-770q0 -285 -132 -453.5t-392 -168.5q-266 0 -395 167.5t-129 454.5zM344 1622q0 49 34 82t81 33q49 0 81.5 -33t32.5 -82q0 -47 -32.5 -81t-81.5 -34q-47 0 -81 34t-34 81zM705 1622 q0 49 33.5 82t80.5 33q49 0 82 -33t33 -82q0 -47 -33 -81t-82 -34q-47 0 -80.5 34t-33.5 81z" />
<glyph unicode="&#xdd;" horiz-adv-x="1212" d="M16 1376h222l368 -631l369 631h221l-491 -819v-557h-197v557zM508 1507l164 262h229l-262 -262h-131z" />
<glyph unicode="&#xde;" horiz-adv-x="1179" d="M147 0v1442h197v-271h229q260 0 392.5 -118.5t132.5 -321.5q0 -199 -125 -330t-338 -131h-291v-270h-197zM344 467h293q117 0 190.5 62.5t73.5 189.5t-80 191.5t-196 64.5h-281v-508z" />
<glyph unicode="&#xdf;" horiz-adv-x="1114" d="M115 0h196v1032q0 98 62.5 164t154.5 66q88 0 148.5 -47.5t60.5 -133.5q0 -90 -82 -153q-100 -76 -278 -76v-197q193 0 293 -32q74 -25 120 -82.5t46 -130.5q0 -96 -52.5 -151.5t-133.5 -68t-146.5 -9.5t-126.5 16v-197q88 -16 178 -16q219 0 348 129t129 305 q0 131 -75.5 235.5t-200.5 132.5q66 33 125 115t59 189q0 143 -101.5 255.5t-293.5 112.5q-31 0 -63.5 -3t-105.5 -28.5t-125 -68.5t-94 -137.5t-42 -221.5v-999z" />
<glyph unicode="&#xe0;" d="M82 492q0 213 139 360t352 147q205 0 328 -159v143h197v-983h-197v143q-123 -160 -328 -159q-213 0 -352 147.5t-139 360.5zM279 491.5q0 -129.5 91 -220.5t220 -91t220 91t91 220.5t-91 220.5t-220 91t-220 -91t-91 -220.5zM475 1376h230l163 -262h-131z" />
<glyph unicode="&#xe1;" d="M82 492q0 213 139 360t352 147q205 0 328 -159v143h197v-983h-197v143q-123 -160 -328 -159q-213 0 -352 147.5t-139 360.5zM279 491.5q0 -129.5 91 -220.5t220 -91t220 91t91 220.5t-91 220.5t-220 91t-220 -91t-91 -220.5zM541 1114l164 262h229l-262 -262h-131z" />
<glyph unicode="&#xe2;" d="M82 492q0 213 139 360t352 147q205 0 328 -159v143h197v-983h-197v143q-123 -160 -328 -159q-213 0 -352 147.5t-139 360.5zM279 491.5q0 -129.5 91 -220.5t220 -91t220 91t91 220.5t-91 220.5t-220 91t-220 -91t-91 -220.5zM344 1114l311 279l312 -279h-203l-109 107 l-108 -107h-203z" />
<glyph unicode="&#xe3;" d="M82 492q0 213 139 360t352 147q205 0 328 -159v143h197v-983h-197v143q-123 -160 -328 -159q-213 0 -352 147.5t-139 360.5zM279 491.5q0 -129.5 91 -220.5t220 -91t220 91t91 220.5t-91 220.5t-220 91t-220 -91t-91 -220.5zM295 1161q82 150 225 150q51 0 139 -35 q80 -39 139.5 -35t92.5 70l125 -43q-76 -154 -221 -154q-53 0 -148 37q-78 37 -136 32t-91 -69z" />
<glyph unicode="&#xe4;" d="M82 492q0 213 139 360t352 147q205 0 328 -159v143h197v-983h-197v143q-123 -160 -328 -159q-213 0 -352 147.5t-139 360.5zM279 491.5q0 -129.5 91 -220.5t220 -91t220 91t91 220.5t-91 220.5t-220 91t-220 -91t-91 -220.5zM360 1229q0 49 34 81.5t81 32.5 q49 0 82 -32.5t33 -81.5q0 -47 -33 -81t-82 -34q-47 0 -81 34t-34 81zM721 1229q0 49 33.5 81.5t81.5 32.5q49 0 81.5 -32.5t32.5 -81.5q0 -47 -32.5 -81t-81.5 -34q-47 0 -81 34t-34 81z" />
<glyph unicode="&#xe5;" d="M82 492q0 213 139 360t352 147q205 0 328 -159v143h197v-983h-197v143q-123 -160 -328 -159q-213 0 -352 147.5t-139 360.5zM279 491.5q0 -129.5 91 -220.5t220 -91t220 91t91 220.5t-91 220.5t-220 91t-220 -91t-91 -220.5zM442 1278q0 94 68 161.5t162 67.5 t161.5 -67.5t67.5 -161.5t-67.5 -161.5t-161.5 -67.5t-162 67.5t-68 161.5zM557 1278q0 -47 34 -81t81 -34t80.5 34t33.5 81t-33.5 81t-80.5 34t-81 -34t-34 -81z" />
<glyph unicode="&#xe6;" horiz-adv-x="1802" d="M82 311q0 182 199 271q176 80 489 12q0 63 -26.5 107t-70.5 64.5t-84 29t-85 8.5q-162 0 -289 -92l-92 157q31 25 73 49.5t135 53t189 28.5q266 0 371 -159q139 160 369 159q201 0 330.5 -139.5t129.5 -372.5q0 -45 -6 -86h-743q23 -111 109.5 -166t209.5 -55 q160 0 299 99l66 -177q-141 -119 -369 -118q-188 0 -319 92v-76h-197v100q-45 -55 -138 -85.5t-181 -30.5q-166 0 -267.5 90t-101.5 237zM279 307q0 -59 51 -93t125 -34q117 0 216 48t99 116v78q-233 51 -362 15t-129 -130zM971 582h549q-4 84 -72 152.5t-197 68.5 q-125 0 -200.5 -69.5t-79.5 -151.5z" />
<glyph unicode="&#xe7;" horiz-adv-x="1015" d="M82 492q0 217 143.5 362t380.5 145q203 0 328 -112l-84 -182q-102 98 -242 98q-135 0 -232 -91t-97 -218q0 -129 96 -221.5t233 -92.5q141 0 242 101l84 -185q-100 -94 -272 -110l-78 -84q115 27 199.5 -43t84.5 -187q0 -127 -88 -211t-221 -84q-162 0 -248 129l99 93 q51 -90 163 -91q78 0 129.5 47.5t51.5 118.5q0 61 -43 103.5t-105 42.5q-76 0 -137 -49l-66 98l115 121q-203 27 -319.5 167t-116.5 335z" />
<glyph unicode="&#xe8;" horiz-adv-x="1114" d="M82 492q0 217 134 362t355 145q201 0 331 -139.5t130 -372.5q0 -45 -6 -86h-743q23 -111 109.5 -166t209.5 -55q160 0 299 99l66 -177q-141 -119 -369 -118q-248 0 -382 144t-134 364zM283 582h548q-4 84 -71.5 152.5t-196.5 68.5q-125 0 -200.5 -69.5t-79.5 -151.5z M311 1376h230l164 -262h-132z" />
<glyph unicode="&#xe9;" horiz-adv-x="1114" d="M82 492q0 217 134 362t355 145q201 0 331 -139.5t130 -372.5q0 -45 -6 -86h-743q23 -111 109.5 -166t209.5 -55q160 0 299 99l66 -177q-141 -119 -369 -118q-248 0 -382 144t-134 364zM283 582h548q-4 84 -71.5 152.5t-196.5 68.5q-125 0 -200.5 -69.5t-79.5 -151.5z M459 1114l164 262h229l-262 -262h-131z" />
<glyph unicode="&#xea;" horiz-adv-x="1114" d="M82 492q0 217 134 362t355 145q201 0 331 -139.5t130 -372.5q0 -45 -6 -86h-743q23 -111 109.5 -166t209.5 -55q160 0 299 99l66 -177q-141 -119 -369 -118q-248 0 -382 144t-134 364zM246 1114l311 279l311 -279h-202l-109 107l-108 -107h-203zM283 582h548 q-4 84 -71.5 152.5t-196.5 68.5q-125 0 -200.5 -69.5t-79.5 -151.5z" />
<glyph unicode="&#xeb;" horiz-adv-x="1114" d="M82 492q0 217 134 362t355 145q201 0 331 -139.5t130 -372.5q0 -45 -6 -86h-743q23 -111 109.5 -166t209.5 -55q160 0 299 99l66 -177q-141 -119 -369 -118q-248 0 -382 144t-134 364zM262 1229q0 49 34 81.5t81 32.5q49 0 82 -32.5t33 -81.5q0 -47 -33 -81t-82 -34 q-47 0 -81 34t-34 81zM283 582h548q-4 84 -71.5 152.5t-196.5 68.5q-125 0 -200.5 -69.5t-79.5 -151.5zM623 1229q0 49 33.5 81.5t80.5 32.5q49 0 82 -32.5t33 -81.5q0 -47 -33 -81t-82 -34q-47 0 -80.5 34t-33.5 81z" />
<glyph unicode="&#xec;" horiz-adv-x="491" d="M-49 1376h229l164 -262h-131zM147 0v983h197v-983h-197z" />
<glyph unicode="&#xed;" horiz-adv-x="491" d="M147 0v983h197v-983h-197zM147 1114l164 262h230l-262 -262h-132z" />
<glyph unicode="&#xee;" horiz-adv-x="491" d="M-66 1114l312 279l311 -279h-203l-108 107l-109 -107h-203zM147 0v983h197v-983h-197z" />
<glyph unicode="&#xef;" horiz-adv-x="491" d="M-49 1229q0 49 33.5 81.5t81.5 32.5q49 0 81.5 -32.5t32.5 -81.5q0 -47 -32.5 -81t-81.5 -34q-47 0 -81 34t-34 81zM147 0v983h197v-983h-197zM311 1229q0 49 34 81.5t81 32.5q49 0 82 -32.5t33 -81.5q0 -47 -33 -81t-82 -34q-47 0 -81 34t-34 81z" />
<glyph unicode="&#xf0;" horiz-adv-x="1179" d="M82 492q0 209 145.5 355t360.5 146q43 0 74 -6q-80 92 -197 182l-350 -122v131l233 82l-164 116l144 99l200 -148l340 117v-133l-219 -76q449 -389 449 -743q0 -211 -148.5 -359.5t-359.5 -148.5t-359.5 148.5t-148.5 359.5zM279 491.5q0 -126.5 92 -219t219 -92.5 t219 92.5t92 219t-92 219t-219 92.5t-219 -92.5t-92 -219z" />
<glyph unicode="&#xf1;" horiz-adv-x="1146" d="M147 0v983h197v-115q114 131 307 131q178 0 279.5 -110.5t101.5 -323.5v-565h-196v549q0 125 -50.5 189.5t-171.5 64.5q-98 0 -184 -73t-86 -189v-541h-197zM213 1161q82 150 225 150q51 0 140 -35q80 -39 139 -35t92 70l125 -43q-76 -154 -221 -154q-53 0 -148 37 q-78 37 -136 32t-91 -69z" />
<glyph unicode="&#xf2;" horiz-adv-x="1179" d="M82 491.5q0 210.5 148.5 359t359.5 148.5t359.5 -148.5t148.5 -359t-148.5 -359t-359.5 -148.5t-359.5 148.5t-148.5 359zM279 491.5q0 -126.5 92 -219t219 -92.5t219 92.5t92 219t-92 219t-219 92.5t-219 -92.5t-92 -219zM311 1376h230l164 -262h-132z" />
<glyph unicode="&#xf3;" horiz-adv-x="1179" d="M82 491.5q0 210.5 148.5 359t359.5 148.5t359.5 -148.5t148.5 -359t-148.5 -359t-359.5 -148.5t-359.5 148.5t-148.5 359zM279 491.5q0 -126.5 92 -219t219 -92.5t219 92.5t92 219t-92 219t-219 92.5t-219 -92.5t-92 -219zM475 1114l164 262h229l-262 -262h-131z" />
<glyph unicode="&#xf4;" horiz-adv-x="1179" d="M82 491.5q0 210.5 148.5 359t359.5 148.5t359.5 -148.5t148.5 -359t-148.5 -359t-359.5 -148.5t-359.5 148.5t-148.5 359zM279 491.5q0 -126.5 92 -219t219 -92.5t219 92.5t92 219t-92 219t-219 92.5t-219 -92.5t-92 -219zM279 1114l311 279l311 -279h-203l-108 107 l-109 -107h-202z" />
<glyph unicode="&#xf5;" horiz-adv-x="1179" d="M82 491.5q0 210.5 148.5 359t359.5 148.5t359.5 -148.5t148.5 -359t-148.5 -359t-359.5 -148.5t-359.5 148.5t-148.5 359zM229 1161q82 150 226 150q51 0 139 -35q80 -39 139 -35t92 70l125 -43q-76 -154 -221 -154q-53 0 -147 37q-78 37 -136.5 32t-91.5 -69zM279 491.5 q0 -126.5 92 -219t219 -92.5t219 92.5t92 219t-92 219t-219 92.5t-219 -92.5t-92 -219z" />
<glyph unicode="&#xf6;" horiz-adv-x="1179" d="M82 491.5q0 210.5 148.5 359t359.5 148.5t359.5 -148.5t148.5 -359t-148.5 -359t-359.5 -148.5t-359.5 148.5t-148.5 359zM279 491.5q0 -126.5 92 -219t219 -92.5t219 92.5t92 219t-92 219t-219 92.5t-219 -92.5t-92 -219zM295 1229q0 49 33.5 81.5t81.5 32.5 q49 0 81.5 -32.5t32.5 -81.5q0 -47 -32.5 -81t-81.5 -34q-47 0 -81 34t-34 81zM655 1229q0 49 34 81.5t81 32.5q49 0 82 -32.5t33 -81.5q0 -47 -33 -81t-82 -34q-47 0 -81 34t-34 81z" />
<glyph unicode="&#xf7;" horiz-adv-x="983" d="M115 557v131h753v-131h-753zM344 246q0 63 43 105t105 42q63 0 105 -42t42 -105q0 -61 -42 -104.5t-105 -43.5q-61 0 -104.5 43t-43.5 105zM344 999q0 63 43 105.5t105 42.5q63 0 105 -42t42 -106q0 -61 -42 -104t-105 -43q-61 0 -104.5 43t-43.5 104z" />
<glyph unicode="&#xf8;" horiz-adv-x="1179" d="M82 492q0 211 148.5 359t359.5 148q164 0 299 -96l69 80h115l-119 -137q143 -150 144 -354q0 -211 -148.5 -359.5t-359.5 -148.5q-164 0 -299 96l-70 -80h-115l119 137q-143 150 -143 355zM279 492q0 -117 77 -205l402 465q-78 51 -168 51q-127 0 -219 -92t-92 -219z M422 231q76 -51 168 -51q127 0 219 92.5t92 219.5q0 117 -78 204z" />
<glyph unicode="&#xf9;" horiz-adv-x="1146" d="M115 418v565h196v-549q0 -125 50.5 -189.5t170.5 -64.5q98 0 184.5 73t86.5 189v541h196v-983h-196v115q-114 -131 -307 -131q-178 0 -279.5 110.5t-101.5 323.5zM279 1376h229l164 -262h-131z" />
<glyph unicode="&#xfa;" horiz-adv-x="1146" d="M115 418v565h196v-549q0 -125 50.5 -189.5t170.5 -64.5q98 0 184.5 73t86.5 189v541h196v-983h-196v115q-114 -131 -307 -131q-178 0 -279.5 110.5t-101.5 323.5zM442 1114l164 262h230l-263 -262h-131z" />
<glyph unicode="&#xfb;" horiz-adv-x="1146" d="M115 418v565h196v-549q0 -125 50.5 -189.5t170.5 -64.5q98 0 184.5 73t86.5 189v541h196v-983h-196v115q-114 -131 -307 -131q-178 0 -279.5 110.5t-101.5 323.5zM246 1114l311 279l311 -279h-202l-109 107l-108 -107h-203z" />
<glyph unicode="&#xfc;" horiz-adv-x="1146" d="M115 418v565h196v-549q0 -125 50.5 -189.5t170.5 -64.5q98 0 184.5 73t86.5 189v541h196v-983h-196v115q-114 -131 -307 -131q-178 0 -279.5 110.5t-101.5 323.5zM262 1229q0 49 34 81.5t81 32.5q49 0 82 -32.5t33 -81.5q0 -47 -33 -81t-82 -34q-47 0 -81 34t-34 81z M623 1229q0 49 33.5 81.5t80.5 32.5q49 0 82 -32.5t33 -81.5q0 -47 -33 -81t-82 -34q-47 0 -80.5 34t-33.5 81z" />
<glyph unicode="&#xfd;" horiz-adv-x="1048" d="M16 983h220l288 -680l289 680h219l-665 -1507h-215l262 587zM401 1114l164 262h230l-263 -262h-131z" />
<glyph unicode="&#xfe;" d="M147 -524v1966h197v-602q123 159 328 159q213 0 352 -147t139 -360t-139 -360.5t-352 -147.5q-205 0 -328 159v-667h-197zM344 491.5q0 -129.5 91 -220.5t220 -91t220.5 91t91.5 220.5t-91.5 220.5t-220.5 91t-220 -91t-91 -220.5z" />
<glyph unicode="&#xff;" horiz-adv-x="1048" d="M16 983h220l288 -680l289 680h219l-665 -1507h-215l262 587zM229 1229q0 49 34 81.5t81 32.5q49 0 82 -32.5t33 -81.5q0 -47 -33 -81t-82 -34q-47 0 -81 34t-34 81zM590 1229q0 49 33.5 81.5t81.5 32.5q49 0 81.5 -32.5t32.5 -81.5q0 -47 -32.5 -81t-81.5 -34 q-47 0 -81 34t-34 81z" />
<glyph unicode="&#x152;" horiz-adv-x="2195" d="M82 688q0 291 207 498t497 207q297 0 508 -217v200h787v-196h-590v-394h491v-196h-491v-393h590v-197h-787v201q-211 -217 -508 -217q-291 0 -497.5 206.5t-206.5 497.5zM279 688q0 -213 147 -360.5t360 -147.5t360.5 147.5t147.5 360.5t-147.5 360.5t-360.5 147.5 t-360 -147.5t-147 -360.5z" />
<glyph unicode="&#x153;" horiz-adv-x="1933" d="M82 491.5q0 210.5 148.5 359t359.5 148.5q248 0 403 -198q137 199 398 198q201 0 330.5 -139.5t129.5 -372.5q0 -45 -6 -86h-743q23 -111 109.5 -166t209.5 -55q160 0 299 99l66 -177q-141 -119 -369 -118q-287 0 -426 196q-72 -90 -176 -143t-225 -53 q-211 0 -359.5 148.5t-148.5 359zM279 491.5q0 -126.5 92 -219t219 -92.5t219 92.5t92 219t-92 219t-219 92.5t-219 -92.5t-92 -219zM1102 582h549q-4 84 -72 152.5t-197 68.5q-125 0 -200.5 -69.5t-79.5 -151.5z" />
<glyph unicode="&#x178;" horiz-adv-x="1212" d="M16 1376h222l368 -631l369 631h221l-491 -819v-557h-197v557zM311 1622q0 49 34 82t81 33q49 0 82 -33t33 -82q0 -47 -33 -81t-82 -34q-47 0 -81 34t-34 81zM672 1622q0 49 33.5 82t80.5 33q49 0 82 -33t33 -82q0 -47 -33 -81t-82 -34q-47 0 -80.5 34t-33.5 81z" />
<glyph unicode="&#x2c6;" horiz-adv-x="1671" d="M524 1507l312 279l311 -279h-203l-108 107l-109 -107h-203z" />
<glyph unicode="&#x2dc;" horiz-adv-x="1671" d="M475 1554q82 150 225 150q51 0 140 -35q80 -39 139 -35t92 70l125 -43q-76 -154 -221 -154q-53 0 -148 37q-78 37 -136 32t-91 -69z" />
<glyph unicode="&#x2000;" horiz-adv-x="966" />
<glyph unicode="&#x2001;" horiz-adv-x="1933" />
<glyph unicode="&#x2002;" horiz-adv-x="966" />
<glyph unicode="&#x2003;" horiz-adv-x="1933" />
<glyph unicode="&#x2004;" horiz-adv-x="644" />
<glyph unicode="&#x2005;" horiz-adv-x="483" />
<glyph unicode="&#x2006;" horiz-adv-x="322" />
<glyph unicode="&#x2007;" horiz-adv-x="322" />
<glyph unicode="&#x2008;" horiz-adv-x="241" />
<glyph unicode="&#x2009;" horiz-adv-x="386" />
<glyph unicode="&#x200a;" horiz-adv-x="107" />
<glyph unicode="&#x2010;" horiz-adv-x="786" d="M115 459v164h557v-164h-557z" />
<glyph unicode="&#x2011;" horiz-adv-x="786" d="M115 459v164h557v-164h-557z" />
<glyph unicode="&#x2012;" horiz-adv-x="786" d="M115 459v164h557v-164h-557z" />
<glyph unicode="&#x2013;" horiz-adv-x="1048" d="M115 459v164h819v-164h-819z" />
<glyph unicode="&#x2014;" d="M115 459v164h1015v-164h-1015z" />
<glyph unicode="&#x2018;" horiz-adv-x="524" d="M82 983l229 393h131l-98 -393h-262z" />
<glyph unicode="&#x2019;" horiz-adv-x="524" d="M82 983l98 393h262l-229 -393h-131z" />
<glyph unicode="&#x201a;" horiz-adv-x="524" d="M82 -131l98 393h262l-229 -393h-131z" />
<glyph unicode="&#x201c;" horiz-adv-x="1015" d="M82 983l229 393h131l-98 -393h-262zM573 983l230 393h131l-98 -393h-263z" />
<glyph unicode="&#x201d;" horiz-adv-x="1015" d="M82 983l98 393h262l-229 -393h-131zM573 983l99 393h262l-229 -393h-132z" />
<glyph unicode="&#x201e;" horiz-adv-x="1015" d="M82 -131l98 393h262l-229 -393h-131zM573 -131l99 393h262l-229 -393h-132z" />
<glyph unicode="&#x2022;" horiz-adv-x="1605" d="M573 688q0 96 67 163t163 67t162.5 -67t66.5 -163t-66.5 -162.5t-162.5 -66.5t-163 66.5t-67 162.5z" />
<glyph unicode="&#x2026;" horiz-adv-x="1638" d="M115 131q0 63 43 105.5t104 42.5q63 0 105.5 -42t42.5 -106q0 -61 -42.5 -104t-105.5 -43q-61 0 -104 43t-43 104zM672 131q0 63 43 105.5t104 42.5q63 0 105.5 -42t42.5 -106q0 -61 -42.5 -104t-105.5 -43q-61 0 -104 43t-43 104zM1229 131q0 63 43 105.5t104 42.5 q63 0 105.5 -42t42.5 -106q0 -61 -42.5 -104t-105.5 -43q-61 0 -104 43t-43 104z" />
<glyph unicode="&#x202f;" horiz-adv-x="386" />
<glyph unicode="&#x2039;" horiz-adv-x="802" d="M115 541l327 442h181l-328 -442l328 -443h-181z" />
<glyph unicode="&#x203a;" horiz-adv-x="802" d="M180 98l328 443l-328 442h180l328 -442l-328 -443h-180z" />
<glyph unicode="&#x205f;" horiz-adv-x="483" />
<glyph unicode="&#x20ac;" horiz-adv-x="1441" d="M82 524v99h133q0 12 -1 32.5t-1 32.5q0 10 1 31.5t1 34.5h-133v98h151q55 233 250 387t447 154q117 0 231.5 -41t198.5 -119l-84 -184q-143 147 -358 147q-166 0 -298.5 -96t-183.5 -248h465l-31 -98h-456q-4 -41 -4 -65.5t4 -65.5h424l-29 -99h-373q51 -152 183.5 -248 t298.5 -96q215 0 358 150l84 -185q-84 -78 -200 -119.5t-230 -41.5q-252 0 -446.5 153.5t-250.5 386.5h-151z" />
<glyph unicode="&#x2122;" horiz-adv-x="1343" d="M115 1288v88h409v-88h-162v-526h-86v526h-161zM545 762l104 624l238 -460l237 460l105 -624h-88l-60 362l-198 -376l-191 376l-59 -362h-88z" />
<glyph unicode="&#x25fc;" horiz-adv-x="983" d="M0 0v983h983v-983h-983z" />
</font>
</defs>
</svg>
