<?xml version="1.0" standalone="no"?>
<!DOCTYPE svg PUBLIC "-//W3C//DTD SVG 1.1//EN" "http://www.w3.org/Graphics/SVG/1.1/DTD/svg11.dtd" >
<svg xmlns="http://www.w3.org/2000/svg" xmlns:xlink="http://www.w3.org/1999/xlink" version="1.1">
<metadata></metadata>
<defs>
<font id="noirpro-semibolduploaded_file" horiz-adv-x="1245" >
<font-face units-per-em="2048" ascent="1503" descent="-545" />
<missing-glyph horiz-adv-x="622" />
<glyph horiz-adv-x="0" />
<glyph unicode="&#xd;" horiz-adv-x="681" />
<glyph unicode=" "  horiz-adv-x="622" />
<glyph unicode="&#x09;" horiz-adv-x="622" />
<glyph unicode="&#xa0;" horiz-adv-x="622" />
<glyph unicode="!" horiz-adv-x="622" d="M131 147.5q0 75.5 52.5 128t128 52.5t128 -52.5t52.5 -128t-52.5 -128t-128 -52.5t-128 52.5t-52.5 128zM147 1376h328l-65 -950h-197z" />
<glyph unicode="&#x22;" horiz-adv-x="917" d="M98 1376h295l-33 -491h-229zM524 1376h295l-33 -491h-229z" />
<glyph unicode="#" horiz-adv-x="1474" d="M98 328v196h252l49 295h-202v197h235l60 360h229l-59 -360h262l59 360h229l-59 -360h223v-197h-256l-49 -295h207v-196h-240l-55 -328h-229l55 328h-262l-55 -328h-230l55 328h-219zM578 524h262l51 295h-262z" />
<glyph unicode="$" horiz-adv-x="1277" d="M66 197l149 262q199 -197 424 -197q246 0 246 131q0 51 -49.5 83t-180.5 54q-279 47 -409.5 151.5t-130.5 281.5q0 178 133 304t358 140v133h99v-133q285 -18 454 -174l-143 -258q-14 16 -42 38.5t-121 61.5t-198 39q-90 0 -151.5 -30.5t-61.5 -86.5q0 -49 45 -76.5 t168 -54.5q109 -23 183.5 -45t150.5 -59t121 -82t73.5 -112.5t28.5 -153.5q0 -184 -133 -307t-374 -138v-133h-99v131q-94 4 -184 28.5t-151.5 58.5t-109.5 66t-71 54z" />
<glyph unicode="%" horiz-adv-x="1671" d="M98 1081q0 135 96.5 231.5t233.5 96.5q135 0 230.5 -96t95.5 -232q0 -137 -95.5 -232t-230.5 -95q-137 0 -233.5 95t-96.5 232zM258 0l959 1376h196l-958 -1376h-197zM295 1081.5q0 -53.5 39 -92.5t92 -39t92 39t39 92.5t-39 92t-92 38.5t-92 -38.5t-39 -92zM918 295 q0 135 96 231.5t233 96.5q135 0 230.5 -96.5t95.5 -231.5q0 -137 -95.5 -232.5t-230.5 -95.5q-137 0 -233 95.5t-96 232.5zM1114 295q0 -53 39 -92t92 -39t92 39t39 92t-39 92t-92 39t-92 -39t-39 -92z" />
<glyph unicode="&#x26;" horiz-adv-x="1703" d="M98 426q0 131 71 224t163 128q-78 74 -108.5 130.5t-30.5 125.5q0 156 144 265.5t357 109.5q221 0 361.5 -106.5t140.5 -274.5q0 -66 -21.5 -119t-51 -87t-81 -64.5t-89.5 -46t-97 -35.5l182 -164l162 143h406l-357 -333l355 -322h-457l-123 117q-197 -150 -410 -150 t-364.5 119t-151.5 340zM428 446q0 -72 59.5 -127t145.5 -55q115 0 176 60l-283 272q-98 -51 -98 -150zM524 1024q0 -35 26.5 -65.5t104.5 -98.5q111 31 164 67t49 89q-4 51 -55 84t-127 33q-70 0 -116 -33t-46 -76z" />
<glyph unicode="'" horiz-adv-x="491" d="M98 1376h295l-33 -491h-229z" />
<glyph unicode="(" horiz-adv-x="720" d="M98 622.5q0 475.5 262 950.5l295 -98q-262 -397 -262 -852t262 -852l-295 -99q-262 475 -262 950.5z" />
<glyph unicode=")" horiz-adv-x="720" d="M66 -229q262 397 262 852t-262 852l294 98q262 -475 262.5 -950.5t-262.5 -950.5z" />
<glyph unicode="*" horiz-adv-x="884" d="M98 1137l70 174l194 -88l-10 219h185l-13 -219l193 88l69 -174l-208 -66l135 -168l-150 -108l-121 176l-118 -176l-154 108l139 168z" />
<glyph unicode="+" horiz-adv-x="1048" d="M98 524v197h328v328h197v-328h327v-197h-327v-327h-197v327h-328z" />
<glyph unicode="," horiz-adv-x="655" d="M66 -262l131 557h360l-262 -557h-229z" />
<glyph unicode="-" horiz-adv-x="819" d="M98 426v229h623v-229h-623z" />
<glyph unicode="." horiz-adv-x="557" d="M98 147.5q0 75.5 52.5 128t128 52.5t128 -52.5t52.5 -128t-52.5 -128t-128 -52.5t-128 52.5t-52.5 128z" />
<glyph unicode="/" horiz-adv-x="1081" d="M98 -164l656 1704h229l-655 -1704h-230z" />
<glyph unicode="0" horiz-adv-x="1343" d="M98 688q0 303 161 512t413 209t412.5 -209t160.5 -512t-160.5 -512t-412.5 -209q-254 0 -414 208t-160 513zM426 688q0 -180 71.5 -303t174 -123t174.5 123t72 303t-72 303t-174.5 123t-174 -123t-71.5 -303z" />
<glyph unicode="1" horiz-adv-x="917" d="M131 950v295l623 164v-1409h-328v1016z" />
<glyph unicode="2" horiz-adv-x="1343" d="M98 0l541 557q213 233 213 361q0 94 -56.5 145t-140.5 51t-143 -57.5t-63 -171.5l-318 33q12 211 147.5 351t362.5 140q248 0 393.5 -129t145.5 -362q0 -129 -97.5 -277.5t-296.5 -345.5h459v-295h-1147z" />
<glyph unicode="3" horiz-adv-x="1310" d="M98 426l328 33q33 -197 244 -197q88 0 151.5 42t63.5 116q0 78 -95.5 111.5t-232.5 33.5v262q12 0 31.5 1t71 9.5t90 22.5t70.5 47t32 76q0 61 -52 96t-138 35q-188 0 -211 -196l-320 32q18 211 157.5 335t366.5 124q252 0 388.5 -119t136.5 -274q0 -90 -45 -170 t-119 -119q88 -43 142 -123t54 -178q0 -82 -29.5 -159t-91 -146.5t-174 -111.5t-262.5 -42q-246 0 -401.5 123t-155.5 336z" />
<glyph unicode="4" horiz-adv-x="1376" d="M98 262v262l607 852h409v-819h164v-295h-164v-262h-328v262h-688zM469 557h317v487z" />
<glyph unicode="5" horiz-adv-x="1310" d="M98 426l328 20q6 -78 71.5 -131t157.5 -53q94 0 162 57.5t68 139.5q0 86 -60.5 141t-169.5 55q-156 0 -229 -98h-297l117 819h835v-295h-571l-25 -209q35 20 89.5 31.5t91.5 14.5h36q215 0 362.5 -115t147.5 -322q0 -233 -148.5 -373.5t-408.5 -140.5q-254 0 -401.5 117 t-155.5 342z" />
<glyph unicode="6" horiz-adv-x="1343" d="M98 506q0 31 3 63.5t15.5 110.5t47.5 156.5t89 172t149.5 189.5t220.5 178h501q-16 -8 -44.5 -22.5t-107.5 -62.5t-145.5 -97t-140.5 -122t-113 -142q66 29 203 28q209 0 339 -138t130 -328q0 -233 -158.5 -379t-414.5 -146q-266 0 -420 145.5t-154 393.5zM426 475 q0 -88 69.5 -150.5t176 -62.5t176.5 61.5t70 151.5t-70 151.5t-176.5 61.5t-176 -62.5t-69.5 -150.5z" />
<glyph unicode="7" d="M98 1081v295h1147l-622 -1376h-361l492 1081h-656z" />
<glyph unicode="8" horiz-adv-x="1310" d="M98 426q0 100 45 181t123 120q-61 47 -98 116.5t-37 139.5q0 184 147.5 305t376.5 121q231 0 378 -122t147 -304q0 -70 -37.5 -139.5t-98.5 -116.5q78 -39 123 -120t45 -181q0 -197 -147 -328t-409.5 -131t-410 131t-147.5 328zM426 442.5q0 -75.5 66.5 -128t163 -52.5 t163 52.5t66.5 128t-66.5 128t-163 52.5t-163 -52.5t-66.5 -128zM459 966.5q0 -61.5 57 -104.5t139 -43t139.5 43t57.5 104.5t-57.5 104.5t-139.5 43t-139 -43t-57 -104.5z" />
<glyph unicode="9" horiz-adv-x="1343" d="M98 885q0 233 159 378.5t415 145.5q266 0 419.5 -145.5t153.5 -393.5q0 -31 -3 -63.5t-15.5 -110.5t-47 -156.5t-89 -172t-149.5 -189.5t-220 -178h-502l45 22.5t108 62.5t145.5 97t140 122t112.5 142q-66 -29 -203 -28q-209 0 -339 138t-130 329zM426 901 q0 -90 69.5 -151.5t176 -61.5t176.5 62.5t70 150.5t-70 150.5t-176.5 62.5t-176 -61.5t-69.5 -151.5z" />
<glyph unicode=":" horiz-adv-x="557" d="M98 147.5q0 75.5 52.5 128t128 52.5t128 -52.5t52.5 -128t-52.5 -128t-128 -52.5t-128 52.5t-52.5 128zM98 868.5q0 75.5 52.5 128t128 52.5t128 -52.5t52.5 -128t-52.5 -128t-128 -52.5t-128 52.5t-52.5 128z" />
<glyph unicode=";" horiz-adv-x="655" d="M66 -262l131 557h360l-262 -557h-229zM197 868.5q0 75.5 52 128t128 52.5t128 -52.5t52 -128t-52 -128t-128 -52.5t-128 52.5t-52 128z" />
<glyph unicode="&#x3c;" horiz-adv-x="1114" d="M98 541v164l918 442v-229l-639 -295l639 -295v-230z" />
<glyph unicode="=" horiz-adv-x="1048" d="M98 360v197h852v-197h-852zM98 688v197h852v-197h-852z" />
<glyph unicode="&#x3e;" horiz-adv-x="1114" d="M98 98v230l639 295l-639 295v229l918 -442v-164z" />
<glyph unicode="?" horiz-adv-x="1146" d="M98 1212q74 80 193 138.5t266 58.5q231 0 361.5 -116.5t130.5 -276.5q0 -111 -51.5 -199t-161.5 -174q-145 -113 -148 -250h-262q-12 209 98 322q20 20 67.5 63t68 65.5t41 62.5t20.5 81q0 66 -50 97.5t-128 31.5q-180 0 -314 -133zM377 147.5q0 75.5 52 128t128 52.5 t128 -52.5t52 -128t-52 -128t-128 -52.5t-128 52.5t-52 128z" />
<glyph unicode="@" horiz-adv-x="2211" d="M98 589.5q0 276.5 136.5 510t370 370t509.5 136.5q258 0 488.5 -125t371 -341t140.5 -464q0 -236 -133.5 -390.5t-352.5 -154.5q-125 0 -197.5 43t-123.5 139q-47 -66 -124 -107.5t-169 -41.5q-205 0 -305.5 129t-85.5 317q14 190 134 314.5t308 124.5q82 0 148.5 -38 t97.5 -89l8 94h237l-47 -484q-4 -53 1.5 -88.5t36 -64.5t91.5 -29q84 0 157 74t73 246q0 287 -225.5 488.5t-528.5 201.5q-317 0 -543.5 -226.5t-226.5 -544t226.5 -543.5t543.5 -226q176 0 303 57l68 -233q-170 -70 -371 -70q-276 0 -509.5 136t-370 369.5t-136.5 510z M852 610q-12 -96 37 -173t158 -77q102 0 162.5 70t68.5 176q8 92 -40 169t-159 77q-90 0 -152.5 -68.5t-74.5 -173.5z" />
<glyph unicode="A" horiz-adv-x="1441" d="M0 0l569 1376h303l570 -1376h-361l-86 229h-549l-86 -229h-360zM559 524h324l-162 426z" />
<glyph unicode="B" horiz-adv-x="1310" d="M131 0v1376h524q524 0 525 -360q0 -88 -47 -174t-119 -119q115 -37 173 -119t58 -190q0 -182 -127 -298t-344 -116h-643zM459 295h229q229 0 230 133q0 129 -230 129h-229v-262zM459 852h196q197 0 197 117q0 112 -194 112h-3h-196v-229z" />
<glyph unicode="C" horiz-adv-x="1343" d="M66 688q0 299 221 510t532 211q123 0 248 -43t211 -121l-127 -291q-127 160 -332 160q-176 0 -301 -125t-125 -301t125 -301t301 -125q203 0 332 160l127 -289q-86 -78 -212 -122t-247 -44q-311 0 -532 211t-221 510z" />
<glyph unicode="D" horiz-adv-x="1441" d="M131 0v1376h522q342 0 532.5 -194.5t190.5 -493.5q0 -297 -193.5 -492.5t-529.5 -195.5h-522zM459 295h217q147 0 260 116.5t113 276.5t-113 276.5t-260 116.5h-217v-786z" />
<glyph unicode="E" horiz-adv-x="1114" d="M131 0v1376h885v-295h-557v-245h459v-295h-459v-246h557v-295h-885z" />
<glyph unicode="F" horiz-adv-x="1081" d="M131 0v1376h885v-295h-557v-245h459v-295h-459v-541h-328z" />
<glyph unicode="G" horiz-adv-x="1540" d="M66 688q0 299 210.5 510t509.5 211q207 0 369 -106.5t254 -286.5l-295 -88q-119 186 -328 186q-170 0 -281.5 -124t-111.5 -302t112.5 -302t280.5 -124q133 0 228.5 70.5t115.5 191.5h-442v295h774q12 -68 13 -131q0 -301 -197 -511t-492 -210q-299 0 -509.5 211 t-210.5 510z" />
<glyph unicode="H" horiz-adv-x="1441" d="M131 0v1376h328v-540h524v540h328v-1376h-328v541h-524v-541h-328z" />
<glyph unicode="I" horiz-adv-x="589" d="M131 0v1376h328v-1376h-328z" />
<glyph unicode="J" horiz-adv-x="1015" d="M66 94l147 246q63 -78 166 -78q90 0 150.5 63.5t60.5 186.5v864h328v-852q0 -274 -141.5 -415.5t-385.5 -141.5q-94 0 -185 36t-140 91z" />
<glyph unicode="K" horiz-adv-x="1343" d="M131 0v1376h328v-524l426 524h393l-524 -655l557 -721h-393l-459 590v-590h-328z" />
<glyph unicode="L" horiz-adv-x="1048" d="M131 0v1376h328v-1081h524v-295h-852z" />
<glyph unicode="M" horiz-adv-x="1769" d="M66 0l163 1376h328l328 -819l327 819h328l164 -1376h-328l-98 786l-295 -786h-197l-294 786l-99 -786h-327z" />
<glyph unicode="N" horiz-adv-x="1540" d="M131 0v1376h328l622 -852v852h328v-1376h-328l-622 852v-852h-328z" />
<glyph unicode="O" horiz-adv-x="1605" d="M66 688q0 299 216 510t521 211t521 -211t216 -510t-216 -510t-521 -211t-521 211t-216 510zM393 688q0 -176 120 -301t290 -125t289.5 125t119.5 301t-119.5 301t-289.5 125t-290 -125t-120 -301z" />
<glyph unicode="P" horiz-adv-x="1277" d="M131 0v1376h557q260 0 392 -125t132 -333q0 -197 -124.5 -336.5t-333.5 -139.5h-295v-442h-328zM459 737h227q84 0 141.5 46t57.5 126q0 88 -55.5 130t-143.5 42h-227v-344z" />
<glyph unicode="Q" horiz-adv-x="1605" d="M66 688q0 299 216 510t521 211t521 -211t216 -510q0 -260 -170 -459l203 -229h-361l-47 61q-168 -94 -362 -94q-305 0 -521 211t-216 510zM393 688q0 -176 120 -301t290 -125q94 0 176 41l-193 254h295l74 -84q57 98 57 215q0 176 -119.5 301t-289.5 125t-290 -125 t-120 -301z" />
<glyph unicode="R" horiz-adv-x="1343" d="M131 0v1376h557q260 0 392 -125t132 -333q0 -150 -74.5 -271t-207.5 -174l348 -473h-377l-307 442h-135v-442h-328zM459 737h227q84 0 141.5 46t57.5 126q0 88 -55.5 130t-143.5 42h-227v-344z" />
<glyph unicode="S" horiz-adv-x="1277" d="M66 197l149 262q199 -197 424 -197q246 0 246 131q0 51 -49.5 83t-180.5 54q-279 47 -409.5 151.5t-130.5 281.5q0 188 148.5 317t395.5 129q49 0 112 -7t184.5 -50t203.5 -119l-143 -258q-14 16 -42 38.5t-121 61.5t-198 39q-90 0 -151.5 -30.5t-61.5 -86.5 q0 -49 45 -76.5t168 -54.5q109 -23 183.5 -45t150.5 -59t121 -82t73.5 -112.5t28.5 -153.5q0 -197 -150.5 -322t-422.5 -125q-98 0 -193.5 23.5t-161 57.5t-117.5 68t-77 56z" />
<glyph unicode="T" horiz-adv-x="1179" d="M66 1081v295h1048v-295h-360v-1081h-328v1081h-360z" />
<glyph unicode="U" horiz-adv-x="1376" d="M98 590v786h328v-819q0 -137 69.5 -216t192.5 -79q117 0 189.5 80t72.5 215v819h328v-786q0 -279 -157.5 -451t-432.5 -172q-279 0 -434.5 172t-155.5 451z" />
<glyph unicode="V" horiz-adv-x="1376" d="M0 1376h360l328 -852l328 852h360l-557 -1376h-262z" />
<glyph unicode="W" horiz-adv-x="2097" d="M16 1376h361l278 -856l246 856h295l246 -856l278 856h361l-500 -1376h-295l-237 758l-238 -758h-295z" />
<glyph unicode="X" horiz-adv-x="1474" d="M33 0l491 721l-458 655h378l293 -434l293 434h379l-459 -655l492 -721h-393l-312 473l-311 -473h-393z" />
<glyph unicode="Y" horiz-adv-x="1376" d="M0 1376h385l303 -524l303 524h385l-524 -819v-557h-328v557z" />
<glyph unicode="Z" horiz-adv-x="1277" d="M66 0l614 1081h-582v295h1114l-614 -1081h582v-295h-1114z" />
<glyph unicode="[" horiz-adv-x="720" d="M131 -426v2130h459v-295h-164v-1540h164v-295h-459z" />
<glyph unicode="\" horiz-adv-x="1081" d="M98 1540h230l655 -1704h-229z" />
<glyph unicode="]" horiz-adv-x="720" d="M131 -131h164v1540h-164v295h459v-2130h-459v295z" />
<glyph unicode="^" horiz-adv-x="1114" d="M98 918l361 524h196l361 -524h-230l-229 335l-229 -335h-230z" />
<glyph unicode="_" horiz-adv-x="1179" d="M66 -66h1048v-229h-1048v229z" />
<glyph unicode="`" horiz-adv-x="1638" d="M524 1802h328l164 -295h-197z" />
<glyph unicode="a" horiz-adv-x="1310" d="M66 508q0 225 143 383t348 158q170 0 295 -119v86h328v-1016h-328v86q-125 -119 -295 -119q-205 0 -348 158t-143 383zM393 508q0 -102 67.5 -174t162 -72t162 72t67.5 174t-67.5 174t-162 72t-162 -72t-67.5 -174z" />
<glyph unicode="b" horiz-adv-x="1310" d="M131 0v1442h328v-512q125 119 295 119q205 0 348 -158t143 -383t-143.5 -383t-347.5 -158q-170 0 -295 119v-86h-328zM459 508q0 -102 67.5 -174t161.5 -72t162 72t68 174t-68 174t-162 72t-161.5 -72t-67.5 -174z" />
<glyph unicode="c" horiz-adv-x="1081" d="M66 507.5q0 231.5 153.5 386.5t411.5 155q248 0 385 -125l-119 -265q-109 94 -246 95q-106 0 -182 -72t-76 -174t75 -174t183 -72q137 0 246 92l119 -262q-131 -125 -385 -125q-260 0 -412.5 154.5t-152.5 386z" />
<glyph unicode="d" horiz-adv-x="1310" d="M66 508q0 225 143 383t348 158q170 0 295 -119v512h328v-1442h-328v86q-125 -119 -295 -119q-205 0 -348 158t-143 383zM393 508q0 -102 67.5 -174t162 -72t162 72t67.5 174t-67.5 174t-162 72t-162 -72t-67.5 -174z" />
<glyph unicode="e" horiz-adv-x="1179" d="M66 508q0 236 140 388.5t400 152.5q242 0 375 -142.5t133 -398.5q0 -29 -4 -82h-700q20 -74 85.5 -119t166.5 -45q145 0 296 62l91 -261q-16 -10 -47 -26.5t-133.5 -43t-215.5 -26.5q-293 0 -440 151.5t-147 389.5zM410 623h360q0 59 -48 111t-132 52q-74 0 -127 -53 t-53 -110z" />
<glyph unicode="f" horiz-adv-x="851" d="M66 721v295h131q0 78 7 137t27.5 122.5t54 104.5t94 68t144.5 27q127 0 230 -33v-262q-55 12 -96 13h-7q-37 0 -59 -11q-25 -13 -39 -25t-20.5 -39.5t-7.5 -46t-1 -55.5h230v-295h-230v-721h-327v721h-131z" />
<glyph unicode="g" horiz-adv-x="1310" d="M66 508q0 225 143 383t348 158q170 0 295 -119v86h328v-918q0 -315 -159 -485t-431 -170q-127 0 -250 41t-182 82l-60 41l123 262q94 -66 173 -98.5t177 -32.5q129 0 205 84t76 221v43q-125 -119 -295 -119q-205 0 -348 158t-143 383zM393 508q0 -102 67.5 -174t162 -72 t162 72t67.5 174t-67.5 174t-162 72t-162 -72t-67.5 -174z" />
<glyph unicode="h" d="M131 0v1442h328v-524q111 131 295 131q166 0 279.5 -120t113.5 -339v-590h-328v557q0 197 -164 197q-70 0 -133 -53.5t-63 -176.5v-524h-328z" />
<glyph unicode="i" horiz-adv-x="589" d="M98 1343.5q0 81.5 57.5 139t139.5 57.5t139.5 -57.5t57.5 -139t-57.5 -139t-139.5 -57.5t-139.5 57.5t-57.5 139zM131 0v1016h328v-1016h-328z" />
<glyph unicode="j" horiz-adv-x="589" d="M-98 -262q100 2 164.5 65.5t64.5 196.5v1016h328v-983q0 -174 -38 -294t-108.5 -182.5t-153.5 -88t-192 -25.5zM98 1343.5q0 81.5 57.5 139t139.5 57.5t139.5 -57.5t57.5 -139t-57.5 -139t-139.5 -57.5t-139.5 57.5t-57.5 139z" />
<glyph unicode="k" horiz-adv-x="1212" d="M131 0v1442h328v-811l327 385h394l-426 -492l458 -524h-393l-360 401v-401h-328z" />
<glyph unicode="l" horiz-adv-x="589" d="M131 0v1442h328v-1442h-328z" />
<glyph unicode="m" horiz-adv-x="1802" d="M131 0v1016h328v-98q111 131 262 131q176 0 272 -134q117 134 318 134q166 0 279.5 -120t113.5 -339v-590h-328v557q0 113 -34.5 155t-96.5 42q-63 0 -113.5 -52.5t-50.5 -177.5v-524h-327v557q0 113 -35 155t-96 42q-63 0 -113.5 -52.5t-50.5 -177.5v-524h-328z" />
<glyph unicode="n" d="M131 0v1016h328v-98q111 131 295 131q166 0 279.5 -120t113.5 -339v-590h-328v557q0 197 -164 197q-70 0 -133 -53.5t-63 -176.5v-524h-328z" />
<glyph unicode="o" d="M66 507.5q0 231.5 150.5 386.5t406.5 155q242 0 399.5 -157t157.5 -384q0 -229 -156 -385t-401 -156q-254 0 -405.5 154.5t-151.5 386zM393 508q0 -102 67.5 -174t162 -72t162 72t67.5 174t-67.5 174t-162 72t-162 -72t-67.5 -174z" />
<glyph unicode="p" horiz-adv-x="1310" d="M131 -524v1540h328v-86q125 119 295 119q205 0 348 -158t143 -383t-143.5 -383t-347.5 -158q-170 0 -295 119v-610h-328zM459 508q0 -102 67.5 -174t161.5 -72t162 72t68 174t-68 174t-162 72t-161.5 -72t-67.5 -174z" />
<glyph unicode="q" horiz-adv-x="1310" d="M66 508q0 225 143 383t348 158q170 0 295 -119v86h328v-1540h-328v610q-125 -119 -295 -119q-205 0 -348 158t-143 383zM393 508q0 -102 67.5 -174t162 -72t162 72t67.5 174t-67.5 174t-162 72t-162 -72t-67.5 -174z" />
<glyph unicode="r" horiz-adv-x="917" d="M131 0v1016h328v-215q98 227 393 248v-361q-42 16 -91 16t-106 -16q-78 -20 -137 -100t-59 -193v-395h-328z" />
<glyph unicode="s" horiz-adv-x="1114" d="M66 94l88 266q55 -39 137 -66.5t135 -35.5l55 -8q59 -6 104 -6q136 0 136 53q0 33 -41 44t-174 28q-408 51 -408 336q0 158 119 251t363 93q236 0 389 -84l-76 -265q-154 76 -307 76q-160 0 -160 -43q0 -8 3 -15t9 -12.5t12.5 -9.5t18.5 -7t20.5 -6t24.5 -5t25.5 -4 t28 -4t26.5 -4q246 -27 350.5 -107t104.5 -231q0 -164 -130.5 -262.5t-390.5 -98.5q-129 0 -244.5 32t-166.5 62z" />
<glyph unicode="t" horiz-adv-x="819" d="M66 721v295h131v360h327v-360h197v-295h-197v-295q0 -122 35 -154q21 -19 74 -19q36 0 88 9v-262q-96 -33 -229 -33q-150 0 -222.5 91.5t-72.5 230.5v432h-131z" />
<glyph unicode="u" d="M98 426v590h328v-557q0 -197 164 -197q70 0 133 53.5t63 176.5v524h328v-1016h-328v98q-110 -131 -294 -131q-166 0 -280 120t-114 339z" />
<glyph unicode="v" horiz-adv-x="1114" d="M0 1016h360l197 -557l197 557h360l-426 -1016h-262z" />
<glyph unicode="w" horiz-adv-x="1605" d="M16 1016h344l148 -578l164 578h262l164 -578l147 578h344l-344 -1016h-262l-180 545l-180 -545h-263z" />
<glyph unicode="x" d="M33 0l393 541l-360 475h393l164 -254l163 254h394l-361 -475l393 -541h-393l-196 287l-197 -287h-393z" />
<glyph unicode="y" horiz-adv-x="1114" d="M0 1016h360l197 -557l197 557h360l-622 -1540h-361l264 598z" />
<glyph unicode="z" horiz-adv-x="1081" d="M66 0l426 721h-394v295h918l-426 -721h393v-295h-917z" />
<glyph unicode="{" horiz-adv-x="851" d="M98 623q68 18 132.5 82.5t64.5 146.5v479q0 274 295 373l164 -197q-82 -18 -123 -77.5t-41 -139.5v-368q0 -233 -154 -299q154 -66 154 -299v-369q0 -80 41 -139.5t123 -77.5l-164 -197q-295 98 -295 373v479q0 82 -64.5 146.5t-132.5 83.5z" />
<glyph unicode="|" horiz-adv-x="458" d="M131 -524v2097h197v-2097h-197z" />
<glyph unicode="}" horiz-adv-x="851" d="M98 -262q82 18 123 77.5t41 139.5v369q0 233 154 299q-154 66 -154 299v368q0 80 -41 139.5t-123 77.5l164 197q295 -98 295 -373v-479q0 -82 64.5 -146.5t132.5 -82.5q-68 -18 -132.5 -83t-64.5 -147v-479q0 -274 -295 -373z" />
<glyph unicode="~" horiz-adv-x="1146" d="M98 524q59 111 128 154t167 43q59 0 240 -66q90 -37 148.5 -25.5t97.5 91.5l170 -66q-59 -111 -128 -153.5t-167 -42.5q-66 0 -240 63q-90 39 -149.5 27t-96.5 -90z" />
<glyph unicode="&#xa1;" horiz-adv-x="622" d="M131 868.5q0 75.5 52.5 128t128 52.5t128 -52.5t52.5 -128t-52.5 -128t-128 -52.5t-128 52.5t-52.5 128zM147 -360l66 950h197l65 -950h-328z" />
<glyph unicode="&#xa2;" horiz-adv-x="1081" d="M66 508q0 221 142 373.5t382 165.5v133h98v-133q211 -14 328 -123l-119 -265q-109 94 -246 95q-106 0 -182 -72t-76 -174t75 -174t183 -72q137 0 246 92l119 -262q-111 -109 -328 -123v-133h-98v133q-242 12 -383 165t-141 374z" />
<glyph unicode="&#xa3;" horiz-adv-x="1277" d="M66 229q25 61 100 115q92 66 88 246h-188v196h133q-35 111 -35 230q0 168 146.5 280.5t377.5 112.5q268 0 459 -164l-141 -262q-117 131 -281 131q-233 0 -233 -166q0 -57 36 -162h291v-196h-264q4 -63 -14.5 -148.5t-42.5 -111.5q92 -47 198.5 -63.5t197.5 14t122 112.5 l196 -192q-121 -233 -333 -234q-121 0 -240 47q-264 106 -348 -14z" />
<glyph unicode="&#xa4;" horiz-adv-x="1077" d="M98 313l162 166q-51 80 -51 176.5t51 175.5l-162 168l101 97l159 -166q86 53 181 53q98 0 180 -55l160 168l100 -97l-166 -168q51 -80 51 -176t-51 -176l166 -164l-96 -100l-168 164q-80 -51 -176.5 -51t-180.5 51l-163 -164zM406 655.5q0 -53.5 38.5 -92.5t92 -39 t92.5 39t39 92.5t-39 92t-92.5 38.5t-92 -38.5t-38.5 -92z" />
<glyph unicode="&#xa5;" horiz-adv-x="1507" d="M66 1376h385l303 -524l303 524h385l-524 -819h196v-98h-196v-131h196v-99h-196v-229h-328v229h-197v99h197v131h-197v98h197z" />
<glyph unicode="&#xa6;" horiz-adv-x="458" d="M131 197h197v-721h-197v721zM131 852v721h197v-721h-197z" />
<glyph unicode="&#xa7;" horiz-adv-x="1343" d="M98 -131l150 262q199 -197 424 -197q246 0 246 132q0 51 -49.5 82.5t-180.5 54.5q-279 47 -410 151.5t-131 280.5q0 154 101 270q-100 98 -101 254q0 188 148.5 317.5t396.5 129.5q49 0 111.5 -7.5t184.5 -50.5t204 -118l-143 -259q-14 16 -42 39t-121 62t-198 39 q-90 0 -151.5 -31t-61.5 -86q0 -49 45 -76.5t168 -54.5q109 -23 183.5 -45.5t150.5 -59t121 -82t73.5 -113t28.5 -153.5q0 -154 -94 -266q94 -100 94 -258q0 -197 -150.5 -321.5t-422.5 -124.5q-98 0 -193.5 23.5t-161 57t-118 67.5t-76.5 56zM475 670q0 -49 45 -77t168 -54 q98 -20 174 -43q55 33 56 94q0 51 -49.5 82.5t-180.5 54.5q-76 12 -145 31q-68 -31 -68 -88z" />
<glyph unicode="&#xa8;" horiz-adv-x="1638" d="M459 1654.5q0 61.5 43 104.5t104.5 43t104.5 -43t43 -104.5t-43 -104.5t-104.5 -43t-104.5 43t-43 104.5zM885 1654.5q0 61.5 43 104.5t104.5 43t104.5 -43t43 -104.5t-43 -104.5t-104.5 -43t-104.5 43t-43 104.5z" />
<glyph unicode="&#xa9;" horiz-adv-x="1507" d="M98 901q0 279 188.5 467t467 188t467 -188t188.5 -466.5t-188 -467t-467 -188.5q-276 0 -466 191.5t-190 463.5zM246 901q0 -213 147.5 -360.5t360.5 -147.5t360.5 147.5t147.5 360.5t-147.5 360.5t-360.5 147.5t-360.5 -147.5t-147.5 -360.5zM444 901q0 133 98.5 226.5 t235.5 93.5q121 0 203 -72l-55 -129q-57 70 -148 70q-78 0 -133 -55.5t-55 -133.5t55 -133t133 -55q88 0 148 69l55 -127q-84 -74 -203 -73q-137 0 -235.5 93t-98.5 226z" />
<glyph unicode="&#xaa;" horiz-adv-x="753" d="M98 1122.5q0 112.5 72 191.5t174 79q84 0 148 -60v43h163v-508h-163v43q-63 -59 -148 -59q-102 0 -174 79t-72 191.5zM262 1122.5q0 -51.5 34 -87.5t81 -36t81 36t34 87.5t-34 87t-81 35.5t-81 -35.5t-34 -87z" />
<glyph unicode="&#xab;" horiz-adv-x="1343" d="M98 557l328 459h262l-328 -459l328 -459h-262zM590 557l328 459h262l-328 -459l328 -459h-262z" />
<glyph unicode="&#xac;" horiz-adv-x="1310" d="M98 524v197h1114v-492h-196v295h-918z" />
<glyph unicode="&#xad;" horiz-adv-x="819" d="M98 426v229h623v-229h-623z" />
<glyph unicode="&#xae;" horiz-adv-x="1507" d="M98 901q0 279 188.5 467t467 188t467 -188t188.5 -466.5t-188 -467t-467 -188.5q-276 0 -466 191.5t-190 463.5zM246 901q0 -213 147.5 -360.5t360.5 -147.5t360.5 147.5t147.5 360.5t-147.5 360.5t-360.5 147.5t-360.5 -147.5t-147.5 -360.5zM524 594v614h248 q117 0 176.5 -55t59.5 -149q0 -66 -34 -120.5t-93 -78.5l155 -211h-168l-137 197h-61v-197h-146zM670 924h102q37 0 62.5 20.5t25.5 54.5q0 78 -88 78h-102v-153z" />
<glyph unicode="&#xaf;" horiz-adv-x="1638" d="M508 1540v164h622v-164h-622z" />
<glyph unicode="&#xb0;" horiz-adv-x="851" d="M98 1081q0 135 96.5 231.5t233.5 96.5q135 0 230.5 -96t95.5 -232q0 -137 -95.5 -232t-230.5 -95q-137 0 -233.5 95t-96.5 232zM295 1081.5q0 -53.5 39 -92.5t92 -39t92 39t39 92.5t-39 92t-92 38.5t-92 -38.5t-39 -92z" />
<glyph unicode="&#xb1;" horiz-adv-x="1048" d="M98 66v196h852v-196h-852zM98 770v197h328v327h197v-327h327v-197h-327v-328h-197v328h-328z" />
<glyph unicode="&#xb2;" horiz-adv-x="770" d="M98 852l271 278q106 117 106 181q0 47 -27.5 72.5t-70.5 25.5q-41 0 -71 -28.5t-32 -86.5l-159 17q6 106 73.5 175.5t182.5 69.5q123 0 195.5 -64.5t72.5 -180.5q0 -115 -197 -312h230v-147h-574z" />
<glyph unicode="&#xb3;" horiz-adv-x="753" d="M98 1065l164 16q18 -98 123 -98q45 0 76 20.5t31 59.5q0 72 -164 72v131h16t34.5 5t44 12t36 22.5t16.5 37.5q0 31 -25.5 48.5t-68.5 17.5q-94 0 -107 -98l-159 16q10 104 79.5 166.5t182.5 62.5q127 0 194.5 -59t67.5 -137q0 -45 -22.5 -85t-59.5 -58q98 -49 98 -152 q0 -90 -67.5 -159.5t-210.5 -69.5q-123 0 -201 62.5t-78 166.5z" />
<glyph unicode="&#xb4;" horiz-adv-x="1638" d="M623 1507l163 295h328l-295 -295h-196z" />
<glyph unicode="&#xb6;" horiz-adv-x="1507" d="M98 1001.5q0 157.5 102.5 266t258.5 108.5h950v-229h-197v-1614h-229v1614h-295v-1614h-229v1092q-156 0 -258.5 109.5t-102.5 267z" />
<glyph unicode="&#xb7;" horiz-adv-x="557" d="M98 688q0 76 52.5 128t128 52t128 -52t52.5 -128t-52.5 -128t-128 -52t-128 52t-52.5 128z" />
<glyph unicode="&#xb8;" horiz-adv-x="1638" d="M532 -494l119 134q14 -41 53 -70t91 -29q80 0 124 40t44 91q0 53 -40 84t-98 31q-76 0 -112 -29l-82 111l131 131h190l-98 -98q106 12 187 -52.5t81 -177.5q0 -127 -93 -211t-234 -84q-188 0 -263 129z" />
<glyph unicode="&#xb9;" horiz-adv-x="737" d="M197 1343v148l311 82v-705h-164v508z" />
<glyph unicode="&#xba;" horiz-adv-x="753" d="M98 1122.5q0 114.5 76 192.5t203 78q121 0 199.5 -78t78.5 -192.5t-77.5 -192.5t-200.5 -78q-125 0 -202 78t-77 192.5zM262 1122.5q0 -51.5 34 -87.5t81 -36t81 36t34 87.5t-34 87t-81 35.5t-81 -35.5t-34 -87z" />
<glyph unicode="&#xbb;" horiz-adv-x="1343" d="M164 98l328 459l-328 459h262l328 -459l-328 -459h-262zM655 98l328 459l-328 459h263l327 -459l-327 -459h-263z" />
<glyph unicode="&#xbc;" horiz-adv-x="1925" d="M197 1163v148l311 82v-705h-164v508zM377 0l958 1376h197l-959 -1376h-196zM1237 131v131l303 426h205v-409h82v-148h-82v-131h-164v131h-344zM1423 279h158v243z" />
<glyph unicode="&#xbd;" horiz-adv-x="1941" d="M197 1163v148l311 82v-705h-164v508zM377 0l958 1376h197l-959 -1376h-196zM1270 0l270 279q106 117 107 180q0 47 -28 72.5t-71 25.5q-41 0 -70.5 -28.5t-31.5 -86.5l-160 17q6 106 73.5 176t182.5 70q123 0 195.5 -65t72.5 -181q0 -115 -196 -312h229v-147h-573z" />
<glyph unicode="&#xbe;" horiz-adv-x="1941" d="M98 901l164 17q18 -98 123 -99q45 0 76 20.5t31 59.5q0 72 -164 72v131h16t34.5 5t44 12t36 22.5t16.5 38.5q0 31 -25.5 48t-68.5 17q-94 0 -107 -98l-159 16q10 104 79.5 167t182.5 63q127 0 194.5 -59.5t67.5 -137.5q0 -45 -22.5 -85t-59.5 -58q98 -49 98 -152 q0 -90 -67.5 -159.5t-210.5 -69.5q-123 0 -201 62.5t-78 166.5zM393 0l959 1376h196l-958 -1376h-197zM1253 131v131l303 426h205v-409h82v-148h-82v-131h-164v131h-344zM1440 279h157v243z" />
<glyph unicode="&#xbf;" horiz-adv-x="1146" d="M98 0q0 111 51.5 199t161.5 174q145 113 148 250h262q12 -209 -98 -322q-20 -20 -67.5 -63t-68 -65.5t-41 -62.5t-20.5 -81q0 -66 50 -97.5t128 -31.5q180 0 314 133l131 -230q-74 -80 -193 -138t-266 -58q-231 0 -361.5 116.5t-130.5 276.5zM410 868.5q0 75.5 52 128 t128 52.5t128 -52.5t52 -128t-52 -128t-128 -52.5t-128 52.5t-52 128z" />
<glyph unicode="&#xc0;" horiz-adv-x="1441" d="M0 0l569 1376h303l570 -1376h-361l-86 229h-549l-86 -229h-360zM393 1802h328l164 -295h-197zM559 524h324l-162 426z" />
<glyph unicode="&#xc1;" horiz-adv-x="1441" d="M0 0l569 1376h303l570 -1376h-361l-86 229h-549l-86 -229h-360zM557 1507l164 295h328l-295 -295h-197zM559 524h324l-162 426z" />
<glyph unicode="&#xc2;" horiz-adv-x="1441" d="M0 0l569 1376h303l570 -1376h-361l-86 229h-549l-86 -229h-360zM360 1507l295 295h131l295 -295h-262l-98 131l-98 -131h-263zM559 524h324l-162 426z" />
<glyph unicode="&#xc3;" horiz-adv-x="1441" d="M0 0l569 1376h303l570 -1376h-361l-86 229h-549l-86 -229h-360zM311 1561q90 176 244 176q70 0 166 -37q90 -43 148.5 -38t95.5 75l165 -54q-86 -176 -243 -176q-78 0 -166 37q-90 41 -148.5 37t-95.5 -74zM559 524h324l-162 426z" />
<glyph unicode="&#xc4;" horiz-adv-x="1441" d="M0 0l569 1376h303l570 -1376h-361l-86 229h-549l-86 -229h-360zM360 1654.5q0 61.5 43 104.5t104.5 43t104.5 -43t43 -104.5t-43 -104.5t-104.5 -43t-104.5 43t-43 104.5zM559 524h324l-162 426zM786 1654.5q0 61.5 43 104.5t104.5 43t104.5 -43t43 -104.5t-43 -104.5 t-104.5 -43t-104.5 43t-43 104.5z" />
<glyph unicode="&#xc5;" horiz-adv-x="1441" d="M0 0l569 1376h303l570 -1376h-361l-86 229h-549l-86 -229h-360zM475 1687.5q0 102.5 71.5 174t174 71.5t174.5 -71.5t72 -174t-72 -174t-174.5 -71.5t-174 71.5t-71.5 174zM559 524h324l-162 426zM618 1688q0 -41 31 -72t72 -31t71.5 31t30.5 72t-30.5 71.5t-71.5 30.5 t-72 -30.5t-31 -71.5z" />
<glyph unicode="&#xc6;" horiz-adv-x="1769" d="M0 0l635 1376h1036v-295h-557v-245h459v-295h-459v-246h557v-295h-885v229h-323l-103 -229h-360zM596 524h190v426z" />
<glyph unicode="&#xc7;" horiz-adv-x="1343" d="M66 688q0 299 221 510t532 211q123 0 248 -43t211 -121l-127 -291q-127 160 -332 160q-176 0 -301 -125t-125 -301t125 -301t301 -125q203 0 332 160l127 -289q-141 -129 -363 -160l-69 -71q106 12 187 -52.5t81 -177.5q0 -127 -93 -211t-235 -84q-188 0 -262 129 l119 134q14 -41 53 -70t90 -29q80 0 124 40t44 91q0 53 -40 84t-97 31q-76 0 -112 -29l-82 111l104 104q-281 33 -471 237t-190 478z" />
<glyph unicode="&#xc8;" horiz-adv-x="1114" d="M131 0v1376h885v-295h-557v-245h459v-295h-459v-246h557v-295h-885zM279 1802h327l164 -295h-197z" />
<glyph unicode="&#xc9;" horiz-adv-x="1114" d="M131 0v1376h885v-295h-557v-245h459v-295h-459v-246h557v-295h-885zM377 1507l164 295h327l-295 -295h-196z" />
<glyph unicode="&#xca;" horiz-adv-x="1114" d="M131 0v1376h885v-295h-557v-245h459v-295h-459v-246h557v-295h-885zM197 1507l295 295h131l295 -295h-263l-98 131l-98 -131h-262z" />
<glyph unicode="&#xcb;" horiz-adv-x="1114" d="M131 0v1376h885v-295h-557v-245h459v-295h-459v-246h557v-295h-885zM197 1654.5q0 61.5 43 104.5t104.5 43t104.5 -43t43 -104.5t-43 -104.5t-104.5 -43t-104.5 43t-43 104.5zM623 1654.5q0 61.5 43 104.5t104 43t104.5 -43t43.5 -104.5t-43.5 -104.5t-104.5 -43t-104 43 t-43 104.5z" />
<glyph unicode="&#xcc;" horiz-adv-x="589" d="M-33 1802h328l164 -295h-197zM131 0v1376h328v-1376h-328z" />
<glyph unicode="&#xcd;" horiz-adv-x="589" d="M131 0v1376h328v-1376h-328zM131 1507l164 295h328l-295 -295h-197z" />
<glyph unicode="&#xce;" horiz-adv-x="589" d="M-66 1507l295 295h131l295 -295h-262l-98 131l-98 -131h-263zM131 0v1376h328v-1376h-328z" />
<glyph unicode="&#xcf;" horiz-adv-x="589" d="M-66 1654.5q0 61.5 43 104.5t104.5 43t104.5 -43t43 -104.5t-43 -104.5t-104.5 -43t-104.5 43t-43 104.5zM131 0v1376h328v-1376h-328zM360 1654.5q0 61.5 43 104.5t104.5 43t104.5 -43t43 -104.5t-43 -104.5t-104.5 -43t-104.5 43t-43 104.5z" />
<glyph unicode="&#xd0;" horiz-adv-x="1474" d="M33 590v196h131v590h522q342 0 532.5 -194.5t190.5 -493.5q0 -297 -193.5 -492.5t-529.5 -195.5h-522v590h-131zM492 295h217q147 0 259.5 116.5t112.5 276.5t-112.5 276.5t-259.5 116.5h-217v-295h131v-196h-131v-295z" />
<glyph unicode="&#xd1;" horiz-adv-x="1540" d="M131 0v1376h328l622 -852v852h328v-1376h-328l-622 852v-852h-328zM360 1561q90 176 244 176q70 0 166 -37q90 -43 148.5 -38t95.5 75l166 -54q-86 -176 -244 -176q-78 0 -166 37q-90 41 -148.5 37t-95.5 -74z" />
<glyph unicode="&#xd2;" horiz-adv-x="1605" d="M66 688q0 299 216 510t521 211t521 -211t216 -510t-216 -510t-521 -211t-521 211t-216 510zM393 688q0 -176 120 -301t290 -125t289.5 125t119.5 301t-119.5 301t-289.5 125t-290 -125t-120 -301zM459 1802h327l164 -295h-196z" />
<glyph unicode="&#xd3;" horiz-adv-x="1605" d="M66 688q0 299 216 510t521 211t521 -211t216 -510t-216 -510t-521 -211t-521 211t-216 510zM393 688q0 -176 120 -301t290 -125t289.5 125t119.5 301t-119.5 301t-289.5 125t-290 -125t-120 -301zM655 1507l164 295h328l-295 -295h-197z" />
<glyph unicode="&#xd4;" horiz-adv-x="1605" d="M66 688q0 299 216 510t521 211t521 -211t216 -510t-216 -510t-521 -211t-521 211t-216 510zM393 688q0 -176 120 -301t290 -125t289.5 125t119.5 301t-119.5 301t-289.5 125t-290 -125t-120 -301zM442 1507l295 295h131l295 -295h-262l-98 131l-98 -131h-263z" />
<glyph unicode="&#xd5;" horiz-adv-x="1605" d="M66 688q0 299 216 510t521 211t521 -211t216 -510t-216 -510t-521 -211t-521 211t-216 510zM393 688q0 -176 120 -301t290 -125t289.5 125t119.5 301t-119.5 301t-289.5 125t-290 -125t-120 -301zM393 1561q90 176 244 176q70 0 166 -37q90 -43 148.5 -38t95.5 75 l165 -54q-86 -176 -243 -176q-78 0 -166 37q-90 41 -148.5 37t-95.5 -74z" />
<glyph unicode="&#xd6;" horiz-adv-x="1605" d="M66 688q0 299 216 510t521 211t521 -211t216 -510t-216 -510t-521 -211t-521 211t-216 510zM393 688q0 -176 120 -301t290 -125t289.5 125t119.5 301t-119.5 301t-289.5 125t-290 -125t-120 -301zM442 1654.5q0 61.5 43 104.5t104.5 43t104.5 -43t43 -104.5t-43 -104.5 t-104.5 -43t-104.5 43t-43 104.5zM868 1654.5q0 61.5 43 104.5t104.5 43t104.5 -43t43 -104.5t-43 -104.5t-104.5 -43t-104.5 43t-43 104.5z" />
<glyph unicode="&#xd7;" horiz-adv-x="978" d="M98 371l252 252l-252 251l140 140l251 -252l252 252l140 -140l-252 -251l252 -252l-140 -140l-252 252l-251 -252z" />
<glyph unicode="&#xd8;" horiz-adv-x="1605" d="M66 688q0 299 216 510t521 211q231 0 424 -131l84 98h164l-152 -178q217 -211 217 -510t-216 -510t-521 -211q-231 0 -424 131l-84 -98h-164l152 178q-217 211 -217 510zM393 688q0 -156 94 -272l539 628q-98 70 -223 70q-170 0 -290 -125t-120 -301zM580 332 q98 -70 223 -70q170 0 289.5 125t119.5 301q0 156 -94 273z" />
<glyph unicode="&#xd9;" horiz-adv-x="1376" d="M98 590v786h328v-819q0 -137 69.5 -216t192.5 -79q117 0 189.5 80t72.5 215v819h328v-786q0 -279 -157.5 -451t-432.5 -172q-279 0 -434.5 172t-155.5 451zM360 1802h328l164 -295h-197z" />
<glyph unicode="&#xda;" horiz-adv-x="1376" d="M98 590v786h328v-819q0 -137 69.5 -216t192.5 -79q117 0 189.5 80t72.5 215v819h328v-786q0 -279 -157.5 -451t-432.5 -172q-279 0 -434.5 172t-155.5 451zM524 1507l164 295h328l-295 -295h-197z" />
<glyph unicode="&#xdb;" horiz-adv-x="1376" d="M98 590v786h328v-819q0 -137 69.5 -216t192.5 -79q117 0 189.5 80t72.5 215v819h328v-786q0 -279 -157.5 -451t-432.5 -172q-279 0 -434.5 172t-155.5 451zM328 1507l295 295h131l295 -295h-263l-98 131l-98 -131h-262z" />
<glyph unicode="&#xdc;" horiz-adv-x="1376" d="M98 590v786h328v-819q0 -137 69.5 -216t192.5 -79q117 0 189.5 80t72.5 215v819h328v-786q0 -279 -157.5 -451t-432.5 -172q-279 0 -434.5 172t-155.5 451zM328 1654.5q0 61.5 43 104.5t104.5 43t104.5 -43t43 -104.5t-43 -104.5t-104.5 -43t-104.5 43t-43 104.5z M754 1654.5q0 61.5 43 104.5t104.5 43t104.5 -43t43 -104.5t-43 -104.5t-104.5 -43t-104.5 43t-43 104.5z" />
<glyph unicode="&#xdd;" horiz-adv-x="1376" d="M0 1376h385l303 -524l303 524h385l-524 -819v-557h-328v557zM524 1507l164 295h328l-295 -295h-197z" />
<glyph unicode="&#xde;" horiz-adv-x="1277" d="M131 0v1442h328v-254h229q260 0 392 -125t132 -334q0 -197 -124.5 -336t-333.5 -139h-295v-254h-328zM459 549h227q84 0 141.5 46t57.5 126q0 88 -55.5 130t-143.5 42h-227v-344z" />
<glyph unicode="&#xdf;" d="M98 0h328v1016q0 70 46 117t118 47q164 0 164 -164q0 -72 -68 -118t-194 -46v-197q360 0 360 -196q0 -76 -37 -123t-90 -60.5t-106.5 -16.5t-90.5 3l-36 8v-270q74 -33 196 -33q233 0 362.5 138.5t129.5 330.5q0 115 -73 224.5t-189 125.5q63 20 113 100.5t50 162.5 q0 184 -121.5 305t-367.5 121q-39 0 -83 -5.5t-123 -32t-138.5 -73.5t-104.5 -141.5t-45 -223.5v-999z" />
<glyph unicode="&#xe0;" horiz-adv-x="1310" d="M66 508q0 225 143 383t348 158q170 0 295 -119v86h328v-1016h-328v86q-125 -119 -295 -119q-205 0 -348 158t-143 383zM393 508q0 -102 67.5 -174t162 -72t162 72t67.5 174t-67.5 174t-162 72t-162 -72t-67.5 -174zM459 1442h327l164 -295h-196z" />
<glyph unicode="&#xe1;" horiz-adv-x="1310" d="M66 508q0 225 143 383t348 158q170 0 295 -119v86h328v-1016h-328v86q-125 -119 -295 -119q-205 0 -348 158t-143 383zM393 508q0 -102 67.5 -174t162 -72t162 72t67.5 174t-67.5 174t-162 72t-162 -72t-67.5 -174zM557 1147l164 295h328l-295 -295h-197z" />
<glyph unicode="&#xe2;" horiz-adv-x="1310" d="M66 508q0 225 143 383t348 158q170 0 295 -119v86h328v-1016h-328v86q-125 -119 -295 -119q-205 0 -348 158t-143 383zM328 1147l295 295h131l295 -295h-263l-98 131l-98 -131h-262zM393 508q0 -102 67.5 -174t162 -72t162 72t67.5 174t-67.5 174t-162 72t-162 -72 t-67.5 -174z" />
<glyph unicode="&#xe3;" horiz-adv-x="1310" d="M66 508q0 225 143 383t348 158q170 0 295 -119v86h328v-1016h-328v86q-125 -119 -295 -119q-205 0 -348 158t-143 383zM279 1200q90 176 243 176q70 0 166 -37q90 -43 148.5 -38t95.5 75l166 -53q-86 -176 -244 -176q-78 0 -166 37q-90 41 -148.5 37t-95.5 -74zM393 508 q0 -102 67.5 -174t162 -72t162 72t67.5 174t-67.5 174t-162 72t-162 -72t-67.5 -174z" />
<glyph unicode="&#xe4;" horiz-adv-x="1310" d="M66 508q0 225 143 383t348 158q170 0 295 -119v86h328v-1016h-328v86q-125 -119 -295 -119q-205 0 -348 158t-143 383zM328 1294.5q0 61.5 43 104.5t104.5 43t104.5 -43t43 -104.5t-43 -104.5t-104.5 -43t-104.5 43t-43 104.5zM393 508q0 -102 67.5 -174t162 -72t162 72 t67.5 174t-67.5 174t-162 72t-162 -72t-67.5 -174zM754 1294.5q0 61.5 43 104.5t104.5 43t104.5 -43t43 -104.5t-43 -104.5t-104.5 -43t-104.5 43t-43 104.5z" />
<glyph unicode="&#xe5;" horiz-adv-x="1310" d="M66 508q0 225 143 383t348 158q170 0 295 -119v86h328v-1016h-328v86q-125 -119 -295 -119q-205 0 -348 158t-143 383zM393 508q0 -102 67.5 -174t162 -72t162 72t67.5 174t-67.5 174t-162 72t-162 -72t-67.5 -174zM459 1327.5q0 102.5 71.5 174t174 71.5t174 -71.5 t71.5 -174t-71.5 -174.5t-174 -72t-174 72t-71.5 174.5zM602 1327q0 -41 31 -71.5t71.5 -30.5t71.5 30.5t31 71.5t-31 72t-71.5 31t-71.5 -31t-31 -72z" />
<glyph unicode="&#xe6;" horiz-adv-x="1835" d="M66 311q0 199 188 289q182 88 500 23q0 170 -262 143q-63 -6 -129 -25.5t-101 -35.5l-33 -17l-98 230q23 14 62.5 35.5t159.5 58.5t237 37q231 0 350 -91q123 90 322 91q242 0 374.5 -142.5t132.5 -398.5q0 -29 -4 -82h-700q20 -74 86 -119t166 -45q145 0 297 62l90 -261 q-16 -10 -47 -26.5t-133.5 -43t-214.5 -26.5q-96 0 -234 33h-321v68q-106 -100 -295 -101q-174 0 -283.5 97.5t-109.5 246.5zM393 328q0 -59 51.5 -95t128.5 -36q72 0 126.5 37t54.5 94v131h-90q-135 0 -203 -37t-68 -94zM1065 623h360q0 61 -47 112t-133 51q-74 0 -127 -53 t-53 -110z" />
<glyph unicode="&#xe7;" horiz-adv-x="1081" d="M66 508q0 231 153.5 386t411.5 155q248 0 385 -125l-119 -265q-109 94 -246 95q-106 0 -182 -72t-76 -174t75 -174t183 -72q137 0 246 92l119 -262q-94 -90 -279 -117l-71 -73q106 12 187 -52.5t81 -177.5q0 -127 -93 -211t-235 -84q-188 0 -262 129l119 134 q14 -41 53 -70t90 -29q80 0 124 40t44 91q0 53 -40 84t-97 31q-76 0 -113 -29l-82 111l103 102q-223 27 -351 176.5t-128 360.5z" />
<glyph unicode="&#xe8;" horiz-adv-x="1179" d="M66 508q0 236 140 388.5t400 152.5q242 0 375 -142.5t133 -398.5q0 -29 -4 -82h-700q20 -74 85.5 -119t166.5 -45q145 0 296 62l91 -261q-16 -10 -47 -26.5t-133.5 -43t-215.5 -26.5q-293 0 -440 151.5t-147 389.5zM295 1442h328l163 -295h-196zM410 623h360 q0 59 -48 111t-132 52q-74 0 -127 -53t-53 -110z" />
<glyph unicode="&#xe9;" horiz-adv-x="1179" d="M66 508q0 236 140 388.5t400 152.5q242 0 375 -142.5t133 -398.5q0 -29 -4 -82h-700q20 -74 85.5 -119t166.5 -45q145 0 296 62l91 -261q-16 -10 -47 -26.5t-133.5 -43t-215.5 -26.5q-293 0 -440 151.5t-147 389.5zM410 623h360q0 59 -48 111t-132 52q-74 0 -127 -53 t-53 -110zM459 1147l164 295h327l-295 -295h-196z" />
<glyph unicode="&#xea;" horiz-adv-x="1179" d="M66 508q0 236 140 388.5t400 152.5q242 0 375 -142.5t133 -398.5q0 -29 -4 -82h-700q20 -74 85.5 -119t166.5 -45q145 0 296 62l91 -261q-16 -10 -47 -26.5t-133.5 -43t-215.5 -26.5q-293 0 -440 151.5t-147 389.5zM229 1147l295 295h131l295 -295h-262l-98 131l-98 -131 h-263zM410 623h360q0 59 -48 111t-132 52q-74 0 -127 -53t-53 -110z" />
<glyph unicode="&#xeb;" horiz-adv-x="1179" d="M66 508q0 236 140 388.5t400 152.5q242 0 375 -142.5t133 -398.5q0 -29 -4 -82h-700q20 -74 85.5 -119t166.5 -45q145 0 296 62l91 -261q-16 -10 -47 -26.5t-133.5 -43t-215.5 -26.5q-293 0 -440 151.5t-147 389.5zM227 1294.5q0 61.5 43 104.5t104.5 43t104.5 -43 t43 -104.5t-43 -104.5t-104.5 -43t-104.5 43t-43 104.5zM410 623h360q0 59 -48 111t-132 52q-74 0 -127 -53t-53 -110zM653 1294.5q0 61.5 43 104.5t104.5 43t104.5 -43t43 -104.5t-43 -104.5t-104.5 -43t-104.5 43t-43 104.5z" />
<glyph unicode="&#xec;" horiz-adv-x="589" d="M-33 1442h328l164 -295h-197zM131 0v1016h328v-1016h-328z" />
<glyph unicode="&#xed;" horiz-adv-x="589" d="M131 0v1016h328v-1016h-328zM131 1147l164 295h328l-295 -295h-197z" />
<glyph unicode="&#xee;" horiz-adv-x="589" d="M-66 1147l295 295h131l295 -295h-262l-98 131l-98 -131h-263zM131 0v1016h328v-1016h-328z" />
<glyph unicode="&#xef;" horiz-adv-x="589" d="M-66 1294.5q0 61.5 43 104.5t104.5 43t104.5 -43t43 -104.5t-43 -104.5t-104.5 -43t-104.5 43t-43 104.5zM131 0v1016h328v-1016h-328zM360 1294.5q0 61.5 43 104.5t104.5 43t104.5 -43t43 -104.5t-43 -104.5t-104.5 -43t-104.5 43t-43 104.5z" />
<glyph unicode="&#xf0;" d="M66 508q0 207 121.5 354.5t332.5 177.5q-78 63 -133 95l-289 -103v162l148 55l-148 109l230 117l172 -136l352 121v-164l-197 -67q320 -217 424 -385q100 -160 101 -336q0 -229 -156 -385t-401 -156q-254 0 -405.5 154.5t-151.5 386.5zM393 508q0 -102 67.5 -174t162 -72 t162 72t67.5 174t-67.5 174t-162 72t-162 -72t-67.5 -174z" />
<glyph unicode="&#xf1;" d="M131 0v1016h328v-98q111 131 295 131q166 0 279.5 -120t113.5 -339v-590h-328v557q0 197 -164 197q-70 0 -133 -53.5t-63 -176.5v-524h-328zM213 1200q90 176 244 176q70 0 166 -37q90 -43 148 -38t95 75l166 -53q-86 -176 -244 -176q-78 0 -165 37q-90 41 -148.5 37 t-95.5 -74z" />
<glyph unicode="&#xf2;" d="M66 507.5q0 231.5 150.5 386.5t406.5 155q242 0 399.5 -157t157.5 -384q0 -229 -156 -385t-401 -156q-254 0 -405.5 154.5t-151.5 386zM279 1442h327l164 -295h-197zM393 508q0 -102 67.5 -174t162 -72t162 72t67.5 174t-67.5 174t-162 72t-162 -72t-67.5 -174z" />
<glyph unicode="&#xf3;" d="M66 507.5q0 231.5 150.5 386.5t406.5 155q242 0 399.5 -157t157.5 -384q0 -229 -156 -385t-401 -156q-254 0 -405.5 154.5t-151.5 386zM393 508q0 -102 67.5 -174t162 -72t162 72t67.5 174t-67.5 174t-162 72t-162 -72t-67.5 -174zM475 1147l164 295h328l-295 -295h-197z " />
<glyph unicode="&#xf4;" d="M66 507.5q0 231.5 150.5 386.5t406.5 155q242 0 399.5 -157t157.5 -384q0 -229 -156 -385t-401 -156q-254 0 -405.5 154.5t-151.5 386zM262 1147l295 295h131l295 -295h-262l-98 131l-99 -131h-262zM393 508q0 -102 67.5 -174t162 -72t162 72t67.5 174t-67.5 174t-162 72 t-162 -72t-67.5 -174z" />
<glyph unicode="&#xf5;" d="M66 507.5q0 231.5 150.5 386.5t406.5 155q242 0 399.5 -157t157.5 -384q0 -229 -156 -385t-401 -156q-254 0 -405.5 154.5t-151.5 386zM213 1200q90 176 244 176q70 0 166 -37q90 -43 148 -38t95 75l166 -53q-86 -176 -244 -176q-78 0 -165 37q-90 41 -148.5 37 t-95.5 -74zM393 508q0 -102 67.5 -174t162 -72t162 72t67.5 174t-67.5 174t-162 72t-162 -72t-67.5 -174z" />
<glyph unicode="&#xf6;" d="M66 507.5q0 231.5 150.5 386.5t406.5 155q242 0 399.5 -157t157.5 -384q0 -229 -156 -385t-401 -156q-254 0 -405.5 154.5t-151.5 386zM262 1294.5q0 61.5 43 104.5t104.5 43t104.5 -43t43 -104.5t-43 -104.5t-104.5 -43t-104.5 43t-43 104.5zM393 508q0 -102 67.5 -174 t162 -72t162 72t67.5 174t-67.5 174t-162 72t-162 -72t-67.5 -174zM688 1294.5q0 61.5 43 104.5t104.5 43t104.5 -43t43 -104.5t-43 -104.5t-104.5 -43t-104.5 43t-43 104.5z" />
<glyph unicode="&#xf7;" horiz-adv-x="1048" d="M98 524v197h852v-197h-852zM344 213q0 76 52.5 128t128 52t128 -52t52.5 -128t-52.5 -128t-128 -52t-128 52t-52.5 128zM344 1032q0 76 52.5 128t128 52t128 -52t52.5 -128t-52.5 -128t-128 -52t-128 52t-52.5 128z" />
<glyph unicode="&#xf8;" d="M66 508q0 231 150.5 386t406.5 155q176 0 313 -88l49 55h164l-117 -133q147 -154 148 -375q0 -229 -156 -385t-401 -156q-182 0 -318 84l-45 -51h-164l115 129q-145 152 -145 379zM393 508q0 -72 35 -129l303 346q-51 29 -108 29q-94 0 -162 -72t-68 -174zM514 291 q52 -29 109 -29q94 0 161.5 72t67.5 174q0 72 -35 129z" />
<glyph unicode="&#xf9;" d="M98 426v590h328v-557q0 -197 164 -197q70 0 133 53.5t63 176.5v524h328v-1016h-328v98q-110 -131 -294 -131q-166 0 -280 120t-114 339zM262 1442h328l164 -295h-197z" />
<glyph unicode="&#xfa;" d="M98 426v590h328v-557q0 -197 164 -197q70 0 133 53.5t63 176.5v524h328v-1016h-328v98q-110 -131 -294 -131q-166 0 -280 120t-114 339zM459 1147l164 295h327l-295 -295h-196z" />
<glyph unicode="&#xfb;" d="M98 426v590h328v-557q0 -197 164 -197q70 0 133 53.5t63 176.5v524h328v-1016h-328v98q-110 -131 -294 -131q-166 0 -280 120t-114 339zM246 1147l295 295h131l295 -295h-262l-99 131l-98 -131h-262z" />
<glyph unicode="&#xfc;" d="M98 426v590h328v-557q0 -197 164 -197q70 0 133 53.5t63 176.5v524h328v-1016h-328v98q-110 -131 -294 -131q-166 0 -280 120t-114 339zM262 1294.5q0 61.5 43 104.5t104.5 43t104.5 -43t43 -104.5t-43 -104.5t-104.5 -43t-104.5 43t-43 104.5zM688 1294.5 q0 61.5 43 104.5t104.5 43t104.5 -43t43 -104.5t-43 -104.5t-104.5 -43t-104.5 43t-43 104.5z" />
<glyph unicode="&#xfd;" horiz-adv-x="1114" d="M0 1016h360l197 -557l197 557h360l-622 -1540h-361l264 598zM393 1147l164 295h328l-295 -295h-197z" />
<glyph unicode="&#xfe;" horiz-adv-x="1310" d="M131 -524v1966h328v-512q125 119 295 119q205 0 348 -158t143 -383t-143.5 -383t-347.5 -158q-170 0 -295 119v-610h-328zM459 508q0 -102 67.5 -174t161.5 -72t162 72t68 174t-68 174t-162 72t-161.5 -72t-67.5 -174z" />
<glyph unicode="&#xff;" horiz-adv-x="1114" d="M0 1016h360l197 -557l197 557h360l-622 -1540h-361l264 598zM197 1294.5q0 61.5 43 104.5t104.5 43t104.5 -43t43 -104.5t-43 -104.5t-104.5 -43t-104.5 43t-43 104.5zM623 1294.5q0 61.5 43 104.5t104 43t104.5 -43t43.5 -104.5t-43.5 -104.5t-104.5 -43t-104 43 t-43 104.5z" />
<glyph unicode="&#x152;" horiz-adv-x="2260" d="M66 688q0 299 216 510t521 211q268 0 475 -170v137h885v-295h-557v-245h458v-295h-458v-246h557v-295h-885v137q-207 -170 -475 -170q-305 0 -521 211t-216 510zM393 688q0 -176 120 -301t290 -125t289.5 125t119.5 301t-119.5 301t-289.5 125t-290 -125t-120 -301z" />
<glyph unicode="&#x153;" horiz-adv-x="1966" d="M66 507.5q0 231.5 150.5 386.5t406.5 155q223 0 383 -140q143 139 387 140q242 0 375 -142.5t133 -398.5q0 -29 -5 -82h-700q20 -74 86 -119t166 -45q145 0 297 62l90 -261q-16 -10 -47 -26.5t-133.5 -43t-214.5 -26.5q-272 0 -430 144q-154 -143 -387 -144 q-254 0 -405.5 154.5t-151.5 386zM393 508q0 -102 67.5 -174t162 -72t162 72t67.5 174t-67.5 174t-162 72t-162 -72t-67.5 -174zM1196 623h360q0 61 -47 112t-133 51q-74 0 -127 -53t-53 -110z" />
<glyph unicode="&#x178;" horiz-adv-x="1376" d="M0 1376h385l303 -524l303 524h385l-524 -819v-557h-328v557zM328 1654.5q0 61.5 43 104.5t104.5 43t104.5 -43t43 -104.5t-43 -104.5t-104.5 -43t-104.5 43t-43 104.5zM754 1654.5q0 61.5 43 104.5t104.5 43t104.5 -43t43 -104.5t-43 -104.5t-104.5 -43t-104.5 43 t-43 104.5z" />
<glyph unicode="&#x2c6;" horiz-adv-x="1638" d="M459 1507l295 295h131l295 -295h-262l-99 131l-98 -131h-262z" />
<glyph unicode="&#x2dc;" horiz-adv-x="1638" d="M410 1561q90 176 243 176q70 0 166 -37q90 -43 148.5 -38t95.5 75l166 -54q-86 -176 -244 -176q-78 0 -166 37q-90 41 -148.5 37t-95.5 -74z" />
<glyph unicode="&#x2000;" horiz-adv-x="966" />
<glyph unicode="&#x2001;" horiz-adv-x="1933" />
<glyph unicode="&#x2002;" horiz-adv-x="966" />
<glyph unicode="&#x2003;" horiz-adv-x="1933" />
<glyph unicode="&#x2004;" horiz-adv-x="644" />
<glyph unicode="&#x2005;" horiz-adv-x="483" />
<glyph unicode="&#x2006;" horiz-adv-x="322" />
<glyph unicode="&#x2007;" horiz-adv-x="322" />
<glyph unicode="&#x2008;" horiz-adv-x="241" />
<glyph unicode="&#x2009;" horiz-adv-x="386" />
<glyph unicode="&#x200a;" horiz-adv-x="107" />
<glyph unicode="&#x2010;" horiz-adv-x="819" d="M98 426v229h623v-229h-623z" />
<glyph unicode="&#x2011;" horiz-adv-x="819" d="M98 426v229h623v-229h-623z" />
<glyph unicode="&#x2012;" horiz-adv-x="819" d="M98 426v229h623v-229h-623z" />
<glyph unicode="&#x2013;" horiz-adv-x="1081" d="M98 426v229h885v-229h-885z" />
<glyph unicode="&#x2014;" horiz-adv-x="1277" d="M98 426v229h1082v-229h-1082z" />
<glyph unicode="&#x2018;" horiz-adv-x="557" d="M66 918l229 458h197l-99 -458h-327z" />
<glyph unicode="&#x2019;" horiz-adv-x="557" d="M66 918l98 458h328l-230 -458h-196z" />
<glyph unicode="&#x201a;" horiz-adv-x="557" d="M66 -197l98 459h328l-230 -459h-196z" />
<glyph unicode="&#x201c;" horiz-adv-x="1048" d="M66 918l229 458h197l-99 -458h-327zM557 918l229 458h197l-98 -458h-328z" />
<glyph unicode="&#x201d;" horiz-adv-x="1048" d="M66 918l98 458h328l-230 -458h-196zM557 918l98 458h328l-229 -458h-197z" />
<glyph unicode="&#x201e;" horiz-adv-x="1048" d="M66 -197l98 459h328l-230 -459h-196zM557 -197l98 459h328l-229 -459h-197z" />
<glyph unicode="&#x2022;" horiz-adv-x="1638" d="M557 688.5q0 110.5 76 186t186.5 75.5t186 -75.5t75.5 -186t-75.5 -186.5t-186 -76t-186.5 76t-76 186.5z" />
<glyph unicode="&#x2026;" horiz-adv-x="1671" d="M98 147.5q0 75.5 52.5 128t128 52.5t128 -52.5t52.5 -128t-52.5 -128t-128 -52.5t-128 52.5t-52.5 128zM655 147.5q0 75.5 52.5 128t128 52.5t128 -52.5t52.5 -128t-52.5 -128t-128 -52.5t-128 52.5t-52.5 128zM1212 147.5q0 75.5 52.5 128t128 52.5t128 -52.5t52.5 -128 t-52.5 -128t-128 -52.5t-128 52.5t-52.5 128z" />
<glyph unicode="&#x202f;" horiz-adv-x="386" />
<glyph unicode="&#x2039;" horiz-adv-x="851" d="M98 557l328 459h262l-328 -459l328 -459h-262z" />
<glyph unicode="&#x203a;" horiz-adv-x="851" d="M164 98l328 459l-328 459h262l328 -459l-328 -459h-262z" />
<glyph unicode="&#x205f;" horiz-adv-x="483" />
<glyph unicode="&#x20ac;" horiz-adv-x="1474" d="M66 524v99h135q-4 45 -4 65.5t4 65.5h-135v98h151q59 242 264 399.5t469 157.5q123 0 248 -43t211 -121l-127 -291q-127 160 -332 160q-131 0 -237.5 -72.5t-155.5 -189.5h393l-30 -98h-392q-4 -41 -4 -65.5t4 -65.5h359l-29 -99h-301q49 -117 155.5 -189.5t237.5 -72.5 q203 0 332 160l127 -289q-86 -78 -212 -122t-247 -44q-264 0 -469 158t-264 399h-151z" />
<glyph unicode="&#x2122;" horiz-adv-x="1441" d="M98 1245v131h467v-131h-159v-483h-148v483h-160zM610 762l74 614h147l146 -366l145 366h148l73 -614h-147l-43 350l-133 -350h-86l-133 350l-43 -350h-148z" />
<glyph unicode="&#x25fc;" horiz-adv-x="1013" d="M0 0v1014h1014v-1014h-1014z" />
</font>
</defs>
</svg>
