<?xml version="1.0" standalone="no"?>
<!DOCTYPE svg PUBLIC "-//W3C//DTD SVG 1.1//EN" "http://www.w3.org/Graphics/SVG/1.1/DTD/svg11.dtd" >
<svg xmlns="http://www.w3.org/2000/svg" xmlns:xlink="http://www.w3.org/1999/xlink" version="1.1">
<metadata></metadata>
<defs>
<font id="playfair_displaybold" horiz-adv-x="1624" >
<font-face units-per-em="2048" ascent="1638" descent="-410" />
<missing-glyph horiz-adv-x="477" />
<glyph unicode="&#xfb01;" horiz-adv-x="1333" d="M35 1016v41h151q0 251 162 407q71 66 182.5 102t239.5 36q119 0 194 -19t134 -55q36 -23 60 -60t24 -79q0 -74 -50 -116t-143 -42q-90 0 -141 42t-51 113q0 54 35 93.5t100 58.5q-20 12 -56.5 19.5t-76.5 7.5q-178 0 -262 -152q-30 -54 -43 -132.5t-13 -223.5h244 q166 0 259 5t179 19v-891q0 -57 14 -89t45 -45t85 -13v-43q-224 8 -285 8t-285 -8v43q50 0 78 13t40.5 45t12.5 89v646q0 95 -32 137.5t-111 42.5h-244v-826q0 -83 41 -115t123 -32v-43q-252 8 -305 8q-69 0 -297 -8v43q54 0 84.5 13t44.5 45t14 89v826h-151z" />
<glyph unicode="&#xfb02;" horiz-adv-x="1339" d="M35 1016v41h151q0 156 35 261t113 173q67 57 155.5 84t182.5 27q42 0 134.5 -8.5t147.5 -8.5q101 0 209 21v-1416q0 -57 14 -89t45 -45t85 -13v-43q-224 8 -285 8t-285 -8v43q50 0 78 13t40.5 45t12.5 89v1194q0 95 -39 134q-21 22 -54.5 34.5t-69.5 12.5 q-55 0 -92.5 -17.5t-67.5 -52.5q-41 -44 -52.5 -114t-11.5 -212v-112h215v-41h-215v-826q0 -83 41 -115t123 -32v-43q-252 8 -305 8q-69 0 -297 -8v43q54 0 84.5 13t44.5 45t14 89v826h-151z" />
<glyph horiz-adv-x="0" />
<glyph horiz-adv-x="682" />
<glyph unicode="&#xd;" horiz-adv-x="682" />
<glyph unicode=" "  horiz-adv-x="477" />
<glyph unicode="&#x09;" horiz-adv-x="477" />
<glyph unicode="&#xa0;" horiz-adv-x="477" />
<glyph unicode="!" horiz-adv-x="590" d="M121 129q0 73 47 115.5t127 42.5q81 0 128 -42.5t47 -115.5t-47 -115.5t-128 -42.5q-80 0 -127 42.5t-47 115.5zM127 1401q0 62 21.5 107.5t60 69.5t86.5 24q45 0 83.5 -24t61.5 -70t23 -107q0 -107 -45.5 -321.5t-72 -360.5t-32.5 -318h-37q-4 147 -26.5 285t-72.5 373 t-50 342z" />
<glyph unicode="&#x22;" horiz-adv-x="756" d="M86 1358q0 62 36.5 99.5t92.5 37.5t92.5 -36.5t36.5 -98.5q0 -50 -11.5 -93t-46 -134.5t-57.5 -174.5h-28q-21 74 -54.5 163t-47 135t-13.5 102zM415 1358q0 62 36.5 99.5t92.5 37.5t92.5 -36.5t36.5 -98.5q0 -50 -11.5 -93t-46 -134.5t-57.5 -174.5h-28 q-21 74 -54.5 163t-47 135t-13.5 102z" />
<glyph unicode="#" horiz-adv-x="1270" d="M82 506l8 41h302l66 342h-300l6 41h302l58 303h41l-58 -303h342l58 303h41l-58 -303h300l-6 -41h-302l-66 -342h300l-8 -41h-300l-58 -299h-41l58 299h-342l-58 -299h-41l58 299h-302zM433 547h342l66 342h-342z" />
<glyph unicode="$" horiz-adv-x="1176" d="M102 -14q9 123 9 553h47q12 -165 48.5 -272t103.5 -166.5t173 -76.5v603l-6 4q-120 76 -194.5 137.5t-122 144t-47.5 189.5q0 109 49 187.5t132.5 123.5t188.5 59v248h41v-245q23 2 47 2q60 0 111 -8v251h41v-259q71 -17 147 -64q50 -29 70 -29q19 0 29 21.5t16 68.5h47 q-10 -137 -10 -467h-47q-22 171 -80.5 279t-171.5 145v-563l33 -21q115 -73 187 -134.5t115.5 -141t43.5 -184.5q0 -110 -49 -191.5t-134 -131t-196 -67.5v-251h-41v246q-43 -5 -88 -5q-36 0 -70 3v-244h-41v249q-64 9 -105 24t-97 42q-64 31 -86 31q-19 0 -29 -21.5 t-16 -68.5h-48zM358 1239q0 -61 26.5 -108.5t98.5 -108.5v391q-61 -22 -93 -67.5t-32 -106.5zM524 19q29 -3 62 -3q53 0 96 8v462q-60 46 -158 113v-580zM524 990q59 -45 158 -111v546q-37 7 -78 7q-43 0 -80 -8v-434zM723 35q139 46 139 192q0 41 -11.5 74.5t-41.5 69.5 t-86 83v-419z" />
<glyph unicode="%" horiz-adv-x="1491" d="M68 1214q0 101 43.5 179.5t119.5 122t170 43.5q99 0 174 -40t116.5 -115t41.5 -179q0 -102 -43 -180t-118.5 -121t-170.5 -43q-98 0 -173.5 39.5t-117.5 115t-42 178.5zM136 -86l1198 1774l39 -27l-1198 -1774zM264 1217q0 -147 37 -223t105 -76q131 0 131 303 q0 148 -36.5 224.5t-103.5 76.5q-133 0 -133 -305zM756 305q0 101 43.5 179t119.5 121.5t171 43.5q98 0 173 -40t116.5 -115t41.5 -179q0 -101 -43 -179.5t-118.5 -121.5t-169.5 -43q-99 0 -174.5 40t-117.5 115t-42 179zM952 307q0 -146 37.5 -222.5t104.5 -76.5 q131 0 131 303q0 149 -36 225t-104 76q-133 0 -133 -305z" />
<glyph unicode="&#x26;" horiz-adv-x="1839" d="M84 481q0 139 73.5 234t167 144.5t175.5 70.5q-232 92 -232 258q0 84 57.5 144.5t151 91t199.5 30.5q76 0 125 -10.5t88 -32.5q125 -62 125 -166q0 -40 -21.5 -70.5t-58 -47.5t-78.5 -17q-65 0 -107 32.5t-42 94.5q0 52 36.5 93.5t94.5 51.5q-18 16 -55 26.5t-81 10.5 q-72 0 -130 -30t-92 -90.5t-34 -147.5q0 -118 80 -209q75 16 115 16q36 0 56 -15t20 -40q0 -19 -16.5 -31t-41.5 -12q-27 0 -56 12.5t-49.5 25t-25.5 15.5q-104 -53 -160.5 -131.5t-56.5 -199.5q0 -198 158.5 -298t439.5 -100q142 0 272 41.5t211 122.5t81 193 q0 186 -156 261q-59 -18 -136.5 -39.5t-109.5 -31.5q-114 -25 -185.5 -51.5t-109 -62t-37.5 -85.5q0 -49 32.5 -86.5t84 -58t105.5 -20.5q21 0 47 6t34 14q-50 17 -76 52t-26 83q0 63 46 99t118 36q73 0 115.5 -38t42.5 -101q0 -92 -82 -139t-209 -47q-85 0 -154 29t-110 88 t-41 145q0 153 117 243t341 134q38 10 137 34t169 48q158 39 233.5 85t75.5 117q0 53 -33.5 96t-87 67t-111.5 24q-39 0 -59 -10q47 -18 73.5 -54t26.5 -75q0 -61 -46 -96.5t-118 -35.5q-71 0 -115 36.5t-44 99.5q0 80 69.5 126t186.5 46q96 0 169.5 -34.5t114.5 -100 t41 -154.5q0 -151 -105.5 -236.5t-309.5 -128.5l-38 -13q92 -40 141.5 -130.5t49.5 -208.5q0 -143 -88.5 -257.5t-249 -179.5t-368.5 -65q-225 0 -396 62t-264.5 177.5t-93.5 270.5z" />
<glyph unicode="'" horiz-adv-x="428" d="M86 1358q0 62 36.5 99.5t92.5 37.5t92.5 -36.5t36.5 -98.5q0 -50 -11.5 -93t-46 -134.5t-57.5 -174.5h-28q-21 74 -54.5 163t-47 135t-13.5 102z" />
<glyph unicode="(" horiz-adv-x="651" d="M71 639q0 -328 130.5 -577.5t381.5 -434.5l31 25q-137 217 -198.5 452t-61.5 535q0 299 62 536.5t198 450.5l-31 25q-251 -185 -381.5 -434.5t-130.5 -577.5z" />
<glyph unicode=")" horiz-adv-x="651" d="M37 -348q137 217 198.5 452t61.5 535q0 299 -62 536.5t-198 450.5l31 25q251 -185 381.5 -434.5t130.5 -577.5t-130.5 -577.5t-381.5 -434.5z" />
<glyph unicode="*" horiz-adv-x="985" d="M104 896q0 53 62 89q31 18 71.5 28t119.5 23t126 23q-46 10 -126.5 24t-121.5 24.5t-71 27.5q-60 35 -60 89q0 27 15 52q29 51 80 51q31 0 65 -20q31 -18 60.5 -48.5t80 -91t80.5 -94.5q-13 41 -41 116.5t-39.5 117t-11.5 75.5q0 57 29.5 84t71.5 27q41 0 69.5 -27 t28.5 -84q0 -35 -11.5 -75t-38.5 -114t-42 -119q30 33 81.5 95t81 92.5t58.5 47.5q33 19 65 19q52 0 80 -50q17 -27 17 -53q0 -54 -62 -88q-30 -17 -69.5 -27t-117.5 -23.5t-125 -24.5q44 -9 123 -23t119.5 -24.5t69.5 -27.5q62 -34 62 -88q0 -26 -17 -53q-27 -51 -78 -51 q-31 0 -65 20q-31 18 -60 48t-79.5 90t-81.5 94q14 -41 41.5 -116.5t39 -116.5t11.5 -75q0 -57 -29 -83.5t-71 -26.5t-70.5 26.5t-28.5 83.5q0 38 12.5 81t37 108t43.5 121q-30 -34 -82 -96t-81.5 -92.5t-58.5 -47.5q-33 -19 -64 -19q-53 0 -83 50q-15 27 -15 52z" />
<glyph unicode="+" horiz-adv-x="1176" d="M74 696v62h477v483h74v-483h475v-62h-475v-481h-74v481h-477z" />
<glyph unicode="," horiz-adv-x="555" d="M100 129q0 70 47.5 114t120.5 44q100 0 146 -72q21 -31 33 -76.5t12 -93.5q0 -105 -54 -192t-161 -136l-19 37q59 25 103 76t53 104q5 28 5 48q0 23 -5 38q-47 -49 -119 -49t-117 42t-45 116z" />
<glyph unicode="-" horiz-adv-x="985" d="M123 469v170h739v-170h-739z" />
<glyph unicode="." horiz-adv-x="553" d="M102 129q0 73 47 115.5t127 42.5q81 0 128 -42.5t47 -115.5t-47 -115.5t-128 -42.5q-80 0 -127 42.5t-47 115.5z" />
<glyph unicode="/" horiz-adv-x="754" d="M66 -29l557 1508h67l-557 -1508h-67z" />
<glyph unicode="0" horiz-adv-x="1321" d="M92 514q0 162 72.5 292.5t204.5 205.5t303 75q161 0 288 -67.5t198 -190t71 -282.5q0 -163 -73 -294.5t-205 -206.5t-302 -75q-160 0 -286.5 67t-198.5 190.5t-72 285.5zM401 520q0 -176 35.5 -291t95.5 -168t136 -53q73 0 130 64t89.5 185t32.5 284q0 175 -35.5 289.5 t-95.5 167.5t-136 53q-74 0 -131 -63.5t-89 -183.5t-32 -284z" />
<glyph unicode="1" horiz-adv-x="784" d="M82 932v45q178 3 293 26.5t203 77.5v-882q0 -61 14.5 -94.5t46 -47.5t86.5 -14v-43q-220 8 -283 8q-64 0 -352 -8v43q97 0 145 36.5t48 131.5v500q0 99 -17.5 145t-58.5 61t-125 15z" />
<glyph unicode="2" horiz-adv-x="1071" d="M84 831q150 256 479 256q105 0 182 -30.5t118.5 -89t41.5 -140.5q0 -119 -87 -210t-248 -204t-214 -169h443q56 0 83 8.5t38 27t16 56.5h43q0 -242 8 -346q-46 10 -305 10h-596v39q29 30 176 164t234.5 272.5t87.5 284.5q0 209 -191 209q-86 0 -152.5 -39.5 t-121.5 -118.5z" />
<glyph unicode="3" horiz-adv-x="999" d="M59 -268q135 4 265 60t214.5 161t84.5 248q0 79 -26 142t-74.5 100t-114.5 42q-73 -32 -105 -32q-39 0 -39 28q0 22 19 33.5t47 11.5q12 0 33.5 -3.5t37.5 -4.5q158 111 158 275q0 91 -47.5 135.5t-134.5 44.5q-82 0 -151 -40.5t-115 -119.5l-37 18q63 117 164.5 186.5 t265.5 69.5q101 0 180.5 -28.5t124.5 -81.5t45 -125q0 -77 -50.5 -145t-145 -118.5t-220.5 -74.5l35 1q132 0 235 -36.5t161.5 -106.5t58.5 -169q0 -151 -129 -267.5t-330.5 -180.5t-409.5 -64v41z" />
<glyph unicode="4" horiz-adv-x="1081" d="M16 74v43l764 970h33v-802h16q56 0 83.5 8.5t38 26.5t16.5 57h43q0 -218 8 -314q-31 7 -205 10v-362h-238v363h-559zM205 285h370v476z" />
<glyph unicode="5" horiz-adv-x="940" d="M61 -266q130 1 246 56.5t188 160.5t72 248q0 128 -60.5 197t-174.5 69q-56 0 -98 -14.5t-87 -44.5l-28 18l65 641q41 -8 111 -8h338q59 0 82.5 17t29.5 63h43q0 -228 9 -344q-44 10 -285 10h-315l-33 -350q118 82 309 82q133 0 222.5 -42.5t133 -115.5t43.5 -166 q0 -152 -118.5 -269t-306.5 -181t-386 -64v37z" />
<glyph unicode="6" horiz-adv-x="1149" d="M96 555q0 285 128.5 483.5t315 305t373.5 137.5l9 -41q-132 -42 -230.5 -107.5t-173.5 -202t-101 -364.5q42 70 114 102.5t155 32.5q110 0 201.5 -53.5t145.5 -154t54 -234.5q0 -152 -68.5 -262.5t-185 -168t-255.5 -57.5q-149 0 -257.5 69t-166.5 200t-58 315zM406 543 q0 -192 28 -310.5t71 -169.5t93 -51t90.5 44.5t65 140.5t24.5 243q0 209 -48 305.5t-126 96.5q-52 0 -107.5 -38t-85.5 -115q-5 -70 -5 -146z" />
<glyph unicode="7" horiz-adv-x="932" d="M47 1067q46 -10 305 -10h578v-43q-27 -61 -133.5 -254.5t-167 -371.5t-60.5 -376q0 -12 5.5 -78.5t5.5 -87.5q0 -62 -39.5 -105.5t-110.5 -43.5q-74 0 -111.5 49t-37.5 131q0 182 100 359t232.5 350.5t167.5 222.5h-545q-56 0 -83.5 -8.5t-38 -27t-16.5 -56.5h-43 q0 246 -8 350z" />
<glyph unicode="8" horiz-adv-x="1149" d="M88 322q0 251 333 397q-83 71 -139 132.5t-91 135t-35 158.5q0 106 59 181.5t158 114t217 38.5q116 0 207 -35.5t142.5 -100.5t51.5 -151q0 -100 -71 -179.5t-210 -152.5q125 -106 191 -170t115 -149t49 -183q0 -112 -65 -200t-179.5 -137.5t-257.5 -49.5 q-129 0 -237.5 40.5t-173 119.5t-64.5 191zM342 358q0 -156 54.5 -253t176.5 -97q96 0 151.5 61t55.5 160q0 91 -44.5 169t-105 136.5t-177.5 157.5q-111 -117 -111 -334zM426 1272q0 -71 33 -136t86.5 -122.5t132.5 -125.5q39 55 57.5 133.5t18.5 154.5q0 124 -48 195 t-133 71q-68 0 -107.5 -46.5t-39.5 -123.5z" />
<glyph unicode="9" horiz-adv-x="1133" d="M59 602q0 151 69 261t185.5 167t255.5 57q149 0 257.5 -66t166.5 -193t58 -306q0 -256 -127 -435.5t-311.5 -275.5t-366.5 -122l-8 41q122 35 215 90t166.5 167t103.5 295q-43 -64 -113 -94t-149 -30q-110 0 -201.5 54t-146 154.5t-54.5 235.5zM369 618q0 -207 47.5 -304 t126.5 -97q51 0 105 35.5t85 109.5q8 79 8 170q0 187 -28 302t-71.5 164t-94.5 49q-49 0 -89 -44.5t-64.5 -140.5t-24.5 -244z" />
<glyph unicode=":" horiz-adv-x="594" d="M122 129q0 73 47 115.5t127 42.5q81 0 128 -42.5t47 -115.5t-47 -115.5t-128 -42.5q-80 0 -127 42.5t-47 115.5zM122 929q0 73 47 115.5t127 42.5q81 0 128 -42.5t47 -115.5t-47 -115.5t-128 -42.5q-80 0 -127 42.5t-47 115.5z" />
<glyph unicode=";" horiz-adv-x="606" d="M124 129q0 70 47.5 114t120.5 44q100 0 146 -72q21 -31 33 -76.5t12 -93.5q0 -105 -54 -192t-161 -136l-19 37q59 25 103 76t53 104q5 28 5 48q0 23 -5 38q-47 -49 -119 -49t-117 42t-45 116zM130 929q0 73 47 115.5t127 42.5q81 0 128 -42.5t47 -115.5t-47 -115.5 t-128 -42.5q-80 0 -127 42.5t-47 115.5z" />
<glyph unicode="&#x3c;" horiz-adv-x="1233" d="M57 727l998 465l35 -74l-838 -391l838 -391l-35 -74z" />
<glyph unicode="=" horiz-adv-x="1300" d="M137 553v61h1026v-61h-1026zM137 840v61h1026v-61h-1026z" />
<glyph unicode="&#x3e;" horiz-adv-x="1233" d="M143 336l35 -74l998 465l-998 465l-35 -74l838 -391z" />
<glyph unicode="?" horiz-adv-x="1040" d="M61 1352q0 58 31 100.5t86 77.5q122 72 307 72q146 0 257.5 -44.5t173 -128t61.5 -196.5q0 -168 -140 -284t-382 -171v-299h-41v318q109 48 168.5 108.5t80.5 130t21 158.5q0 186 -67.5 276.5t-184.5 90.5q-58 0 -105.5 -13.5t-72.5 -40.5q115 -34 115 -149 q0 -64 -45.5 -106t-116.5 -42q-43 0 -76 19.5t-51.5 52t-18.5 70.5zM262 129q0 73 47 115.5t127 42.5q81 0 128 -42.5t47 -115.5t-47 -115.5t-128 -42.5q-80 0 -127 42.5t-47 115.5z" />
<glyph unicode="@" horiz-adv-x="1810" d="M92 293q0 274 134.5 522.5t365 400.5t502.5 152q188 0 334.5 -59.5t231.5 -185.5t85 -318q0 -218 -93.5 -390t-235 -267t-277.5 -95q-162 0 -162 142q0 40 12 90q-55 -122 -127 -177t-164 -55q-110 0 -173.5 68t-63.5 198q0 145 70 300t183 257.5t236 102.5 q64 0 105 -33.5t54 -89.5l19 94q163 0 258 29l-161 -739q-12 -51 -12 -76q0 -46 34 -46q13 0 27 5q92 27 192 117t169 236t69 331q0 182 -81 299t-218 171t-309 54q-250 0 -472.5 -142.5t-356.5 -381t-134 -510.5q0 -204 79.5 -336t220 -193t327.5 -61q237 0 422 111l14 -27 q-79 -56 -192.5 -88.5t-245.5 -32.5q-200 0 -349.5 66.5t-233 206t-83.5 350.5zM723 322q0 -92 21 -131t63 -39q63 0 119.5 80t101.5 229l65 319q-1 52 -24.5 89.5t-67.5 37.5q-65 0 -130 -87t-106.5 -223.5t-41.5 -274.5z" />
<glyph unicode="A" horiz-adv-x="1366" d="M-31 0v41q102 17 176 215l467 1198q33 -3 71 -3q40 0 71 3l497 -1282q27 -68 61 -98.5t68 -32.5v-41q-123 6 -311 6q-210 0 -311 -6v41q77 3 110.5 19t33.5 56q0 31 -25 97l-123 336h-446l-54 -141q-56 -144 -56 -228q0 -76 45 -106t136 -33v-41q-138 6 -254 6 q-94 0 -156 -6zM324 590h415l-203 553z" />
<glyph unicode="B" horiz-adv-x="1376" d="M70 0v41q68 3 99 16t42.5 48t11.5 112v1016q0 77 -11.5 112t-42.5 48t-99 16v41q103 -6 311 -6q82 0 182 2t139 2q165 0 278.5 -40.5t170.5 -113t57 -168.5q0 -76 -44 -149t-136.5 -129.5t-228.5 -81.5v-4q182 -14 297.5 -67.5t167 -131t51.5 -166.5q0 -127 -68 -216.5 t-195 -135t-302 -45.5q-44 0 -150.5 3t-214.5 3q-211 0 -315 -6zM549 217q0 -74 10.5 -109t39.5 -48t91 -13q285 0 285 359q0 161 -81.5 245t-258.5 84h-86v-518zM549 770h88q133 0 186.5 91t53.5 243q0 154 -48 229.5t-153 75.5q-55 0 -81.5 -14.5t-36 -51t-9.5 -110.5 v-463z" />
<glyph unicode="C" horiz-adv-x="1444" d="M88 713q0 226 92 400t257 270t376 96q122 0 208.5 -35t168.5 -98q23 -18 40 -18q42 0 52 122h47q-8 -139 -8 -496h-47q-13 103 -28.5 167.5t-45 113.5t-80.5 90q-51 49 -119 74.5t-141 25.5q-141 0 -232 -97t-133 -256t-42 -351t44 -351t137.5 -254.5t233.5 -95.5 q71 0 139 26t115 75q52 40 81.5 92.5t44 121.5t26.5 181h47q0 -371 8 -516h-47q-5 64 -16.5 92.5t-33.5 28.5q-16 0 -42 -17q-60 -42 -111.5 -70t-118 -45.5t-149.5 -17.5q-217 0 -380.5 88t-253 255.5t-89.5 398.5z" />
<glyph unicode="D" horiz-adv-x="1589" d="M70 0v41q68 3 99 16t42.5 48t11.5 112v1016q0 77 -11.5 112t-42.5 48t-99 16v41q131 -7 247 -7l64 1q288 6 321 6q400 0 598.5 -181t198.5 -528q0 -223 -97 -390.5t-281 -259t-437 -91.5q-30 0 -140.5 3t-158.5 3q-211 0 -315 -6zM549 213q0 -74 12 -110.5t44 -51 t97 -14.5q169 0 269.5 79.5t144 232t43.5 384.5q0 233 -46.5 382.5t-147.5 223.5t-265 74q-64 0 -95.5 -14.5t-43.5 -51.5t-12 -110v-1024z" />
<glyph unicode="E" horiz-adv-x="1298" d="M70 0v41q68 3 99 16t42.5 48t11.5 112v1016q0 77 -11.5 112t-42.5 48t-99 16v41q221 -6 667 -6q301 0 428 6q-14 -169 -14 -303q0 -91 6 -139h-47q-21 149 -64 235t-109 123t-163 37h-84q-64 0 -92.5 -10.5t-38.5 -40t-10 -95.5v-507h65q110 0 166 80t78 190h47 q-7 -101 -7 -193l1 -98q0 -104 12 -291h-47q-41 271 -250 271h-65v-516q0 -66 10 -95.5t38.5 -40t92.5 -10.5h101q144 0 233.5 100t126.5 336h47q-6 -67 -6 -172q0 -188 14 -311q-139 6 -469 6q-446 0 -667 -6z" />
<glyph unicode="F" horiz-adv-x="1212" d="M70 0v41q68 3 99 16t42.5 48t11.5 112v1016q0 77 -11.5 112t-42.5 48t-99 16v41q221 -6 667 -6q301 0 428 6q-14 -175 -14 -311q0 -97 6 -156h-47q-27 157 -73 249t-113.5 131.5t-165.5 39.5h-68q-64 0 -92.5 -10.5t-38.5 -40t-10 -95.5v-516h72q109 0 165 80.5t78 190.5 h47q-7 -101 -7 -193l1 -98q0 -107 13 -291h-48q-42 270 -249 270h-72v-471q0 -82 17 -119.5t61.5 -50.5t140.5 -14v-45q-252 6 -375 6q-59 0 -323 -6z" />
<glyph unicode="G" horiz-adv-x="1505" d="M88 709q0 229 94.5 403.5t263 270.5t383.5 96q126 0 213.5 -34.5t171.5 -98.5q25 -19 41 -19q21 0 33 29t19 94h47q-8 -139 -8 -496h-48q-15 138 -47 224.5t-106 146.5q-49 47 -121 73.5t-147 26.5q-143 0 -238 -97.5t-140.5 -257.5t-45.5 -349q0 -709 393 -709 q89 0 145 41q27 18 38 43t11 64v200q0 96 -16 140.5t-57.5 61t-132.5 20.5v41q118 -7 350 -7q189 0 274 7v-41q-42 -4 -60 -16.5t-25 -47t-7 -112.5v-406h-41q-2 43 -17 80t-42 37q-34 0 -111 -43q-178 -103 -336 -103q-236 0 -400 87.5t-247.5 253t-83.5 397.5z" />
<glyph unicode="H" horiz-adv-x="1638" d="M70 0v41q68 3 99 16t42.5 48t11.5 112v1016q0 77 -11.5 112t-42.5 48t-99 16v41q103 -6 323 -6q200 0 309 6v-41q-69 -3 -100 -16t-42 -48t-11 -112v-483h543v483q0 77 -11.5 112t-43 48t-99.5 16v41q114 -6 322 -6q209 0 311 6v-41q-69 -3 -100 -16t-42.5 -48 t-11.5 -112v-1016q0 -77 11.5 -112t42.5 -48t100 -16v-41q-102 6 -311 6q-208 0 -322 -6v41q68 3 99.5 16t43 48t11.5 112v492h-543v-492q0 -77 11 -112t42 -48t100 -16v-41q-109 6 -309 6q-219 0 -323 -6z" />
<glyph unicode="I" horiz-adv-x="770" d="M70 0v41q68 3 99 16t42.5 48t11.5 112v1016q0 77 -11.5 112t-42.5 48t-99 16v41q103 -6 323 -6q200 0 309 6v-41q-69 -3 -100 -16t-42 -48t-11 -112v-1016q0 -77 11 -112t42 -48t100 -16v-41q-109 6 -309 6q-219 0 -323 -6z" />
<glyph unicode="J" horiz-adv-x="745" d="M-324 -199q0 63 45 101.5t119 38.5q72 0 114 -35.5t42 -100.5q0 -46 -27 -82t-78 -53q20 -14 74 -14q75 0 129 40t78 107q18 53 26.5 112t10.5 140t2 242v936q0 77 -11.5 112t-43 48t-99.5 16v41q102 -6 312 -6q207 0 321 6v-41q-69 -3 -100 -16t-42 -48t-11 -112v-750 v-122q0 -137 -6.5 -238t-28.5 -174q-28 -96 -98.5 -171.5t-178 -119t-241.5 -43.5q-130 0 -207 39q-101 50 -101 147z" />
<glyph unicode="K" horiz-adv-x="1462" d="M70 0v41q68 3 99 16t42.5 48t11.5 112v1016q0 77 -11.5 112t-42.5 48t-99 16v41q103 -6 323 -6q199 0 309 6v-41q-69 -3 -100 -16t-42 -48t-11 -112v-461q81 5 149 50t154 143l121 145q93 110 93 189q0 51 -39.5 80t-111.5 32v39q151 -6 304 -6q118 0 192 6v-39 q-162 -37 -297 -197l-256 -304l477 -744q30 -48 62.5 -76t85.5 -49v-41q-146 6 -320 6q-135 0 -260 -6v41q58 3 83 12t25 28q0 17 -22 52l-297 481q-28 45 -48.5 68.5t-41.5 33t-53 12.5v-511q0 -77 11 -112t42 -48t100 -16v-41q-110 6 -309 6q-220 0 -323 -6z" />
<glyph unicode="L" horiz-adv-x="1251" d="M70 0v41q68 3 99 16t42.5 48t11.5 112v1016q0 77 -11.5 112t-42.5 48t-99 16v41q103 -6 323 -6q208 0 322 6v-41q-74 -3 -107.5 -16t-46 -48t-12.5 -112v-1040q0 -66 9.5 -95.5t36 -40t83.5 -10.5h100q93 0 170.5 57t130 160.5t72.5 239.5h47q-6 -70 -6 -180 q0 -197 14 -324q-139 6 -469 6q-446 0 -667 -6z" />
<glyph unicode="M" horiz-adv-x="1898" d="M72 0v41q67 9 98.5 34.5t43 78t11.5 157.5v922q0 77 -11.5 112t-42.5 48t-99 16v41q65 -6 178 -6q188 0 323 6l413 -995l378 989h145q208 0 322 6v-41q-69 -3 -100 -16t-42.5 -48t-11.5 -112v-1016q0 -77 11.5 -112t43 -48t99.5 -16v-41q-114 6 -322 6q-219 0 -323 -6v41 q74 3 107.5 16t46 48t12.5 112v1071l-494 -1290h-33l-553 1319v-981q0 -121 13 -177.5t53.5 -82.5t132.5 -35v-41q-79 6 -221 6q-113 0 -178 -6z" />
<glyph unicode="N" horiz-adv-x="1479" d="M72 0v41q67 9 98.5 34.5t43 78t11.5 157.5v922q0 77 -11.5 112t-42.5 48t-99 16v41q65 -6 178 -6q103 0 176 6l793 -977v641q0 121 -13 177.5t-53.5 82.5t-132.5 35v41q79 -6 221 -6q114 0 178 6v-41q-67 -9 -98.5 -34.5t-43 -78t-11.5 -157.5v-1143q-15 1 -50 1 q-36 0 -55 -1l-889 1126v-786q0 -121 13 -177.5t53.5 -82.5t132.5 -35v-41q-79 6 -221 6q-113 0 -178 -6z" />
<glyph unicode="O" d="M88 713q0 226 92 400t257 270t376 96q216 0 379.5 -88t253.5 -255.5t90 -398.5q0 -226 -92.5 -400t-257.5 -270t-375 -96q-217 0 -380.5 88t-253 255.5t-89.5 398.5zM428 721q0 -213 52 -375t141 -250t198 -88q113 0 198.5 91.5t132 255t46.5 374.5q0 212 -52 374.5 t-141.5 250.5t-197.5 88q-113 0 -198.5 -91.5t-132 -255t-46.5 -374.5z" />
<glyph unicode="P" horiz-adv-x="1313" d="M70 0v41q68 3 99 16t42.5 48t11.5 112v1016q0 77 -11.5 112t-42.5 48t-99 16v41q103 -6 311 -6q82 0 182 2t139 2q186 0 313.5 -50.5t191 -141.5t63.5 -212q0 -112 -57 -216t-194 -173t-362 -69h-108v-357q0 -82 17 -119.5t61.5 -50.5t140.5 -14v-45q-252 6 -375 6 q-59 0 -323 -6zM549 627h88q167 0 230 106.5t63 288.5q0 199 -59 293t-195 94q-55 0 -81.5 -14.5t-36 -51t-9.5 -110.5v-606z" />
<glyph unicode="Q" d="M88 713q0 226 92 400t257 270t376 96q216 0 379.5 -88t253.5 -255.5t90 -398.5q0 -218 -86.5 -388t-241.5 -268.5t-354 -108.5q-49 -6 -87.5 -18.5t-104.5 -39.5t-115 -41q71 -6 188.5 -16t200.5 -15t151 -5q94 0 154 9q127 14 200.5 55t123.5 124l37 -11 q-35 -232 -142 -319q-44 -37 -113 -58.5t-151 -21.5q-111 0 -216 33.5t-247.5 96t-208.5 87.5q-31 11 -49 14q-88 -43 -172 -43q-43 0 -69.5 13.5t-26.5 40.5q0 26 28.5 40.5t83.5 14.5q78 0 156 -29q40 10 73.5 23t85 36t82.5 34q-191 18 -332.5 111t-218.5 252.5 t-77 373.5zM428 721q0 -213 52 -375t141 -250t198 -88q113 0 198.5 91.5t132 255t46.5 374.5q0 212 -52 374.5t-141.5 250.5t-197.5 88q-113 0 -198.5 -91.5t-132 -255t-46.5 -374.5z" />
<glyph unicode="R" horiz-adv-x="1417" d="M70 0v41q68 3 99 16t42.5 48t11.5 112v1016q0 77 -11.5 112t-42.5 48t-99 16v41q104 -6 311 -6q82 0 182 2t139 2q282 0 425 -92.5t143 -263.5q0 -91 -43 -173t-146 -142.5t-272 -80.5h2q124 -11 203.5 -42t124.5 -86.5t63 -141.5l47 -211q17 -83 38.5 -115t60.5 -32 q24 1 42 12t40 35l28 -25q-56 -63 -119.5 -91t-152.5 -28q-118 0 -187 50t-90 172l-37 204q-18 99 -37.5 159.5t-56 96t-96.5 35.5h-133v-471q0 -77 11 -112t42 -48t100 -16v-41q-109 6 -309 6q-219 0 -323 -6zM549 729h88q115 0 179.5 44t89 118t24.5 178q0 168 -59.5 254 t-194.5 86q-55 0 -81.5 -14.5t-36 -51t-9.5 -110.5v-504z" />
<glyph unicode="S" horiz-adv-x="1196" d="M113 -14q8 128 8 553h47q13 -229 101.5 -371.5t271.5 -142.5q72 0 129.5 25.5t91 77.5t33.5 126q0 80 -37.5 143.5t-101 116t-169.5 121.5q-124 80 -196.5 139t-120 140t-47.5 188q0 124 63 208.5t167 125.5t229 41q74 0 128.5 -11t91 -27.5t79.5 -41.5q49 -29 69 -29 q19 0 29 21.5t16 68.5h47q-10 -137 -10 -467h-47q-7 111 -49.5 211t-119 162.5t-179.5 62.5q-65 0 -116.5 -25t-80 -72.5t-28.5 -110.5q0 -102 61 -167t159 -131.5t132 -89.5q120 -80 190 -139t114 -138t44 -183q0 -131 -68 -221t-183 -134.5t-257 -44.5q-115 0 -190.5 20.5 t-139.5 55.5q-44 29 -69 29q-19 0 -29 -21.5t-16 -68.5h-47z" />
<glyph unicode="T" horiz-adv-x="1368" d="M51 1450q187 -6 633 -6t631 6q-15 -208 -15 -348q0 -88 7 -156h-47q-34 171 -83 270.5t-117.5 143t-166.5 43.5h-47v-1170q0 -85 17.5 -124t62 -53t139.5 -15v-41q-258 6 -389 6q-129 0 -375 -6v41q96 1 140.5 15t61.5 53t17 124v1170h-45q-99 0 -167.5 -43 t-117.5 -142.5t-84 -271.5h-47q7 68 7 156q0 140 -15 348z" />
<glyph unicode="U" horiz-adv-x="1411" d="M39 1409v41q105 -6 319 -6q212 0 326 6v-41q-74 -3 -107.5 -16t-46 -48t-12.5 -112v-772q0 -144 26 -234.5t87.5 -137t169.5 -46.5q204 0 288.5 138t84.5 392v541q0 119 -14.5 176.5t-55.5 83.5t-129 35v41q77 -6 221 -6q114 0 178 6v-41q-67 -9 -98.5 -34.5t-43 -78 t-11.5 -157.5v-543q0 -293 -84 -434q-56 -91 -160 -141t-256 -50q-236 0 -369 103q-65 52 -99.5 121t-47 161.5t-12.5 233.5v643q0 77 -11.5 112t-43 48t-99.5 16z" />
<glyph unicode="V" horiz-adv-x="1368" d="M-25 1409v41q123 -6 312 -6q209 0 311 6v-41q-77 -3 -110.5 -18.5t-33.5 -57.5q0 -32 25 -96l361 -917l252 679q57 161 57 250q0 82 -43.5 119.5t-128.5 40.5v41q138 -6 256 -6q94 0 156 6v-41q-51 -20 -101 -78.5t-88 -165.5l-432 -1169q-23 2 -72 2q-47 0 -69 -2 l-523 1282q-26 68 -60.5 98.5t-68.5 32.5z" />
<glyph unicode="W" horiz-adv-x="1982" d="M-25 1409v41q123 -6 306 -6q172 0 251 6v-41q-71 -9 -71 -80q0 -38 18 -92l299 -864l208 608l-105 317q-20 60 -48 84t-65 27v41q114 -6 293 -6q199 0 295 6v-41q-75 -2 -107 -17t-32 -59q0 -33 20 -96l280 -857l195 619q46 150 46 239t-43.5 128.5t-131.5 42.5v41 q138 -6 254 -6q97 0 158 6v-41q-120 -46 -180 -244l-361 -1169q-22 2 -72 2q-49 0 -71 -2l-302 913l-302 -913q-23 2 -72 2t-72 -2l-459 1282q-23 67 -58.5 98t-70.5 33z" />
<glyph unicode="X" horiz-adv-x="1415" d="M6 1409v43q228 -8 293 -8q179 0 313 8v-43q-68 0 -99 -9t-31 -30q0 -16 16 -39l305 -445l151 204q97 125 97 206q0 51 -38.5 79.5t-111.5 33.5v41q117 -6 258 -6q124 0 189 6v-41q-65 -19 -131.5 -76.5t-126.5 -138.5l-261 -347l480 -702q28 -41 46.5 -61.5t37.5 -29.5 t47 -11v-43q-216 8 -281 8q-74 0 -330 -8v43q72 0 104 7.5t32 26.5q0 14 -15 36l-345 506l-163 -224q-94 -126 -94 -215q0 -63 46 -98.5t128 -40.5v-41q-117 6 -323 6q-124 0 -189 -6v41q143 46 297 250l272 367l-442 649q-29 42 -46.5 62t-36.5 29t-48 11z" />
<glyph unicode="Y" horiz-adv-x="1276" d="M-14 1409v43q89 -10 241 -10q192 0 385 10v-43q-72 0 -113.5 -12.5t-41.5 -47.5q0 -21 14 -46l312 -600l159 319q81 162 81 253q0 69 -44 101t-127 35v41q138 -6 256 -6q94 0 156 6v-41q-47 -20 -94.5 -75.5t-102.5 -161.5l-242 -479v-478q0 -77 11.5 -112t42.5 -48 t100 -16v-41q-111 6 -315 6q-219 0 -318 -6v41q68 3 99.5 16t43 48t11.5 112v346l-396 731q-63 115 -118 115z" />
<glyph unicode="Z" horiz-adv-x="1233" d="M80 0v41l715 1362h-234q-169 0 -275.5 -96t-133.5 -324h-48q7 55 7 156q0 124 -15 311q135 -6 461 -6q404 0 584 6v-41l-713 -1362h225q102 0 193 43.5t156.5 143t82.5 258.5h48q-7 -67 -7 -181q0 -188 15 -311q-152 6 -510 6q-381 0 -551 -6z" />
<glyph unicode="[" horiz-adv-x="659" d="M172 -371v1952h412v-39h-117v-1874h117v-39h-412z" />
<glyph unicode="\" horiz-adv-x="754" d="M64 1479l557 -1508h67l-557 1508h-67z" />
<glyph unicode="]" horiz-adv-x="659" d="M76 -332v-39h412v1952h-412v-39h117v-1874h-117z" />
<glyph unicode="^" horiz-adv-x="1083" d="M115 664q127 69 235.5 181.5t171.5 235.5h37q63 -121 172 -234t236 -183l-17 -29q-130 31 -253 77.5t-197 94.5q-61 -48 -161.5 -94.5t-207.5 -77.5z" />
<glyph unicode="_" horiz-adv-x="1245" d="M121 -176h1003v-177h-1003v177z" />
<glyph unicode="`" horiz-adv-x="457" d="M15 1594q0 47 38 79q30 26 70 26q28 0 54 -13t44 -35q24 -28 40 -60.5t56 -135.5t99 -210l-23 -18q-61 56 -110 94.5t-126.5 94t-109.5 95.5t-32 83z" />
<glyph unicode="a" horiz-adv-x="1061" d="M59 219q0 107 70 177t217 124q16 6 104 39.5t127 68.5t39 77v159q0 85 -40.5 134t-126.5 49q-40 0 -80 -12.5t-66 -37.5q57 -19 89 -59.5t32 -101.5q0 -42 -20.5 -75.5t-58.5 -53t-87 -19.5q-66 0 -105.5 45t-39.5 113q0 106 114 172q125 69 312 69q210 0 299 -92 q43 -43 58 -107t15 -179v-557q0 -50 9.5 -70.5t33.5 -20.5q33 0 76 35l21 -35q-47 -39 -102 -57t-132 -18q-104 0 -150 46t-46 120q-50 -83 -131 -124.5t-173 -41.5q-117 0 -187.5 61.5t-70.5 171.5zM350 276q0 -80 35 -119.5t92 -39.5q81 0 139 84v420q-13 -22 -42.5 -45.5 t-84.5 -57.5q-65 -45 -102 -101.5t-37 -140.5z" />
<glyph unicode="b" horiz-adv-x="1200" d="M12 1536v43q64 -6 127 -6q180 0 299 29v-710q42 95 124 145t190 50t191.5 -59t131 -178t47.5 -293q0 -204 -62.5 -335t-168 -191t-238.5 -60q-142 0 -229 72q-11 1 -32 1q-67 0 -130.5 -21.5t-101.5 -55.5l-31 19q14 52 14 114v1256q0 95 -29.5 137.5t-101.5 42.5z M438 69q67 -55 152 -55q223 0 223 514q0 252 -46.5 361.5t-135.5 109.5q-67 0 -121.5 -48t-71.5 -130v-752z" />
<glyph unicode="c" horiz-adv-x="1016" d="M74 524q0 181 65.5 307.5t180 191t262.5 64.5q76 0 143 -16.5t113 -44.5q53 -33 82.5 -82.5t29.5 -109.5q0 -73 -45.5 -118.5t-116.5 -45.5q-72 0 -114.5 41t-42.5 110q0 62 39 107t96 61q-16 22 -49.5 35.5t-73.5 13.5q-83 0 -141.5 -62.5t-88.5 -172t-30 -250.5 q0 -150 38 -242t99 -131t135 -39q70 0 141 36.5t128 129.5l34 -12q-26 -84 -78 -157.5t-135 -120t-194 -46.5q-137 0 -244.5 60t-170 184t-62.5 309z" />
<glyph unicode="d" horiz-adv-x="1225" d="M78 535v6q0 176 58 298q58 124 161.5 186t237.5 62q151 0 227 -77v348q0 95 -29.5 137.5t-101.5 42.5v43q65 -6 127 -6q180 0 299 29v-1379q0 -95 28.5 -137.5t102.5 -42.5v-43q-65 6 -127 6q-181 0 -299 -28v176q-69 -185 -266 -185q-125 0 -219.5 60.5t-146.5 186.5 q-52 124 -52 310v7zM387 530v-14q0 -457 193 -457q44 0 83 22t65.5 63.5t33.5 96.5v717q-52 70 -150 70q-108 0 -167 -125q-58 -123 -58 -365v-8z" />
<glyph unicode="e" horiz-adv-x="1032" d="M76 518q0 186 64 313.5t177 191.5t261 64q385 0 385 -454h-575q-3 -30 -3 -96q0 -136 38 -225.5t98.5 -131t129.5 -41.5q169 0 271 164l36 -12q-26 -84 -80.5 -156.5t-138 -118t-190.5 -45.5q-141 0 -247.5 60t-166 182.5t-59.5 304.5zM384 672h321v25q-1 144 -33 241 q-36 106 -107 106q-73 0 -121.5 -90.5t-59.5 -281.5z" />
<glyph unicode="f" horiz-adv-x="721" d="M41 1016v41h139q0 121 12.5 201.5t40.5 137t76 103.5q46 46 121.5 74.5t159.5 28.5q128 0 219 -68q31 -25 50.5 -65t19.5 -89q0 -37 -18.5 -69.5t-52 -52t-75.5 -19.5q-70 0 -112.5 38.5t-42.5 106.5q0 54 31 94.5t89 57.5q-6 13 -25.5 21t-47.5 8q-77 0 -111 -54 q-22 -31 -30.5 -89.5t-8.5 -178.5v-186h219v-41h-219v-805q0 -95 48 -131.5t145 -36.5v-43q-288 8 -353 8q-62 0 -266 -8v43q49 0 77.5 13t41 45t12.5 89v826h-139z" />
<glyph unicode="g" horiz-adv-x="1112" d="M41 -207q0 55 41.5 82t135.5 57t133 58h-48q-85 0 -157 41t-72 149q0 59 24.5 106.5t81 91t152.5 89.5q-105 36 -164 109.5t-59 185.5q0 162 120.5 243.5t319.5 81.5q82 0 152 -14q-1 11 -1 22q0 41 9 81q10 85 58 136.5t136 51.5q65 0 107.5 -34.5t42.5 -90.5 q0 -52 -40.5 -85.5t-101.5 -33.5q-62 0 -97 29t-54 86q-22 -37 -31 -105q-1 -10 -1 -30q0 -22 1 -33q122 -31 191 -107.5t69 -197.5q0 -109 -56.5 -182t-155.5 -108.5t-228 -35.5q-97 0 -177 20q-59 -34 -87.5 -62t-28.5 -64q0 -68 82 -68h473q123 0 199.5 -51.5 t76.5 -167.5q0 -105 -66 -203.5t-200 -161.5t-327 -63q-150 0 -251.5 23.5t-151.5 63.5t-50 91zM319 -174q0 -85 64.5 -130.5t165.5 -45.5q83 0 154.5 30.5t114 88.5t42.5 135q0 44 -26 65t-93 21h-351q-34 -32 -52.5 -79t-18.5 -85zM412 762q0 -157 35 -223t102 -66 q68 0 102.5 66t34.5 223t-34.5 223t-102.5 66q-67 0 -102 -66t-35 -223z" />
<glyph unicode="h" horiz-adv-x="1245" d="M39 0v43q49 0 77 13t41 45t13 89v1166q0 95 -29.5 137.5t-101.5 42.5v43q65 -6 127 -6q180 0 299 29v-705q92 190 334 190q159 0 225 -79q34 -40 50 -102t16 -165v-551q0 -57 12.5 -89t40.5 -45t78 -13v-43q-216 8 -271 8q-70 0 -266 -8v43q41 0 65 13t35 45t11 89v637 q0 84 -27.5 127t-99.5 43q-56 0 -102.5 -30.5t-73.5 -84t-27 -120.5v-572q0 -57 10.5 -89t34 -45t65.5 -13v-43q-196 8 -253 8q-71 0 -283 -8z" />
<glyph unicode="i" horiz-adv-x="645" d="M49 0v43q49 0 77.5 13t41 45t12.5 89v646q0 95 -29 137.5t-102 42.5v43q65 -6 127 -6q181 0 299 28v-891q0 -57 13 -89t41 -45t77 -13v-43q-204 8 -272 8q-65 0 -285 -8zM128 1430q0 73 50 115t137 42q85 0 135.5 -42t50.5 -115q0 -74 -50.5 -116t-135.5 -42 q-87 0 -137 42t-50 116z" />
<glyph unicode="j" horiz-adv-x="608" d="M-258 -219q0 62 44 99.5t118 37.5q71 0 112 -33.5t41 -97.5q0 -43 -25.5 -78t-76.5 -53q32 -4 47 -4q87 0 129 57q24 37 32.5 110.5t8.5 225.5v791q0 94 -29.5 137t-101.5 43v43q65 -6 127 -6q179 0 299 28v-888q0 -173 -29 -283t-102 -184q-111 -111 -332 -111 q-109 0 -182 37q-38 19 -59 53.5t-21 75.5zM121 1425q0 74 50 116t136 42t136.5 -42t50.5 -116q0 -73 -51 -115t-136 -42q-86 0 -136 42t-50 115z" />
<glyph unicode="k" horiz-adv-x="1198" d="M39 0v43q49 0 77 13t41 45t13 89v1168q0 95 -29.5 137.5t-101.5 42.5v43q65 -6 127 -6q180 0 299 29v-1021q41 4 70 15.5t53 36.5l155 151q69 69 69 125q0 47 -44.5 75.5t-114.5 31.5v41q114 -6 240 -6q168 0 240 6v-41q-122 -27 -256 -158l-131 -136l344 -574 q31 -49 52 -72.5t54 -34.5v-43q-164 8 -215 8q-68 0 -264 -8v43q61 0 61 39q0 13 -10 31l-203 366q-20 34 -42.5 47.5t-57.5 15.5v-352q0 -57 12 -89t38.5 -45t72.5 -13v-43q-204 8 -266 8q-71 0 -283 -8z" />
<glyph unicode="l" horiz-adv-x="637" d="M41 0v43q49 0 77 13t41 45t13 89v1168q0 95 -29.5 137.5t-101.5 42.5v43q65 -6 127 -6q180 0 299 29v-1414q0 -57 12.5 -89t41 -45t77.5 -13v-43q-212 8 -274 8q-71 0 -283 -8z" />
<glyph unicode="m" horiz-adv-x="1853" d="M49 0v43q49 0 77.5 13t41 45t12.5 89v646q0 95 -29 137.5t-102 42.5v43q65 -6 127 -6q181 0 299 28v-184q92 190 318 190q156 0 225 -79q38 -44 52 -124q52 111 138.5 157t200.5 46q156 0 225 -79q33 -39 47.5 -101.5t14.5 -165.5v-551q0 -57 13 -89t41 -45t77 -13v-43 q-204 8 -271 8q-57 0 -253 -8v43q37 0 58 13t30.5 44.5t9.5 89.5v637q0 85 -25.5 127.5t-97.5 42.5q-50 0 -93 -29t-71.5 -79t-34.5 -112v-36v-551q0 -57 11.5 -89t37 -45t70.5 -13v-43q-196 8 -258 8q-58 0 -254 -8v43q37 0 58 13t30.5 45t9.5 89v637q0 86 -22 128t-88 42 q-54 0 -99.5 -31t-72.5 -85.5t-27 -120.5v-570q0 -57 9.5 -89t30.5 -45t58 -13v-43q-180 8 -241 8q-63 0 -283 -8z" />
<glyph unicode="n" horiz-adv-x="1257" d="M49 0v43q49 0 77.5 13t41 45t12.5 89v646q0 95 -29 137.5t-102 42.5v43q65 -6 127 -6q181 0 299 28v-184q93 190 336 190q84 0 137.5 -20t87.5 -59t49 -101t15 -166v-551q0 -57 13 -89t41 -45t77 -13v-43q-204 8 -270 8q-63 0 -267 -8v43q42 0 66 13t34.5 45t10.5 89v637 q0 84 -27.5 127t-99.5 43q-56 0 -102.5 -31t-73.5 -85.5t-27 -120.5v-570q0 -57 11 -89t35 -45t65 -13v-43q-188 8 -254 8q-63 0 -283 -8z" />
<glyph unicode="o" horiz-adv-x="1157" d="M76 528q0 290 134 424.5t368 134.5t367.5 -134t133.5 -425q0 -290 -133.5 -423.5t-367.5 -133.5t-368 133.5t-134 423.5zM385 528q0 -262 52.5 -389t140.5 -127q89 0 140.5 126.5t51.5 389.5q0 264 -51.5 391.5t-140.5 127.5q-88 0 -140.5 -128t-52.5 -391z" />
<glyph unicode="p" horiz-adv-x="1229" d="M41 1016v43q65 -6 127 -6q179 0 299 28v-190q43 96 125.5 146t191.5 50q106 0 189 -57.5t130.5 -172t47.5 -279.5q0 -196 -58.5 -332.5t-165 -205.5t-251.5 -69q-132 0 -209 65v-204q0 -90 45.5 -125t138.5 -35v-43q-30 1 -136 5t-208 4q-78 0 -158.5 -4t-99.5 -5v43 q46 0 72 12.5t38.5 43t12.5 84.5v1024q0 94 -29.5 137t-101.5 43zM467 81q46 -54 129 -54q131 0 188.5 130.5t57.5 379.5t-46 355.5t-132 106.5q-70 0 -125 -47t-72 -130v-741z" />
<glyph unicode="q" horiz-adv-x="1198" d="M76 535q0 180 56.5 304t157.5 186t234 62q85 0 146 -18.5t108 -63.5q10 -1 20 -1l126 22q73 25 114 66l31 -17q-14 -52 -14 -117v-1146q0 -54 12.5 -84.5t38.5 -43t72 -12.5v-43q-21 1 -101 5t-157 4q-102 0 -208 -4t-137 -5v43q94 0 139.5 34.5t45.5 125.5v327 q-36 -92 -103 -140t-161 -48q-122 0 -216.5 61t-149 187.5t-54.5 315.5zM385 530q0 -251 51 -361t146 -110q61 0 111.5 46.5t66.5 125.5v750q-59 63 -158 63q-217 0 -217 -514z" />
<glyph unicode="r" horiz-adv-x="956" d="M49 0v43q49 0 77.5 13t41 45t12.5 89v646q0 95 -29 137.5t-102 42.5v43q65 -6 127 -6q181 0 299 28v-190q39 87 112.5 141.5t166.5 54.5q62 0 104 -27t62 -69.5t20 -91.5q0 -76 -44 -124t-116 -48q-70 0 -110.5 35.5t-40.5 95.5q0 98 90 160q-13 3 -25 3q-14 0 -32 -5 q-52 -8 -95 -49.5t-67.5 -99.5t-24.5 -113v-543q0 -95 46 -131.5t147 -36.5v-43q-256 8 -326 8q-65 0 -293 -8z" />
<glyph unicode="s" horiz-adv-x="946" d="M92 -14q8 117 8 409h45q20 -177 86.5 -277t188.5 -100q60 0 102.5 36.5t42.5 109.5q0 57 -25.5 102t-64.5 80t-117 96q-95 77 -142.5 121t-81.5 104.5t-34 137.5q0 88 48 152t129 97t176 33q78 0 143 -19t102 -44q20 -14 36 -14q38 0 48 75h45q-8 -103 -8 -360h-45 q-18 134 -80.5 225.5t-181.5 91.5q-61 0 -100 -35t-39 -96q0 -69 46 -119t111 -96t95 -69q84 -63 133.5 -110t80.5 -106.5t31 -136.5q0 -90 -52.5 -159t-141.5 -106.5t-195 -37.5q-109 0 -190 43q-61 31 -96 43q-6 2 -10 2q-33 0 -48 -73h-45z" />
<glyph unicode="t" horiz-adv-x="721" d="M-2 1016v41h172v272q169 0 295 66v-338h242v-41h-242v-826q0 -61 22 -86.5t68 -25.5q87 0 139 123l35 -19q-77 -211 -280 -211q-135 0 -205 70q-43 42 -58.5 106.5t-15.5 178.5v690h-172z" />
<glyph unicode="u" horiz-adv-x="1241" d="M27 1016v43q65 -6 127 -6q179 0 299 28v-848q0 -85 25.5 -128.5t96.5 -43.5q54 0 99.5 31.5t72.5 86t27 120.5v537q0 94 -29.5 137t-101.5 43v43q65 -6 127 -6q179 0 299 28v-858q0 -95 29.5 -137.5t101.5 -42.5v-43q-64 6 -127 6q-180 0 -299 -29v185 q-93 -191 -330 -191q-153 0 -223 80q-34 38 -48.5 101t-14.5 165v519q0 94 -29.5 137t-101.5 43z" />
<glyph unicode="v" horiz-adv-x="1040" d="M-18 1016v43q143 -10 290 -10q130 0 267 10v-43q-57 0 -85 -5t-40 -29q-5 -10 -4 -24q0 -21 10 -53l234 -622l147 407q33 95 33 165q0 152 -150 163v41q96 -6 197 -6q106 0 157 6v-41q-42 -12 -76.5 -51.5t-64.5 -124.5l-299 -846q-33 3 -67 3q-33 0 -66 -3l-365 905 q-46 115 -118 115z" />
<glyph unicode="w" horiz-adv-x="1612" d="M-14 1016v43q132 -12 290 -12q103 0 267 12v-43q-45 0 -71 -3.5t-41.5 -16.5t-15.5 -40q0 -20 11 -55l186 -579l222 739q26 -1 75 -1q50 0 74 1l265 -782l130 411q28 90 28 156q0 157 -161 172v41q96 -6 211 -6q103 0 156 6v-41q-43 -12 -78 -51.5t-61 -124.5l-273 -846 q-33 3 -67 3q-33 0 -66 -3l-279 760l-227 -760q-31 3 -66 3q-32 0 -67 -3l-324 905q-40 115 -118 115z" />
<glyph unicode="x" horiz-adv-x="1098" d="M18 1016v43q180 -8 244 -8q54 0 242 8v-43q-31 0 -50.5 -11t-19.5 -30q0 -13 10 -29l193 -287l78 103q71 92 71 157q0 43 -31.5 69t-92.5 30v41q118 -6 231 -6q87 0 145 6v-41q-86 -29 -188 -158l-189 -237l322 -478q33 -47 57.5 -72t57.5 -30v-43q-164 8 -219 8 q-59 0 -267 -8v43q32 0 50.5 11t18.5 30q0 13 -9 29l-214 317l-71 -90q-68 -88 -68 -163q0 -58 40 -94.5t108 -41.5v-41q-120 6 -295 6q-84 0 -143 -6v41q45 16 88.5 53t97.5 105l219 267l-301 447q-38 55 -61 77t-54 26z" />
<glyph unicode="y" horiz-adv-x="1063" d="M-29 1016v43q135 -12 281 -12q121 0 285 12v-43q-44 0 -69 -3t-42.5 -15t-17.5 -39q0 -24 14 -58l251 -605l140 394q33 98 33 164q0 78 -40 118.5t-112 45.5v41q96 -6 199 -6t158 6v-41q-43 -11 -77.5 -51t-64.5 -125l-366 -1030q-41 -107 -90 -146q-60 -51 -179 -51 q-53 0 -104.5 17.5t-85 54.5t-33.5 92q0 63 45 101t119 38q69 0 111.5 -34t42.5 -95q0 -42 -27.5 -78.5t-75.5 -54.5q15 -2 47 -2q128 0 187 162l33 98l-435 987q-32 71 -63.5 93t-63.5 22z" />
<glyph unicode="z" horiz-adv-x="971" d="M63 -10l512 1038h-114q-292 0 -320 -366h-43q0 290 -8 405q167 -8 393 -8q201 0 426 10l-512 -1038h107q132 0 222 86.5t105 279.5h43q0 -276 9 -405q-167 8 -394 8q-199 0 -426 -10z" />
<glyph unicode="{" horiz-adv-x="682" d="M35 594v37h10q64 4 97 48t46 147.5t13 301.5q0 182 43 284.5t139 146t264 43.5v-39q-66 -2 -96.5 -31t-42.5 -118t-12 -286q0 -174 -54.5 -280t-142 -158t-207.5 -78q120 -26 207.5 -78t142 -158.5t54.5 -279.5q0 -205 12 -295t42 -118t97 -29v-39q-169 0 -264.5 42.5 t-138.5 146t-43 292.5q0 197 -13 300.5t-46 148t-97 49.5h-10z" />
<glyph unicode="|" horiz-adv-x="518" d="M170 -399v2156h180v-2156h-180z" />
<glyph unicode="}" horiz-adv-x="682" d="M36 -346v-39q169 0 264.5 42.5t138.5 146t43 292.5q0 197 13 300.5t46 148t97 49.5h10v37h-10q-64 4 -97 48t-46 147.5t-13 301.5q0 182 -43 284.5t-139 146t-264 43.5v-39q66 -2 96.5 -31t42.5 -118t12 -286q0 -174 54.5 -280t142 -158t207.5 -78q-120 -26 -207.5 -78 t-142 -158.5t-54.5 -279.5q0 -205 -12 -295t-42 -118t-97 -29z" />
<glyph unicode="~" horiz-adv-x="1368" d="M123 479q9 95 53.5 167.5t112.5 111.5t147 39q75 0 139.5 -23.5t196.5 -91.5t234 -68q153 0 208 144l37 -8q-9 -95 -53.5 -167.5t-113.5 -111.5t-148 -39q-74 0 -138 23.5t-196 91t-235 67.5q-150 0 -209 -143z" />
<glyph unicode="&#xa1;" horiz-adv-x="567" d="M110 930q0 73 47 115.5t127 42.5q81 0 128 -42.5t47 -115.5t-47 -115.5t-128 -42.5q-80 0 -127 42.5t-47 115.5zM115 -193q0 78 45 260.5t72 311.5t32 272h37q4 -125 27.5 -245t73 -319t49.5 -280q0 -93 -46.5 -142.5t-121.5 -49.5t-121.5 50.5t-46.5 141.5z" />
<glyph unicode="&#xa2;" horiz-adv-x="1022" d="M65 524q0 169 57.5 291.5t159.5 190t236 79.5v365h45v-363h10q76 0 143 -16.5t113 -44.5q53 -33 82.5 -82.5t29.5 -109.5q0 -73 -45.5 -118.5t-116.5 -45.5q-72 0 -114.5 41t-42.5 110q0 62 39 107t96 61q-16 22 -49.5 35.5t-73.5 13.5q-38 0 -71 -13v-871q39 -13 83 -13 q70 0 141 36.5t128 129.5l34 -12q-25 -82 -74.5 -153t-128 -118.5t-183.5 -52.5v-342h-45v342q-131 6 -233 67.5t-161 184t-59 301.5zM374 553q0 -288 144 -377v823q-70 -54 -107 -171.5t-37 -274.5z" />
<glyph unicode="&#xa3;" horiz-adv-x="1352" d="M68 4q0 21 22 45.5t63 46.5t93 35q19 56 24.5 120.5t5.5 188.5v88v80h-157v41h157v164h-157v41h157v45q0 608 517 608q147 0 223 -49q102 -62 102 -158q0 -63 -41.5 -105t-105.5 -42q-65 0 -106.5 37.5t-41.5 97.5q0 54 28 93.5t79 58.5q-16 14 -49.5 23.5t-71.5 9.5 q-98 0 -148 -57.5t-66.5 -166.5t-16.5 -297v-98h247v-41h-247v-123l-1 -41h248v-41h-252q-15 -104 -61.5 -186t-106 -160t-83.5 -110q89 73 163 102t144 29q55 0 100 -9t136 -34t165 -25q64 0 100.5 33.5t36.5 83.5q0 61 -39.5 99t-109.5 52l8 33q69 -12 128.5 -46 t96.5 -90.5t37 -131.5q0 -82 -34.5 -144.5t-104 -97.5t-170.5 -35q-78 0 -147 21t-167.5 63t-148.5 56q-58 16 -100 16q-58 0 -113 -21q-42 -66 -92 -100.5t-98 -34.5q-45 0 -45 33z" />
<glyph unicode="&#xa4;" horiz-adv-x="1260" d="M123 281l119 118q-58 106 -58 215q0 114 60 213l-121 121l174 174l121 -121q94 60 213 60q112 0 213 -60l123 121l174 -174l-123 -121q57 -97 57 -213q0 -117 -57 -213l121 -120l-174 -175l-121 121q-99 -57 -213 -57q-119 0 -213 57l-119 -121zM395 614q0 -68 32 -126.5 t87 -93t119 -34.5q63 0 117 34.5t86 93t32 126.5q0 69 -32 128t-86 93.5t-117 34.5q-64 0 -119 -34.5t-87 -93.5t-32 -128z" />
<glyph unicode="&#xa5;" horiz-adv-x="1389" d="M51 1409v43q89 -10 241 -10q192 0 385 10v-43q-72 0 -113.5 -12.5t-41.5 -47.5q0 -21 14 -46l312 -600l159 319q81 162 81 253q0 69 -44 101t-127 35v41q138 -6 256 -6q95 0 156 6v-41q-47 -20 -94.5 -75.5t-102.5 -161.5l-242 -479v-74h255v-41h-255v-164h255v-41h-255 v-158q0 -77 11.5 -112t42.5 -48t100 -16v-41q-111 6 -315 6q-219 0 -318 -6v41q68 3 99.5 16t43 48t11.5 112v158h-258v41h258v147l-9 17h-249v41h227l-365 673q-63 115 -118 115z" />
<glyph unicode="&#xa6;" horiz-adv-x="524" d="M172 -399v1067h180v-1067h-180zM172 786v971h180v-971h-180z" />
<glyph unicode="&#xa7;" horiz-adv-x="1190" d="M74 629q0 102 59 186t194 155q-77 69 -114 137.5t-37 152.5q0 102 59 179.5t164.5 120t241.5 42.5q143 0 242 -46q135 -64 135 -190q0 -38 -18.5 -71t-53 -52.5t-80.5 -19.5q-69 0 -112 39t-43 102q0 52 28 93.5t76 58.5q-13 21 -61 34t-99 13q-109 0 -161 -54.5 t-52 -132.5q0 -99 58.5 -160.5t147 -120t122.5 -81.5q131 -89 201.5 -148t109.5 -126t39 -152q0 -102 -59.5 -185t-196.5 -155q79 -69 116.5 -138t37.5 -153q0 -102 -59 -179.5t-165 -120t-243 -42.5q-136 0 -242 45q-135 66 -135 190q0 38 19 71t53.5 53t79.5 20 q69 0 112 -39t43 -102q0 -52 -28 -93.5t-76 -58.5q13 -21 61 -34t99 -13q74 0 122.5 26t70.5 68.5t22 91.5q0 97 -58 159t-146 121t-124 83q-130 87 -201 146.5t-110 126.5t-39 153zM295 776q0 -60 33.5 -111t101.5 -104.5t197 -138.5q133 -88 202 -144q36 33 53 71.5 t17 90.5q0 60 -33.5 111t-101 104.5t-197.5 139.5q-134 88 -203 144q-69 -65 -69 -163z" />
<glyph unicode="&#xa8;" horiz-adv-x="799" d="M12 1403q0 40 21 75.5t56.5 56.5t76.5 21q40 0 76 -21t58 -56.5t22 -75.5q0 -42 -21.5 -77.5t-57.5 -56t-77 -20.5t-76.5 20.5t-56.5 56t-21 77.5zM477 1403q0 40 21 75.5t57 56.5t78 21q40 0 75.5 -21t56.5 -56.5t21 -75.5q0 -42 -21 -77.5t-56 -56t-76 -20.5 q-42 0 -78 20.5t-57 56t-21 77.5z" />
<glyph unicode="&#xa9;" horiz-adv-x="1804" d="M86 786q0 222 109.5 409.5t297 297t408.5 109.5q222 0 409 -109.5t296.5 -297t109.5 -409.5q0 -221 -109.5 -408.5t-296.5 -297t-409 -109.5q-221 0 -408.5 109.5t-297 297t-109.5 408.5zM168 786q0 -203 98.5 -375t267 -273t367.5 -101q200 0 368 101t266.5 273 t98.5 375q0 204 -98.5 376t-266.5 273t-368 101q-199 0 -367.5 -101t-267 -273t-98.5 -376zM440 782q0 180 65 307t180 192t263 65q78 0 145.5 -18t114.5 -48q50 -32 79.5 -80.5t29.5 -107.5q0 -72 -45.5 -118t-116.5 -46q-72 0 -115 42t-43 111q0 61 38.5 105.5t97.5 60.5 q-21 22 -60.5 36.5t-83.5 14.5q-61 0 -108 -36q-63 -36 -97 -141.5t-34 -311.5q0 -163 37.5 -263t98 -143t134.5 -43q169 0 268 205l37 -14q-26 -83 -78.5 -156t-135.5 -119.5t-193 -46.5q-138 0 -245.5 59.5t-170 183.5t-62.5 310z" />
<glyph unicode="&#xaa;" horiz-adv-x="987" d="M94 899q0 55 31 93t91 67t163 61q164 54 164 115v37q0 89 -32 128.5t-95 39.5q-66 0 -113 -31q42 -11 66 -44.5t24 -72.5q0 -54 -40 -86t-97 -32q-61 0 -98 32t-37 84q0 91 110 142q106 47 263 47q164 0 237.5 -61.5t73.5 -198.5v-345q0 -29 8.5 -41t30.5 -12q34 0 59 23 l23 -31q-99 -76 -234 -76q-80 0 -113 24.5t-36 72.5q-100 -97 -246 -97q-89 0 -146 40.5t-57 121.5zM367 938q0 -47 21.5 -75.5t55.5 -28.5q54 0 99 38v302q-16 -34 -84 -80q-48 -34 -70 -71.5t-22 -84.5z" />
<glyph unicode="&#xab;" horiz-adv-x="1165" d="M53 516v27q165 102 301 237t264 312l31 -13q-48 -158 -128 -309.5t-163 -237.5q82 -84 162.5 -238t128.5 -314l-31 -11q-127 176 -263 310.5t-302 236.5zM512 516v27q151 92 275.5 215.5t238.5 283.5l31 -12q-42 -146 -111 -283t-141 -215q71 -77 140.5 -216t111.5 -287 l-31 -11q-114 159 -238.5 282.5t-275.5 215.5z" />
<glyph unicode="&#xac;" horiz-adv-x="1315" d="M152 696v62h1026v-420h-74v358h-952z" />
<glyph unicode="&#xad;" horiz-adv-x="985" />
<glyph unicode="&#xae;" horiz-adv-x="1362" d="M109 1030q0 155 77 286.5t208 208.5t286 77t286 -77t208 -208.5t77 -286.5t-77 -286t-208 -208t-286 -77t-286 77t-208 208t-77 286zM195 1030q0 -136 65 -252.5t176.5 -185t243.5 -68.5t243.5 68.5t176.5 185t65 252.5q0 137 -65 253t-176 184.5t-244 68.5t-244 -68.5 t-176 -184.5t-65 -253zM401 721v31q21 2 30.5 7.5t13.5 20.5t4 47v449q0 33 -4 48.5t-13.5 21.5t-30.5 8v30q29 -2 127 -2q68 0 112 1t65 1q130 0 189.5 -41t59.5 -120q0 -56 -47.5 -102.5t-163.5 -64.5q65 -6 102 -20.5t55 -38t26 -61.5l30 -133q6 -26 12 -37.5t19 -11.5 q14 0 23 12l16 -21q-30 -36 -106 -36q-66 0 -99 21t-43 67l-30 149q-8 37 -18.5 54.5t-35.5 26.5t-76 12v-212q0 -32 4 -47t13.5 -20.5t30.5 -7.5v-31q-25 0 -58 1t-71 1q-45 0 -79.5 -1t-56.5 -1zM618 1073h25q139 0 139 137q0 73 -26.5 108.5t-83.5 35.5q-32 0 -43 -12 t-11 -46v-223z" />
<glyph unicode="&#xaf;" horiz-adv-x="741" d="M27 1407v51h688v-51h-688z" />
<glyph unicode="&#xb0;" horiz-adv-x="637" d="M70 1434q0 73 34 129t90.5 86t122.5 30q68 0 125 -30t91 -86t34 -129q0 -75 -34 -131t-91 -86.5t-125 -30.5q-66 0 -122.5 30.5t-90.5 86.5t-34 131zM121 1432q0 -68 28.5 -116t73.5 -71.5t94 -23.5t95 23.5t75 71.5t29 116q0 66 -29.5 114.5t-75.5 73.5t-94 25t-93 -25 t-74 -73.5t-29 -114.5z" />
<glyph unicode="&#xb1;" horiz-adv-x="1223" d="M93 696v62h477v483h74v-483h475v-62h-475v-481h-74v481h-477zM99 0v62h1026v-62h-1026z" />
<glyph unicode="&#xb2;" horiz-adv-x="719" d="M55 897v41q24 20 127 98.5t162 156.5t59 165q0 51 -32 78.5t-92 27.5q-116 0 -179 -98l-30 16q40 72 113 118t184 46q101 0 164 -38.5t63 -112.5t-54 -128t-150 -118t-134 -94h276q32 0 49.5 7t27 21t20.5 41l35 -6q-28 -137 -31 -227q-25 6 -78 6h-500z" />
<glyph unicode="&#xb3;" horiz-adv-x="676" d="M49 713v35q110 11 197 48.5t136.5 97.5t49.5 136q0 64 -33.5 107t-91.5 47l-26 -13t-26.5 -12t-21.5 -4q-32 0 -32 25q0 19 23 24.5t67 3.5q55 26 78.5 68.5t23.5 81.5q0 50 -34.5 81t-94.5 31q-56 0 -102.5 -26.5t-77.5 -75.5l-31 16q90 164 297 164q103 0 168.5 -39 t65.5 -108q0 -71 -64 -122t-176 -73q74 3 137 -19t100 -65t37 -102q0 -94 -83.5 -161t-213.5 -103.5t-272 -42.5z" />
<glyph unicode="&#xb4;" horiz-adv-x="457" d="M41 1245q59 107 93.5 195.5t53 132.5t48.5 78q17 23 42.5 35.5t52.5 12.5q42 0 72 -26q38 -30 38 -79q0 -45 -31 -83q-32 -40 -95 -85t-120 -87.5t-132 -111.5z" />
<glyph unicode="&#xb6;" horiz-adv-x="1499" d="M68 737q0 209 95 371t274.5 253t424.5 91q76 0 208 -3.5t191 -3.5q91 0 156 5v-39q-61 -3 -92.5 -18.5t-42 -43.5t-10.5 -77v-1426q0 -77 11 -112t42 -48t100 -16v-41q-126 6 -358 6q-223 0 -328 -6v41q87 3 130.5 21.5t60 58.5t16.5 117v106q-460 0 -669 206t-209 558z M250 719q0 -6 86 -16t225.5 -17.5t296.5 -7.5q3 -149 20.5 -282t38.5 -215.5t31 -82.5v1245q-10 0 -31 -85t-38.5 -218.5t-20.5 -277.5q-154 0 -292.5 -8.5t-227 -19t-88.5 -15.5z" />
<glyph unicode="&#xb7;" horiz-adv-x="569" d="M111 575q0 73 47 115.5t127 42.5q81 0 128 -42.5t47 -115.5t-47 -115.5t-128 -42.5q-80 0 -127 42.5t-47 115.5z" />
<glyph unicode="&#xb8;" horiz-adv-x="467" d="M-6 -360l10 36q64 -8 90 -8q60 0 105 20.5t45 63.5q0 53 -68 53q-47 0 -82 -14l66 213h55l-43 -137q65 24 145 24q68 0 105 -30t37 -80q0 -83 -81.5 -124.5t-205.5 -41.5q-110 0 -178 25z" />
<glyph unicode="&#xb9;" horiz-adv-x="580" d="M59 1436v43q127 2 208 16t149 47v-504q0 -58 30.5 -79t106.5 -21v-43q-90 4 -236 4q-145 0 -243 -4v43q76 0 113.5 21.5t37.5 78.5v265q0 59 -14.5 87t-48 37t-103.5 9z" />
<glyph unicode="&#xba;" horiz-adv-x="958" d="M80 1108q0 118 52.5 202t143 126.5t203.5 42.5q114 0 204.5 -42.5t143 -126.5t52.5 -202t-52.5 -202t-143 -126.5t-204.5 -42.5q-113 0 -203.5 42.5t-143 126.5t-52.5 202zM354 1108q0 -170 34 -252t91 -82q58 0 92.5 82t34.5 252t-34.5 252t-92.5 82q-57 0 -91 -82 t-34 -252z" />
<glyph unicode="&#xbb;" horiz-adv-x="1165" d="M109 29q41 146 110 282.5t141 214.5q-72 78 -140.5 217t-110.5 287l30 10q119 -162 243 -285t273 -214v-25q-150 -92 -274.5 -215t-241.5 -285zM516 -20q49 159 129 310.5t162 235.5q-82 83 -162 237t-129 316l33 11q124 -173 261 -308.5t302 -240.5v-25 q-165 -104 -301.5 -240t-261.5 -309z" />
<glyph unicode="&#xbc;" horiz-adv-x="1452" d="M91 1436v43q127 2 208 16t149 47v-504q0 -58 30.5 -79t106.5 -21v-43q-90 4 -236 4q-145 0 -243 -4v43q76 0 113.5 21.5t37.5 78.5v265q0 59 -14.5 87t-48 37t-103.5 9zM161 -86l1198 1774l39 -27l-1198 -1774zM600 37v43l506 559h43v-483h29q32 0 49.5 7t27 21t19.5 41 l35 -6q-23 -74 -29 -188q-24 6 -77 6h-54v-240h-149v240h-400zM714 156h286v316z" />
<glyph unicode="&#xbd;" horiz-adv-x="1475" d="M93 1436v43q127 2 208 16t149 47v-504q0 -58 30.5 -79t106.5 -21v-43q-90 4 -236 4q-145 0 -243 -4v43q76 0 113.5 21.5t37.5 78.5v265q0 59 -14.5 87t-48 37t-103.5 9zM128 -86l1198 1774l39 -27l-1198 -1774zM797 2v41q24 20 127 98.5t162 156.5t59 165q0 51 -32 78.5 t-92 27.5q-116 0 -179 -98l-30 16q40 72 113 118t184 46q101 0 164 -38.5t63 -112.5t-54 -128t-150 -118t-134 -94h276q32 0 49.5 7t27 21t20.5 41l35 -6q-28 -137 -31 -227q-25 6 -78 6h-500z" />
<glyph unicode="&#xbe;" horiz-adv-x="1540" d="M92 713v35q110 11 197 48.5t136.5 97.5t49.5 136q0 64 -33.5 107t-91.5 47l-26 -13t-26.5 -12t-21.5 -4q-32 0 -32 25q0 19 23 24.5t67 3.5q55 26 78.5 68.5t23.5 81.5q0 50 -34.5 81t-94.5 31q-56 0 -102.5 -26.5t-77.5 -75.5l-31 16q90 164 297 164q103 0 168.5 -39 t65.5 -108q0 -71 -64 -122t-176 -73q74 3 137 -19t100 -65t37 -102q0 -94 -83.5 -161t-213.5 -103.5t-272 -42.5zM246 -86l1198 1774l39 -27l-1198 -1774zM694 37v43l506 559h43v-483h29q32 0 49.5 7t27 21t19.5 41l35 -6q-23 -74 -29 -188q-24 6 -77 6h-54v-240h-149v240 h-400zM808 156h286v316z" />
<glyph unicode="&#xbf;" horiz-adv-x="1030" d="M59 -25q0 157 141 266t382 156v265h41v-283q-110 -47 -169.5 -106.5t-80.5 -127.5t-21 -155q0 -170 67 -252t183 -82q127 0 178 45q-114 36 -114 149q0 65 45.5 106.5t117.5 41.5q42 0 74.5 -19.5t51 -51.5t18.5 -70q0 -112 -117 -174q-116 -68 -305 -68 q-146 0 -257.5 43.5t-173 124.5t-61.5 192zM426 932q0 73 47 115.5t127 42.5q81 0 128 -42.5t47 -115.5t-47 -115.5t-128 -42.5q-80 0 -127 42.5t-47 115.5z" />
<glyph unicode="&#xc0;" horiz-adv-x="1366" d="M-31 0v41q102 17 176 215l467 1198q33 -3 71 -3q40 0 71 3l497 -1282q27 -68 61 -98.5t68 -32.5v-41q-123 6 -311 6q-210 0 -311 -6v41q77 3 110.5 19t33.5 56q0 31 -25 97l-123 336h-446l-54 -141q-56 -144 -56 -228q0 -76 45 -106t136 -33v-41q-138 6 -254 6 q-94 0 -156 -6zM308 1820q0 26 12 48q15 29 42.5 45t60.5 16q32 0 62 -16q32 -17 59 -41.5t102 -105.5t171 -160l-14 -25q-76 29 -135.5 46t-152.5 40.5t-138 48.5q-33 18 -51 45.5t-18 58.5zM324 590h415l-203 553z" />
<glyph unicode="&#xc1;" horiz-adv-x="1366" d="M-31 0v41q102 17 176 215l467 1198q33 -3 71 -3q40 0 71 3l497 -1282q27 -68 61 -98.5t68 -32.5v-41q-123 6 -311 6q-210 0 -311 -6v41q77 3 110.5 19t33.5 56q0 31 -25 97l-123 336h-446l-54 -141q-56 -144 -56 -228q0 -76 45 -106t136 -33v-41q-138 6 -254 6 q-94 0 -156 -6zM324 590h415l-203 553zM530 1606q65 53 109.5 97t110 114.5t112.5 95.5q32 16 63 16q32 0 60 -16t43 -45q12 -22 12 -47q0 -31 -18 -59t-51 -46q-45 -25 -120.5 -44t-143.5 -37t-162 -54z" />
<glyph unicode="&#xc2;" horiz-adv-x="1366" d="M-31 0v41q102 17 176 215l467 1198q33 -3 71 -3q40 0 71 3l497 -1282q27 -68 61 -98.5t68 -32.5v-41q-123 6 -311 6q-210 0 -311 -6v41q77 3 110.5 19t33.5 56q0 31 -25 97l-123 336h-446l-54 -141q-56 -144 -56 -228q0 -76 45 -106t136 -33v-41q-138 6 -254 6 q-94 0 -156 -6zM242 1606q131 55 242.5 140.5t177.5 178.5h37q65 -92 176.5 -178t242.5 -141l-10 -31q-134 25 -263 61.5t-206 71.5q-64 -35 -170.5 -71.5t-216.5 -61.5zM324 590h415l-203 553z" />
<glyph unicode="&#xc3;" horiz-adv-x="1366" d="M-31 0v41q102 17 176 215l467 1198q33 -3 71 -3q40 0 71 3l497 -1282q27 -68 61 -98.5t68 -32.5v-41q-123 6 -311 6q-210 0 -311 -6v41q77 3 110.5 19t33.5 56q0 31 -25 97l-123 336h-446l-54 -141q-56 -144 -56 -228q0 -76 45 -106t136 -33v-41q-138 6 -254 6 q-94 0 -156 -6zM226 1616q28 136 102.5 206t171.5 70q67 0 118 -19.5t143 -72.5t169 -53q109 0 170 111l29 -11q-27 -135 -101 -204.5t-171 -69.5q-67 0 -117.5 19.5t-143.5 72.5t-172 53q-106 0 -170 -112zM324 590h415l-203 553z" />
<glyph unicode="&#xc4;" horiz-adv-x="1366" d="M-31 0v41q102 17 176 215l467 1198q33 -3 71 -3q40 0 71 3l497 -1282q27 -68 61 -98.5t68 -32.5v-41q-123 6 -311 6q-210 0 -311 -6v41q77 3 110.5 19t33.5 56q0 31 -25 97l-123 336h-446l-54 -141q-56 -144 -56 -228q0 -76 45 -106t136 -33v-41q-138 6 -254 6 q-94 0 -156 -6zM281 1722q0 40 21 76t56 58t76 22q40 0 76 -22t58 -58t22 -76q0 -41 -22 -76t-58 -56t-76 -21q-41 0 -76.5 20.5t-56 56t-20.5 76.5zM324 590h415l-203 553zM770 1722q0 41 21 77t57 57.5t78 21.5q40 0 75.5 -22t56.5 -58t21 -76q0 -41 -21 -76.5t-56.5 -56 t-75.5 -20.5q-42 0 -78 20.5t-57 56t-21 76.5z" />
<glyph unicode="&#xc5;" horiz-adv-x="1366" d="M-31 0v41q102 17 176 215l467 1198q33 -3 71 -3q40 0 71 3l497 -1282q27 -68 61 -98.5t68 -32.5v-41q-123 6 -311 6q-210 0 -311 -6v41q77 3 110.5 19t33.5 56q0 31 -25 97l-123 336h-446l-54 -141q-56 -144 -56 -228q0 -76 45 -106t136 -33v-41q-138 6 -254 6 q-94 0 -156 -6zM324 590h415l-203 553zM459 1720q0 59 30.5 104.5t81 70t109.5 24.5q60 0 111.5 -24.5t82 -69.5t30.5 -105t-30.5 -105.5t-82 -70t-111.5 -24.5q-59 0 -109.5 24.5t-81 70t-30.5 105.5zM516 1718q0 -49 24 -84.5t61.5 -53t78.5 -17.5q42 0 80 17.5t62 53 t24 84.5t-24 85t-62.5 54.5t-79.5 18.5q-40 0 -78 -18.5t-62 -54.5t-24 -85z" />
<glyph unicode="&#xc6;" horiz-adv-x="1821" d="M-29 0v41q34 2 67 31.5t75 99.5l695 1182q-13 30 -43.5 41t-94.5 14v41q83 -2 193 -3l79 134h49l-79 -135q144 -2 364 -2q289 0 412 6q-15 -151 -15 -279q0 -89 6 -139h-47q-17 138 -51 219.5t-85.5 116.5t-125.5 35h-67q-68 0 -99.5 -12t-43 -46.5t-11.5 -111.5v-483 h108q65 0 101 38.5t47.5 76.5t30.5 126h47q-7 -91 -7 -174l1 -88q0 -93 12 -262h-47q-12 76 -28 125.5t-53.5 83t-103.5 33.5h-108v-492q0 -77 11.5 -111.5t43 -46.5t99.5 -12h100q112 0 180 94.5t90 317.5h47q-6 -67 -6 -172q0 -156 15 -287q-136 6 -453 6q-391 0 -590 -6 v41q62 4 89.5 16.5t37.5 47.5t10 112v492h-343l-290 -496q-37 -62 -37 -100q0 -36 34.5 -52.5t107.5 -19.5v-41q-61 6 -186 6q-88 0 -138 -6zM504 750h319v483q0 35 -2 58z" />
<glyph unicode="&#xc7;" horiz-adv-x="1444" d="M88 713q0 226 92 400t257 270t376 96q122 0 208.5 -35t168.5 -98q23 -18 40 -18q42 0 52 122h47q-8 -139 -8 -496h-47q-13 103 -28.5 167.5t-45 113.5t-80.5 90q-51 49 -119 74.5t-141 25.5q-141 0 -232 -97t-133 -256t-42 -351t44 -351t137.5 -254.5t233.5 -95.5 q71 0 139 26t115 75q52 40 81.5 92.5t44 121.5t26.5 181h47q0 -371 8 -516h-47q-5 64 -16.5 92.5t-33.5 28.5q-16 0 -42 -17q-60 -42 -111.5 -70t-118 -45.5t-149.5 -17.5q-217 0 -380.5 88t-253 255.5t-89.5 398.5zM597 -360l11 36q72 -8 102 -8q75 0 130.5 20.5t55.5 63.5 q0 53 -94 53q-48 0 -80 -14l68 219h55l-45 -143q70 24 158 24q73 0 113 -30t40 -80q0 -83 -91.5 -124.5t-231.5 -41.5q-119 0 -191 25z" />
<glyph unicode="&#xc8;" horiz-adv-x="1298" d="M70 0v41q68 3 99 16t42.5 48t11.5 112v1016q0 77 -11.5 112t-42.5 48t-99 16v41q221 -6 667 -6q301 0 428 6q-14 -169 -14 -303q0 -91 6 -139h-47q-21 149 -64 235t-109 123t-163 37h-84q-64 0 -92.5 -10.5t-38.5 -40t-10 -95.5v-507h65q110 0 166 80t78 190h47 q-7 -101 -7 -193l1 -98q0 -104 12 -291h-47q-41 271 -250 271h-65v-516q0 -66 10 -95.5t38.5 -40t92.5 -10.5h101q144 0 233.5 100t126.5 336h47q-6 -67 -6 -172q0 -188 14 -311q-139 6 -469 6q-446 0 -667 -6zM272 1820q0 26 12 48q15 29 42.5 45t60.5 16q32 0 62 -16 q32 -17 59 -41.5t102 -105.5t171 -160l-14 -25q-76 29 -135.5 46t-152.5 40.5t-138 48.5q-33 18 -51 45.5t-18 58.5z" />
<glyph unicode="&#xc9;" horiz-adv-x="1298" d="M70 0v41q68 3 99 16t42.5 48t11.5 112v1016q0 77 -11.5 112t-42.5 48t-99 16v41q221 -6 667 -6q301 0 428 6q-14 -169 -14 -303q0 -91 6 -139h-47q-21 149 -64 235t-109 123t-163 37h-84q-64 0 -92.5 -10.5t-38.5 -40t-10 -95.5v-507h65q110 0 166 80t78 190h47 q-7 -101 -7 -193l1 -98q0 -104 12 -291h-47q-41 271 -250 271h-65v-516q0 -66 10 -95.5t38.5 -40t92.5 -10.5h101q144 0 233.5 100t126.5 336h47q-6 -67 -6 -172q0 -188 14 -311q-139 6 -469 6q-446 0 -667 -6zM494 1606q65 53 109.5 97t110 114.5t112.5 95.5q32 16 63 16 q32 0 60 -16t43 -45q12 -22 12 -47q0 -31 -18 -59t-51 -46q-45 -25 -120.5 -44t-143.5 -37t-162 -54z" />
<glyph unicode="&#xca;" horiz-adv-x="1298" d="M70 0v41q68 3 99 16t42.5 48t11.5 112v1016q0 77 -11.5 112t-42.5 48t-99 16v41q221 -6 667 -6q301 0 428 6q-14 -169 -14 -303q0 -91 6 -139h-47q-21 149 -64 235t-109 123t-163 37h-84q-64 0 -92.5 -10.5t-38.5 -40t-10 -95.5v-507h65q110 0 166 80t78 190h47 q-7 -101 -7 -193l1 -98q0 -104 12 -291h-47q-41 271 -250 271h-65v-516q0 -66 10 -95.5t38.5 -40t92.5 -10.5h101q144 0 233.5 100t126.5 336h47q-6 -67 -6 -172q0 -188 14 -311q-139 6 -469 6q-446 0 -667 -6zM206 1606q131 55 242.5 140.5t177.5 178.5h37 q65 -92 176.5 -178t242.5 -141l-10 -31q-134 25 -263 61.5t-206 71.5q-64 -35 -170.5 -71.5t-216.5 -61.5z" />
<glyph unicode="&#xcb;" horiz-adv-x="1298" d="M70 0v41q68 3 99 16t42.5 48t11.5 112v1016q0 77 -11.5 112t-42.5 48t-99 16v41q221 -6 667 -6q301 0 428 6q-14 -169 -14 -303q0 -91 6 -139h-47q-21 149 -64 235t-109 123t-163 37h-84q-64 0 -92.5 -10.5t-38.5 -40t-10 -95.5v-507h65q110 0 166 80t78 190h47 q-7 -101 -7 -193l1 -98q0 -104 12 -291h-47q-41 271 -250 271h-65v-516q0 -66 10 -95.5t38.5 -40t92.5 -10.5h101q144 0 233.5 100t126.5 336h47q-6 -67 -6 -172q0 -188 14 -311q-139 6 -469 6q-446 0 -667 -6zM245 1722q0 40 21 76t56 58t76 22q40 0 76 -22t58 -58t22 -76 q0 -41 -22 -76t-58 -56t-76 -21q-41 0 -76.5 20.5t-56 56t-20.5 76.5zM734 1722q0 41 21 77t57 57.5t78 21.5q40 0 75.5 -22t56.5 -58t21 -76q0 -41 -21 -76.5t-56.5 -56t-75.5 -20.5q-42 0 -78 20.5t-57 56t-21 76.5z" />
<glyph unicode="&#xcc;" horiz-adv-x="770" d="M20 1820q0 26 12 48q15 29 42.5 45t60.5 16q32 0 62 -16q32 -17 59 -41.5t102 -105.5t171 -160l-14 -25q-76 29 -135.5 46t-152.5 40.5t-138 48.5q-33 18 -51 45.5t-18 58.5zM70 0v41q68 3 99 16t42.5 48t11.5 112v1016q0 77 -11.5 112t-42.5 48t-99 16v41q103 -6 323 -6 q200 0 309 6v-41q-69 -3 -100 -16t-42 -48t-11 -112v-1016q0 -77 11 -112t42 -48t100 -16v-41q-109 6 -309 6q-219 0 -323 -6z" />
<glyph unicode="&#xcd;" horiz-adv-x="770" d="M70 0v41q68 3 99 16t42.5 48t11.5 112v1016q0 77 -11.5 112t-42.5 48t-99 16v41q103 -6 323 -6q200 0 309 6v-41q-69 -3 -100 -16t-42 -48t-11 -112v-1016q0 -77 11 -112t42 -48t100 -16v-41q-109 6 -309 6q-219 0 -323 -6zM242 1606q65 53 109.5 97t110 114.5 t112.5 95.5q32 16 63 16q32 0 60 -16t43 -45q12 -22 12 -47q0 -31 -18 -59t-51 -46q-45 -25 -120.5 -44t-143.5 -37t-162 -54z" />
<glyph unicode="&#xce;" horiz-adv-x="770" d="M-46 1606q131 55 242.5 140.5t177.5 178.5h37q65 -92 176.5 -178t242.5 -141l-10 -31q-134 25 -263 61.5t-206 71.5q-64 -35 -170.5 -71.5t-216.5 -61.5zM70 0v41q68 3 99 16t42.5 48t11.5 112v1016q0 77 -11.5 112t-42.5 48t-99 16v41q103 -6 323 -6q200 0 309 6v-41 q-69 -3 -100 -16t-42 -48t-11 -112v-1016q0 -77 11 -112t42 -48t100 -16v-41q-109 6 -309 6q-219 0 -323 -6z" />
<glyph unicode="&#xcf;" horiz-adv-x="770" d="M-7 1722q0 40 21 76t56 58t76 22q40 0 76 -22t58 -58t22 -76q0 -41 -22 -76t-58 -56t-76 -21q-41 0 -76.5 20.5t-56 56t-20.5 76.5zM70 0v41q68 3 99 16t42.5 48t11.5 112v1016q0 77 -11.5 112t-42.5 48t-99 16v41q103 -6 323 -6q200 0 309 6v-41q-69 -3 -100 -16 t-42 -48t-11 -112v-1016q0 -77 11 -112t42 -48t100 -16v-41q-109 6 -309 6q-219 0 -323 -6zM482 1722q0 41 21 77t57 57.5t78 21.5q40 0 75.5 -22t56.5 -58t21 -76q0 -41 -21 -76.5t-56.5 -56t-75.5 -20.5q-42 0 -78 20.5t-57 56t-21 76.5z" />
<glyph unicode="&#xd0;" horiz-adv-x="1589" d="M70 709v41h154v483q0 77 -11.5 112t-42.5 48t-99 16v41q131 -7 247 -7l64 1q288 6 321 6q400 0 598.5 -181t198.5 -528q0 -223 -97 -390.5t-281 -259t-437 -91.5q-30 0 -140.5 3t-158.5 3q-211 0 -315 -6v41q68 3 99 16t42.5 48t11.5 112v492h-154zM550 213 q0 -74 12 -110.5t44 -51t97 -14.5q169 0 269.5 79.5t144 232t43.5 384.5q0 233 -46.5 382.5t-147.5 223.5t-265 74q-64 0 -95.5 -14.5t-43.5 -51.5t-12 -110v-487h253v-41h-253v-496z" />
<glyph unicode="&#xd1;" horiz-adv-x="1479" d="M72 0v41q67 9 98.5 34.5t43 78t11.5 157.5v922q0 77 -11.5 112t-42.5 48t-99 16v41q65 -6 178 -6q103 0 176 6l793 -977v641q0 121 -13 177.5t-53.5 82.5t-132.5 35v41q79 -6 221 -6q114 0 178 6v-41q-67 -9 -98.5 -34.5t-43 -78t-11.5 -157.5v-1143q-15 1 -50 1 q-36 0 -55 -1l-889 1126v-786q0 -121 13 -177.5t53.5 -82.5t132.5 -35v-41q-79 6 -221 6q-113 0 -178 -6zM322 1616q28 136 102.5 206t171.5 70q67 0 118 -19.5t143 -72.5t169 -53q109 0 170 111l29 -11q-27 -135 -101 -204.5t-171 -69.5q-67 0 -117.5 19.5t-143.5 72.5 t-172 53q-106 0 -170 -112z" />
<glyph unicode="&#xd2;" d="M88 713q0 226 92 400t257 270t376 96q216 0 379.5 -88t253.5 -255.5t90 -398.5q0 -226 -92.5 -400t-257.5 -270t-375 -96q-217 0 -380.5 88t-253 255.5t-89.5 398.5zM428 721q0 -213 52 -375t141 -250t198 -88q113 0 198.5 91.5t132 255t46.5 374.5q0 212 -52 374.5 t-141.5 250.5t-197.5 88q-113 0 -198.5 -91.5t-132 -255t-46.5 -374.5zM437 1820q0 26 12 48q15 29 42.5 45t60.5 16q32 0 62 -16q32 -17 59 -41.5t102 -105.5t171 -160l-14 -25q-76 29 -135.5 46t-152.5 40.5t-138 48.5q-33 18 -51 45.5t-18 58.5z" />
<glyph unicode="&#xd3;" d="M88 713q0 226 92 400t257 270t376 96q216 0 379.5 -88t253.5 -255.5t90 -398.5q0 -226 -92.5 -400t-257.5 -270t-375 -96q-217 0 -380.5 88t-253 255.5t-89.5 398.5zM428 721q0 -213 52 -375t141 -250t198 -88q113 0 198.5 91.5t132 255t46.5 374.5q0 212 -52 374.5 t-141.5 250.5t-197.5 88q-113 0 -198.5 -91.5t-132 -255t-46.5 -374.5zM659 1606q65 53 109.5 97t110 114.5t112.5 95.5q32 16 63 16q32 0 60 -16t43 -45q12 -22 12 -47q0 -31 -18 -59t-51 -46q-45 -25 -120.5 -44t-143.5 -37t-162 -54z" />
<glyph unicode="&#xd4;" d="M88 713q0 226 92 400t257 270t376 96q216 0 379.5 -88t253.5 -255.5t90 -398.5q0 -226 -92.5 -400t-257.5 -270t-375 -96q-217 0 -380.5 88t-253 255.5t-89.5 398.5zM371 1606q131 55 242.5 140.5t177.5 178.5h37q65 -92 176.5 -178t242.5 -141l-10 -31 q-134 25 -263 61.5t-206 71.5q-64 -35 -170.5 -71.5t-216.5 -61.5zM428 721q0 -213 52 -375t141 -250t198 -88q113 0 198.5 91.5t132 255t46.5 374.5q0 212 -52 374.5t-141.5 250.5t-197.5 88q-113 0 -198.5 -91.5t-132 -255t-46.5 -374.5z" />
<glyph unicode="&#xd5;" d="M88 713q0 226 92 400t257 270t376 96q216 0 379.5 -88t253.5 -255.5t90 -398.5q0 -226 -92.5 -400t-257.5 -270t-375 -96q-217 0 -380.5 88t-253 255.5t-89.5 398.5zM355 1616q28 136 102.5 206t171.5 70q67 0 118 -19.5t143 -72.5t169 -53q109 0 170 111l29 -11 q-27 -135 -101 -204.5t-171 -69.5q-67 0 -117.5 19.5t-143.5 72.5t-172 53q-106 0 -170 -112zM428 721q0 -213 52 -375t141 -250t198 -88q113 0 198.5 91.5t132 255t46.5 374.5q0 212 -52 374.5t-141.5 250.5t-197.5 88q-113 0 -198.5 -91.5t-132 -255t-46.5 -374.5z" />
<glyph unicode="&#xd6;" d="M88 713q0 226 92 400t257 270t376 96q216 0 379.5 -88t253.5 -255.5t90 -398.5q0 -226 -92.5 -400t-257.5 -270t-375 -96q-217 0 -380.5 88t-253 255.5t-89.5 398.5zM410 1722q0 40 21 76t56 58t76 22q40 0 76 -22t58 -58t22 -76q0 -41 -22 -76t-58 -56t-76 -21 q-41 0 -76.5 20.5t-56 56t-20.5 76.5zM428 721q0 -213 52 -375t141 -250t198 -88q113 0 198.5 91.5t132 255t46.5 374.5q0 212 -52 374.5t-141.5 250.5t-197.5 88q-113 0 -198.5 -91.5t-132 -255t-46.5 -374.5zM899 1722q0 41 21 77t57 57.5t78 21.5q40 0 75.5 -22t56.5 -58 t21 -76q0 -41 -21 -76.5t-56.5 -56t-75.5 -20.5q-42 0 -78 20.5t-57 56t-21 76.5z" />
<glyph unicode="&#xd7;" horiz-adv-x="1010" d="M104 1085l46 45l358 -358l354 354l45 -45l-354 -352l354 -354l-45 -45l-354 354l-356 -356l-46 45l357 354z" />
<glyph unicode="&#xd8;" d="M88 713q0 226 92 400t257 270t376 96q229 0 398 -98l147 214l39 -26l-145 -214q136 -94 210 -251.5t74 -366.5q0 -226 -92.5 -400t-257.5 -270t-375 -96q-242 0 -416 109l-170 -242l-43 29l171 242q-128 95 -196.5 249t-68.5 355zM428 721q0 -248 71 -429l595 933 q-54 104 -129 160.5t-160 56.5q-113 0 -198.5 -91.5t-132 -255t-46.5 -374.5zM524 236q53 -110 129.5 -169t165.5 -59q113 0 198.5 91.5t132 255t46.5 374.5q0 258 -78 444z" />
<glyph unicode="&#xd9;" horiz-adv-x="1411" d="M39 1409v41q105 -6 319 -6q212 0 326 6v-41q-74 -3 -107.5 -16t-46 -48t-12.5 -112v-772q0 -144 26 -234.5t87.5 -137t169.5 -46.5q204 0 288.5 138t84.5 392v541q0 119 -14.5 176.5t-55.5 83.5t-129 35v41q77 -6 221 -6q114 0 178 6v-41q-67 -9 -98.5 -34.5t-43 -78 t-11.5 -157.5v-543q0 -293 -84 -434q-56 -91 -160 -141t-256 -50q-236 0 -369 103q-65 52 -99.5 121t-47 161.5t-12.5 233.5v643q0 77 -11.5 112t-43 48t-99.5 16zM360 1820q0 26 12 48q15 29 42.5 45t60.5 16q32 0 62 -16q32 -17 59 -41.5t102 -105.5t171 -160l-14 -25 q-76 29 -135.5 46t-152.5 40.5t-138 48.5q-33 18 -51 45.5t-18 58.5z" />
<glyph unicode="&#xda;" horiz-adv-x="1411" d="M39 1409v41q105 -6 319 -6q212 0 326 6v-41q-74 -3 -107.5 -16t-46 -48t-12.5 -112v-772q0 -144 26 -234.5t87.5 -137t169.5 -46.5q204 0 288.5 138t84.5 392v541q0 119 -14.5 176.5t-55.5 83.5t-129 35v41q77 -6 221 -6q114 0 178 6v-41q-67 -9 -98.5 -34.5t-43 -78 t-11.5 -157.5v-543q0 -293 -84 -434q-56 -91 -160 -141t-256 -50q-236 0 -369 103q-65 52 -99.5 121t-47 161.5t-12.5 233.5v643q0 77 -11.5 112t-43 48t-99.5 16zM582 1606q65 53 109.5 97t110 114.5t112.5 95.5q32 16 63 16q32 0 60 -16t43 -45q12 -22 12 -47 q0 -31 -18 -59t-51 -46q-45 -25 -120.5 -44t-143.5 -37t-162 -54z" />
<glyph unicode="&#xdb;" horiz-adv-x="1411" d="M39 1409v41q105 -6 319 -6q212 0 326 6v-41q-74 -3 -107.5 -16t-46 -48t-12.5 -112v-772q0 -144 26 -234.5t87.5 -137t169.5 -46.5q204 0 288.5 138t84.5 392v541q0 119 -14.5 176.5t-55.5 83.5t-129 35v41q77 -6 221 -6q114 0 178 6v-41q-67 -9 -98.5 -34.5t-43 -78 t-11.5 -157.5v-543q0 -293 -84 -434q-56 -91 -160 -141t-256 -50q-236 0 -369 103q-65 52 -99.5 121t-47 161.5t-12.5 233.5v643q0 77 -11.5 112t-43 48t-99.5 16zM294 1606q131 55 242.5 140.5t177.5 178.5h37q65 -92 176.5 -178t242.5 -141l-10 -31q-134 25 -263 61.5 t-206 71.5q-64 -35 -170.5 -71.5t-216.5 -61.5z" />
<glyph unicode="&#xdc;" horiz-adv-x="1411" d="M39 1409v41q105 -6 319 -6q212 0 326 6v-41q-74 -3 -107.5 -16t-46 -48t-12.5 -112v-772q0 -144 26 -234.5t87.5 -137t169.5 -46.5q204 0 288.5 138t84.5 392v541q0 119 -14.5 176.5t-55.5 83.5t-129 35v41q77 -6 221 -6q114 0 178 6v-41q-67 -9 -98.5 -34.5t-43 -78 t-11.5 -157.5v-543q0 -293 -84 -434q-56 -91 -160 -141t-256 -50q-236 0 -369 103q-65 52 -99.5 121t-47 161.5t-12.5 233.5v643q0 77 -11.5 112t-43 48t-99.5 16zM333 1722q0 40 21 76t56 58t76 22q40 0 76 -22t58 -58t22 -76q0 -41 -22 -76t-58 -56t-76 -21 q-41 0 -76.5 20.5t-56 56t-20.5 76.5zM822 1722q0 41 21 77t57 57.5t78 21.5q40 0 75.5 -22t56.5 -58t21 -76q0 -41 -21 -76.5t-56.5 -56t-75.5 -20.5q-42 0 -78 20.5t-57 56t-21 76.5z" />
<glyph unicode="&#xdd;" horiz-adv-x="1276" d="M-14 1409v43q89 -10 241 -10q192 0 385 10v-43q-72 0 -113.5 -12.5t-41.5 -47.5q0 -21 14 -46l312 -600l159 319q81 162 81 253q0 69 -44 101t-127 35v41q138 -6 256 -6q94 0 156 6v-41q-47 -20 -94.5 -75.5t-102.5 -161.5l-242 -479v-478q0 -77 11.5 -112t42.5 -48 t100 -16v-41q-111 6 -315 6q-219 0 -318 -6v41q68 3 99.5 16t43 48t11.5 112v346l-396 731q-63 115 -118 115zM527 1606q65 53 109.5 97t110 114.5t112.5 95.5q32 16 63 16q32 0 60 -16t43 -45q12 -22 12 -47q0 -31 -18 -59t-51 -46q-45 -25 -120.5 -44t-143.5 -37t-162 -54 z" />
<glyph unicode="&#xde;" horiz-adv-x="1272" d="M70 0v41q68 3 99 16t42.5 48t11.5 112v1016q0 77 -11.5 112t-42.5 48t-99 16v41q104 -6 323 -6q200 0 309 6v-41q-69 -3 -100 -16t-42 -48t-11 -112v-74l115 2q281 0 424 -101.5t143 -291.5q0 -128 -56 -232.5t-192.5 -170.5t-364.5 -66h-69v-82q0 -77 11 -112t42 -48 t100 -16v-41q-109 6 -309 6q-219 0 -323 -6zM549 340h49q167 0 230 110t63 300q0 188 -64.5 280t-214.5 92l-63 -1v-781z" />
<glyph unicode="&#xdf;" horiz-adv-x="1346" d="M39 0v43q73 0 102 36t29 124v866q0 269 130 401t378 132q136 0 233 -38.5t147 -107.5t50 -158q0 -98 -62 -183t-161.5 -144t-210.5 -84q192 -28 331 -101t212 -180.5t73 -236.5q0 -123 -62.5 -213.5t-166.5 -137.5t-225 -47q-125 0 -207 51t-82 160q0 74 38.5 119 t106.5 45q64 0 104 -39t40 -102q0 -61 -36.5 -106t-92.5 -66q25 -27 79 -27q61 0 106 40t69 114.5t24 177.5q0 220 -98 347.5t-246 178.5q-43 -26 -72 -26q-17 0 -29 8.5t-12 23.5q0 18 12.5 28.5t34.5 10.5q32 0 68 -16q102 72 142 160.5t40 224.5q0 293 -182 293 q-64 0 -102.5 -37.5t-57 -125.5t-18.5 -243v-1188q-101 26 -256 29q-13 1 -38 1q-52 0 -132 -7z" />
<glyph unicode="&#xe0;" horiz-adv-x="1061" d="M59 219q0 107 70 177t217 124q16 6 104 39.5t127 68.5t39 77v159q0 85 -40.5 134t-126.5 49q-40 0 -80 -12.5t-66 -37.5q57 -19 89 -59.5t32 -101.5q0 -42 -20.5 -75.5t-58.5 -53t-87 -19.5q-66 0 -105.5 45t-39.5 113q0 106 114 172q125 69 312 69q210 0 299 -92 q43 -43 58 -107t15 -179v-557q0 -50 9.5 -70.5t33.5 -20.5q33 0 76 35l21 -35q-47 -39 -102 -57t-132 -18q-104 0 -150 46t-46 120q-50 -83 -131 -124.5t-173 -41.5q-117 0 -187.5 61.5t-70.5 171.5zM238 1594q0 47 38 79q30 26 70 26q28 0 54 -13t44 -35q24 -28 40 -60.5 t56 -135.5t99 -210l-23 -18q-61 56 -110 94.5t-126.5 94t-109.5 95.5t-32 83zM350 276q0 -80 35 -119.5t92 -39.5q81 0 139 84v420q-13 -22 -42.5 -45.5t-84.5 -57.5q-65 -45 -102 -101.5t-37 -140.5z" />
<glyph unicode="&#xe1;" horiz-adv-x="1061" d="M59 219q0 107 70 177t217 124q16 6 104 39.5t127 68.5t39 77v159q0 85 -40.5 134t-126.5 49q-40 0 -80 -12.5t-66 -37.5q57 -19 89 -59.5t32 -101.5q0 -42 -20.5 -75.5t-58.5 -53t-87 -19.5q-66 0 -105.5 45t-39.5 113q0 106 114 172q125 69 312 69q210 0 299 -92 q43 -43 58 -107t15 -179v-557q0 -50 9.5 -70.5t33.5 -20.5q33 0 76 35l21 -35q-47 -39 -102 -57t-132 -18q-104 0 -150 46t-46 120q-50 -83 -131 -124.5t-173 -41.5q-117 0 -187.5 61.5t-70.5 171.5zM350 276q0 -80 35 -119.5t92 -39.5q81 0 139 84v420q-13 -22 -42.5 -45.5 t-84.5 -57.5q-65 -45 -102 -101.5t-37 -140.5zM393 1245q59 107 93.5 195.5t53 132.5t48.5 78q17 23 42.5 35.5t52.5 12.5q42 0 72 -26q38 -30 38 -79q0 -45 -31 -83q-32 -40 -95 -85t-120 -87.5t-132 -111.5z" />
<glyph unicode="&#xe2;" horiz-adv-x="1061" d="M59 219q0 107 70 177t217 124q16 6 104 39.5t127 68.5t39 77v159q0 85 -40.5 134t-126.5 49q-40 0 -80 -12.5t-66 -37.5q57 -19 89 -59.5t32 -101.5q0 -42 -20.5 -75.5t-58.5 -53t-87 -19.5q-66 0 -105.5 45t-39.5 113q0 106 114 172q125 69 312 69q210 0 299 -92 q43 -43 58 -107t15 -179v-557q0 -50 9.5 -70.5t33.5 -20.5q33 0 76 35l21 -35q-47 -39 -102 -57t-132 -18q-104 0 -150 46t-46 120q-50 -83 -131 -124.5t-173 -41.5q-117 0 -187.5 61.5t-70.5 171.5zM147 1278q113 67 210 175t156 226h37q55 -116 153.5 -224.5t213.5 -176.5 l-17 -29q-117 28 -229 70.5t-180 85.5q-56 -43 -145.5 -85.5t-182.5 -70.5zM350 276q0 -80 35 -119.5t92 -39.5q81 0 139 84v420q-13 -22 -42.5 -45.5t-84.5 -57.5q-65 -45 -102 -101.5t-37 -140.5z" />
<glyph unicode="&#xe3;" horiz-adv-x="1061" d="M59 219q0 107 70 177t217 124q16 6 104 39.5t127 68.5t39 77v159q0 85 -40.5 134t-126.5 49q-40 0 -80 -12.5t-66 -37.5q57 -19 89 -59.5t32 -101.5q0 -42 -20.5 -75.5t-58.5 -53t-87 -19.5q-66 0 -105.5 45t-39.5 113q0 106 114 172q125 69 312 69q210 0 299 -92 q43 -43 58 -107t15 -179v-557q0 -50 9.5 -70.5t33.5 -20.5q33 0 76 35l21 -35q-47 -39 -102 -57t-132 -18q-104 0 -150 46t-46 120q-50 -83 -131 -124.5t-173 -41.5q-117 0 -187.5 61.5t-70.5 171.5zM111 1325q32 145 100.5 215t155.5 70q58 0 99.5 -18.5t112.5 -67.5 t134 -49q92 0 157 108l29 -14q-32 -145 -100 -215t-154 -70q-59 0 -101 19t-113 68.5t-134 49.5q-92 0 -158 -110zM350 276q0 -80 35 -119.5t92 -39.5q81 0 139 84v420q-13 -22 -42.5 -45.5t-84.5 -57.5q-65 -45 -102 -101.5t-37 -140.5z" />
<glyph unicode="&#xe4;" horiz-adv-x="1061" d="M59 219q0 107 70 177t217 124q16 6 104 39.5t127 68.5t39 77v159q0 85 -40.5 134t-126.5 49q-40 0 -80 -12.5t-66 -37.5q57 -19 89 -59.5t32 -101.5q0 -42 -20.5 -75.5t-58.5 -53t-87 -19.5q-66 0 -105.5 45t-39.5 113q0 106 114 172q125 69 312 69q210 0 299 -92 q43 -43 58 -107t15 -179v-557q0 -50 9.5 -70.5t33.5 -20.5q33 0 76 35l21 -35q-47 -39 -102 -57t-132 -18q-104 0 -150 46t-46 120q-50 -83 -131 -124.5t-173 -41.5q-117 0 -187.5 61.5t-70.5 171.5zM147 1403q0 40 21 75.5t56.5 56.5t76.5 21q40 0 76 -21t58 -56.5 t22 -75.5q0 -42 -21.5 -77.5t-57.5 -56t-77 -20.5t-76.5 20.5t-56.5 56t-21 77.5zM350 276q0 -80 35 -119.5t92 -39.5q81 0 139 84v420q-13 -22 -42.5 -45.5t-84.5 -57.5q-65 -45 -102 -101.5t-37 -140.5zM612 1403q0 40 21 75.5t57 56.5t78 21q40 0 75.5 -21t56.5 -56.5 t21 -75.5q0 -42 -21 -77.5t-56 -56t-76 -20.5q-42 0 -78 20.5t-57 56t-21 77.5z" />
<glyph unicode="&#xe5;" horiz-adv-x="1061" d="M59 219q0 107 70 177t217 124q16 6 104 39.5t127 68.5t39 77v159q0 85 -40.5 134t-126.5 49q-40 0 -80 -12.5t-66 -37.5q57 -19 89 -59.5t32 -101.5q0 -42 -20.5 -75.5t-58.5 -53t-87 -19.5q-66 0 -105.5 45t-39.5 113q0 106 114 172q125 69 312 69q210 0 299 -92 q43 -43 58 -107t15 -179v-557q0 -50 9.5 -70.5t33.5 -20.5q33 0 76 35l21 -35q-47 -39 -102 -57t-132 -18q-104 0 -150 46t-46 120q-50 -83 -131 -124.5t-173 -41.5q-117 0 -187.5 61.5t-70.5 171.5zM311 1434q0 59 30.5 104t81 69.5t109.5 24.5q60 0 111.5 -24.5t82 -69.5 t30.5 -104q0 -60 -30.5 -106t-82 -70.5t-111.5 -24.5q-59 0 -109.5 24.5t-81 70.5t-30.5 106zM350 276q0 -80 35 -119.5t92 -39.5q81 0 139 84v420q-13 -22 -42.5 -45.5t-84.5 -57.5q-65 -45 -102 -101.5t-37 -140.5zM368 1432q0 -50 24 -85t61.5 -53t78.5 -18q42 0 80 17.5 t62 53t24 85.5q0 49 -24 84.5t-62.5 54t-79.5 18.5q-40 0 -78 -18.5t-62 -54t-24 -84.5z" />
<glyph unicode="&#xe6;" horiz-adv-x="1505" d="M63 211q0 111 70 182t215 125q104 42 149 63t76 51.5t31 72.5v159q0 84 -42.5 133.5t-127.5 49.5q-37 0 -77 -12.5t-66 -37.5q117 -40 117 -153q0 -42 -21 -75.5t-58.5 -53t-84.5 -19.5q-64 0 -104 43.5t-40 108.5q0 53 31 97t84 75q120 67 279 67q99 0 165 -26t106 -88 q120 114 308 114q367 0 367 -454h-532q-3 -30 -3 -96q0 -136 35 -225.5t90 -131t119 -41.5q150 0 240 164l38 -12q-25 -84 -75.5 -156.5t-128.5 -118t-179 -45.5q-129 0 -226.5 56t-151.5 169q-60 -109 -143 -162.5t-199 -53.5q-76 0 -135 27t-92.5 79t-33.5 125zM354 279 q0 -74 33.5 -111t93.5 -37q51 0 91.5 22t76.5 78l-1 6q-44 118 -44 281q0 40 3 77l-3 26q-26 -43 -100 -97q-72 -52 -111 -109t-39 -136zM902 672h280q2 162 -28 267t-91 105q-65 0 -108 -90.5t-53 -281.5z" />
<glyph unicode="&#xe7;" horiz-adv-x="1016" d="M74 524q0 181 65.5 307.5t180 191t262.5 64.5q76 0 143 -16.5t113 -44.5q53 -33 82.5 -82.5t29.5 -109.5q0 -73 -45.5 -118.5t-116.5 -45.5q-72 0 -114.5 41t-42.5 110q0 62 39 107t96 61q-16 22 -49.5 35.5t-73.5 13.5q-83 0 -141.5 -62.5t-88.5 -172t-30 -250.5 q0 -150 38 -242t99 -131t135 -39q70 0 141 36.5t128 129.5l34 -12q-26 -84 -78 -157.5t-135 -120t-194 -46.5q-137 0 -244.5 60t-170 184t-62.5 309zM315 -360l10 36q64 -8 90 -8q60 0 105 20.5t45 63.5q0 53 -68 53q-47 0 -82 -14l66 213h55l-43 -137q65 24 145 24 q68 0 105 -30t37 -80q0 -83 -81.5 -124.5t-205.5 -41.5q-110 0 -178 25z" />
<glyph unicode="&#xe8;" horiz-adv-x="1032" d="M76 518q0 186 64 313.5t177 191.5t261 64q385 0 385 -454h-575q-3 -30 -3 -96q0 -136 38 -225.5t98.5 -131t129.5 -41.5q169 0 271 164l36 -12q-26 -84 -80.5 -156.5t-138 -118t-190.5 -45.5q-141 0 -247.5 60t-166 182.5t-59.5 304.5zM271 1594q0 47 38 79q30 26 70 26 q28 0 54 -13t44 -35q24 -28 40 -60.5t56 -135.5t99 -210l-23 -18q-61 56 -110 94.5t-126.5 94t-109.5 95.5t-32 83zM384 672h321q3 160 -32.5 266t-107.5 106q-73 0 -121.5 -90.5t-59.5 -281.5z" />
<glyph unicode="&#xe9;" horiz-adv-x="1032" d="M76 518q0 186 64 313.5t177 191.5t261 64q385 0 385 -454h-575q-3 -30 -3 -96q0 -136 38 -225.5t98.5 -131t129.5 -41.5q169 0 271 164l36 -12q-26 -84 -80.5 -156.5t-138 -118t-190.5 -45.5q-141 0 -247.5 60t-166 182.5t-59.5 304.5zM384 672h321q3 160 -32.5 266 t-107.5 106q-73 0 -121.5 -90.5t-59.5 -281.5zM426 1245q59 107 93.5 195.5t53 132.5t48.5 78q17 23 42.5 35.5t52.5 12.5q42 0 72 -26q38 -30 38 -79q0 -45 -31 -83q-32 -40 -95 -85t-120 -87.5t-132 -111.5z" />
<glyph unicode="&#xea;" horiz-adv-x="1032" d="M76 518q0 186 64 313.5t177 191.5t261 64q385 0 385 -454h-575q-3 -30 -3 -96q0 -136 38 -225.5t98.5 -131t129.5 -41.5q169 0 271 164l36 -12q-26 -84 -80.5 -156.5t-138 -118t-190.5 -45.5q-141 0 -247.5 60t-166 182.5t-59.5 304.5zM180 1278q113 67 210 175t156 226 h37q55 -116 153.5 -224.5t213.5 -176.5l-17 -29q-117 28 -229 70.5t-180 85.5q-56 -43 -145.5 -85.5t-182.5 -70.5zM384 672h321q3 160 -32.5 266t-107.5 106q-73 0 -121.5 -90.5t-59.5 -281.5z" />
<glyph unicode="&#xeb;" horiz-adv-x="1032" d="M76 518q0 186 64 313.5t177 191.5t261 64q385 0 385 -454h-575q-3 -30 -3 -96q0 -136 38 -225.5t98.5 -131t129.5 -41.5q169 0 271 164l36 -12q-26 -84 -80.5 -156.5t-138 -118t-190.5 -45.5q-141 0 -247.5 60t-166 182.5t-59.5 304.5zM180 1403q0 40 21 75.5t56.5 56.5 t76.5 21q40 0 76 -21t58 -56.5t22 -75.5q0 -42 -21.5 -77.5t-57.5 -56t-77 -20.5t-76.5 20.5t-56.5 56t-21 77.5zM384 672h321q3 160 -32.5 266t-107.5 106q-73 0 -121.5 -90.5t-59.5 -281.5zM645 1403q0 40 21 75.5t57 56.5t78 21q40 0 75.5 -21t56.5 -56.5t21 -75.5 q0 -42 -21 -77.5t-56 -56t-76 -20.5q-42 0 -78 20.5t-57 56t-21 77.5z" />
<glyph unicode="&#xec;" horiz-adv-x="645" d="M28 1594q0 47 38 79q30 26 70 26q28 0 54 -13t44 -35q24 -28 40 -60.5t56 -135.5t99 -210l-23 -18q-61 56 -110 94.5t-126.5 94t-109.5 95.5t-32 83zM49 0v43q49 0 77.5 13t41 45t12.5 89v646q0 95 -29 137.5t-102 42.5v43q65 -6 127 -6q181 0 299 28v-891q0 -57 13 -89 t41 -45t77 -13v-43q-204 8 -272 8q-65 0 -285 -8z" />
<glyph unicode="&#xed;" horiz-adv-x="645" d="M49 0v43q49 0 77.5 13t41 45t12.5 89v646q0 95 -29 137.5t-102 42.5v43q65 -6 127 -6q181 0 299 28v-891q0 -57 13 -89t41 -45t77 -13v-43q-204 8 -272 8q-65 0 -285 -8zM183 1245q59 107 93.5 195.5t53 132.5t48.5 78q17 23 42.5 35.5t52.5 12.5q42 0 72 -26 q38 -30 38 -79q0 -45 -31 -83q-32 -40 -95 -85t-120 -87.5t-132 -111.5z" />
<glyph unicode="&#xee;" horiz-adv-x="645" d="M-63 1278q113 67 210 175t156 226h37q55 -116 153.5 -224.5t213.5 -176.5l-17 -29q-117 28 -229 70.5t-180 85.5q-56 -43 -145.5 -85.5t-182.5 -70.5zM49 0v43q49 0 77.5 13t41 45t12.5 89v646q0 95 -29 137.5t-102 42.5v43q65 -6 127 -6q181 0 299 28v-891q0 -57 13 -89 t41 -45t77 -13v-43q-204 8 -272 8q-65 0 -285 -8z" />
<glyph unicode="&#xef;" horiz-adv-x="645" d="M-63 1403q0 40 21 75.5t56.5 56.5t76.5 21q40 0 76 -21t58 -56.5t22 -75.5q0 -42 -21.5 -77.5t-57.5 -56t-77 -20.5t-76.5 20.5t-56.5 56t-21 77.5zM49 0v43q49 0 77.5 13t41 45t12.5 89v646q0 95 -29 137.5t-102 42.5v43q65 -6 127 -6q181 0 299 28v-891q0 -57 13 -89 t41 -45t77 -13v-43q-204 8 -272 8q-65 0 -285 -8zM402 1403q0 40 21 75.5t57 56.5t78 21q40 0 75.5 -21t56.5 -56.5t21 -75.5q0 -42 -21 -77.5t-56 -56t-76 -20.5q-42 0 -78 20.5t-57 56t-21 77.5z" />
<glyph unicode="&#xf0;" horiz-adv-x="1161" d="M78 508q-1 185 58 315.5t164.5 197t242.5 66.5q112 0 180 -56q-52 191 -168 323l-328 -160l-18 37l317 154q-104 106 -262 182l17 35q193 -66 346 -168l293 143l18 -37l-273 -132q192 -139 301 -335.5t109 -449.5q0 -218 -64 -364.5t-176.5 -218t-259.5 -71.5 q-231 0 -364 131t-133 408zM387 526q0 -176 24 -291.5t65.5 -170t94.5 -54.5q89 0 145 142t56 462q0 212 -37 373q-47 53 -131 53q-217 0 -217 -514z" />
<glyph unicode="&#xf1;" horiz-adv-x="1257" d="M49 0v43q49 0 77.5 13t41 45t12.5 89v646q0 95 -29 137.5t-102 42.5v43q65 -6 127 -6q181 0 299 28v-184q93 190 336 190q84 0 137.5 -20t87.5 -59t49 -101t15 -166v-551q0 -57 13 -89t41 -45t77 -13v-43q-204 8 -270 8q-63 0 -267 -8v43q42 0 66 13t34.5 45t10.5 89v637 q0 84 -27.5 127t-99.5 43q-56 0 -102.5 -31t-73.5 -85.5t-27 -120.5v-570q0 -57 11 -89t35 -45t65 -13v-43q-188 8 -254 8q-63 0 -283 -8zM220 1325q32 145 100.5 215t155.5 70q58 0 99.5 -18.5t112.5 -67.5t134 -49q92 0 157 108l29 -14q-32 -145 -100 -215t-154 -70 q-59 0 -101 19t-113 68.5t-134 49.5q-92 0 -158 -110z" />
<glyph unicode="&#xf2;" horiz-adv-x="1157" d="M76 528q0 290 134 424.5t368 134.5t367.5 -134t133.5 -425q0 -290 -133.5 -423.5t-367.5 -133.5t-368 133.5t-134 423.5zM287 1594q0 47 38 79q30 26 70 26q28 0 54 -13t44 -35q24 -28 40 -60.5t56 -135.5t99 -210l-23 -18q-61 56 -110 94.5t-126.5 94t-109.5 95.5 t-32 83zM385 528q0 -262 52.5 -389t140.5 -127q89 0 140.5 126.5t51.5 389.5q0 264 -51.5 391.5t-140.5 127.5q-88 0 -140.5 -128t-52.5 -391z" />
<glyph unicode="&#xf3;" horiz-adv-x="1157" d="M76 528q0 290 134 424.5t368 134.5t367.5 -134t133.5 -425q0 -290 -133.5 -423.5t-367.5 -133.5t-368 133.5t-134 423.5zM385 528q0 -262 52.5 -389t140.5 -127q89 0 140.5 126.5t51.5 389.5q0 264 -51.5 391.5t-140.5 127.5q-88 0 -140.5 -128t-52.5 -391zM442 1245 q59 107 93.5 195.5t53 132.5t48.5 78q17 23 42.5 35.5t52.5 12.5q42 0 72 -26q38 -30 38 -79q0 -45 -31 -83q-32 -40 -95 -85t-120 -87.5t-132 -111.5z" />
<glyph unicode="&#xf4;" horiz-adv-x="1157" d="M76 528q0 290 134 424.5t368 134.5t367.5 -134t133.5 -425q0 -290 -133.5 -423.5t-367.5 -133.5t-368 133.5t-134 423.5zM196 1278q113 67 210 175t156 226h37q55 -116 153.5 -224.5t213.5 -176.5l-17 -29q-117 28 -229 70.5t-180 85.5q-56 -43 -145.5 -85.5 t-182.5 -70.5zM385 528q0 -262 52.5 -389t140.5 -127q89 0 140.5 126.5t51.5 389.5q0 264 -51.5 391.5t-140.5 127.5q-88 0 -140.5 -128t-52.5 -391z" />
<glyph unicode="&#xf5;" horiz-adv-x="1157" d="M76 528q0 290 134 424.5t368 134.5t367.5 -134t133.5 -425q0 -290 -133.5 -423.5t-367.5 -133.5t-368 133.5t-134 423.5zM160 1325q32 145 100.5 215t155.5 70q58 0 99.5 -18.5t112.5 -67.5t134 -49q92 0 157 108l29 -14q-32 -145 -100 -215t-154 -70q-59 0 -101 19 t-113 68.5t-134 49.5q-92 0 -158 -110zM385 528q0 -262 52.5 -389t140.5 -127q89 0 140.5 126.5t51.5 389.5q0 264 -51.5 391.5t-140.5 127.5q-88 0 -140.5 -128t-52.5 -391z" />
<glyph unicode="&#xf6;" horiz-adv-x="1157" d="M76 528q0 290 134 424.5t368 134.5t367.5 -134t133.5 -425q0 -290 -133.5 -423.5t-367.5 -133.5t-368 133.5t-134 423.5zM196 1403q0 40 21 75.5t56.5 56.5t76.5 21q40 0 76 -21t58 -56.5t22 -75.5q0 -42 -21.5 -77.5t-57.5 -56t-77 -20.5t-76.5 20.5t-56.5 56t-21 77.5z M385 528q0 -262 52.5 -389t140.5 -127q89 0 140.5 126.5t51.5 389.5q0 264 -51.5 391.5t-140.5 127.5q-88 0 -140.5 -128t-52.5 -391zM661 1403q0 40 21 75.5t57 56.5t78 21q40 0 75.5 -21t56.5 -56.5t21 -75.5q0 -42 -21 -77.5t-56 -56t-76 -20.5q-42 0 -78 20.5t-57 56 t-21 77.5z" />
<glyph unicode="&#xf7;" horiz-adv-x="1296" d="M138 696v62h1026v-62h-1026zM537 432q0 46 33 79.5t79 33.5q48 0 81.5 -33t33.5 -80t-33.5 -81t-81.5 -34q-46 0 -79 34t-33 81zM537 1022q0 46 33 79.5t79 33.5q48 0 81.5 -33.5t33.5 -79.5q0 -48 -33.5 -80.5t-81.5 -32.5q-46 0 -79 32.5t-33 80.5z" />
<glyph unicode="&#xf8;" horiz-adv-x="1155" d="M76 528q0 290 134 424.5t368 134.5q183 0 300 -78l138 199l39 -26l-139 -202q163 -139 163 -452q0 -290 -133.5 -423.5t-367.5 -133.5q-177 0 -294 73l-134 -194l-41 27l134 197q-167 138 -167 454zM385 528q0 -148 18 -256l337 575q-47 200 -162 200q-88 0 -140.5 -128 t-52.5 -391zM418 199q49 -187 160 -187q89 0 140.5 126.5t51.5 389.5q0 142 -16 248z" />
<glyph unicode="&#xf9;" horiz-adv-x="1241" d="M27 1016v43q65 -6 127 -6q179 0 299 28v-848q0 -85 25.5 -128.5t96.5 -43.5q54 0 99.5 31.5t72.5 86t27 120.5v537q0 94 -29.5 137t-101.5 43v43q65 -6 127 -6q179 0 299 28v-858q0 -95 29.5 -137.5t101.5 -42.5v-43q-64 6 -127 6q-180 0 -299 -29v185 q-93 -191 -330 -191q-153 0 -223 80q-34 38 -48.5 101t-14.5 165v519q0 94 -29.5 137t-101.5 43zM298 1594q0 47 38 79q30 26 70 26q28 0 54 -13t44 -35q24 -28 40 -60.5t56 -135.5t99 -210l-23 -18q-61 56 -110 94.5t-126.5 94t-109.5 95.5t-32 83z" />
<glyph unicode="&#xfa;" horiz-adv-x="1241" d="M27 1016v43q65 -6 127 -6q179 0 299 28v-848q0 -85 25.5 -128.5t96.5 -43.5q54 0 99.5 31.5t72.5 86t27 120.5v537q0 94 -29.5 137t-101.5 43v43q65 -6 127 -6q179 0 299 28v-858q0 -95 29.5 -137.5t101.5 -42.5v-43q-64 6 -127 6q-180 0 -299 -29v185 q-93 -191 -330 -191q-153 0 -223 80q-34 38 -48.5 101t-14.5 165v519q0 94 -29.5 137t-101.5 43zM453 1245q59 107 93.5 195.5t53 132.5t48.5 78q17 23 42.5 35.5t52.5 12.5q42 0 72 -26q38 -30 38 -79q0 -45 -31 -83q-32 -40 -95 -85t-120 -87.5t-132 -111.5z" />
<glyph unicode="&#xfb;" horiz-adv-x="1241" d="M27 1016v43q65 -6 127 -6q179 0 299 28v-848q0 -85 25.5 -128.5t96.5 -43.5q54 0 99.5 31.5t72.5 86t27 120.5v537q0 94 -29.5 137t-101.5 43v43q65 -6 127 -6q179 0 299 28v-858q0 -95 29.5 -137.5t101.5 -42.5v-43q-64 6 -127 6q-180 0 -299 -29v185 q-93 -191 -330 -191q-153 0 -223 80q-34 38 -48.5 101t-14.5 165v519q0 94 -29.5 137t-101.5 43zM207 1278q113 67 210 175t156 226h37q55 -116 153.5 -224.5t213.5 -176.5l-17 -29q-117 28 -229 70.5t-180 85.5q-56 -43 -145.5 -85.5t-182.5 -70.5z" />
<glyph unicode="&#xfc;" horiz-adv-x="1241" d="M27 1016v43q65 -6 127 -6q179 0 299 28v-848q0 -85 25.5 -128.5t96.5 -43.5q54 0 99.5 31.5t72.5 86t27 120.5v537q0 94 -29.5 137t-101.5 43v43q65 -6 127 -6q179 0 299 28v-858q0 -95 29.5 -137.5t101.5 -42.5v-43q-64 6 -127 6q-180 0 -299 -29v185 q-93 -191 -330 -191q-153 0 -223 80q-34 38 -48.5 101t-14.5 165v519q0 94 -29.5 137t-101.5 43zM207 1403q0 40 21 75.5t56.5 56.5t76.5 21q40 0 76 -21t58 -56.5t22 -75.5q0 -42 -21.5 -77.5t-57.5 -56t-77 -20.5t-76.5 20.5t-56.5 56t-21 77.5zM672 1403q0 40 21 75.5 t57 56.5t78 21q40 0 75.5 -21t56.5 -56.5t21 -75.5q0 -42 -21 -77.5t-56 -56t-76 -20.5q-42 0 -78 20.5t-57 56t-21 77.5z" />
<glyph unicode="&#xfd;" horiz-adv-x="1063" d="M-29 1016v43q135 -12 281 -12q121 0 285 12v-43q-44 0 -69 -3t-42.5 -15t-17.5 -39q0 -24 14 -58l251 -605l140 394q33 98 33 164q0 78 -40 118.5t-112 45.5v41q96 -6 199 -6t158 6v-41q-43 -11 -77.5 -51t-64.5 -125l-366 -1030q-41 -107 -90 -146q-60 -51 -179 -51 q-53 0 -104.5 17.5t-85 54.5t-33.5 92q0 63 45 101t119 38q69 0 111.5 -34t42.5 -95q0 -42 -27.5 -78.5t-75.5 -54.5q15 -2 47 -2q128 0 187 162l33 98l-435 987q-32 71 -63.5 93t-63.5 22zM389 1245q59 107 93.5 195.5t53 132.5t48.5 78q17 23 42.5 35.5t52.5 12.5 q42 0 72 -26q38 -30 38 -79q0 -45 -31 -83q-32 -40 -95 -85t-120 -87.5t-132 -111.5z" />
<glyph unicode="&#xfe;" horiz-adv-x="1196" d="M8 1536v43q65 -6 127 -6q183 0 299 29v-714q42 97 125 148t193 51q106 0 189 -57.5t130 -172t47 -279.5q0 -197 -58 -333t-164 -205t-251 -69q-134 0 -211 67v-206q0 -90 46 -125t138 -35v-43q-30 1 -135 5t-209 4q-74 0 -154.5 -4t-103.5 -5v43q46 0 72.5 12.5 t38.5 42.5t12 85v1544q0 95 -28.5 137.5t-102.5 42.5zM434 83q45 -56 131 -56q130 0 187 130.5t57 379.5t-45.5 355.5t-130.5 106.5q-70 0 -125.5 -47.5t-73.5 -132.5v-736z" />
<glyph unicode="&#xff;" horiz-adv-x="1063" d="M-29 1016v43q135 -12 281 -12q121 0 285 12v-43q-44 0 -69 -3t-42.5 -15t-17.5 -39q0 -24 14 -58l251 -605l140 394q33 98 33 164q0 78 -40 118.5t-112 45.5v41q96 -6 199 -6t158 6v-41q-43 -11 -77.5 -51t-64.5 -125l-366 -1030q-41 -107 -90 -146q-60 -51 -179 -51 q-53 0 -104.5 17.5t-85 54.5t-33.5 92q0 63 45 101t119 38q69 0 111.5 -34t42.5 -95q0 -42 -27.5 -78.5t-75.5 -54.5q15 -2 47 -2q128 0 187 162l33 98l-435 987q-32 71 -63.5 93t-63.5 22zM143 1403q0 40 21 75.5t56.5 56.5t76.5 21q40 0 76 -21t58 -56.5t22 -75.5 q0 -42 -21.5 -77.5t-57.5 -56t-77 -20.5t-76.5 20.5t-56.5 56t-21 77.5zM608 1403q0 40 21 75.5t57 56.5t78 21q40 0 75.5 -21t56.5 -56.5t21 -75.5q0 -42 -21 -77.5t-56 -56t-76 -20.5q-42 0 -78 20.5t-57 56t-21 77.5z" />
<glyph unicode="&#x152;" horiz-adv-x="2038" d="M88 713q0 226 91 400t253 270t369 96q87 0 178 -33q197 -2 514 -2q291 0 412 6q-15 -151 -15 -279q0 -89 6 -139h-47q-18 140 -54 220.5t-92 115.5t-140 35h-43q-67 0 -98.5 -12t-43.5 -47t-12 -111v-483h84q93 0 130 58t49.5 113.5t15.5 69.5h47q-7 -86 -7 -166l1 -96 q0 -93 12 -262h-47q-14 79 -30.5 127t-56.5 81.5t-114 33.5h-84v-492q0 -76 12 -111t43.5 -47t98.5 -12h59q131 0 209.5 94.5t101.5 317.5h47q-6 -67 -6 -172q0 -157 15 -287q-134 6 -453 6q-324 0 -520 -2q-84 -33 -174 -33q-213 0 -373.5 88t-249 255.5t-88.5 398.5z M428 721q0 -213 50 -375t136.5 -250t192.5 -88q53 0 107 20t90 61.5t36 103.5v1052q0 72 -37.5 116t-93.5 62.5t-116 18.5q-110 0 -193 -91.5t-127.5 -255t-44.5 -374.5z" />
<glyph unicode="&#x153;" horiz-adv-x="1667" d="M78 528q0 291 128 425t353 134q228 0 333 -176q56 87 140 131.5t187 44.5q378 0 378 -454h-541q-3 -30 -3 -96q0 -136 38 -225.5t98.5 -131t129.5 -41.5q151 0 235 164l39 -12q-25 -84 -75.5 -156.5t-127.5 -118t-176 -45.5q-104 0 -187.5 42.5t-138.5 126.5 q-105 -169 -329 -169q-225 0 -353 133.5t-128 423.5zM387 528q0 -263 46.5 -389.5t125.5 -126.5q85 0 134.5 126t49.5 388q0 265 -49.5 393t-134.5 128q-79 0 -125.5 -127.5t-46.5 -391.5zM1050 672h289q2 162 -31 267t-100 105q-64 0 -106 -90.5t-52 -281.5z" />
<glyph unicode="&#x178;" horiz-adv-x="1276" d="M-14 1409v43q89 -10 241 -10q192 0 385 10v-43q-72 0 -113.5 -12.5t-41.5 -47.5q0 -21 14 -46l312 -600l159 319q81 162 81 253q0 69 -44 101t-127 35v41q138 -6 256 -6q94 0 156 6v-41q-47 -20 -94.5 -75.5t-102.5 -161.5l-242 -479v-478q0 -77 11.5 -112t42.5 -48 t100 -16v-41q-111 6 -315 6q-219 0 -318 -6v41q68 3 99.5 16t43 48t11.5 112v346l-396 731q-63 115 -118 115zM278 1722q0 40 21 76t56 58t76 22q40 0 76 -22t58 -58t22 -76q0 -41 -22 -76t-58 -56t-76 -21q-41 0 -76.5 20.5t-56 56t-20.5 76.5zM767 1722q0 41 21 77 t57 57.5t78 21.5q40 0 75.5 -22t56.5 -58t21 -76q0 -41 -21 -76.5t-56.5 -56t-75.5 -20.5q-42 0 -78 20.5t-57 56t-21 76.5z" />
<glyph unicode="&#x2c6;" horiz-adv-x="823" d="M27 1278q113 67 210 175t156 226h37q55 -116 153.5 -224.5t213.5 -176.5l-17 -29q-117 28 -229 70.5t-180 85.5q-56 -43 -145.5 -85.5t-182.5 -70.5z" />
<glyph unicode="&#x2dc;" horiz-adv-x="842" d="M27 1325q32 145 100.5 215t155.5 70q58 0 99.5 -18.5t112.5 -67.5t134 -49q92 0 157 108l29 -14q-32 -145 -100 -215t-154 -70q-59 0 -101 19t-113 68.5t-134 49.5q-92 0 -158 -110z" />
<glyph unicode="&#x2000;" horiz-adv-x="964" />
<glyph unicode="&#x2001;" horiz-adv-x="1929" />
<glyph unicode="&#x2002;" horiz-adv-x="964" />
<glyph unicode="&#x2003;" horiz-adv-x="1929" />
<glyph unicode="&#x2004;" horiz-adv-x="643" />
<glyph unicode="&#x2005;" horiz-adv-x="482" />
<glyph unicode="&#x2006;" horiz-adv-x="321" />
<glyph unicode="&#x2007;" horiz-adv-x="321" />
<glyph unicode="&#x2008;" horiz-adv-x="241" />
<glyph unicode="&#x2009;" horiz-adv-x="385" />
<glyph unicode="&#x200a;" horiz-adv-x="107" />
<glyph unicode="&#x2010;" horiz-adv-x="985" d="M123 469v170h739v-170h-739z" />
<glyph unicode="&#x2011;" horiz-adv-x="985" d="M123 469v170h739v-170h-739z" />
<glyph unicode="&#x2012;" horiz-adv-x="985" d="M123 469v170h739v-170h-739z" />
<glyph unicode="&#x2013;" horiz-adv-x="1233" d="M115 453v202h1003v-202h-1003z" />
<glyph unicode="&#x2014;" horiz-adv-x="1833" d="M115 453v202h1603v-202h-1603z" />
<glyph unicode="&#x2018;" horiz-adv-x="528" d="M91 1162q0 105 54 192t161 136l19 -37q-59 -25 -103 -76t-53 -104q-5 -28 -5 -48q0 -23 5 -38q47 49 119 49t117 -42t45 -116q0 -70 -47.5 -114t-120.5 -44q-100 0 -146 72q-21 31 -33 76.5t-12 93.5z" />
<glyph unicode="&#x2019;" horiz-adv-x="518" d="M75 1320q0 70 47.5 114t120.5 44q100 0 146 -72q21 -31 33 -76.5t12 -93.5q0 -105 -54 -192t-161 -136l-19 37q59 25 103 76t53 104q5 28 5 48q0 23 -5 38q-47 -49 -119 -49t-117 42t-45 116z" />
<glyph unicode="&#x201a;" horiz-adv-x="555" d="M100 129q0 70 47.5 114t120.5 44q100 0 146 -72q21 -31 33 -76.5t12 -93.5q0 -105 -54 -192t-161 -136l-19 37q59 25 103 76t53 104q5 28 5 48q0 23 -5 38q-47 -49 -119 -49t-117 42t-45 116z" />
<glyph unicode="&#x201c;" horiz-adv-x="950" d="M91 1161q0 105 54 192t161 136l19 -37q-59 -25 -103 -76t-53 -104q-5 -28 -5 -48q0 -23 5 -38q47 49 119 49t117 -42t45 -116q0 -70 -47.5 -114t-120.5 -44q-100 0 -146 72q-21 31 -33 76.5t-12 93.5zM513 1161q0 105 54 192t161 136l19 -37q-59 -25 -103 -76t-53 -104 q-5 -28 -5 -48q0 -23 5 -38q47 49 119 49t117 -42t45 -116q0 -70 -47.5 -114t-120.5 -44q-100 0 -146 72q-21 31 -33 76.5t-12 93.5z" />
<glyph unicode="&#x201d;" horiz-adv-x="940" d="M75 1320q0 70 47.5 114t120.5 44q100 0 146 -72q21 -31 33 -76.5t12 -93.5q0 -105 -54 -192t-161 -136l-19 37q59 25 103 76t53 104q5 28 5 48q0 23 -5 38q-47 -49 -119 -49t-117 42t-45 116zM497 1320q0 70 47.5 114t120.5 44q100 0 146 -72q21 -31 33 -76.5t12 -93.5 q0 -105 -54 -192t-161 -136l-19 37q59 25 103 76t53 104q5 28 5 48q0 23 -5 38q-47 -49 -119 -49t-117 42t-45 116z" />
<glyph unicode="&#x201e;" horiz-adv-x="977" d="M100 129q0 70 47.5 114t120.5 44q100 0 146 -72q21 -31 33 -76.5t12 -93.5q0 -105 -54 -192t-161 -136l-19 37q59 25 103 76t53 104q5 28 5 48q0 23 -5 38q-47 -49 -119 -49t-117 42t-45 116zM522 129q0 70 47.5 114t120.5 44q100 0 146 -72q21 -31 33 -76.5t12 -93.5 q0 -105 -54 -192t-161 -136l-19 37q59 25 103 76t53 104q5 28 5 48q0 23 -5 38q-47 -49 -119 -49t-117 42t-45 116z" />
<glyph unicode="&#x2022;" horiz-adv-x="993" d="M152 551q0 94 46 173.5t125 126t173 46.5t173.5 -46.5t126 -126t46.5 -173.5t-46.5 -173t-126 -125t-173.5 -46t-173 46t-125 125t-46 173z" />
<glyph unicode="&#x2026;" horiz-adv-x="1700" d="M102 129q0 73 47 115.5t127 42.5q81 0 128 -42.5t47 -115.5t-47 -115.5t-128 -42.5q-80 0 -127 42.5t-47 115.5zM677 129q0 73 47 115.5t127 42.5q81 0 128 -42.5t47 -115.5t-47 -115.5t-128 -42.5q-80 0 -127 42.5t-47 115.5zM1251 129q0 73 47 115.5t127 42.5 q81 0 128 -42.5t47 -115.5t-47 -115.5t-128 -42.5q-80 0 -127 42.5t-47 115.5z" />
<glyph unicode="&#x202f;" horiz-adv-x="385" />
<glyph unicode="&#x2039;" horiz-adv-x="741" d="M53 516v27q165 102 301 237t264 312l31 -13q-48 -158 -128 -309.5t-163 -237.5q82 -84 162.5 -238t128.5 -314l-31 -11q-127 176 -263 310.5t-302 236.5z" />
<glyph unicode="&#x203a;" horiz-adv-x="741" d="M94 -20q49 160 128 311t161 235q-81 84 -160.5 237.5t-128.5 315.5l31 13q128 -176 264 -311.5t299 -237.5v-27q-163 -102 -299 -237t-264 -310z" />
<glyph unicode="&#x205f;" horiz-adv-x="482" />
<glyph unicode="&#x20ac;" horiz-adv-x="1309" d="M63 608v41h150q-2 31 -2 64q0 51 4 100h-152v41h157q24 187 108.5 328.5t214 219t284.5 77.5q174 0 283 -66q100 -65 100 -149q0 -63 -45 -101.5t-118 -38.5q-71 0 -113.5 35.5t-42.5 100.5q0 45 31 84.5t82 56.5q-58 41 -154 41q-92 0 -160.5 -70.5t-109 -202.5 t-50.5 -315h426l-22 -41h-406q-2 -45 -2 -92l1 -72h315l-25 -41h-289q25 -600 322 -600q48 0 88 11.5t63 29.5q-51 17 -80.5 56.5t-29.5 84.5q0 65 42.5 100.5t113.5 35.5q72 0 117.5 -38.5t45.5 -101.5q0 -45 -27.5 -84.5t-74.5 -64.5q-126 -66 -283 -66q-172 0 -303.5 75 t-210.5 218.5t-96 343.5h-152z" />
<glyph unicode="&#x2122;" horiz-adv-x="2208" d="M131 1450q117 -6 397 -6q279 0 396 6q-15 -104 -15 -193q0 -65 6 -106h-47q-15 133 -57 192.5t-98 59.5h-74v-612q0 -60 10.5 -86t39 -36t95.5 -14v-41q-114 7 -256 7q-156 0 -258 -7v41q67 4 96 14t39.5 36t10.5 86v612h-74q-56 0 -98 -59.5t-58 -192.5h-47q6 38 6 106 q0 87 -14 193zM1016 614v41q48 4 68.5 12t28 30t7.5 73v524q0 51 -7.5 73.5t-28 30.5t-68.5 11v41q68 -6 203 -6q72 0 139 6l209 -514l192 508h133q125 0 195 6v-41q-49 -3 -69.5 -11t-28 -30.5t-7.5 -73.5v-524q0 -51 7.5 -73t28 -30t69.5 -12v-41q-96 7 -215 7 q-118 0 -197 -7v41q38 4 54.5 12t23 30.5t6.5 72.5v545l-268 -711h-33l-291 715v-549q0 -50 6.5 -72.5t23 -30.5t54.5 -12v-41q-49 7 -106 7q-75 0 -129 -7z" />
<glyph unicode="&#x25fc;" horiz-adv-x="1060" d="M0 0v1060h1060v-1060h-1060z" />
<glyph unicode="&#xfb03;" horiz-adv-x="2021" d="M35 1016v41h151q0 107 35.5 196.5t100.5 151.5q62 62 155.5 94.5t206.5 32.5q191 0 311 -112q20 23 43 44q75 66 188 102t251 36q189 0 313 -76q36 -21 58 -57t22 -80q0 -74 -50 -116t-143 -42q-90 0 -141 42t-51 113q0 54 35.5 93.5t99.5 58.5q-19 12 -55.5 19.5 t-75.5 7.5q-79 0 -138 -29.5t-94 -77.5q-36 -41 -54.5 -91.5t-25 -121.5t-6.5 -188h244q166 0 258.5 5t179.5 19v-891q0 -57 14 -89t45 -45t85 -13v-43q-220 8 -285 8q-69 0 -285 -8v43q49 0 77.5 13t41.5 45t13 89v646q0 94 -32 137t-112 43h-244v-826q0 -83 40.5 -115 t123.5 -32v-43q-252 8 -305 8q-77 0 -297 -8v43q53 0 84 13t45.5 45t14.5 89v826h-383v-826q0 -57 12.5 -89t40.5 -45t78 -13v-43q-224 8 -283 8q-71 0 -299 -8v43q54 0 84.5 13t44.5 45t14 89v826h-151zM494 1057h383q0 201 95 333q-104 97 -255 97q-113 0 -168 -70 t-55 -225v-135z" />
<glyph unicode="&#xfb04;" horiz-adv-x="2030" d="M35 1016v41h151q0 107 35.5 196.5t100.5 151.5q62 62 155.5 94.5t206.5 32.5q176 0 290 -93q22 28 50 52q67 57 155.5 84t182.5 27q42 0 133.5 -8.5t144.5 -8.5q105 0 213 21v-1416q0 -57 14 -89t45 -45t85 -13v-43q-220 8 -285 8q-69 0 -285 -8v43q49 0 77.5 13t41.5 45 t13 89v1194q0 95 -41 134q-21 22 -54.5 34.5t-68.5 12.5q-57 0 -94.5 -17.5t-67.5 -52.5q-38 -45 -50 -116t-12 -203v-119h215v-41h-215v-826q0 -83 40.5 -115t123.5 -32v-43q-252 8 -305 8q-77 0 -297 -8v43q53 0 84 13t45.5 45t14.5 89v826h-383v-826q0 -57 12.5 -89 t40.5 -45t78 -13v-43q-224 8 -283 8q-71 0 -299 -8v43q54 0 84.5 13t44.5 45t14 89v826h-151zM494 1057h383q0 228 75 350q-99 80 -235 80q-113 0 -168 -70t-55 -225v-135z" />
</font>
</defs>
</svg>
