<?xml version="1.0" standalone="no"?>
<!DOCTYPE svg PUBLIC "-//W3C//DTD SVG 1.1//EN" "http://www.w3.org/Graphics/SVG/1.1/DTD/svg11.dtd" >
<svg xmlns="http://www.w3.org/2000/svg" xmlns:xlink="http://www.w3.org/1999/xlink" version="1.1">
<metadata></metadata>
<defs>
<font id="prida36medium" horiz-adv-x="1400" >
<font-face units-per-em="2048" ascent="1524" descent="-524" />
<missing-glyph horiz-adv-x="600" />
<glyph horiz-adv-x="0" />
<glyph unicode="&#xd;" horiz-adv-x="682" />
<glyph unicode=" "  horiz-adv-x="600" />
<glyph unicode="&#x09;" horiz-adv-x="600" />
<glyph unicode="&#xa0;" horiz-adv-x="600" />
<glyph unicode="!" horiz-adv-x="480" d="M136 90q0 52 20 75t68 25q0 -50 2 -100q0 -56 -12 -98q-42 4 -60 27t-18 71zM152 1096q0 6 22 17t46 15v-124q0 -70 4 -314t4 -298h-20q0 136 -28 352t-28 352zM250 -10q16 52 16 100q-2 16 -4 49t-2 51q46 -4 65 -27t19 -73q0 -52 -22 -75t-72 -25zM252 392q0 56 4 300 t4 312v126q26 -4 47 -16t21 -18q0 -136 -28 -352t-28 -352h-20z" />
<glyph unicode="&#x22;" horiz-adv-x="500" d="M86 836l2 286l50 -2l-26 -284h-26zM140 834l26 286l48 -2l-48 -284h-26zM306 836l2 286l50 -2l-26 -284h-26zM360 834l26 286l48 -2l-48 -284h-26z" />
<glyph unicode="#" horiz-adv-x="1000" d="M120 300v52h206q2 50 4 148t4 148h-214v52h216q0 34 2 100t2 100h52q0 -34 -2 -100t-2 -100h236q0 34 2 100t2 100h52q0 -34 -2 -100t-2 -100h204v-52h-206l-8 -296h214v-52h-216q0 -34 -2 -100t-2 -100h-52q0 34 2 100t2 100h-236q0 -34 -2 -100t-2 -100h-52q0 34 2 100 t2 100h-204zM378 352h236l8 296h-236q-2 -50 -4 -148t-4 -148z" />
<glyph unicode="$" horiz-adv-x="1280" d="M156 434h32q34 -90 90 -152t121 -91t115 -41t100 -14v310q-72 6 -122 11t-109 21t-94 40t-59 66t-24 98q0 98 102 162q-60 -62 -60 -146q0 -40 16 -72t50 -53t69 -34t90 -22t95 -12t102 -7t102 -7t94 -11t88 -22t67 -34t48 -51t15 -71q0 -96 -114 -155t-304 -63v-164h-52 v164q-32 2 -70 8q-200 30 -318 168q-68 82 -70 174zM160 292q52 -78 126 -130q-28 12 -52 12q-22 0 -40 -12l-30 -22zM284 702q0 94 90 152t240 64v162h52v-162q194 -10 330 -134q78 -72 78 -142h-36q-50 92 -150 154t-222 70v-276q64 -6 102 -9t98 -12t96 -21t80 -32 t67 -47t40 -65t17 -86q0 -88 -108 -150q62 60 62 138q0 42 -16 77t-40 57t-66 40t-76 26t-87 15t-83 9t-80 4q-92 4 -157 13t-120 27t-83 50t-28 78zM326 718q0 -32 21 -55t66 -36t88 -20t113 -13v272q-132 -4 -210 -44t-78 -104zM666 136q168 4 271 46t103 110q0 34 -20 60 t-49 41t-83 25t-100 14t-122 10v-306zM938 862q28 -12 50 -12q24 0 46 14l40 22v-134q-54 66 -136 110z" />
<glyph unicode="%" horiz-adv-x="1640" d="M120 754q0 152 132 220q-84 -68 -84 -214q0 -162 94 -232q-66 32 -104 91t-38 135zM200 760q0 120 55 182t161 62t161 -66t55 -192q0 -120 -55 -183t-159 -63q-106 0 -162 67t-56 193zM248 766q0 -222 170 -222q166 0 166 196q0 222 -168 222t-168 -196zM304 100 l1000 840l32 -40l-1000 -840zM570 978q68 -32 106 -90t38 -134q0 -154 -132 -222q82 68 82 214q0 164 -94 232zM926 248q0 152 132 220q-86 -68 -86 -214q0 -162 96 -232q-66 32 -104 91t-38 135zM1004 254q0 120 56 183t162 63t162 -67t56 -193q0 -120 -56 -182t-160 -62 q-106 0 -163 66t-57 192zM1054 260q0 -222 170 -222q166 0 166 196q0 222 -168 222t-168 -196zM1376 472q68 -32 106 -90t38 -134q0 -154 -132 -222q84 68 84 214q0 164 -96 232z" />
<glyph unicode="&#x26;" horiz-adv-x="1708" d="M120 292q0 74 43 129t119 83q-92 -68 -92 -212q0 -164 160 -250q-110 40 -170 104t-60 146zM230 292q0 108 57 173t149 65q60 0 96 -10l4 6q-82 48 -117 101t-35 133q0 78 74 134t178 56q188 0 296 -116q24 -26 24 -58t-22 -46q-84 166 -284 166q-212 0 -212 -142 q0 -82 49 -137t191 -145l358 -226q50 -30 94 -54q96 92 96 206q0 80 -60 140t-140 60q0 22 15 37t37 15h152q186 0 246 50q-54 -80 -266 -80h-100q28 -8 62 -30h46q314 0 316 198q0 44 -6 80h26q6 -42 6 -88q0 -108 -83 -165t-265 -57q68 -68 68 -160q0 -128 -104 -232 q168 -84 324 -84q106 0 166 48l4 -4q-82 -78 -170 -78q-180 0 -360 88q-82 -68 -199 -107t-251 -39q-208 0 -334 83t-126 219zM292 768q0 54 42 95t118 63q-108 -60 -108 -166q0 -84 42 -148q-94 72 -94 156zM294 292q0 -112 114 -181t302 -69q230 0 384 118q-36 20 -80 46 l-360 228q-88 54 -172 54t-136 -54t-52 -142zM884 914q18 -4 52 -4q26 0 38 4l22 6v-80q-6 -4 -14 -2q-12 2 -20 10q-34 40 -78 66zM1198 88q160 -74 302 -74q80 0 164 78q-24 -50 -69 -80t-97 -30q-124 0 -300 106z" />
<glyph unicode="'" horiz-adv-x="280" d="M86 836l2 286l50 -2l-26 -284h-26zM140 834l26 286l48 -2l-48 -284h-26z" />
<glyph unicode="(" horiz-adv-x="600" d="M110 500q0 324 200 600q-134 -236 -134 -600t134 -600q-200 276 -200 600zM216 500q0 580 314 830l12 -16q-130 -104 -194 -325t-64 -489t65 -490t193 -324l-12 -16q-314 250 -314 830z" />
<glyph unicode=")" horiz-adv-x="600" d="M58 -314q130 104 194 325t64 489q0 324 -92 568q160 -264 160 -568q0 -580 -314 -830zM58 1314l12 16q202 -162 311 -380t109 -450q-2 -326 -198 -600q130 234 130 600q0 508 -364 814z" />
<glyph unicode="*" horiz-adv-x="560" d="M80 834l4 6q8 4 79 39t81 41h4v6l-4 -2q-10 6 -81 42t-79 40q-4 2 -4 6l22 40h8q8 -4 74 -49t76 -49l4 -6l4 2l-4 6q0 12 -5 92t-5 88q2 4 4 6h46l2 -6q0 -8 -5 -88t-5 -92l-4 -6l4 -2l4 6q10 6 77 50t75 48h6l22 -40l-2 -6l-80 -40t-82 -42l-4 2v-6h4q10 -6 82 -41 t80 -39q2 -2 2 -6l-22 -40h-6q-8 4 -75 49t-77 49l-4 6l-4 -2l4 -6q0 -12 5 -92t5 -88q0 -4 -2 -6h-46l-4 6q0 8 5 88t5 92l4 6l-4 2l-4 -6q-10 -6 -76 -50t-74 -48h-8z" />
<glyph unicode="+" horiz-adv-x="880" d="M60 470v60h348v370l64 -2v-368h348v-60h-348v-336l-64 4v332h-348z" />
<glyph unicode="," horiz-adv-x="390" d="M96 90q0 50 20 73t66 27q12 -44 12 -100t-12 -100q-48 2 -67 25t-19 75zM108 -162q48 0 78 35t30 91q0 20 6 40q12 44 12 86q0 48 -16 100q46 -4 66 -27t20 -73q0 -108 -58 -190t-138 -82v20z" />
<glyph unicode="-" horiz-adv-x="500" d="M36 464l8 70h420l-10 -70h-418z" />
<glyph unicode="." horiz-adv-x="400" d="M96 90q0 48 18 71t60 27q12 -44 12 -99t-12 -97q-42 4 -60 27t-18 71zM210 -10q16 52 16 100t-16 100q50 -2 72 -25t22 -75t-22 -75t-72 -25z" />
<glyph unicode="/" horiz-adv-x="976" d="M36 -188l858 1402l44 -28l-858 -1400z" />
<glyph unicode="0" horiz-adv-x="1360" d="M120 500q0 140 61 250t171 176q-162 -136 -162 -434q0 -276 148 -410q-104 66 -161 174t-57 244zM230 492q0 254 116 386t338 132q218 0 333 -138t115 -400q0 -234 -116 -358t-336 -124t-335 129t-115 373zM296 482q0 -210 100 -321t290 -111q186 0 283 106t97 306 q0 238 -99 363t-287 125t-286 -120t-98 -348zM994 936q116 -64 181 -177t65 -259q0 -264 -198 -406q130 128 130 378q0 324 -178 464z" />
<glyph unicode="1" horiz-adv-x="814" d="M126 0v40h110q68 0 84 16t16 84v446q0 88 4 116l-8 2q-22 -34 -54 -64l-124 -122l-18 16l78 98q248 318 248 434v24h30v-950q0 -68 16 -84t84 -16h110v-40h-228l-40 40v794l-40 -56v-738l-40 -40h-228z" />
<glyph unicode="2" horiz-adv-x="1370" d="M148 0v10l36 30h1076v-40h-1112zM148 94v34l296 76q60 16 130 44t153 76t148 104t109 132t44 156q0 108 -92 171t-252 63q-134 0 -268 -74t-186 -178h-36q2 52 66 122q82 86 198 138t226 52q188 0 298 -81t110 -213q0 -92 -48 -178t-116 -146t-157 -112t-158 -80 t-131 -46l-140 -42l4 -12q20 4 106 12t116 8h490q86 0 114 16t28 64v60h60v-180h-694q-180 0 -382 -18zM190 790v176l40 -22q22 -12 42 -12q32 0 76 18q52 20 96 30q-164 -66 -254 -190zM744 232q76 38 140 84t123 105t92 135t33 160q0 166 -150 250q104 -36 161 -100 t57 -146q0 -316 -456 -488z" />
<glyph unicode="3" horiz-adv-x="1380" d="M90 324h48q0 -170 162 -268q-100 44 -155 113t-55 155zM178 324h46q0 -124 119 -199t313 -75q202 0 326 67t124 177q0 126 -103 192t-293 66h-124v52h104q128 0 198 50t70 142q0 70 -85 112t-223 42q-130 0 -240 -71t-164 -181h-40q8 54 62 122q150 190 382 190 q168 0 268 -59t100 -155q0 -152 -178 -208v-8q152 -24 239 -100t87 -186q0 -138 -139 -221t-371 -83q-216 0 -347 92t-131 242zM206 776v190l40 -22q22 -12 48 -12q18 0 51 15t43 19l2 -2q-102 -54 -184 -188zM942 610q116 70 116 186q0 112 -112 174q86 -28 134 -71t48 -99 q0 -136 -186 -190zM1012 554q128 -32 198 -97t70 -163q0 -80 -63 -145t-179 -105q168 86 168 250q0 84 -51 151t-143 109z" />
<glyph unicode="4" horiz-adv-x="1320" d="M50 220v26q32 20 134 125t204 233q136 170 180 284q4 12 4 24q0 48 -66 48v40q148 0 198 20l14 -20q-8 -14 -52 -76t-116 -161t-132 -175q-82 -104 -240 -288q-68 -80 -128 -80zM186 252q152 184 258 316l416 552l32 -26l-634 -814h616v240l62 32v-512l-40 -40h-222v40 h100q68 0 84 16t16 84v80h-674zM976 40v532l58 28v-320h236v-60h-236v-80q0 -68 16 -84t84 -16h96v-40h-214z" />
<glyph unicode="5" horiz-adv-x="1360" d="M120 100v60q56 -74 188 -124l2 4q-86 36 -137 92t-53 124v34h60v-52q4 -74 116 -131t276 -57q240 0 367 80t127 232q0 140 -128 213t-372 73q-222 0 -370 -74l-46 6l20 198q14 84 67 114t151 30h718l34 -34v-16h-752q-90 0 -118 -22t-36 -86l-14 -112q142 56 346 56 q136 0 241 -23t164 -58t97 -84t50 -92t12 -89q0 -50 -12 -97t-50 -98t-97 -89t-162 -63t-237 -25q-110 2 -242 31t-210 79zM180 872l8 80q6 50 22 48h748q90 0 116 12t26 58v40h40v-118l-34 -34h-718q-78 0 -129 -18t-79 -68zM1012 70q158 102 158 292q-2 170 -146 264 q216 -96 216 -264q0 -92 -59 -167t-169 -125z" />
<glyph unicode="6" d="M120 488q0 264 216 408q-144 -132 -144 -382q0 -306 190 -442q-126 64 -194 171t-68 245zM232 514q0 242 136 369t394 127q214 0 350 -168q64 -78 64 -162h-40q-40 112 -141 191t-241 79q-224 0 -340 -109t-116 -321q0 -52 6 -98q58 106 184 172t280 66q162 0 279 -100 t117 -240q0 -134 -118 -232t-290 -98q-256 0 -390 135t-134 389zM328 316q90 -266 434 -266q140 0 239 78t99 192q0 118 -108 199t-262 81q-152 0 -267 -82t-135 -202zM1004 622q124 -44 200 -125t76 -177q0 -88 -70 -164t-186 -120q84 48 132 122t48 162q0 92 -54 172 t-146 130zM1008 972q46 -14 78 -14q42 0 70 18l20 12v-168q-66 98 -168 152z" />
<glyph unicode="7" horiz-adv-x="1240" d="M90 670v214l34 34h698q166 0 338 24v-24q-28 -6 -81 -36t-125 -95t-134 -149t-106 -212t-44 -268v-156h-60v156q0 214 85 381t211 285q40 34 58 40l-2 12q-24 -4 -150 -4h-550q-66 0 -88 -14t-24 -66v-122h-60zM90 988v12h1070v-26q-192 -20 -328 -20h-708zM510 2v88 q0 176 140 410q-80 -178 -80 -382v-116h-60z" />
<glyph unicode="8" horiz-adv-x="1450" d="M100 294q0 96 69 161t193 97q-92 -42 -142 -108t-50 -150q0 -166 192 -256q-126 40 -194 105t-68 151zM210 294q0 112 89 188t241 98v8q-182 56 -182 208q0 96 100 155t262 59q166 0 269 -59t103 -155q0 -74 -48 -128t-134 -80v-8q152 -24 241 -100t89 -186 q0 -136 -143 -220t-377 -84q-230 0 -370 84t-140 220zM252 800q0 60 53 106t147 72q-134 -66 -134 -182q0 -112 102 -180q-168 56 -168 184zM274 294q0 -110 123 -177t323 -67q206 0 331 67t125 177q0 114 -109 184t-287 70h-120q-174 0 -280 -70t-106 -184zM422 796 q0 -84 71 -136t187 -52h80q120 0 194 52t74 136q0 70 -85 112t-223 42q-134 0 -216 -42t-82 -112zM996 978q96 -28 149 -74t53 -104q0 -130 -174 -186q108 68 108 182q0 116 -136 182zM1078 556q130 -32 201 -98t71 -164q0 -84 -69 -150t-195 -106q194 90 194 256 q0 86 -53 154t-149 108z" />
<glyph unicode="9" d="M120 680q0 90 71 165t189 119q-84 -48 -132 -121t-48 -163q0 -94 53 -174t145 -128q-126 44 -202 124t-76 178zM174 204v58q46 -76 128 -142t182 -100v2q-138 54 -238 176q-56 68 -72 136h40q38 -108 164 -196t268 -88q224 0 340 109t116 321q0 52 -6 98 q-58 -106 -184 -172t-280 -66q-162 0 -277 100t-115 240q0 134 116 232t288 98q256 0 390 -134t134 -390q0 -242 -136 -369t-394 -127q-290 0 -464 214zM300 680q0 -118 108 -199t262 -81q152 0 267 82t135 202q-90 266 -434 266q-140 0 -239 -78t-99 -192zM1018 928 q124 -64 193 -171t69 -245q0 -130 -56 -234t-160 -174q144 132 144 382q0 306 -190 442z" />
<glyph unicode=":" horiz-adv-x="390" d="M96 90q0 48 18 71t60 27q12 -44 12 -99t-12 -97q-42 4 -60 27t-18 71zM96 700q0 48 18 71t60 27q12 -44 12 -99t-12 -97q-42 4 -60 27t-18 71zM210 -10q16 52 16 100t-16 100q50 -2 72 -25t22 -75t-22 -75t-72 -25zM210 600q16 52 16 100t-16 100q50 -2 72 -25t22 -75 t-22 -75t-72 -25z" />
<glyph unicode=";" horiz-adv-x="390" d="M96 90q0 50 20 73t66 27q12 -44 12 -100t-12 -100q-48 2 -67 25t-19 75zM104 700q0 48 18 71t60 27q12 -44 12 -99t-12 -97q-42 4 -60 27t-18 71zM108 -162q48 0 78 35t30 91q0 20 6 40q12 44 12 86q0 48 -16 100q46 -4 66 -27t20 -73q0 -108 -58 -190t-138 -82v20z M218 600q16 52 16 100t-16 100q50 -2 72 -25t22 -75t-22 -75t-72 -25z" />
<glyph unicode="&#x3c;" horiz-adv-x="800" d="M68 498v4l542 434l24 -24l-450 -352l4 -4q58 40 96 68l368 270l28 -30l-378 -268q-114 -80 -172 -92v-8q58 -12 172 -92l378 -268l-28 -30l-368 270q-38 28 -96 68l-4 -4l450 -352l-24 -24z" />
<glyph unicode="=" horiz-adv-x="880" d="M70 330l4 60h736l-2 -60h-738zM70 610l4 60h736l-2 -60h-738z" />
<glyph unicode="&#x3e;" horiz-adv-x="800" d="M120 136l378 268q114 80 172 92v8q-58 12 -172 92l-378 268l28 30l368 -270q38 -28 96 -68l4 4l-450 352l24 24l542 -434v-4l-542 -434l-24 24l450 352l-4 4q-58 -40 -96 -68l-368 -270z" />
<glyph unicode="?" horiz-adv-x="886" d="M90 846v56q0 94 87 161t209 67q148 0 224 -59t76 -171q0 -50 -29 -101t-70 -92t-82 -79t-70 -77t-29 -73v-88h-60v88q0 44 29 90t71 85l84 78t71 83t29 86q0 180 -242 180q-116 0 -192 -55t-76 -123v-56h-30zM90 990v112l22 -12q14 -4 30 -4t38 4q-62 -40 -90 -100z M286 90q0 52 20 75t68 25q2 -64 2 -100q0 -56 -12 -98q-42 4 -60 27t-18 71zM400 -10q16 52 16 100q-4 66 -6 100q46 -4 65 -27t19 -73q0 -52 -22 -75t-72 -25zM622 684q104 112 104 216q0 116 -78 180q134 -64 134 -180q0 -58 -42 -109t-118 -107z" />
<glyph unicode="@" horiz-adv-x="1738" d="M76 478q0 216 112 400t305 291t421 107q332 0 535 -186t203 -490q0 -228 -111 -390t-267 -162q-64 0 -119 45t-83 133q52 82 74 182l2 10l40 408l6 54q36 18 42 68l4 50l22 -2l-76 -688q-4 -36 -4 -66q0 -64 30 -106t68 -42q134 0 226 150t92 356q0 280 -188 451 t-496 171q-200 0 -368 -100t-266 -271t-98 -373q0 -330 187 -532t495 -202q118 0 231 42t187 120l8 -6q-86 -90 -201 -149t-225 -59q-324 0 -522 216t-198 570q0 210 102 386q104 178 282 281t386 103v4q-218 0 -402 -102t-290 -280t-106 -392q0 -368 204 -594 q206 -224 544 -224v-10q-354 0 -571 228t-217 600zM438 434q0 136 65 255t183 181q-90 -66 -139 -183t-49 -269q0 -208 80 -310q-140 118 -140 326zM534 418q0 228 104 366t274 138q116 0 222 -52h20q-2 -12 -4 -40l-42 -408l-2 -6q-36 -166 -130 -269t-214 -103 q-40 0 -77 17t-73 57t-57 117t-21 183zM594 408q0 -154 52 -233t132 -79t158 81t108 219l46 442q-76 32 -168 32q-110 0 -187 -71t-109 -172t-32 -219z" />
<glyph unicode="A" d="M0 0v40h10q46 0 87 36t65 86l478 958h78q8 -72 32 -126l426 -904q4 -10 4 -22q0 -26 -20 -47t-52 -21h-144v40h140q10 0 16 6t6 14q0 4 -2 6l-168 354h-598l-122 -246q-14 -28 -14 -54q0 -36 24 -58t66 -22h82v-40h-82q-112 0 -142 72q-70 -72 -160 -72h-10zM388 480h540 l-236 504q-18 38 -18 76h-8q0 -22 -26 -74zM758 1120h62q4 -52 26 -98l414 -880q26 -56 53 -79t81 -23h6v-40h-40q-96 0 -160 134l-412 878q-22 46 -30 108z" />
<glyph unicode="B" horiz-adv-x="1450" d="M40 0v40h110q68 0 84 16t16 84v840q0 68 -16 84t-84 16h-110v40h230l40 -40v-1040l-40 -40h-230zM350 40v1040l40 40h304q174 0 288 -69t114 -175q0 -76 -60 -137t-156 -89v-8q152 -4 258 -96t106 -222q0 -140 -129 -232t-325 -92h-400zM410 60h380q168 0 278 75t110 189 q0 124 -119 205t-299 81h-310v60h280q130 0 215 59t85 147q0 80 -97 132t-243 52h-280v-1000zM984 1080q100 -32 157 -84t57 -116q0 -58 -45 -108t-123 -82q106 76 106 186q0 128 -152 204zM1094 48q90 46 140 118t50 158q0 84 -50 154t-136 118q114 -42 183 -114t69 -158 q0 -88 -68 -161t-188 -115z" />
<glyph unicode="C" horiz-adv-x="1380" d="M120 568q0 160 84 289t230 201q-110 -78 -173 -202t-63 -276q0 -164 68 -300t186 -218q-154 74 -243 207t-89 299zM238 580q0 236 150 392t374 158q120 -2 230 -60t174 -148q46 -66 46 -162h-40q-22 122 -139 216t-267 94q-202 0 -335 -139t-133 -351q0 -228 140 -379 t352 -151q138 0 258 69t168 189l56 -22q-54 -140 -190 -218t-292 -78q-238 0 -395 168t-157 422zM1024 1088q54 -20 96 -20t70 18l20 12v-136l-22 -6q-18 28 -64 66t-100 66z" />
<glyph unicode="D" horiz-adv-x="1500" d="M40 0v40h110q68 0 84 16t16 84v840q0 68 -16 84t-84 16h-110v40h230l40 -40v-1040l-40 -40h-230zM350 40v1040l40 40h350q222 0 379 -164t157 -396t-157 -396t-379 -164h-350zM410 60h330q194 0 332 146t138 354t-138 354t-332 146h-330v-1000zM1096 96q102 82 161 203 t59 261t-58 261t-162 203q130 -76 207 -199t77 -265t-77 -265t-207 -199z" />
<glyph unicode="E" d="M40 0v40h110q68 0 84 16t16 84v840q0 68 -16 84t-84 16h-110v40h230l40 -40v-1040l-40 -40h-230zM350 40v1040l40 40h530q118 0 199 -80t81 -200v-80h-60v80q0 94 -63 157t-157 63h-510v-470h170q88 0 124 36t36 124v80h60v-80q0 -142 -94 -190q94 -50 94 -190v-80h-60 v80q0 88 -36 124t-124 36h-170v-470h530q104 0 172 68t68 172v60h60v-60q0 -132 -88 -216t-212 -84h-550zM1078 1120h82l40 -40v-82q-44 78 -122 122zM1104 0q90 48 136 136v-96l-40 -40h-96z" />
<glyph unicode="F" horiz-adv-x="1320" d="M40 0v40h110q68 0 84 16t16 84v840q0 68 -16 84t-84 16h-110v40h230l40 -40v-1040l-40 -40h-230zM350 40v1040l40 40h530q124 0 212 -84t88 -216v-80h-60v80q0 104 -68 172t-172 68h-510v-500h210q68 0 114 46t46 114v80h60v-80q0 -62 -31 -112t-85 -78q54 -26 85 -76 t31 -114v-80h-60v80q0 68 -46 114t-114 46h-210v-360q0 -68 16 -84t84 -16h130v-40h-250zM1084 1120h96l40 -40v-96q-46 88 -136 136z" />
<glyph unicode="G" horiz-adv-x="1480" d="M120 564q0 156 75 282t209 200q-100 -78 -156 -201t-56 -271q0 -162 60 -295t166 -215q-140 74 -219 205t-79 295zM232 574q0 240 145 398t371 158q122 0 237 -59t179 -149q46 -66 46 -162h-40q-22 120 -143 215t-273 95q-200 0 -328 -139t-128 -351q0 -230 126 -380 t322 -150q226 0 354 174v160q0 44 -18 62t-62 18h-340v56h440l40 -40v-270q-68 -104 -180 -162t-244 -58q-220 0 -362 165t-142 419zM1024 1088q54 -20 96 -20t70 18l20 12v-136l-22 -6q-18 28 -64 66t-100 66zM1200 172v308l40 40h210v-56h-110q-44 0 -62 -18t-18 -62v-384 h-40v80q0 62 -20 92z" />
<glyph unicode="H" horiz-adv-x="1540" d="M40 0v40h110q68 0 84 16t16 84v840q0 68 -16 84t-84 16h-110v40h230l40 -40v-1040l-40 -40h-230zM350 40v1040l40 40h220v-40h-100q-68 0 -84 -16t-16 -84v-410h720v410q0 68 -16 84t-84 16h-100v40h220l40 -40v-1040l-40 -40h-220v40h100q68 0 84 16t16 84v370h-720 v-370q0 -68 16 -84t84 -16h100v-40h-220zM1230 40v1040l40 40h230v-40h-110q-68 0 -84 -16t-16 -84v-840q0 -68 16 -84t84 -16h110v-40h-230z" />
<glyph unicode="I" horiz-adv-x="660" d="M40 0v40h110q68 0 84 16t16 84v840q0 68 -16 84t-84 16h-110v40h230l40 -40v-1040l-40 -40h-230zM350 40v1040l40 40h230v-40h-110q-68 0 -84 -16t-16 -84v-840q0 -68 16 -84t84 -16h110v-40h-230z" />
<glyph unicode="J" horiz-adv-x="1300" d="M124 286l56 22q48 -122 164 -190t264 -68t239 94t91 246v670h-470q-104 0 -172 -68t-68 -172v-60h-60v60q0 124 84 212t216 88h550q-20 -24 -20 -140v-590q0 -178 -113 -289t-297 -111q-158 0 -282 79t-182 217zM168 984v96l40 40h96q-88 -46 -136 -136zM812 2 q106 54 166 155t60 233v590q0 94 23 117t117 23h102v-40h-82q-68 0 -84 -16t-16 -84v-590q0 -138 -76 -241t-210 -147z" />
<glyph unicode="K" horiz-adv-x="1350" d="M40 0v40h110q68 0 84 16t16 84v840q0 68 -16 84t-84 16h-110v40h230l40 -40v-1040l-40 -40h-230zM350 40v1040l40 40h230v-40h-110q-68 0 -84 -16t-16 -84v-400h80q88 0 132 46l332 348q140 146 340 146h30v-40h-22q-164 0 -274 -116l-378 -396v-2q56 -12 101 -41t79 -72 t56 -81t46 -90q80 -182 160 -282h-100l-120 276q-26 58 -45 93t-52 75t-79 58t-106 18h-180v-380q0 -68 16 -84t84 -16h110v-40h-230zM714 576q112 -16 191 -93t123 -181q44 -102 103 -182t123 -80h76v-40h-176q-48 48 -100 133t-86 165q-52 118 -102 179t-152 99zM898 1080 v40h192q-32 -14 -74 -40h-118z" />
<glyph unicode="L" horiz-adv-x="1296" d="M40 0v40h110q68 0 84 16t16 84v840q0 68 -16 84t-84 16h-110v40h230l40 -40v-1040l-40 -40h-230zM350 40v1040l40 40h250v-40h-130q-68 0 -84 -16t-16 -84v-920h470q104 0 172 68t68 172v80h60v-80q0 -124 -84 -212t-216 -88h-490zM1044 0q88 48 136 136v-96l-40 -40h-96 z" />
<glyph unicode="M" horiz-adv-x="1940" d="M30 0v40h52q76 0 108 32t32 108v770q0 130 -130 130h-42v40h60q110 0 202 -134l590 -856q22 -32 22 -100h-20l-590 856q-24 34 -30 66h-6q4 -16 4 -66v-706q0 -76 32 -108t108 -32h64v-40h-64q-128 0 -170 60q-44 -60 -170 -60h-52zM268 1098l6 22h70l592 -858 q22 -32 28 -68h8q4 20 36 68l586 858h80q-56 -44 -56 -160v-910l-50 -50h-206v40h100q52 0 74 23t22 77v748q0 34 4 78l-10 2q0 -16 -40 -74l-518 -762q-8 -12 -22 -12q-16 0 -24 12l-604 878q-50 72 -76 88zM1658 50v910q0 88 41 124t139 36h52v-40h-52q-66 0 -93 -27 t-27 -93v-810q0 -60 24 -85t80 -25h88v-40h-202z" />
<glyph unicode="N" horiz-adv-x="1450" d="M40 0v40h52q76 0 108 32t32 108v800q0 54 -23 77t-77 23h-92v40h242q10 -90 70 -150l804 -822q48 -50 64 -148h-20q-2 22 -22 42l-838 860q-34 36 -46 80l-8 -2q6 -32 6 -120v-680q0 -76 32 -108t108 -32h60l-2 -40h-174l-60 60l-60 -60h-156zM308 1120h30l814 -828 q28 -28 34 -62h10q-6 34 -6 72v638q0 76 -32 108t-108 32h-50v40h50q126 0 170 -60q42 60 170 60h40v-40h-40q-76 0 -108 -32t-32 -108v-940h-20q-8 138 -60 190l-800 818q-50 52 -62 112z" />
<glyph unicode="O" horiz-adv-x="1520" d="M120 560q0 170 92 306t252 204q-128 -76 -202 -210t-74 -300t74 -300t202 -210q-158 70 -251 205t-93 305zM228 560q0 246 152 408t380 162t380 -162t152 -408t-152 -408t-380 -162t-380 162t-152 408zM290 560q0 -220 134 -365t336 -145t336 145t134 365t-134 365 t-336 145t-336 -145t-134 -365zM1056 50q128 76 202 210t74 300t-74 300t-202 210q158 -70 251 -205t93 -305t-93 -305t-251 -205z" />
<glyph unicode="P" horiz-adv-x="1430" d="M40 0v40h110q68 0 84 16t16 84v840q0 68 -16 84t-84 16h-110v40h230l40 -40v-1040l-40 -40h-230zM350 40v1040l40 40h430q174 0 294 -102t120 -258t-120 -258t-294 -102h-410v-260q0 -70 15 -85t85 -15h110v-40h-230zM410 460h410q150 0 249 85t99 215t-99 215t-249 85 h-410v-600zM1090 448q86 50 135 130t49 182t-49 182t-135 130q116 -46 183 -128t67 -184t-67 -184t-183 -128z" />
<glyph unicode="Q" horiz-adv-x="1520" d="M120 560q0 170 92 306t252 204q-128 -76 -202 -210t-74 -300t74 -300t202 -210q-158 70 -251 205t-93 305zM228 560q0 246 152 408t380 162t380 -162t152 -408q0 -204 -107 -354t-283 -198q84 -130 152 -176q64 -46 150 -56v-2q-26 -4 -52 -4q-82 0 -134 36t-91 88 t-85 132q-4 6 -10 18q-30 52 -45 79t-46 67t-59 60t-69 36t-87 16v-4q22 0 44 -5t38 -10t34 -19t29 -23t26 -31t23 -32t22 -38t20 -38t21 -42t19 -42q40 -84 81 -142t101 -98q50 -34 144 -34q102 0 272 42l10 -38q-184 -46 -282 -46q-108 0 -168 42q-106 72 -184 246h-16 q-228 0 -380 162t-152 408zM290 560q0 -202 114 -344q6 44 41 74t81 30q62 0 114 -20t94 -62t70 -78t66 -98q162 38 261 174t99 324q0 220 -134 365t-336 145t-336 -145t-134 -365zM444 204q0 -28 30 -56q120 -96 278 -98q-26 60 -41 91t-43 69t-62 54t-80 16q-34 0 -58 -22 t-24 -54zM1056 50q128 76 202 210t74 300t-74 300t-202 210q158 -70 251 -205t93 -305t-93 -305t-251 -205z" />
<glyph unicode="R" horiz-adv-x="1410" d="M40 0v40h110q68 0 84 16t16 84v840q0 68 -16 84t-84 16h-110v40h230l40 -40v-1040l-40 -40h-230zM350 40v1040l40 40h390q174 0 289 -94t115 -236q0 -118 -107 -205t-263 -99v-8q36 -26 73 -75t57 -85t50 -96q52 -104 148 -222h-86l-124 216q-28 48 -44 75t-49 69t-62 64 t-73 39t-92 17h-202v-340q0 -70 15 -85t85 -15h110v-40h-230zM410 540h366q142 0 243 73t101 177q0 116 -97 193t-243 77h-370v-520zM882 462q54 -20 113 -83t93 -137q40 -82 106 -142t130 -60h56v-40h-184q-104 114 -162 230q-92 180 -152 232zM1058 1070q108 -44 170 -117 t62 -163q0 -76 -59 -142t-161 -110q154 100 154 252q0 84 -44 157t-122 123z" />
<glyph unicode="S" horiz-adv-x="1376" d="M84 496h130l12 -24q-106 -112 -106 -236q0 -138 118 -240q-148 104 -148 240q0 54 28 124q14 36 14 60q0 32 -22 52zM160 236q0 140 154 260h116v-46q-94 0 -167 -64t-73 -152q0 -126 149 -215t361 -89q202 0 326 85t124 223q0 50 -16 89t-50 68t-69 49t-92 36t-99 25 t-110 23q-94 18 -157 32t-137 41t-118 59t-74 82t-30 114q0 78 57 139t161 97q-76 -36 -121 -92t-45 -124q0 -48 19 -87t60 -67t80 -48t103 -38t104 -27t110 -21q64 -12 101 -21t95 -25t92 -31t75 -41t63 -55t37 -71t15 -92q0 -172 -138 -276t-366 -106q-226 0 -383 109 t-157 257zM290 880q0 114 107 182t285 68q198 0 346 -140q78 -74 88 -160h-40q-54 104 -160 172t-234 68q-152 0 -246 -47t-94 -123q0 -34 15 -63t48 -50t64 -35t87 -28t89 -20l99 -18t114 -22t109 -28t105 -38t90 -52t74 -70t46 -91t18 -115q0 -104 -57 -186t-163 -136 q164 110 164 308q0 56 -17 104t-42 81t-70 62t-82 46t-98 33t-100 24t-103 20q-106 20 -175 38t-136 47t-99 71t-32 98zM970 1076l2 2q32 -14 58 -16q24 0 46 14l40 22v-106q-14 -6 -28 -10q-52 54 -118 94z" />
<glyph unicode="T" horiz-adv-x="1420" d="M100 760v60q0 124 84 212t216 88h250l40 -40v-1040l-40 -40h-230v40h110q68 0 84 16t16 84v920h-230q-104 0 -172 -68t-68 -172v-60h-60zM100 984v96l40 40h96q-88 -46 -136 -136zM730 40v1040l40 40h250q124 0 212 -84t88 -216v-60h-60v60q0 104 -68 172t-172 68h-230 v-920q0 -68 16 -84t84 -16h110v-40h-230zM1184 1120h96l40 -40v-96q-46 88 -136 136z" />
<glyph unicode="U" horiz-adv-x="1440" d="M20 1080v40h220l40 -40v-670q0 -116 55 -213t151 -159q-126 50 -196 147t-70 225v570q0 68 -16 84t-84 16h-100zM320 410v670l40 40h210v-40h-90q-68 0 -84 -16t-16 -84v-570q0 -150 110 -255t264 -105q172 0 294 105t122 255v530q0 76 -32 108t-108 32h-50v40h50 q126 0 170 -68q40 68 170 68h50v-40h-50q-76 0 -108 -32t-32 -108v-530q0 -174 -139 -297t-337 -123q-180 0 -307 123t-127 297z" />
<glyph unicode="V" horiz-adv-x="1390" d="M0 1080v40h12q64 0 115 -36t81 -96l448 -898q16 -32 16 -90v-40h-16l-508 1018q-32 62 -60 82t-76 20h-12zM154 1100l2 20h240v-40h-150v-4q42 -30 64 -72l410 -824q14 -28 14 -90v-2h10v2q0 40 22 86l366 762q16 34 16 64q0 34 -22 56t-68 22h-104v40h106q112 0 140 -76 q76 76 184 76h6v-40h-6q-54 0 -104 -40t-82 -104l-470 -976h-16v44q0 62 -32 126l-430 864q-20 40 -48 68t-48 38z" />
<glyph unicode="W" horiz-adv-x="2040" d="M0 1080v40h20q70 0 127 -40t83 -108l366 -878q14 -32 14 -88v-46h-22l-424 1018q-20 46 -58 74t-86 28h-20zM180 1096l6 24h280v-40h-182v-4q30 -42 50 -92l324 -782q14 -34 14 -70v-2h14v2q0 32 14 70l282 742l-16 44q-10 28 -10 58q0 16 2 34h-130v40h180l18 -24 q-12 -24 -12 -48q0 -18 6 -38l334 -916q14 -36 14 -88v-46h-22l-332 898l-342 -898h-22v46q0 64 -16 102l-356 854q-18 48 -48 86t-50 48zM1054 1048q0 28 20 50t48 22h130v-40h-122q-8 0 -15 -7t-7 -15q0 -4 2 -8l314 -848q12 -32 12 -70v-2h14v2q0 32 16 70l308 738 q16 40 16 68q0 72 -100 72h-82v40h92q114 0 142 -76q76 76 178 76h20v-40h-26q-56 0 -102 -39t-72 -101l-410 -980h-22v46q0 58 -16 102l-334 914q-4 12 -4 26z" />
<glyph unicode="X" horiz-adv-x="1420" d="M10 0v38h56q58 0 126 45t124 111l308 368l-350 432q-70 86 -144 86h-80v40h82q62 0 101 -17t83 -71l790 -972l-54 -60h-180v40q80 0 110 4t30 22q0 16 -30 54l-320 394l-302 -358q-30 -34 -30 -62q0 -54 114 -54v-40h-122l-62 60q-84 -60 -174 -60h-76zM298 1120h74 l376 -466l286 326q24 26 22 50q0 22 -20 36t-54 14v40h92l46 -56q76 56 174 56h86v-40h-86q-92 0 -196 -118l-310 -354l388 -482q46 -56 75 -71t71 -15h88v-40h-88q-116 0 -190 90z" />
<glyph unicode="Y" horiz-adv-x="1440" d="M0 1080v40h48q112 0 230 -144l422 -518v-418l-40 -40h-230v40h110q68 0 84 16t16 84v300l-428 524q-54 64 -90 90t-74 26h-48zM188 1102l2 18h250v-40h-148v-4q48 -22 102 -88l346 -424q18 -22 26 -38h8q8 18 30 42l344 396q32 36 32 66q0 50 -80 50h-108v40h108 q110 0 136 -68q96 68 182 68h22v-40h-22q-90 0 -192 -118l-426 -490v-332q0 -68 16 -84t84 -16h110v-40h-230l-40 40v416q0 18 -12 32l-402 490q-86 104 -138 124z" />
<glyph unicode="Z" horiz-adv-x="1430" d="M80 0v10q66 20 184 164l624 762q74 90 132 118v6h-570q-104 0 -172 -68t-68 -172v-60h-60v60q0 128 85 214t215 86h732q-116 -54 -218 -178l-626 -764q-124 -150 -258 -178zM150 984v96l40 40h96q-90 -48 -136 -136zM192 0q94 50 200 180l622 760q118 144 294 180v-10 q-30 -6 -96 -51t-122 -113l-624 -762q-70 -86 -116 -120v-4h660q104 0 172 68t68 172v60h60v-60q0 -132 -88 -216t-212 -84h-818zM1174 0q90 48 136 136v-96l-40 -40h-96z" />
<glyph unicode="[" horiz-adv-x="590" d="M172 -240q8 80 8 150v1180q0 70 -8 150v10h36q32 -58 32 -156v-1188q0 -98 -32 -156h-36v10zM234 -250q46 70 46 156v1188q0 86 -46 156h296v-50h-224v-2q34 -34 34 -104v-1188q0 -68 -34 -102v-4h224v-50h-296z" />
<glyph unicode="\" horiz-adv-x="976" d="M36 1186l44 28l858 -1402l-44 -26z" />
<glyph unicode="]" horiz-adv-x="590" d="M60 -200h224v2q-34 34 -34 104v1188q0 68 34 102v4h-224v50h296q-46 -70 -46 -156v-1188q0 -86 46 -156h-296v50zM350 -94v1188q0 98 32 156h36v-10q-8 -80 -8 -150v-1180q0 -70 8 -150v-10h-36q-32 58 -32 156z" />
<glyph unicode="^" horiz-adv-x="640" d="M76 800l216 200h56l216 -200l-20 -18l-158 146l-6 -4q24 -32 66 -76l80 -84l-24 -20l-74 86q-96 106 -104 160h-8q-8 -54 -104 -160l-74 -86l-24 20l80 84q42 42 66 76l-6 4l-158 -146z" />
<glyph unicode="_" horiz-adv-x="800" d="M36 -416l8 70h720l-10 -70h-718z" />
<glyph unicode="`" horiz-adv-x="550" d="M90 932q0 32 23 55t63 23l244 -154l-266 68q-12 4 -12 20q0 38 40 54l-8 6q-26 -6 -43 -26t-17 -46q0 -36 32 -44l322 -80l-6 -24l-322 82q-22 6 -36 24t-14 42z" />
<glyph unicode="a" horiz-adv-x="1320" d="M10 0v40h16q46 0 87 36t65 86l418 838h78q8 -72 32 -126l370 -784q4 -10 4 -22q0 -26 -20 -47t-52 -21h-136v40h132q10 0 16 6t6 14q0 4 -2 6l-130 274h-560l-82 -166q-14 -28 -14 -54q0 -36 24 -58t66 -22h72v-40h-72q-112 0 -142 72q-70 -72 -160 -72h-16zM364 400h502 l-218 464q-18 38 -18 76h-8q0 -22 -26 -74zM714 1000h62q4 -54 26 -98l358 -760q26 -56 53 -79t81 -23h16v-40h-50q-96 0 -160 134l-356 758q-22 46 -30 108z" />
<glyph unicode="b" d="M40 0v40h110q68 0 84 16t16 84v720q0 68 -16 84t-84 16h-110v40h230l40 -40v-920l-40 -40h-230zM350 40v920l40 40h280q162 0 269 -60t107 -154q0 -140 -188 -196v-8q24 0 71 -14t110 -43t109 -90t46 -141q0 -130 -123 -212t-301 -82h-380zM410 60h360q154 0 256 67 t102 167q0 110 -111 183t-277 73h-290v60h260q116 0 193 50t77 126q0 66 -88 110t-222 44h-260v-880zM968 958q84 -28 132 -72t48 -96q0 -118 -154 -170q92 66 92 166q0 106 -118 172zM1054 550q246 -72 246 -256q0 -78 -61 -142t-167 -104q162 90 162 246q0 168 -180 256z " />
<glyph unicode="c" horiz-adv-x="1326" d="M120 508q0 136 80 254q78 118 210 184q-102 -66 -160 -179t-58 -255q0 -170 74 -292t202 -188q-162 46 -254 174q-94 128 -94 302zM232 516q0 220 132 357t344 137q120 0 231 -58t175 -150q46 -66 46 -162h-40q-22 122 -139 216t-267 94q-186 0 -301 -118t-115 -312 q0 -212 122 -341t320 -129q138 0 257 69t167 189l56 -22q-54 -140 -190 -218t-290 -78q-224 0 -366 145t-142 381zM974 966v2q54 -20 96 -20t70 18l20 12v-136l-22 -6q-18 28 -63 65t-101 65z" />
<glyph unicode="d" horiz-adv-x="1440" d="M40 0v40h110q68 0 84 16t16 84v720q0 68 -16 84t-84 16h-110v40h230l40 -40v-920l-40 -40h-230zM350 40v920l40 40h330q210 0 353 -142t143 -358t-143 -358t-353 -142h-330zM410 60h310q186 0 308 125t122 315t-122 315t-308 125h-310v-880zM1010 58q112 68 179 183 t67 259t-66 259t-180 183q144 -62 227 -179t83 -263t-83 -263t-227 -179z" />
<glyph unicode="e" horiz-adv-x="1360" d="M40 0v40h110q68 0 84 16t16 84v720q0 68 -16 84t-84 16h-110v40h230l40 -40v-920l-40 -40h-230zM350 40v920l40 40h490q118 0 199 -80t81 -200v-80h-60v80q0 94 -63 157t-157 63h-470v-410h150q88 0 124 36t36 124v80h60v-80q0 -142 -94 -190q94 -50 94 -190v-80h-60v80 q0 88 -36 124t-124 36h-150v-410h490q104 0 172 68t68 172v60h60v-60q0 -132 -88 -216t-212 -84h-510zM1038 1000h82l40 -40v-82q-44 78 -122 122zM1064 0q90 48 136 136v-96l-40 -40h-96z" />
<glyph unicode="f" horiz-adv-x="1280" d="M40 0v40h110q68 0 84 16t16 84v720q0 68 -16 84t-84 16h-110v40h230l40 -40v-920l-40 -40h-230zM350 40v920l40 40h490q124 0 212 -84t88 -216v-80h-60v80q0 104 -68 172t-172 68h-470v-440h190q68 0 114 46t46 114v80h60v-80q0 -122 -116 -190q54 -28 85 -78t31 -112 v-80h-60v80q0 68 -46 114t-114 46h-190v-300q0 -68 16 -84t84 -16h130v-40h-250zM1044 1000h96l40 -40v-96q-46 88 -136 136z" />
<glyph unicode="g" horiz-adv-x="1420" d="M120 504q0 140 80 262t210 180q-100 -66 -159 -179t-59 -257q0 -172 70 -296t196 -188q-164 54 -251 178t-87 300zM232 514q0 220 132 358t344 138q120 0 231 -58t175 -150q46 -66 46 -162h-40q-22 122 -139 216t-267 94q-186 0 -301 -118t-115 -312q0 -212 112 -341 t296 -129q216 0 344 174v100q0 44 -18 62t-62 18h-320v56h420l40 -40v-210q-68 -106 -176 -163t-238 -57q-206 0 -335 144t-129 380zM974 968q54 -20 96 -20t70 18l20 12v-136l-22 -6q-18 28 -64 66t-100 66zM1150 172v248l40 40h210v-56h-110q-44 0 -62 -18t-18 -62v-324 h-40v80q0 62 -20 92z" />
<glyph unicode="h" horiz-adv-x="1500" d="M40 0v40h110q68 0 84 16t16 84v720q0 68 -16 84t-84 16h-110v40h230l40 -40v-920l-40 -40h-230zM350 40v920l40 40h220v-40h-100q-68 0 -84 -16t-16 -84v-330h680v330q0 68 -16 84t-84 16h-100v40h220l40 -40v-920l-40 -40h-220v40h100q68 0 84 16t16 84v330h-680v-330 q0 -68 16 -84t84 -16h100v-40h-220zM1190 40v920l40 40h230v-40h-110q-68 0 -84 -16t-16 -84v-720q0 -68 16 -84t84 -16h110v-40h-230z" />
<glyph unicode="i" horiz-adv-x="660" d="M40 0v40h110q68 0 84 16t16 84v720q0 68 -16 84t-84 16h-110v40h230l40 -40v-920l-40 -40h-230zM350 40v920l40 40h230v-40h-110q-68 0 -84 -16t-16 -84v-720q0 -68 16 -84t84 -16h110v-40h-230z" />
<glyph unicode="j" horiz-adv-x="1270" d="M124 266l56 22q44 -114 153 -176t255 -62q140 0 225 88t85 232v570h-430q-104 0 -172 -68t-68 -172v-60h-60v60q0 124 84 212t216 88h510q-20 -24 -20 -140v-490q0 -170 -107 -275t-283 -105q-152 0 -271 73t-173 203zM168 864v96l40 40h96q-88 -46 -136 -136zM784 0 q102 52 158 148t56 222v490q0 94 23 117t117 23h112v-40h-92q-68 0 -84 -16t-16 -84v-490q0 -134 -73 -231t-201 -139z" />
<glyph unicode="k" horiz-adv-x="1310" d="M40 0v40h110q68 0 84 16t16 84v720q0 68 -16 84t-84 16h-110v40h230l40 -40v-920l-40 -40h-230zM350 40v920l40 40h230v-40h-110q-68 0 -84 -16t-16 -84v-340h60q88 0 132 46l274 288q140 146 344 146h40v-40h-32q-168 0 -278 -116l-302 -316l-26 -24q56 -12 101 -40 t78 -71t55 -81t46 -90q58 -132 130 -222h-100l-92 216q-26 58 -45 94t-51 75t-78 57t-106 18h-150v-320q0 -68 16 -84t84 -16h110v-40h-230zM684 516q112 -16 191 -93t123 -181q42 -98 84 -150t106 -52h92v-40h-186q-94 90 -156 238q-52 118 -102 179t-152 99zM860 960v40 h156q-32 -14 -74 -40h-82z" />
<glyph unicode="l" horiz-adv-x="1256" d="M40 0v40h110q68 0 84 16t16 84v720q0 68 -16 84t-84 16h-110v40h230l40 -40v-920l-40 -40h-230zM350 40v920l40 40h250v-40h-130q-68 0 -84 -16t-16 -84v-800h430q104 0 172 68t68 172v80h60v-80q0 -124 -84 -212t-216 -88h-450zM1004 0q88 48 136 136v-96l-40 -40h-96z " />
<glyph unicode="m" horiz-adv-x="1840" d="M40 0v40h54q76 0 108 32t32 108v650q0 130 -130 130h-44v40h62q110 0 202 -134l528 -766q22 -32 22 -100h-20l-528 766q-24 34 -30 66h-6q4 -16 4 -66v-586q0 -76 32 -108t108 -32h64v-40h-64q-128 0 -170 60q-44 -60 -170 -60h-54zM280 978l6 22h70l530 -768 q22 -32 28 -68h8q4 20 36 68l524 768h80q-56 -44 -56 -160v-790l-50 -50h-206v40h100q52 0 74 23t22 77v628q0 34 4 78l-10 2q0 -16 -40 -74l-456 -672q-8 -12 -22 -12q-16 0 -24 12l-542 788q-50 72 -76 88zM1546 50v790q0 88 41 124t139 36h54v-40h-54q-66 0 -93 -27 t-27 -93v-690q0 -60 24 -85t80 -25h90v-40h-204z" />
<glyph unicode="n" horiz-adv-x="1350" d="M40 0v40h60q76 0 108 32t32 108v680q0 54 -23 77t-77 23h-100v40h250q10 -90 70 -150l686 -702q48 -50 64 -148h-20q-2 22 -22 42l-720 740q-34 36 -46 80l-8 -2q6 -32 6 -120v-560q0 -76 32 -108t108 -32h60l-2 -40h-174l-60 60l-60 -60h-164zM316 1000h30l696 -708 q28 -28 34 -62h10q-6 34 -6 72v518q0 76 -32 108t-108 32h-50v40h50q126 0 170 -60q42 60 170 60h50v-40h-50q-76 0 -108 -32t-32 -108v-820h-20q-8 138 -60 190l-682 698q-50 52 -62 112z" />
<glyph unicode="o" horiz-adv-x="1460" d="M120 500q0 150 84 269t230 183q-114 -68 -179 -186t-65 -266t65 -265t179 -187q-146 64 -230 183t-84 269zM230 500q0 220 143 365t357 145t357 -145t143 -365t-143 -365t-357 -145t-357 145t-143 365zM290 500q0 -194 125 -322t315 -128t315 128t125 322t-125 322 t-315 128t-315 -128t-125 -322zM1026 48q114 68 179 186t65 266t-65 265t-179 187q146 -64 230 -183t84 -269t-84 -269t-230 -183z" />
<glyph unicode="p" horiz-adv-x="1390" d="M40 0v40h110q68 0 84 16t16 84v720q0 68 -16 84t-84 16h-110v40h230l40 -40v-920l-40 -40h-230zM350 40v920l40 40h390q174 0 294 -102t120 -258t-120 -258t-294 -102h-370v-140q0 -70 15 -85t85 -15h110v-40h-230zM410 340h370q150 0 249 85t99 215t-99 215t-249 85 h-370v-600zM1050 328q86 50 135 130t49 182t-49 182t-135 130q116 -46 183 -128t67 -184t-67 -184t-183 -128z" />
<glyph unicode="q" horiz-adv-x="1460" d="M120 500q0 150 84 269t230 183q-114 -68 -179 -186t-65 -266t65 -265t179 -187q-146 64 -230 183t-84 269zM230 500q0 220 143 365t357 145t357 -145t143 -365q0 -184 -101 -318t-267 -176q74 -120 144 -166q66 -44 152 -54v-2q-26 -4 -52 -4q-82 0 -134 36 q-78 52 -160 206q-4 8 -14 24q-28 52 -43 78t-44 67t-56 60t-67 35t-88 16v-4q26 0 48 -4t42 -16l35 -21t32 -31t26 -33t24 -42t21 -41t22 -47t22 -47q76 -166 166 -226q50 -34 144 -34q102 0 272 42l10 -38q-176 -44 -282 -44t-166 40q-104 70 -174 234h-12 q-214 0 -357 145t-143 365zM290 500q0 -162 92 -282q6 44 40 73t78 29q62 0 111 -20t91 -64t66 -78t62 -98q152 32 246 153t94 287q0 194 -125 322t-315 128t-315 -128t-125 -322zM420 200q0 -26 30 -54q114 -92 268 -96q-20 50 -29 73t-30 60t-40 53t-50 30t-69 14 q-34 0 -57 -23t-23 -57zM1026 48q114 68 179 186t65 266t-65 265t-179 187q146 -64 230 -183t84 -269t-84 -269t-230 -183z" />
<glyph unicode="r" horiz-adv-x="1370" d="M40 0v40h110q68 0 84 16t16 84v720q0 68 -16 84t-84 16h-110v40h230l40 -40v-920l-40 -40h-230zM350 40v920l40 40h360q154 0 258 -79t104 -201q0 -112 -90 -188t-228 -86v-8q36 -26 67 -64t48 -68t45 -84q68 -134 138 -222h-86l-114 216q-58 110 -123 167t-179 57h-180 v-300q0 -70 15 -85t85 -15h110v-40h-230zM410 500h340q128 0 213 63t85 157t-85 157t-213 63h-340v-440zM860 422q124 -46 188 -180q40 -86 98 -144t122 -58h72v-40h-194q-80 90 -152 230q-70 138 -134 192zM1008 958q100 -36 156 -99t56 -139q0 -74 -54 -134t-148 -96 q134 84 134 230q0 154 -144 238z" />
<glyph unicode="s" horiz-adv-x="1376" d="M140 40v144l24 8q50 -68 172 -136q-16 6 -30 14q-28 14 -60 14q-38 0 -66 -18zM140 350h40q58 -126 198 -213t302 -87q192 0 309 52t117 136q0 36 -13 65t-31 49t-53 35t-63 23t-80 15t-83 9t-91 8q-96 6 -160 14t-133 28t-109 49t-66 78t-26 115q0 150 176 228 q-122 -78 -122 -210q0 -52 19 -92t57 -65t78 -43t98 -28t101 -14t101 -8q86 -4 148 -12t124 -25t100 -43t62 -67t24 -97q0 -116 -133 -188t-351 -72q-128 0 -248 54q-120 52 -208 142q-84 86 -84 164zM288 752q0 110 110 184t284 74q202 0 354 -146q80 -80 80 -154h-40 q-54 104 -160 172t-234 68q-154 0 -247 -49t-93 -131q0 -36 13 -63t44 -46t60 -31t82 -20t89 -12t100 -10q100 -8 168 -19t141 -33t117 -54t72 -86t28 -126q0 -144 -200 -222q144 80 144 210q0 64 -27 112t-69 77t-109 48t-130 27t-149 12q-74 4 -128 10t-114 21t-98 38 t-63 61t-25 88zM952 966l20 -8q32 -14 58 -16q24 0 46 14l40 22v-108l-24 -8q-42 52 -140 104z" />
<glyph unicode="t" horiz-adv-x="1380" d="M100 640v60q0 124 84 212t216 88h230l40 -40v-920l-40 -40h-230v40h110q68 0 84 16t16 84v800h-210q-104 0 -172 -68t-68 -172v-60h-60zM100 864v96l40 40h96q-88 -46 -136 -136zM710 40v920l40 40h230q124 0 212 -84t88 -216v-60h-60v60q0 104 -68 172t-172 68h-210 v-800q0 -68 16 -84t84 -16h110v-40h-230zM1144 1000h96l40 -40v-96q-46 88 -136 136z" />
<glyph unicode="u" d="M20 960v40h220l40 -40v-570q0 -112 54 -204t148 -148q-122 50 -192 143t-70 209v470q0 68 -16 84t-84 16h-100zM320 390v570l40 40h210v-40h-90q-68 0 -84 -16t-16 -84v-470q0 -140 104 -240t250 -100q164 0 280 100t116 240v430q0 76 -32 108t-108 32h-50v40h50 q126 0 170 -68q40 68 170 68h50v-40h-50q-76 0 -108 -32t-32 -108v-430q0 -172 -130 -286t-326 -114q-174 0 -294 117t-120 283z" />
<glyph unicode="v" horiz-adv-x="1300" d="M10 960v40h12q64 0 115 -36t81 -96l388 -778q16 -32 16 -90v-40h-16l-448 898q-32 62 -60 82t-76 20h-12zM164 980l2 20h240v-40h-150v-4q42 -30 64 -72l350 -704q14 -28 14 -90v-2h10v2q0 40 22 86l308 642q16 34 16 64q0 34 -22 56t-68 22h-104v40h106q112 0 140 -76 q76 76 184 76h14v-40h-14q-54 0 -104 -40t-82 -104l-412 -856h-16v44q0 62 -32 126l-370 744q-20 40 -48 68t-48 38z" />
<glyph unicode="w" horiz-adv-x="1960" d="M20 960v40h26q70 0 127 -40t83 -108l316 -758q14 -32 14 -88v-46h-22l-374 898q-20 46 -58 74t-86 28h-26zM206 976l6 24h270v-40h-172v-4q30 -42 50 -92l274 -662q14 -34 14 -70v-2h14v2q0 32 14 70l288 758h-130v40h184l24 -26q-24 -22 -24 -80q0 -26 8 -48l274 -752 q14 -32 14 -88v-46h-22l-318 858l-326 -858h-22v46q0 64 -16 102l-306 734q-18 48 -48 85t-50 49zM1056 902q0 40 24 69t60 29h78v-40h-70q-38 0 -38 -38q0 -16 6 -36l254 -684q12 -32 12 -70v-2h14v2q0 30 16 70l258 618q16 40 16 68q0 72 -100 72h-72v40h82q114 0 142 -76 q76 76 178 76h24v-40h-30q-56 0 -102 -39t-72 -101l-360 -860h-22v46q0 64 -16 102l-274 750q-8 22 -8 44z" />
<glyph unicode="x" horiz-adv-x="1360" d="M20 0v38h66q58 0 126 45t124 111l258 308l-302 372q-70 86 -144 86h-88v40h90q62 0 101 -17t83 -71l694 -852l-54 -60h-180v40q80 0 110 4t30 22q0 16 -30 54l-272 334l-252 -298q-30 -34 -30 -62q0 -54 114 -54v-40h-122l-62 60q-84 -60 -174 -60h-86zM316 1000h74 l328 -406l234 266q24 26 22 50q0 22 -20 36t-54 14v40h92l46 -56q76 56 174 56h88v-40h-88q-92 0 -196 -118l-258 -294l340 -422q46 -56 75 -71t71 -15h96v-40h-96q-118 0 -190 90z" />
<glyph unicode="y" horiz-adv-x="1340" d="M10 960v40h54q112 0 230 -144l356 -438v-378l-40 -40h-230v40h110q68 0 84 16t16 84v260l-362 444q-54 64 -90 90t-74 26h-54zM204 982l2 18h250v-40h-148v-4q48 -22 102 -88l280 -344q18 -22 26 -38h8q8 18 30 42l274 316q32 36 32 66q0 50 -80 50h-108v40h108 q110 0 136 -68q96 68 182 68h32v-40h-32q-90 0 -192 -118l-356 -410v-292q0 -68 16 -84t84 -16h110v-40h-230l-40 40v376q0 18 -12 32l-336 410q-86 104 -138 124z" />
<glyph unicode="z" horiz-adv-x="1340" d="M80 0v10q70 20 184 164l526 642q74 90 132 118v6h-472q-104 0 -172 -68t-68 -172v-60h-60v60q0 128 85 214t215 86h634q-116 -54 -218 -178l-528 -644q-124 -150 -258 -178zM150 864v96l40 40h96q-90 -48 -136 -136zM192 0q94 50 200 180l524 640q118 144 294 180v-10 q-30 -6 -96 -51t-122 -113l-526 -642q-68 -84 -116 -120v-4h560q104 0 172 68t68 172v60h60v-60q0 -132 -88 -216t-212 -84h-718zM1074 0q90 48 136 136v-96l-40 -40h-96z" />
<glyph unicode="{" horiz-adv-x="560" d="M34 496v8q114 44 194 101t80 115q0 20 -34 124q-26 72 -36 112q-14 46 -14 74q0 80 72 124q-30 -32 -30 -82t52 -200q40 -120 40 -152q0 -104 -154 -190q-38 -22 -82 -28v-4q44 -6 82 -28q154 -86 154 -190q0 -32 -42 -152q-50 -150 -50 -200t30 -82q-72 42 -72 124 q0 42 48 184q36 104 36 126q0 58 -80 116t-194 100zM132 416v2q70 -36 108 -76q28 -30 28 -60q0 -12 -4 -32q-8 -38 -36 -122q-38 -112 -38 -150q0 -80 48 -129t126 -49h176v-50h-176q-98 0 -161 63t-63 165q0 46 40 170q40 118 40 158q0 24 -20 47t-68 63zM132 582v2 q50 40 69 63t19 47q0 40 -38 158q-42 124 -42 170q0 102 63 165t161 63h176v-50h-176q-78 0 -126 -49t-48 -129q0 -42 38 -150q28 -84 36 -122q4 -22 4 -32q0 -30 -28 -60q-38 -40 -108 -76z" />
<glyph unicode="|" horiz-adv-x="350" d="M130 -500v2000h90v-2000h-90z" />
<glyph unicode="}" horiz-adv-x="560" d="M20 -200h176q78 0 126 49t48 129q0 42 -38 150q-28 84 -36 122q-4 22 -4 32q0 30 28 60q38 40 108 76v-2q-50 -40 -69 -63t-19 -47q0 -40 38 -158q42 -124 42 -170q0 -102 -63 -165t-161 -63h-176v50zM20 1200v50h176q98 0 161 -63t63 -165q0 -46 -40 -170 q-40 -118 -40 -158q0 -24 20 -47t68 -63v-2q-70 36 -108 76q-28 30 -28 60q0 12 4 32q8 38 36 122q38 112 38 150q0 80 -48 129t-126 49h-176zM202 280q0 104 154 190q38 22 82 28v4q-44 6 -82 28q-154 86 -154 190q0 32 42 152q50 150 50 200t-30 82q72 -42 72 -124 q0 -42 -48 -184q-36 -104 -36 -126q0 -58 80 -116t194 -100v-8q-114 -44 -194 -101t-80 -115q0 -20 34 -124q26 -72 36 -112q14 -46 14 -74q0 -80 -72 -124q30 32 30 82t-52 200q-40 120 -40 152z" />
<glyph unicode="~" horiz-adv-x="930" d="M44 414l26 106q18 74 53 113t99 39q44 0 96 -21t84 -42t88 -63q50 -36 77 -54t68 -36t73 -18q46 0 74 22l4 -4q-8 -22 -30 -36t-48 -14q-38 0 -84 19t-75 38t-81 57q-54 38 -84 57t-76 38t-86 19q-50 0 -74 -29t-40 -95l-26 -106zM144 544q8 22 30 36t48 14q38 0 84 -19 t75 -38t82 -57t83 -57t76 -38t86 -19q50 0 74 29t40 95l26 106l38 -10l-26 -106q-18 -74 -53 -113t-99 -39q-44 0 -96 21t-84 42t-88 63q-50 36 -77 54t-68 36t-73 18q-46 0 -74 -22z" />
<glyph unicode="&#xa1;" horiz-adv-x="480" d="M134 908q0 52 22 75t72 25q-16 -52 -16 -100q2 -16 4 -49t2 -51q-46 4 -65 27t-19 73zM150 -98q0 136 28 352t28 352h20q0 -56 -4 -300t-4 -312v-126q-26 4 -47 16t-21 18zM250 606h20q0 -136 28 -352t28 -352q0 -6 -22 -17t-46 -15v124q0 70 -4 314t-4 298zM252 908 q0 56 12 98q42 -4 60 -27t18 -71q0 -52 -20 -75t-68 -25q0 50 -2 100z" />
<glyph unicode="&#xa2;" horiz-adv-x="1180" d="M120 498q0 110 52 197t146 143q-126 -108 -126 -318q0 -260 164 -376q-112 54 -174 145t-62 209zM232 520q0 186 98 288t284 112v160h52v-160q198 -8 324 -194q60 -88 60 -176h-40q-44 132 -136 217t-208 93v-720h16q96 0 183 38t151 108l48 -38q-70 -82 -173 -125 t-215 -43h-10v-160h-52v162q-186 16 -284 128t-98 310zM298 530q0 -172 81 -270t235 -116v716q-154 -8 -235 -92t-81 -238zM876 878q54 -20 90 -20t64 18l20 12v-200q-68 124 -174 190z" />
<glyph unicode="&#xa3;" horiz-adv-x="1370" d="M60 0v40h70q140 0 140 140v270h-132l6 50h126v210q0 78 52 145t138 107q-130 -92 -130 -252v-630l-80 -80h-190zM320 0l50 50v660q0 126 92 213t222 87q124 0 225 -74t155 -172l16 -32v-72h-30l-40 76q-48 88 -134 151t-192 63t-180 -70t-74 -170v-210h374l-8 -50h-366 v-390h540q104 0 172 68t68 172v80h60v-80q0 -124 -84 -212t-216 -88h-650zM928 956q40 -10 71 -10t49 10l32 16v-176q-60 98 -152 160zM1134 0q88 46 136 136v-96l-40 -40h-96z" />
<glyph unicode="&#xa4;" horiz-adv-x="1000" d="M178 226l96 96q-62 78 -62 180q0 100 60 178l-92 92l50 50l92 -92q82 66 186 66q100 0 178 -60l86 84l50 -50l-86 -84q62 -78 62 -180q0 -106 -66 -186l92 -92l-50 -50l-92 92q-78 -60 -178 -60q-102 0 -180 64l-96 -98zM264 502q0 -100 70 -170t170 -70t171 72t71 172 t-70 169t-168 69q-100 0 -172 -71t-72 -171z" />
<glyph unicode="&#xa5;" horiz-adv-x="1360" d="M20 960v40h54q112 0 230 -144l356 -438v-378l-40 -40h-230v40h110q68 0 84 16t16 84v250h-310l4 50h274l-330 404q-54 64 -90 90t-74 26h-54zM214 982l2 18h250v-40h-148v-4q48 -22 102 -88l280 -344q18 -22 26 -38h8q8 18 30 42l274 316q32 36 32 66q0 50 -80 50h-108 v40h108q110 0 136 -68q96 68 182 68h32v-40h-32q-90 0 -192 -118l-350 -402h318l-6 -50h-318v-250q0 -68 16 -84t84 -16h110v-40h-230l-40 40v376q0 18 -12 32l-336 410q-86 104 -138 124z" />
<glyph unicode="&#xa6;" horiz-adv-x="350" d="M130 260h90v-760h-90v760zM130 740v760h90v-760h-90z" />
<glyph unicode="&#xa7;" horiz-adv-x="1280" d="M180 802q0 78 50 124q14 -128 113 -240t267 -232q94 -68 148 -111t121 -109t98 -134t31 -140q0 -96 -90 -159t-232 -63q-202 0 -352 146q-82 82 -82 154h40q54 -102 160 -171t234 -69q96 0 155 41t59 107q0 108 -90 202t-256 206q-116 78 -185 133t-129 141t-60 174z M252 -122l26 8q46 -56 138 -104l-20 8q-36 14 -56 14q-24 0 -48 -12l-40 -22v108zM272 1032q0 96 89 158t231 62q202 0 352 -146q82 -82 82 -154h-40q-54 102 -160 171t-234 69q-96 0 -155 -40t-59 -106q0 -104 89 -196t251 -200q92 -64 142 -101t115 -98t95 -122t30 -129 q0 -32 -15 -71t-35 -59q-12 132 -113 245t-271 235q-94 68 -147 109t-119 106t-97 131t-31 136zM862 1208l20 -8q34 -14 56 -14q24 0 48 12l40 22v-106l-26 -8q-44 54 -138 102z" />
<glyph unicode="&#xa8;" horiz-adv-x="760" d="M96 908q0 44 16 64t52 24q8 -40 8 -88t-8 -88q-36 4 -52 24t-16 64zM200 820q12 44 12 87t-12 89q42 -2 59 -22t17 -66t-18 -66t-58 -22zM484 908q0 44 16 64t52 24q8 -40 8 -88t-8 -88q-36 4 -52 24t-16 64zM588 820q12 44 12 87t-12 89q42 -2 59 -22t17 -66t-18 -66 t-58 -22z" />
<glyph unicode="&#xa9;" horiz-adv-x="1160" d="M100 500q0 186 141 318t339 132t339 -132t141 -318t-141 -318t-339 -132t-339 132t-141 318zM152 500q0 -166 125 -283t303 -117t303 117t125 283t-125 283t-303 117t-303 -117t-125 -283zM328 502q0 114 75 183t197 69q70 0 130 -38q10 -8 14 -26l8 2q-4 16 -4 26v44h18 v-160h-14l-10 22q-28 56 -59 77t-83 21q-86 0 -138 -57t-52 -151q0 -108 61 -167t143 -59q108 0 158 90l26 -12q-58 -110 -202 -110q-106 0 -187 66t-81 180z" />
<glyph unicode="&#xaa;" horiz-adv-x="910" d="M10 480v32h14q70 0 122 98l254 510h62q8 -60 26 -100l220 -468q4 -12 4 -18q0 -20 -18 -37t-42 -17h-92v32h90q16 0 16 16v4l-72 156h-356l-34 -68q-10 -20 -10 -44q0 -28 19 -46t53 -18h48v-32h-48q-90 0 -114 58q-58 -58 -128 -58h-14zM262 736h308l-128 276 q-16 36 -16 60h-6q0 -18 -20 -60zM496 1120h50q0 -36 20 -78l212 -448q22 -46 43 -64t63 -18h16v-32h-44q-78 0 -126 106l-210 448q-18 36 -24 86z" />
<glyph unicode="&#xab;" horiz-adv-x="940" d="M90 556v8l324 326l24 -26l-258 -256l4 -4q48 36 88 74l184 166l28 -28l-188 -160q-96 -80 -158 -92v-8q64 -12 158 -92l188 -162l-26 -28l-186 168q-42 38 -88 74l-4 -4l260 -256l-26 -26zM426 556v8l324 326l24 -26l-258 -256l4 -4q48 36 88 74l184 166l28 -28 l-188 -160q-96 -80 -158 -92v-8q64 -12 158 -92l188 -162l-26 -28l-186 168q-42 38 -88 74l-4 -4l260 -256l-26 -26z" />
<glyph unicode="&#xac;" horiz-adv-x="1200" d="M160 590h786v-480l-60 -2v422h-724z" />
<glyph unicode="&#xad;" horiz-adv-x="500" d="M36 464l8 70h420l-10 -70h-418z" />
<glyph unicode="&#xae;" horiz-adv-x="1160" d="M100 500q0 186 141 318t339 132t339 -132t141 -318t-141 -318t-339 -132t-339 132t-141 318zM152 500q0 -166 125 -283t303 -117t303 117t125 283t-125 283t-303 117t-303 -117t-125 -283zM324 732v16h264q100 0 162 -37t62 -97q0 -52 -44 -88t-124 -46v-4q48 -12 82 -62 l46 -70q42 -64 80 -64h16v-18h-122l-96 146q-26 38 -44 54t-46 16h-74v-148q0 -36 11 -45t55 -9h20v-14h-238v14h20q44 0 54 9t10 45v332q0 48 -10 59t-50 11h-34zM486 504h106q64 0 104 30t40 80q0 48 -40 78t-104 30h-106v-218z" />
<glyph unicode="&#xaf;" horiz-adv-x="574" d="M170 1020l4 50h412l-4 -50h-412z" />
<glyph unicode="&#xb0;" horiz-adv-x="560" d="M80 830q0 82 59 141t141 59t141 -59t59 -141t-59 -141t-141 -59t-141 59t-59 141zM132 830q0 -62 43 -105t105 -43t105 43t43 105t-43 105t-105 43t-105 -43t-43 -105z" />
<glyph unicode="&#xb1;" horiz-adv-x="880" d="M60 530l2 70h346v344l70 -2v-342h342l-4 -70h-338v-312l-70 4v308h-348zM110 20l2 70h658l-4 -70h-656z" />
<glyph unicode="&#xb2;" horiz-adv-x="1060" d="M120 360v14l30 24h810v-38h-840zM120 444v32l226 58q58 14 126 44t140 77t120 115t48 142q0 80 -68 126t-188 46q-100 0 -200 -55t-138 -133h-28q0 42 52 94q60 64 145 102t169 38q140 0 222 -60t82 -158q0 -86 -52 -162t-132 -126t-147 -81t-129 -49l-104 -30l4 -14 q100 20 170 20h368q64 0 83 12t19 48v46h52v-144h-524q-130 0 -288 -14zM158 984v132l30 -16q14 -8 32 -8q30 0 58 12q34 14 70 22q-124 -50 -190 -142zM576 548q290 144 290 364q0 126 -112 188q164 -56 164 -184q0 -240 -342 -368z" />
<glyph unicode="&#xb3;" horiz-adv-x="1074" d="M80 616h44q0 -136 116 -206q-160 72 -160 206zM154 616h42q0 -94 86 -150t230 -56q150 0 242 49t92 129q0 190 -294 190h-96v46h82q196 0 196 140q0 50 -62 81t-164 31q-96 0 -175 -50t-125 -138h-38q8 42 48 96q114 146 290 146q126 0 203 -46t77 -120q0 -54 -38 -95 t-100 -61v-4q106 -18 177 -77t71 -139q0 -104 -106 -168t-280 -64q-160 0 -259 73t-99 187zM170 958v142l30 -16q14 -8 36 -8q14 0 38 11t32 13l2 -2q-76 -38 -138 -140zM730 824q88 52 88 140t-84 134q136 -44 136 -130q0 -104 -140 -144zM782 786q96 -24 149 -74t53 -124 q0 -124 -182 -188q126 66 126 188q0 130 -146 198z" />
<glyph unicode="&#xb4;" horiz-adv-x="550" d="M86 810l322 80q32 8 32 44q0 26 -17 45t-43 27l-8 -6q40 -16 40 -54q0 -16 -12 -20l-266 -68l244 154q40 0 63 -23t23 -55q0 -24 -14 -42t-36 -24l-322 -82z" />
<glyph unicode="&#xb6;" horiz-adv-x="1380" d="M80 740q0 108 94 184t226 76h194l40 -40v-1146l-40 -40h-260v40h140q68 0 84 16t16 84v566h-174q-132 0 -226 76t-94 184zM140 740q0 -86 76 -148t184 -62h174v420h-174q-108 0 -184 -62t-76 -148zM674 -186v1146l40 40h256l40 -40v-1146l-20 -40h-40v1086q0 68 -17 84 t-83 16h-16q-68 0 -84 -16t-16 -84v-1086h-40zM1050 -186v1146l40 40h260v-40h-140q-68 0 -84 -16t-16 -84v-946q0 -68 16 -84t84 -16h140v-40h-260z" />
<glyph unicode="&#xb7;" horiz-adv-x="390" d="M96 502q0 48 18 71t60 27q12 -44 12 -99t-12 -97q-42 4 -60 27t-18 71zM210 402q16 52 16 100t-16 100q50 -2 72 -25t22 -75t-22 -75t-72 -25z" />
<glyph unicode="&#xb8;" horiz-adv-x="600" d="M114 -470l4 30q94 0 160 54t66 132q0 42 -20 68t-54 26q-56 0 -88 -20l-26 4l40 180l36 -2l-30 -136q32 14 68 14q50 0 81 -40t31 -100q0 -88 -78 -149t-190 -61zM336 -418q78 66 78 158q0 76 -44 120q82 -38 82 -124q0 -92 -116 -154z" />
<glyph unicode="&#xb9;" horiz-adv-x="650" d="M106 360v36h86q52 0 62 10t10 60v328q0 64 4 86l-6 2q-12 -26 -38 -50l-92 -90l-18 16l60 76q192 244 192 334v18h30v-720q0 -50 10 -60t62 -10h86v-36h-174l-30 30v606l-38 -54v-552l-30 -30h-176z" />
<glyph unicode="&#xba;" horiz-adv-x="1000" d="M100 802q0 102 57 179t155 115q-72 -44 -114 -120t-42 -174t42 -174t114 -120q-98 40 -155 116t-57 178zM196 802q0 146 85 237t219 91t219 -91t85 -237t-85 -237t-219 -91t-219 91t-85 237zM248 802q0 -126 69 -204t183 -78t183 78t69 204t-69 204t-183 78t-183 -78 t-69 -204zM688 508q72 44 114 120t42 174t-42 174t-114 120q98 -40 155 -116t57 -178t-57 -179t-155 -115z" />
<glyph unicode="&#xbb;" horiz-adv-x="940" d="M120 304l188 160q96 80 158 92v8q-64 12 -158 92l-188 162l26 28l186 -168q42 -38 88 -74l4 4l-260 256l26 26l324 -326v-8l-324 -326l-24 26l258 256l-4 4q-48 -36 -88 -74l-184 -166zM456 304l188 160q96 80 158 92v8q-64 12 -158 92l-188 162l26 28l186 -168 q42 -38 88 -74l4 4l-260 256l26 26l324 -326v-8l-324 -326l-24 26l258 256l-4 4q-48 -36 -88 -74l-184 -166z" />
<glyph unicode="&#xbf;" horiz-adv-x="886" d="M104 100q0 58 42 109t118 107q-104 -112 -104 -216q0 -116 78 -180q-134 64 -134 180zM200 100q0 50 29 101t70 92t82 79t70 77t29 73v88h60v-88q0 -44 -29 -90t-71 -85l-84 -78t-71 -83t-29 -86q0 -180 242 -180q116 0 192 55t76 123v56h30v-56q0 -94 -87 -161t-209 -67 q-148 0 -224 59t-76 171zM392 910q0 52 22 75t72 25q-16 -52 -16 -100q4 -66 6 -100q-46 4 -65 27t-19 73zM510 910q0 56 12 98q42 -4 60 -27t18 -71q0 -52 -20 -75t-68 -25q-2 64 -2 100zM706 -90q62 40 90 100v-112l-22 12q-14 4 -30 4t-38 -4z" />
<glyph unicode="&#xc0;" d="M0 0v40h10q46 0 87 36t65 86l478 958h78q8 -72 32 -126l426 -904q4 -10 4 -22q0 -26 -20 -47t-52 -21h-144v40h140q10 0 16 6t6 14q0 4 -2 6l-168 354h-598l-122 -246q-14 -28 -14 -54q0 -36 24 -58t66 -22h82v-40h-82q-112 0 -142 72q-70 -72 -160 -72h-10zM388 480h540 l-236 504q-18 38 -18 76h-8q0 -22 -26 -74zM508 1388q0 32 23 55t63 23l244 -154l-266 68q-12 4 -12 20q0 38 40 54l-8 6q-26 -6 -43 -26t-17 -46q0 -36 32 -44l322 -80l-6 -24l-322 82q-22 6 -36 24t-14 42zM758 1120h62q4 -52 26 -98l414 -880q26 -56 53 -79t81 -23h6v-40 h-40q-96 0 -160 134l-412 878q-22 46 -30 108z" />
<glyph unicode="&#xc1;" d="M0 0v40h10q46 0 87 36t65 86l478 958h78q8 -72 32 -126l426 -904q4 -10 4 -22q0 -26 -20 -47t-52 -21h-144v40h140q10 0 16 6t6 14q0 4 -2 6l-168 354h-598l-122 -246q-14 -28 -14 -54q0 -36 24 -58t66 -22h82v-40h-82q-112 0 -142 72q-70 -72 -160 -72h-10zM388 480h540 l-236 504q-18 38 -18 76h-8q0 -22 -26 -74zM582 1264l322 80q32 8 32 44q0 26 -17 45t-43 27l-8 -6q40 -16 40 -54q0 -16 -12 -20l-266 -68l244 154q40 0 63 -23t23 -55q0 -24 -14 -42t-36 -24l-322 -82zM758 1120h62q4 -52 26 -98l414 -880q26 -56 53 -79t81 -23h6v-40h-40 q-96 0 -160 134l-412 878q-22 46 -30 108z" />
<glyph unicode="&#xc2;" d="M0 0v40h10q46 0 87 36t65 86l478 958h78q8 -72 32 -126l426 -904q4 -10 4 -22q0 -26 -20 -47t-52 -21h-144v40h140q10 0 16 6t6 14q0 4 -2 6l-168 354h-598l-122 -246q-14 -28 -14 -54q0 -36 24 -58t66 -22h82v-40h-82q-112 0 -142 72q-70 -72 -160 -72h-10zM388 480h540 l-236 504q-18 38 -18 76h-8q0 -22 -26 -74zM490 1272l216 200h56l216 -200l-20 -18l-158 146l-6 -4q24 -32 66 -76l80 -84l-24 -20l-74 86q-96 106 -104 160h-8q-8 -54 -104 -160l-74 -86l-24 20l80 84q42 42 66 76l-6 4l-158 -146zM758 1120h62q4 -52 26 -98l414 -880 q26 -56 53 -79t81 -23h6v-40h-40q-96 0 -160 134l-412 878q-22 46 -30 108z" />
<glyph unicode="&#xc3;" d="M0 0v40h10q46 0 87 36t65 86l478 958h78q8 -72 32 -126l426 -904q4 -10 4 -22q0 -26 -20 -47t-52 -21h-144v40h140q10 0 16 6t6 14q0 4 -2 6l-168 354h-598l-122 -246q-14 -28 -14 -54q0 -36 24 -58t66 -22h82v-40h-82q-112 0 -142 72q-70 -72 -160 -72h-10zM388 480h540 l-236 504q-18 38 -18 76h-8q0 -22 -26 -74zM440 1286l14 58q34 132 126 132q54 0 176 -82q112 -76 156 -76q22 0 40 8q-18 -34 -50 -34q-26 0 -58 14t-53 27t-59 39q-104 74 -152 74q-36 0 -64 -30t-40 -78l-16 -58zM514 1382q18 34 48 34q26 0 60 -14q32 -14 53 -27t59 -39 q106 -74 152 -74q36 0 64 30t40 76l16 70l22 -6l-18 -68q-34 -132 -124 -132q-54 0 -176 82q-112 76 -158 76q-22 0 -38 -8zM758 1120h62q4 -52 26 -98l414 -880q26 -56 53 -79t81 -23h6v-40h-40q-96 0 -160 134l-412 878q-22 46 -30 108z" />
<glyph unicode="&#xc4;" d="M0 0v40h10q46 0 87 36t65 86l478 958h78q8 -72 32 -126l426 -904q4 -10 4 -22q0 -26 -20 -47t-52 -21h-144v40h140q10 0 16 6t6 14q0 4 -2 6l-168 354h-598l-122 -246q-14 -28 -14 -54q0 -36 24 -58t66 -22h82v-40h-82q-112 0 -142 72q-70 -72 -160 -72h-10zM388 480h540 l-236 504q-18 38 -18 76h-8q0 -22 -26 -74zM450 1326q0 44 16 64t52 24q8 -40 8 -88t-8 -88q-36 4 -52 24t-16 64zM554 1238q12 44 12 87t-12 89q42 -2 59 -22t17 -66t-18 -66t-58 -22zM758 1120h62q4 -52 26 -98l414 -880q26 -56 53 -79t81 -23h6v-40h-40q-96 0 -160 134 l-412 878q-22 46 -30 108zM838 1326q0 44 16 64t52 24q8 -40 8 -88t-8 -88q-36 4 -52 24t-16 64zM942 1238q12 44 12 87t-12 89q42 -2 59 -22t17 -66t-18 -66t-58 -22z" />
<glyph unicode="&#xc5;" d="M0 0v40h10q46 0 86 36q40 34 66 86l478 958l8 4q-42 24 -66 65t-24 91q0 74 52 126t124 52t124 -52t52 -126q0 -50 -24 -91t-66 -65q6 -60 26 -102l414 -880q26 -56 53 -79t81 -23h6v-40h-40q-98 0 -160 134l-412 878q-30 64 -30 146q42 10 70 44t28 78q0 52 -36 88 t-86 36q-52 0 -88 -36t-36 -88q0 -46 31 -82t77 -42q0 -94 32 -162l426 -904q6 -12 6 -22q0 -26 -21 -47t-53 -21h-136v40h132q22 0 22 18q0 4 -2 8l-168 354h-598l-122 -246q-14 -28 -14 -54q0 -36 24 -58t66 -22h72v-40h-72q-112 0 -142 72q-70 -72 -160 -72h-10zM388 480 h540l-236 504q-18 38 -18 76h-8q0 -22 -26 -74z" />
<glyph unicode="&#xc6;" horiz-adv-x="2050" d="M10 0v40h16q46 0 87 36t65 86l478 958h314l40 -40v-1040l-40 -40h-210v40h90q68 0 84 16t16 84v390h-522l-176 -356q-14 -28 -14 -54q0 -36 24 -58t66 -22h72v-40h-72q-112 0 -142 72q-70 -72 -160 -72h-16zM458 590h492v370q0 68 -16 84t-84 16h-168q0 -22 -26 -74z M1050 40v1040l40 40h480q118 0 199 -80t81 -200v-80h-60v80q0 94 -63 157t-157 63h-460v-470h160q88 0 124 36t36 124v80h60v-80q0 -142 -94 -190q94 -52 94 -190v-80h-60v80q0 88 -36 124t-124 36h-160v-470h480q104 0 172 68t68 172v60h60v-60q0 -132 -88 -216t-212 -84 h-500zM1728 1120h82l40 -40v-82q-44 78 -122 122zM1754 0q90 48 136 136v-96l-40 -40h-96z" />
<glyph unicode="&#xc7;" horiz-adv-x="1380" d="M120 568q0 160 84 289t230 201q-110 -78 -173 -202t-63 -276q0 -164 68 -300t186 -218q-154 74 -243 207t-89 299zM238 580q0 236 150 392t374 158q120 -2 230 -60t174 -148q46 -66 46 -162h-40q-22 122 -139 216t-267 94q-202 0 -335 -139t-133 -351q0 -228 140 -379 t352 -151q138 0 258 69t168 189l56 -22q-54 -140 -190 -218t-292 -78q-30 0 -58 2l-28 -126q32 14 68 14q50 0 80 -40q32 -40 32 -100q0 -88 -78 -149t-190 -61l4 30q94 0 160 54t66 132q0 42 -20 68t-54 26q-56 0 -88 -20l-26 4l38 174q-202 34 -330 194t-128 388z M838 -418q78 66 78 158q0 76 -44 120q82 -38 82 -124q0 -92 -116 -154zM1024 1088q54 -20 96 -20t70 18l20 12v-136l-22 -6q-18 28 -64 66t-100 66z" />
<glyph unicode="&#xc8;" d="M40 0v40h110q68 0 84 16t16 84v840q0 68 -16 84t-84 16h-110v40h230l40 -40v-1040l-40 -40h-230zM350 40v1040l40 40h530q118 0 199 -80t81 -200v-80h-60v80q0 94 -63 157t-157 63h-510v-470h170q88 0 124 36t36 124v80h60v-80q0 -142 -94 -190q94 -50 94 -190v-80h-60 v80q0 88 -36 124t-124 36h-170v-470h530q104 0 172 68t68 172v60h60v-60q0 -132 -88 -216t-212 -84h-550zM474 1388q0 32 23 55t63 23l244 -154l-266 68q-12 4 -12 20q0 38 40 54l-8 6q-26 -6 -43 -26t-17 -46q0 -36 32 -44l322 -80l-6 -24l-322 82q-22 6 -36 24t-14 42z M1078 1120h82l40 -40v-82q-44 78 -122 122zM1104 0q90 48 136 136v-96l-40 -40h-96z" />
<glyph unicode="&#xc9;" d="M40 0v40h110q68 0 84 16t16 84v840q0 68 -16 84t-84 16h-110v40h230l40 -40v-1040l-40 -40h-230zM350 40v1040l40 40h530q118 0 199 -80t81 -200v-80h-60v80q0 94 -63 157t-157 63h-510v-470h170q88 0 124 36t36 124v80h60v-80q0 -142 -94 -190q94 -50 94 -190v-80h-60 v80q0 88 -36 124t-124 36h-170v-470h530q104 0 172 68t68 172v60h60v-60q0 -132 -88 -216t-212 -84h-550zM548 1264l322 80q32 8 32 44q0 26 -17 45t-43 27l-8 -6q40 -16 40 -54q0 -16 -12 -20l-266 -68l244 154q40 0 63 -23t23 -55q0 -24 -14 -42t-36 -24l-322 -82z M1078 1120h82l40 -40v-82q-44 78 -122 122zM1104 0q90 48 136 136v-96l-40 -40h-96z" />
<glyph unicode="&#xca;" d="M40 0v40h110q68 0 84 16t16 84v840q0 68 -16 84t-84 16h-110v40h230l40 -40v-1040l-40 -40h-230zM350 40v1040l40 40h530q118 0 199 -80t81 -200v-80h-60v80q0 94 -63 157t-157 63h-510v-470h170q88 0 124 36t36 124v80h60v-80q0 -142 -94 -190q94 -50 94 -190v-80h-60 v80q0 88 -36 124t-124 36h-170v-470h530q104 0 172 68t68 172v60h60v-60q0 -132 -88 -216t-212 -84h-550zM456 1272l216 200h56l216 -200l-20 -18l-158 146l-6 -4q24 -32 66 -76l80 -84l-24 -20l-74 86q-96 106 -104 160h-8q-8 -54 -104 -160l-74 -86l-24 20l80 84 q42 42 66 76l-6 4l-158 -146zM1078 1120h82l40 -40v-82q-44 78 -122 122zM1104 0q90 48 136 136v-96l-40 -40h-96z" />
<glyph unicode="&#xcb;" d="M40 0v40h110q68 0 84 16t16 84v840q0 68 -16 84t-84 16h-110v40h230l40 -40v-1040l-40 -40h-230zM350 40v1040l40 40h530q118 0 199 -80t81 -200v-80h-60v80q0 94 -63 157t-157 63h-510v-470h170q88 0 124 36t36 124v80h60v-80q0 -142 -94 -190q94 -50 94 -190v-80h-60 v80q0 88 -36 124t-124 36h-170v-470h530q104 0 172 68t68 172v60h60v-60q0 -132 -88 -216t-212 -84h-550zM416 1326q0 44 16 64t52 24q8 -40 8 -88t-8 -88q-36 4 -52 24t-16 64zM520 1238q12 44 12 87t-12 89q42 -2 59 -22t17 -66t-18 -66t-58 -22zM804 1326q0 44 16 64 t52 24q8 -40 8 -88t-8 -88q-36 4 -52 24t-16 64zM908 1238q12 44 12 87t-12 89q42 -2 59 -22t17 -66t-18 -66t-58 -22zM1078 1120h82l40 -40v-82q-44 78 -122 122zM1104 0q90 48 136 136v-96l-40 -40h-96z" />
<glyph unicode="&#xcc;" horiz-adv-x="660" d="M40 0v40h110q68 0 84 16t16 84v840q0 68 -16 84t-84 16h-110v40h230l40 -40v-1040l-40 -40h-230zM104 1388q0 32 23 55t63 23l244 -154l-266 68q-12 4 -12 20q0 38 40 54l-8 6q-26 -6 -43 -26t-17 -46q0 -36 32 -44l322 -80l-6 -24l-322 82q-22 6 -36 24t-14 42zM350 40 v1040l40 40h230v-40h-110q-68 0 -84 -16t-16 -84v-840q0 -68 16 -84t84 -16h110v-40h-230z" />
<glyph unicode="&#xcd;" horiz-adv-x="660" d="M40 0v40h110q68 0 84 16t16 84v840q0 68 -16 84t-84 16h-110v40h230l40 -40v-1040l-40 -40h-230zM178 1264l322 80q32 8 32 44q0 26 -17 45t-43 27l-8 -6q40 -16 40 -54q0 -16 -12 -20l-266 -68l244 154q40 0 63 -23t23 -55q0 -24 -14 -42t-36 -24l-322 -82zM350 40v1040 l40 40h230v-40h-110q-68 0 -84 -16t-16 -84v-840q0 -68 16 -84t84 -16h110v-40h-230z" />
<glyph unicode="&#xce;" horiz-adv-x="660" d="M40 0v40h110q68 0 84 16t16 84v840q0 68 -16 84t-84 16h-110v40h230l40 -40v-1040l-40 -40h-230zM86 1272l216 200h56l216 -200l-20 -18l-158 146l-6 -4q24 -32 66 -76l80 -84l-24 -20l-74 86q-96 106 -104 160h-8q-8 -54 -104 -160l-74 -86l-24 20l80 84q42 42 66 76 l-6 4l-158 -146zM350 40v1040l40 40h230v-40h-110q-68 0 -84 -16t-16 -84v-840q0 -68 16 -84t84 -16h110v-40h-230z" />
<glyph unicode="&#xcf;" horiz-adv-x="660" d="M40 0v40h110q68 0 84 16t16 84v840q0 68 -16 84t-84 16h-110v40h230l40 -40v-1040l-40 -40h-230zM46 1326q0 44 16 64t52 24q8 -40 8 -88t-8 -88q-36 4 -52 24t-16 64zM150 1238q12 44 12 87t-12 89q42 -2 59 -22t17 -66t-18 -66t-58 -22zM350 40v1040l40 40h230v-40 h-110q-68 0 -84 -16t-16 -84v-840q0 -68 16 -84t84 -16h110v-40h-230zM434 1326q0 44 16 64t52 24q8 -40 8 -88t-8 -88q-36 4 -52 24t-16 64zM538 1238q12 44 12 87t-12 89q42 -2 59 -22t17 -66t-18 -66t-58 -22z" />
<glyph unicode="&#xd0;" horiz-adv-x="1520" d="M60 0v40h110q68 0 84 16t16 84v396h-210v50h210v394q0 68 -16 84t-84 16h-110v40h230l40 -40v-1040l-40 -40h-230zM370 40v1040l40 40h350q222 0 379 -164t157 -396t-157 -396t-379 -164h-350zM430 60h330q194 0 332 146t138 354t-138 354t-332 146h-330v-474h290v-50 h-290v-476zM1116 96q102 82 161 203t59 261t-58 261t-162 203q130 -76 207 -199t77 -265t-77 -265t-207 -199z" />
<glyph unicode="&#xd1;" horiz-adv-x="1450" d="M40 0v40h52q76 0 108 32t32 108v800q0 54 -23 77t-77 23h-92v40h242q10 -90 70 -150l804 -822q48 -50 64 -148h-20q-2 22 -22 42l-838 860q-34 36 -46 80l-8 -2q6 -32 6 -120v-680q0 -76 32 -108t108 -32h60l-2 -40h-174l-60 60l-60 -60h-156zM308 1120h30l814 -828 q28 -28 34 -62h10q-6 34 -6 72v638q0 76 -32 108t-108 32h-50v40h50q126 0 170 -60q42 60 170 60h40v-40h-40q-76 0 -108 -32t-32 -108v-940h-20q-8 138 -60 190l-800 818q-50 52 -62 112zM436 1286l14 58q34 132 126 132q54 0 176 -82q112 -76 156 -76q22 0 40 8 q-18 -34 -50 -34q-26 0 -58 14t-53 27t-59 39q-104 74 -152 74q-36 0 -64 -30t-40 -78l-16 -58zM510 1382q18 34 48 34q26 0 60 -14q32 -14 53 -27t59 -39q106 -74 152 -74q36 0 64 30t40 76l16 70l22 -6l-18 -68q-34 -132 -124 -132q-54 0 -176 82q-112 76 -158 76 q-22 0 -38 -8z" />
<glyph unicode="&#xd2;" horiz-adv-x="1520" d="M120 560q0 170 92 306t252 204q-128 -76 -202 -210t-74 -300t74 -300t202 -210q-158 70 -251 205t-93 305zM228 560q0 246 152 408t380 162t380 -162t152 -408t-152 -408t-380 -162t-380 162t-152 408zM290 560q0 -220 134 -365t336 -145t336 145t134 365t-134 365 t-336 145t-336 -145t-134 -365zM534 1388q0 32 23 55t63 23l244 -154l-266 68q-12 4 -12 20q0 38 40 54l-8 6q-26 -6 -43 -26t-17 -46q0 -36 32 -44l322 -80l-6 -24l-322 82q-22 6 -36 24t-14 42zM1056 50q128 76 202 210t74 300t-74 300t-202 210q158 -70 251 -205t93 -305 t-93 -305t-251 -205z" />
<glyph unicode="&#xd3;" horiz-adv-x="1520" d="M120 560q0 170 92 306t252 204q-128 -76 -202 -210t-74 -300t74 -300t202 -210q-158 70 -251 205t-93 305zM228 560q0 246 152 408t380 162t380 -162t152 -408t-152 -408t-380 -162t-380 162t-152 408zM290 560q0 -220 134 -365t336 -145t336 145t134 365t-134 365 t-336 145t-336 -145t-134 -365zM608 1264l322 80q32 8 32 44q0 26 -17 45t-43 27l-8 -6q40 -16 40 -54q0 -16 -12 -20l-266 -68l244 154q40 0 63 -23t23 -55q0 -24 -14 -42t-36 -24l-322 -82zM1056 50q128 76 202 210t74 300t-74 300t-202 210q158 -70 251 -205t93 -305 t-93 -305t-251 -205z" />
<glyph unicode="&#xd4;" horiz-adv-x="1520" d="M120 560q0 170 92 306t252 204q-128 -76 -202 -210t-74 -300t74 -300t202 -210q-158 70 -251 205t-93 305zM228 560q0 246 152 408t380 162t380 -162t152 -408t-152 -408t-380 -162t-380 162t-152 408zM290 560q0 -220 134 -365t336 -145t336 145t134 365t-134 365 t-336 145t-336 -145t-134 -365zM516 1272l216 200h56l216 -200l-20 -18l-158 146l-6 -4q24 -32 66 -76l80 -84l-24 -20l-74 86q-96 106 -104 160h-8q-8 -54 -104 -160l-74 -86l-24 20l80 84q42 42 66 76l-6 4l-158 -146zM1056 50q128 76 202 210t74 300t-74 300t-202 210 q158 -70 251 -205t93 -305t-93 -305t-251 -205z" />
<glyph unicode="&#xd5;" horiz-adv-x="1520" d="M120 560q0 170 92 306t252 204q-128 -76 -202 -210t-74 -300t74 -300t202 -210q-158 70 -251 205t-93 305zM228 560q0 246 152 408t380 162t380 -162t152 -408t-152 -408t-380 -162t-380 162t-152 408zM290 560q0 -220 134 -365t336 -145t336 145t134 365t-134 365 t-336 145t-336 -145t-134 -365zM466 1286l14 58q34 132 126 132q54 0 176 -82q112 -76 156 -76q22 0 40 8q-18 -34 -50 -34q-26 0 -58 14t-53 27t-59 39q-104 74 -152 74q-36 0 -64 -30t-40 -78l-16 -58zM540 1382q18 34 48 34q26 0 60 -14q32 -14 53 -27t59 -39 q106 -74 152 -74q36 0 64 30t40 76l16 70l22 -6l-18 -68q-34 -132 -124 -132q-54 0 -176 82q-112 76 -158 76q-22 0 -38 -8zM1056 50q128 76 202 210t74 300t-74 300t-202 210q158 -70 251 -205t93 -305t-93 -305t-251 -205z" />
<glyph unicode="&#xd6;" horiz-adv-x="1520" d="M120 560q0 170 92 306t252 204q-128 -76 -202 -210t-74 -300t74 -300t202 -210q-158 70 -251 205t-93 305zM228 560q0 246 152 408t380 162t380 -162t152 -408t-152 -408t-380 -162t-380 162t-152 408zM290 560q0 -220 134 -365t336 -145t336 145t134 365t-134 365 t-336 145t-336 -145t-134 -365zM476 1326q0 44 16 64t52 24q8 -40 8 -88t-8 -88q-36 4 -52 24t-16 64zM580 1238q12 44 12 87t-12 89q42 -2 59 -22t17 -66t-18 -66t-58 -22zM864 1326q0 44 16 64t52 24q8 -40 8 -88t-8 -88q-36 4 -52 24t-16 64zM968 1238q12 44 12 87 t-12 89q42 -2 59 -22t17 -66t-18 -66t-58 -22zM1056 50q128 76 202 210t74 300t-74 300t-202 210q158 -70 251 -205t93 -305t-93 -305t-251 -205z" />
<glyph unicode="&#xd7;" horiz-adv-x="720" d="M126 310l192 190l-192 190l44 44l190 -192l190 192l44 -44l-192 -190l192 -190l-44 -44l-190 192l-190 -192z" />
<glyph unicode="&#xd8;" horiz-adv-x="1520" d="M112 -92l216 222q-100 78 -154 189t-54 241q0 170 92 306t252 204q-128 -76 -202 -210t-74 -300t74 -300t202 -210q-50 22 -94 50l-222 -228zM228 560q0 246 152 408t380 162t380 -162t152 -408t-152 -408t-380 -162t-380 162t-152 408zM290 560q0 -206 118 -348l692 708 q-134 150 -340 150q-202 0 -336 -145t-134 -365zM444 176q130 -126 316 -126q202 0 336 145t134 365q0 186 -98 322zM1056 50q128 76 202 210t74 300t-74 300t-202 210q66 -28 122 -70l192 198l36 -36l-190 -194q184 -162 184 -408q0 -170 -93 -305t-251 -205z" />
<glyph unicode="&#xd9;" horiz-adv-x="1440" d="M20 1080v40h220l40 -40v-670q0 -116 55 -213t151 -159q-126 50 -196 147t-70 225v570q0 68 -16 84t-84 16h-100zM320 410v670l40 40h210v-40h-90q-68 0 -84 -16t-16 -84v-570q0 -150 110 -255t264 -105q172 0 294 105t122 255v530q0 76 -32 108t-108 32h-50v40h50 q126 0 170 -68q40 68 170 68h50v-40h-50q-76 0 -108 -32t-32 -108v-530q0 -174 -139 -297t-337 -123q-180 0 -307 123t-127 297zM544 1368q0 32 23 55t63 23l244 -154l-266 68q-12 4 -12 20q0 38 40 54l-8 6q-26 -6 -43 -26t-17 -46q0 -36 32 -44l322 -80l-6 -24l-322 82 q-22 6 -36 24t-14 42z" />
<glyph unicode="&#xda;" horiz-adv-x="1440" d="M20 1080v40h220l40 -40v-670q0 -116 55 -213t151 -159q-126 50 -196 147t-70 225v570q0 68 -16 84t-84 16h-100zM320 410v670l40 40h210v-40h-90q-68 0 -84 -16t-16 -84v-570q0 -150 110 -255t264 -105q172 0 294 105t122 255v530q0 76 -32 108t-108 32h-50v40h50 q126 0 170 -68q40 68 170 68h50v-40h-50q-76 0 -108 -32t-32 -108v-530q0 -174 -139 -297t-337 -123q-180 0 -307 123t-127 297zM618 1244l322 80q32 8 32 44q0 26 -17 45t-43 27l-8 -6q40 -16 40 -54q0 -16 -12 -20l-266 -68l244 154q40 0 63 -23t23 -55q0 -24 -14 -42 t-36 -24l-322 -82z" />
<glyph unicode="&#xdb;" horiz-adv-x="1440" d="M20 1080v40h220l40 -40v-670q0 -116 55 -213t151 -159q-126 50 -196 147t-70 225v570q0 68 -16 84t-84 16h-100zM320 410v670l40 40h210v-40h-90q-68 0 -84 -16t-16 -84v-570q0 -150 110 -255t264 -105q172 0 294 105t122 255v530q0 76 -32 108t-108 32h-50v40h50 q126 0 170 -68q40 68 170 68h50v-40h-50q-76 0 -108 -32t-32 -108v-530q0 -174 -139 -297t-337 -123q-180 0 -307 123t-127 297zM526 1252l216 200h56l216 -200l-20 -18l-158 146l-6 -4q24 -32 66 -76l80 -84l-24 -20l-74 86q-96 106 -104 160h-8q-8 -54 -104 -160l-74 -86 l-24 20l80 84q42 42 66 76l-6 4l-158 -146z" />
<glyph unicode="&#xdc;" horiz-adv-x="1440" d="M20 1080v40h220l40 -40v-670q0 -116 55 -213t151 -159q-126 50 -196 147t-70 225v570q0 68 -16 84t-84 16h-100zM320 410v670l40 40h210v-40h-90q-68 0 -84 -16t-16 -84v-570q0 -150 110 -255t264 -105q172 0 294 105t122 255v530q0 76 -32 108t-108 32h-50v40h50 q126 0 170 -68q40 68 170 68h50v-40h-50q-76 0 -108 -32t-32 -108v-530q0 -174 -139 -297t-337 -123q-180 0 -307 123t-127 297zM486 1306q0 44 16 64t52 24q8 -40 8 -88t-8 -88q-36 4 -52 24t-16 64zM590 1218q12 44 12 87t-12 89q42 -2 59 -22t17 -66t-18 -66t-58 -22z M874 1306q0 44 16 64t52 24q8 -40 8 -88t-8 -88q-36 4 -52 24t-16 64zM978 1218q12 44 12 87t-12 89q42 -2 59 -22t17 -66t-18 -66t-58 -22z" />
<glyph unicode="&#xdd;" horiz-adv-x="1440" d="M0 1080v40h48q112 0 230 -144l422 -518v-418l-40 -40h-230v40h110q68 0 84 16t16 84v300l-428 524q-54 64 -90 90t-74 26h-48zM188 1102l2 18h250v-40h-148v-4q48 -22 102 -88l346 -424q18 -22 26 -38h8q8 18 30 42l344 396q32 36 32 66q0 50 -80 50h-108v40h108 q110 0 136 -68q96 68 182 68h22v-40h-22q-90 0 -192 -118l-426 -490v-332q0 -68 16 -84t84 -16h110v-40h-230l-40 40v416q0 18 -12 32l-402 490q-86 104 -138 124zM598 1264l322 80q32 8 32 44q0 26 -17 45t-43 27l-8 -6q40 -16 40 -54q0 -16 -12 -20l-266 -68l244 154 q40 0 63 -23t23 -55q0 -24 -14 -42t-36 -24l-322 -82z" />
<glyph unicode="&#xde;" d="M40 0v40h110q68 0 84 16t16 84v840q0 68 -16 84t-84 16h-110v40h230l40 -40v-1040l-40 -40h-230zM350 40v1040l40 40h230v-40h-110q-68 0 -84 -16t-16 -84v-40h410q172 0 278 -82t106 -218t-106 -218t-278 -82h-410v-200q0 -68 16 -84t84 -16h110v-40h-230zM410 400h410 q144 0 231 66t87 174t-87 174t-231 66h-410v-480zM1084 380q160 88 160 260t-160 260q108 -38 167 -105t59 -155t-59 -155t-167 -105z" />
<glyph unicode="&#xdf;" horiz-adv-x="1580" d="M30 0v40h140q68 0 84 16t16 84v430h-124v50h124v86q0 154 168 240q-108 -78 -108 -206v-700l-40 -40h-260zM370 40v700q0 120 109 195t281 75q84 0 175 -37t149 -95l40 -36l-160 -176l80 -42q76 -42 119 -66t108 -67t100 -78t62 -82t27 -93q0 -132 -162 -200 q102 68 102 190q0 34 -15 69t-51 70t-65 60t-87 61t-84 52t-88 50l-76 44q-12 -12 -12 -26t14 -22l54 -30q186 -104 278 -179t92 -149q0 -106 -92 -172t-244 -66q-80 0 -164 29t-134 79q-22 18 -30 54l-8 -2q4 -12 2 -58v-142h-40v394h12l22 -54q44 -98 144 -169t196 -71 q126 0 201 45t75 123q0 32 -22 66t-50 62t-82 64t-90 57t-100 57l-134 76l220 240q-46 46 -130 78t-162 32q-144 0 -232 -58t-88 -152v-618q0 -64 16 -106v-16h-36zM938 1000q188 -22 258 -78q-26 -28 -50 -56l-38 34q-64 64 -170 100z" />
<glyph unicode="&#xe0;" horiz-adv-x="1320" d="M10 0v40h16q46 0 87 36t65 86l418 838h78q8 -72 32 -126l370 -784q4 -10 4 -22q0 -26 -20 -47t-52 -21h-136v40h132q10 0 16 6t6 14q0 4 -2 6l-130 274h-560l-82 -166q-14 -28 -14 -54q0 -36 24 -58t66 -22h72v-40h-72q-112 0 -142 72q-70 -72 -160 -72h-16zM364 400h502 l-218 464q-18 38 -18 76h-8q0 -22 -26 -74zM464 1268q0 32 23 55t63 23l244 -154l-266 68q-12 4 -12 20q0 38 40 54l-8 6q-26 -6 -43 -26t-17 -46q0 -36 32 -44l322 -80l-6 -24l-322 82q-22 6 -36 24t-14 42zM714 1000h62q4 -54 26 -98l358 -760q26 -56 53 -79t81 -23h16 v-40h-50q-96 0 -160 134l-356 758q-22 46 -30 108z" />
<glyph unicode="&#xe1;" horiz-adv-x="1320" d="M10 0v40h16q46 0 87 36t65 86l418 838h78q8 -72 32 -126l370 -784q4 -10 4 -22q0 -26 -20 -47t-52 -21h-136v40h132q10 0 16 6t6 14q0 4 -2 6l-130 274h-560l-82 -166q-14 -28 -14 -54q0 -36 24 -58t66 -22h72v-40h-72q-112 0 -142 72q-70 -72 -160 -72h-16zM364 400h502 l-218 464q-18 38 -18 76h-8q0 -22 -26 -74zM538 1144l322 80q32 8 32 44q0 26 -17 45t-43 27l-8 -6q40 -16 40 -54q0 -16 -12 -20l-266 -68l244 154q40 0 63 -23t23 -55q0 -24 -14 -42t-36 -24l-322 -82zM714 1000h62q4 -54 26 -98l358 -760q26 -56 53 -79t81 -23h16v-40 h-50q-96 0 -160 134l-356 758q-22 46 -30 108z" />
<glyph unicode="&#xe2;" horiz-adv-x="1320" d="M10 0v40h16q46 0 87 36t65 86l418 838h78q8 -72 32 -126l370 -784q4 -10 4 -22q0 -26 -20 -47t-52 -21h-136v40h132q10 0 16 6t6 14q0 4 -2 6l-130 274h-560l-82 -166q-14 -28 -14 -54q0 -36 24 -58t66 -22h72v-40h-72q-112 0 -142 72q-70 -72 -160 -72h-16zM364 400h502 l-218 464q-18 38 -18 76h-8q0 -22 -26 -74zM446 1152l216 200h56l216 -200l-20 -18l-158 146l-6 -4q24 -32 66 -76l80 -84l-24 -20l-74 86q-96 106 -104 160h-8q-8 -54 -104 -160l-74 -86l-24 20l80 84q42 42 66 76l-6 4l-158 -146zM714 1000h62q4 -54 26 -98l358 -760 q26 -56 53 -79t81 -23h16v-40h-50q-96 0 -160 134l-356 758q-22 46 -30 108z" />
<glyph unicode="&#xe3;" horiz-adv-x="1320" d="M10 0v40h16q46 0 87 36t65 86l418 838h78q8 -72 32 -126l370 -784q4 -10 4 -22q0 -26 -20 -47t-52 -21h-136v40h132q10 0 16 6t6 14q0 4 -2 6l-130 274h-560l-82 -166q-14 -28 -14 -54q0 -36 24 -58t66 -22h72v-40h-72q-112 0 -142 72q-70 -72 -160 -72h-16zM364 400h502 l-218 464q-18 38 -18 76h-8q0 -22 -26 -74zM396 1166l14 58q34 132 126 132q54 0 176 -82q112 -76 156 -76q22 0 40 8q-18 -34 -50 -34q-26 0 -58 14t-53 27t-59 39q-104 74 -152 74q-36 0 -64 -30t-40 -78l-16 -58zM470 1262q18 34 48 34q26 0 60 -14q32 -14 53 -27t59 -39 q106 -74 152 -74q36 0 64 30t40 76l16 70l22 -6l-18 -68q-34 -132 -124 -132q-54 0 -176 82q-112 76 -158 76q-22 0 -38 -8zM714 1000h62q4 -54 26 -98l358 -760q26 -56 53 -79t81 -23h16v-40h-50q-96 0 -160 134l-356 758q-22 46 -30 108z" />
<glyph unicode="&#xe4;" horiz-adv-x="1320" d="M10 0v40h16q46 0 87 36t65 86l418 838h78q8 -72 32 -126l370 -784q4 -10 4 -22q0 -26 -20 -47t-52 -21h-136v40h132q10 0 16 6t6 14q0 4 -2 6l-130 274h-560l-82 -166q-14 -28 -14 -54q0 -36 24 -58t66 -22h72v-40h-72q-112 0 -142 72q-70 -72 -160 -72h-16zM364 400h502 l-218 464q-18 38 -18 76h-8q0 -22 -26 -74zM406 1206q0 44 16 64t52 24q8 -40 8 -88t-8 -88q-36 4 -52 24t-16 64zM510 1118q12 44 12 87t-12 89q42 -2 59 -22t17 -66t-18 -66t-58 -22zM714 1000h62q4 -54 26 -98l358 -760q26 -56 53 -79t81 -23h16v-40h-50q-96 0 -160 134 l-356 758q-22 46 -30 108zM794 1206q0 44 16 64t52 24q8 -40 8 -88t-8 -88q-36 4 -52 24t-16 64zM898 1118q12 44 12 87t-12 89q42 -2 59 -22t17 -66t-18 -66t-58 -22z" />
<glyph unicode="&#xe5;" horiz-adv-x="1320" d="M10 0v40h16q46 0 87 36t65 86l422 846q-86 52 -86 152q0 74 52 126t124 52t124 -52t52 -126q0 -50 -24 -91t-66 -65q6 -60 26 -102l358 -760q26 -56 53 -79t81 -23h16v-40h-50q-96 0 -160 134l-356 758q-30 62 -30 146q42 10 70 44t28 78q0 52 -36 88t-86 36 q-52 0 -88 -36t-36 -88q0 -46 31 -82t77 -42q0 -92 32 -162l370 -784q6 -12 6 -24q0 -26 -21 -46t-53 -20h-136v40h132q22 0 22 16q0 6 -2 10l-130 274h-560l-82 -166q-14 -28 -14 -54q0 -36 24 -58t66 -22h72v-40h-72q-112 0 -142 72q-70 -72 -160 -72h-16zM364 400h502 l-218 464q-18 38 -18 76h-8q0 -22 -26 -74z" />
<glyph unicode="&#xe6;" horiz-adv-x="1970" d="M10 0v40h16q46 0 87 36t65 86l418 838h334l40 -40v-920l-40 -40h-210v40h90q68 0 84 16t16 84v330h-512l-146 -296q-14 -28 -14 -54q0 -36 24 -58t66 -22h72v-40h-72q-112 0 -142 72q-70 -72 -160 -72h-16zM428 530h482v310q0 68 -16 84t-84 16h-188q0 -22 -26 -74z M1010 40v920l40 40h440q118 0 199 -80t81 -200v-80h-60v80q0 94 -63 157t-157 63h-420v-410h100q88 0 124 36t36 124v80h60v-80q0 -142 -94 -190q94 -50 94 -190v-80h-60v80q0 88 -36 124t-124 36h-100v-410h440q104 0 172 68t68 172v60h60v-60q0 -132 -88 -216t-212 -84 h-460zM1648 1000h82l40 -40v-82q-44 78 -122 122zM1674 0q90 48 136 136v-96l-40 -40h-96z" />
<glyph unicode="&#xe7;" horiz-adv-x="1326" d="M120 508q0 136 80 254t210 184q-102 -66 -160 -179t-58 -255q0 -170 74 -292t202 -188q-162 46 -254 174q-94 128 -94 302zM232 516q0 220 132 357t344 137q120 0 231 -58t175 -150q46 -66 46 -162h-40q-22 122 -139 216t-267 94q-186 0 -301 -118t-115 -312 q0 -212 122 -341t320 -129q138 0 257 69t167 189l56 -22q-54 -140 -190 -218t-290 -78q-26 0 -50 2l-28 -126q32 14 68 14q50 0 82 -40q30 -40 30 -100q0 -88 -78 -149t-190 -61l4 30q94 0 160 54t66 132q0 42 -20 68t-54 26q-56 0 -88 -20l-26 4l38 172q-190 28 -306 168 t-116 352zM796 -418q78 66 78 158q0 76 -44 120q82 -38 82 -124q0 -92 -116 -154zM974 968q54 -20 96 -20t70 18l20 12v-136l-22 -6q-18 28 -64 66t-100 66z" />
<glyph unicode="&#xe8;" horiz-adv-x="1360" d="M40 0v40h110q68 0 84 16t16 84v720q0 68 -16 84t-84 16h-110v40h230l40 -40v-920l-40 -40h-230zM350 40v920l40 40h490q118 0 199 -80t81 -200v-80h-60v80q0 94 -63 157t-157 63h-470v-410h150q88 0 124 36t36 124v80h60v-80q0 -142 -94 -190q94 -50 94 -190v-80h-60v80 q0 88 -36 124t-124 36h-150v-410h490q104 0 172 68t68 172v60h60v-60q0 -132 -88 -216t-212 -84h-510zM434 1268q0 32 23 55t63 23l244 -154l-266 68q-12 4 -12 20q0 38 40 54l-8 6q-26 -6 -43 -26t-17 -46q0 -36 32 -44l322 -80l-6 -24l-322 82q-22 6 -36 24t-14 42z M1038 1000h82l40 -40v-82q-44 78 -122 122zM1064 0q90 48 136 136v-96l-40 -40h-96z" />
<glyph unicode="&#xe9;" horiz-adv-x="1360" d="M40 0v40h110q68 0 84 16t16 84v720q0 68 -16 84t-84 16h-110v40h230l40 -40v-920l-40 -40h-230zM350 40v920l40 40h490q118 0 199 -80t81 -200v-80h-60v80q0 94 -63 157t-157 63h-470v-410h150q88 0 124 36t36 124v80h60v-80q0 -142 -94 -190q94 -50 94 -190v-80h-60v80 q0 88 -36 124t-124 36h-150v-410h490q104 0 172 68t68 172v60h60v-60q0 -132 -88 -216t-212 -84h-510zM508 1144l322 80q32 8 32 44q0 26 -17 45t-43 27l-8 -6q40 -16 40 -54q0 -16 -12 -20l-266 -68l244 154q40 0 63 -23t23 -55q0 -24 -14 -42t-36 -24l-322 -82zM1038 1000 h82l40 -40v-82q-44 78 -122 122zM1064 0q90 48 136 136v-96l-40 -40h-96z" />
<glyph unicode="&#xea;" horiz-adv-x="1360" d="M40 0v40h110q68 0 84 16t16 84v720q0 68 -16 84t-84 16h-110v40h230l40 -40v-920l-40 -40h-230zM350 40v920l40 40h490q118 0 199 -80t81 -200v-80h-60v80q0 94 -63 157t-157 63h-470v-410h150q88 0 124 36t36 124v80h60v-80q0 -142 -94 -190q94 -50 94 -190v-80h-60v80 q0 88 -36 124t-124 36h-150v-410h490q104 0 172 68t68 172v60h60v-60q0 -132 -88 -216t-212 -84h-510zM416 1152l216 200h56l216 -200l-20 -18l-158 146l-6 -4q24 -32 66 -76l80 -84l-24 -20l-74 86q-96 106 -104 160h-8q-8 -54 -104 -160l-74 -86l-24 20l80 84q42 42 66 76 l-6 4l-158 -146zM1038 1000h82l40 -40v-82q-44 78 -122 122zM1064 0q90 48 136 136v-96l-40 -40h-96z" />
<glyph unicode="&#xeb;" horiz-adv-x="1360" d="M40 0v40h110q68 0 84 16t16 84v720q0 68 -16 84t-84 16h-110v40h230l40 -40v-920l-40 -40h-230zM350 40v920l40 40h490q118 0 199 -80t81 -200v-80h-60v80q0 94 -63 157t-157 63h-470v-410h150q88 0 124 36t36 124v80h60v-80q0 -142 -94 -190q94 -50 94 -190v-80h-60v80 q0 88 -36 124t-124 36h-150v-410h490q104 0 172 68t68 172v60h60v-60q0 -132 -88 -216t-212 -84h-510zM376 1206q0 44 16 64t52 24q8 -40 8 -88t-8 -88q-36 4 -52 24t-16 64zM480 1118q12 44 12 87t-12 89q42 -2 59 -22t17 -66t-18 -66t-58 -22zM764 1206q0 44 16 64t52 24 q8 -40 8 -88t-8 -88q-36 4 -52 24t-16 64zM868 1118q12 44 12 87t-12 89q42 -2 59 -22t17 -66t-18 -66t-58 -22zM1038 1000h82l40 -40v-82q-44 78 -122 122zM1064 0q90 48 136 136v-96l-40 -40h-96z" />
<glyph unicode="&#xec;" horiz-adv-x="660" d="M40 0v40h110q68 0 84 16t16 84v720q0 68 -16 84t-84 16h-110v40h230l40 -40v-920l-40 -40h-230zM104 1268q0 32 23 55t63 23l244 -154l-266 68q-12 4 -12 20q0 38 40 54l-8 6q-26 -6 -43 -26t-17 -46q0 -36 32 -44l322 -80l-6 -24l-322 82q-22 6 -36 24t-14 42zM350 40 v920l40 40h230v-40h-110q-68 0 -84 -16t-16 -84v-720q0 -68 16 -84t84 -16h110v-40h-230z" />
<glyph unicode="&#xed;" horiz-adv-x="660" d="M40 0v40h110q68 0 84 16t16 84v720q0 68 -16 84t-84 16h-110v40h230l40 -40v-920l-40 -40h-230zM178 1144l322 80q32 8 32 44q0 26 -17 45t-43 27l-8 -6q40 -16 40 -54q0 -16 -12 -20l-266 -68l244 154q40 0 63 -23t23 -55q0 -24 -14 -42t-36 -24l-322 -82zM350 40v920 l40 40h230v-40h-110q-68 0 -84 -16t-16 -84v-720q0 -68 16 -84t84 -16h110v-40h-230z" />
<glyph unicode="&#xee;" horiz-adv-x="660" d="M40 0v40h110q68 0 84 16t16 84v720q0 68 -16 84t-84 16h-110v40h230l40 -40v-920l-40 -40h-230zM86 1152l216 200h56l216 -200l-20 -18l-158 146l-6 -4q24 -32 66 -76l80 -84l-24 -20l-74 86q-96 106 -104 160h-8q-8 -54 -104 -160l-74 -86l-24 20l80 84q42 42 66 76 l-6 4l-158 -146zM350 40v920l40 40h230v-40h-110q-68 0 -84 -16t-16 -84v-720q0 -68 16 -84t84 -16h110v-40h-230z" />
<glyph unicode="&#xef;" horiz-adv-x="660" d="M40 0v40h110q68 0 84 16t16 84v720q0 68 -16 84t-84 16h-110v40h230l40 -40v-920l-40 -40h-230zM46 1206q0 44 16 64t52 24q8 -40 8 -88t-8 -88q-36 4 -52 24t-16 64zM150 1118q12 44 12 87t-12 89q42 -2 59 -22t17 -66t-18 -66t-58 -22zM350 40v920l40 40h230v-40h-110 q-68 0 -84 -16t-16 -84v-720q0 -68 16 -84t84 -16h110v-40h-230zM434 1206q0 44 16 64t52 24q8 -40 8 -88t-8 -88q-36 4 -52 24t-16 64zM538 1118q12 44 12 87t-12 89q42 -2 59 -22t17 -66t-18 -66t-58 -22z" />
<glyph unicode="&#xf0;" horiz-adv-x="1460" d="M60 0v40h110q68 0 84 16t16 84v336h-210v50h210v334q0 68 -16 84t-84 16h-110v40h230l40 -40v-920l-40 -40h-230zM370 40v920l40 40h330q210 0 353 -142t143 -358t-143 -358t-353 -142h-330zM430 60h310q186 0 308 125t122 315t-122 315t-308 125h-310v-414h290v-50h-290 v-416zM1030 58q112 68 179 183t67 259t-66 259t-180 183q144 -62 227 -179t83 -263t-83 -263t-227 -179z" />
<glyph unicode="&#xf1;" horiz-adv-x="1350" d="M40 0v40h60q76 0 108 32t32 108v680q0 54 -23 77t-77 23h-100v40h250q10 -90 70 -150l686 -702q48 -50 64 -148h-20q-2 22 -22 42l-720 740q-34 36 -46 80l-8 -2q6 -32 6 -120v-560q0 -76 32 -108t108 -32h60l-2 -40h-174l-60 60l-60 -60h-164zM316 1000h30l696 -708 q28 -28 34 -62h10q-6 34 -6 72v518q0 76 -32 108t-108 32h-50v40h50q126 0 170 -60q42 60 170 60h50v-40h-50q-76 0 -108 -32t-32 -108v-820h-20q-8 138 -60 190l-682 698q-50 52 -62 112zM396 1166l14 58q34 132 126 132q54 0 176 -82q112 -76 156 -76q22 0 40 8 q-18 -34 -50 -34q-26 0 -58 14t-53 27t-59 39q-104 74 -152 74q-36 0 -64 -30t-40 -78l-16 -58zM470 1262q18 34 48 34q26 0 60 -14q32 -14 53 -27t59 -39q106 -74 152 -74q36 0 64 30t40 76l16 70l22 -6l-18 -68q-34 -132 -124 -132q-54 0 -176 82q-112 76 -158 76 q-22 0 -38 -8z" />
<glyph unicode="&#xf2;" horiz-adv-x="1460" d="M120 500q0 150 84 269t230 183q-114 -68 -179 -186t-65 -266t65 -265t179 -187q-146 64 -230 183t-84 269zM230 500q0 220 143 365t357 145t357 -145t143 -365t-143 -365t-357 -145t-357 145t-143 365zM290 500q0 -194 125 -322t315 -128t315 128t125 322t-125 322 t-315 128t-315 -128t-125 -322zM504 1268q0 32 23 55t63 23l244 -154l-266 68q-12 4 -12 20q0 38 40 54l-8 6q-26 -6 -43 -26t-17 -46q0 -36 32 -44l322 -80l-6 -24l-322 82q-22 6 -36 24t-14 42zM1026 48q114 68 179 186t65 266t-65 265t-179 187q146 -64 230 -183t84 -269 t-84 -269t-230 -183z" />
<glyph unicode="&#xf3;" horiz-adv-x="1460" d="M120 500q0 150 84 269t230 183q-114 -68 -179 -186t-65 -266t65 -265t179 -187q-146 64 -230 183t-84 269zM230 500q0 220 143 365t357 145t357 -145t143 -365t-143 -365t-357 -145t-357 145t-143 365zM290 500q0 -194 125 -322t315 -128t315 128t125 322t-125 322 t-315 128t-315 -128t-125 -322zM578 1144l322 80q32 8 32 44q0 26 -17 45t-43 27l-8 -6q40 -16 40 -54q0 -16 -12 -20l-266 -68l244 154q40 0 63 -23t23 -55q0 -24 -14 -42t-36 -24l-322 -82zM1026 48q114 68 179 186t65 266t-65 265t-179 187q146 -64 230 -183t84 -269 t-84 -269t-230 -183z" />
<glyph unicode="&#xf4;" horiz-adv-x="1460" d="M120 500q0 150 84 269t230 183q-114 -68 -179 -186t-65 -266t65 -265t179 -187q-146 64 -230 183t-84 269zM230 500q0 220 143 365t357 145t357 -145t143 -365t-143 -365t-357 -145t-357 145t-143 365zM290 500q0 -194 125 -322t315 -128t315 128t125 322t-125 322 t-315 128t-315 -128t-125 -322zM486 1152l216 200h56l216 -200l-20 -18l-158 146l-6 -4q24 -32 66 -76l80 -84l-24 -20l-74 86q-96 106 -104 160h-8q-8 -54 -104 -160l-74 -86l-24 20l80 84q42 42 66 76l-6 4l-158 -146zM1026 48q114 68 179 186t65 266t-65 265t-179 187 q146 -64 230 -183t84 -269t-84 -269t-230 -183z" />
<glyph unicode="&#xf5;" horiz-adv-x="1460" d="M120 500q0 150 84 269t230 183q-114 -68 -179 -186t-65 -266t65 -265t179 -187q-146 64 -230 183t-84 269zM230 500q0 220 143 365t357 145t357 -145t143 -365t-143 -365t-357 -145t-357 145t-143 365zM290 500q0 -194 125 -322t315 -128t315 128t125 322t-125 322 t-315 128t-315 -128t-125 -322zM436 1166l14 58q34 132 126 132q54 0 176 -82q112 -76 156 -76q22 0 40 8q-18 -34 -50 -34q-26 0 -58 14t-53 27t-59 39q-104 74 -152 74q-36 0 -64 -30t-40 -78l-16 -58zM510 1262q18 34 48 34q26 0 60 -14q32 -14 53 -27t59 -39 q106 -74 152 -74q36 0 64 30t40 76l16 70l22 -6l-18 -68q-34 -132 -124 -132q-54 0 -176 82q-112 76 -158 76q-22 0 -38 -8zM1026 48q114 68 179 186t65 266t-65 265t-179 187q146 -64 230 -183t84 -269t-84 -269t-230 -183z" />
<glyph unicode="&#xf6;" horiz-adv-x="1460" d="M120 500q0 150 84 269t230 183q-114 -68 -179 -186t-65 -266t65 -265t179 -187q-146 64 -230 183t-84 269zM230 500q0 220 143 365t357 145t357 -145t143 -365t-143 -365t-357 -145t-357 145t-143 365zM290 500q0 -194 125 -322t315 -128t315 128t125 322t-125 322 t-315 128t-315 -128t-125 -322zM446 1206q0 44 16 64t52 24q8 -40 8 -88t-8 -88q-36 4 -52 24t-16 64zM550 1118q12 44 12 87t-12 89q42 -2 59 -22t17 -66t-18 -66t-58 -22zM834 1206q0 44 16 64t52 24q8 -40 8 -88t-8 -88q-36 4 -52 24t-16 64zM938 1118q12 44 12 87 t-12 89q42 -2 59 -22t17 -66t-18 -66t-58 -22zM1026 48q114 68 179 186t65 266t-65 265t-179 187q146 -64 230 -183t84 -269t-84 -269t-230 -183z" />
<glyph unicode="&#xf7;" horiz-adv-x="880" d="M60 472v60h760v-60h-760zM336 210q0 48 18 71t60 27q12 -44 12 -99t-12 -97q-42 4 -60 27t-18 71zM336 780q0 48 18 71t60 27q12 -44 12 -99t-12 -97q-42 4 -60 27t-18 71zM450 110q16 52 16 100t-16 100q50 -2 72 -25t22 -75t-22 -75t-72 -25zM450 680q16 52 16 100 t-16 100q50 -2 72 -25t22 -75t-22 -75t-72 -25z" />
<glyph unicode="&#xf8;" horiz-adv-x="1460" d="M120 500q0 150 84 269t230 183q-114 -68 -179 -186t-65 -266t65 -265t179 -187q-40 18 -76 40l-200 -206l-36 36l194 198q-94 70 -145 169t-51 215zM230 500q0 220 143 365t357 145t357 -145t143 -365t-143 -365t-357 -145t-357 145t-143 365zM290 500q0 -178 106 -302 l628 644q-122 108 -294 108q-190 0 -315 -128t-125 -322zM430 162q122 -112 300 -112q190 0 315 128t125 322q0 182 -110 306zM1026 48q114 68 179 186t65 266t-65 265t-179 187q36 -16 70 -36l196 202l36 -36l-190 -194q96 -70 149 -170t53 -218q0 -150 -84 -269t-230 -183 z" />
<glyph unicode="&#xf9;" d="M20 960v40h220l40 -40v-570q0 -112 54 -204t148 -148q-122 50 -192 143t-70 209v470q0 68 -16 84t-84 16h-100zM320 390v570l40 40h210v-40h-90q-68 0 -84 -16t-16 -84v-470q0 -140 104 -240t250 -100q164 0 280 100t116 240v430q0 76 -32 108t-108 32h-50v40h50 q126 0 170 -68q40 68 170 68h50v-40h-50q-76 0 -108 -32t-32 -108v-430q0 -172 -130 -286t-326 -114q-174 0 -294 117t-120 283zM524 1268q0 32 23 55t63 23l244 -154l-266 68q-12 4 -12 20q0 38 40 54l-8 6q-26 -6 -43 -26t-17 -46q0 -36 32 -44l322 -80l-6 -24l-322 82 q-22 6 -36 24t-14 42z" />
<glyph unicode="&#xfa;" d="M20 960v40h220l40 -40v-570q0 -112 54 -204t148 -148q-122 50 -192 143t-70 209v470q0 68 -16 84t-84 16h-100zM320 390v570l40 40h210v-40h-90q-68 0 -84 -16t-16 -84v-470q0 -140 104 -240t250 -100q164 0 280 100t116 240v430q0 76 -32 108t-108 32h-50v40h50 q126 0 170 -68q40 68 170 68h50v-40h-50q-76 0 -108 -32t-32 -108v-430q0 -172 -130 -286t-326 -114q-174 0 -294 117t-120 283zM598 1144l322 80q32 8 32 44q0 26 -17 45t-43 27l-8 -6q40 -16 40 -54q0 -16 -12 -20l-266 -68l244 154q40 0 63 -23t23 -55q0 -24 -14 -42 t-36 -24l-322 -82z" />
<glyph unicode="&#xfb;" d="M20 960v40h220l40 -40v-570q0 -112 54 -204t148 -148q-122 50 -192 143t-70 209v470q0 68 -16 84t-84 16h-100zM320 390v570l40 40h210v-40h-90q-68 0 -84 -16t-16 -84v-470q0 -140 104 -240t250 -100q164 0 280 100t116 240v430q0 76 -32 108t-108 32h-50v40h50 q126 0 170 -68q40 68 170 68h50v-40h-50q-76 0 -108 -32t-32 -108v-430q0 -172 -130 -286t-326 -114q-174 0 -294 117t-120 283zM506 1152l216 200h56l216 -200l-20 -18l-158 146l-6 -4q24 -32 66 -76l80 -84l-24 -20l-74 86q-96 106 -104 160h-8q-8 -54 -104 -160l-74 -86 l-24 20l80 84q42 42 66 76l-6 4l-158 -146z" />
<glyph unicode="&#xfc;" d="M20 960v40h220l40 -40v-570q0 -112 54 -204t148 -148q-122 50 -192 143t-70 209v470q0 68 -16 84t-84 16h-100zM320 390v570l40 40h210v-40h-90q-68 0 -84 -16t-16 -84v-470q0 -140 104 -240t250 -100q164 0 280 100t116 240v430q0 76 -32 108t-108 32h-50v40h50 q126 0 170 -68q40 68 170 68h50v-40h-50q-76 0 -108 -32t-32 -108v-430q0 -172 -130 -286t-326 -114q-174 0 -294 117t-120 283zM466 1206q0 44 16 64t52 24q8 -40 8 -88t-8 -88q-36 4 -52 24t-16 64zM570 1118q12 44 12 87t-12 89q42 -2 59 -22t17 -66t-18 -66t-58 -22z M854 1206q0 44 16 64t52 24q8 -40 8 -88t-8 -88q-36 4 -52 24t-16 64zM958 1118q12 44 12 87t-12 89q42 -2 59 -22t17 -66t-18 -66t-58 -22z" />
<glyph unicode="&#xfd;" horiz-adv-x="1340" d="M10 960v40h54q112 0 230 -144l356 -438v-378l-40 -40h-230v40h110q68 0 84 16t16 84v260l-362 444q-54 64 -90 90t-74 26h-54zM204 982l2 18h250v-40h-148v-4q48 -22 102 -88l280 -344q18 -22 26 -38h8q8 18 30 42l274 316q32 36 32 66q0 50 -80 50h-108v40h108 q110 0 136 -68q96 68 182 68h32v-40h-32q-90 0 -192 -118l-356 -410v-292q0 -68 16 -84t84 -16h110v-40h-230l-40 40v376q0 18 -12 32l-336 410q-86 104 -138 124zM558 1144l322 80q32 8 32 44q0 26 -17 45t-43 27l-8 -6q40 -16 40 -54q0 -16 -12 -20l-266 -68l244 154 q40 0 63 -23t23 -55q0 -24 -14 -42t-36 -24l-322 -82z" />
<glyph unicode="&#xfe;" horiz-adv-x="1360" d="M40 0v40h110q68 0 84 16t16 84v720q0 68 -16 84t-84 16h-110v40h230l40 -40v-920l-40 -40h-230zM350 40v920l40 40h230v-40h-110q-68 0 -84 -16t-16 -84h370q172 0 278 -82t106 -218t-106 -218t-278 -82h-370v-120q0 -68 16 -84t84 -16h110v-40h-230zM410 320h370 q144 0 231 66t87 174t-87 174t-231 66h-370v-480zM1044 300q160 88 160 260t-160 260q108 -38 167 -105t59 -155t-59 -155t-167 -105z" />
<glyph unicode="&#xff;" horiz-adv-x="1340" d="M10 960v40h54q112 0 230 -144l356 -438v-378l-40 -40h-230v40h110q68 0 84 16t16 84v260l-362 444q-54 64 -90 90t-74 26h-54zM204 982l2 18h250v-40h-148v-4q48 -22 102 -88l280 -344q18 -22 26 -38h8q8 18 30 42l274 316q32 36 32 66q0 50 -80 50h-108v40h108 q110 0 136 -68q96 68 182 68h32v-40h-32q-90 0 -192 -118l-356 -410v-292q0 -68 16 -84t84 -16h110v-40h-230l-40 40v376q0 18 -12 32l-336 410q-86 104 -138 124zM406 1206q0 44 16 64t52 24q8 -40 8 -88t-8 -88q-36 4 -52 24t-16 64zM510 1118q12 44 12 87t-12 89 q42 -2 59 -22t17 -66t-18 -66t-58 -22zM794 1206q0 44 16 64t52 24q8 -40 8 -88t-8 -88q-36 4 -52 24t-16 64zM898 1118q12 44 12 87t-12 89q42 -2 59 -22t17 -66t-18 -66t-58 -22z" />
<glyph unicode="&#x152;" horiz-adv-x="2220" d="M120 560q0 170 92 306t252 204q-128 -76 -202 -210t-74 -300t74 -300t202 -210q-158 70 -251 205t-93 305zM228 560q0 246 152 408t380 162q272 0 420 -180v-780q-148 -180 -420 -180q-228 0 -380 162t-152 408zM290 560q0 -220 134 -365t336 -145q150 0 255 62t105 148 v600q0 86 -105 148t-255 62q-202 0 -336 -145t-134 -365zM1220 40v1040l40 40h480q118 0 199 -80t81 -200v-80h-60v80q0 94 -63 157t-157 63h-460v-470h120q88 0 124 36t36 124v80h60v-80q0 -142 -94 -190q94 -48 94 -190v-80h-60v80q0 88 -36 124t-124 36h-120v-470h480 q104 0 172 68t68 172v60h60v-60q0 -132 -88 -216t-212 -84h-500zM1898 1120h82l40 -40v-82q-44 78 -122 122zM1924 0q90 48 136 136v-96l-40 -40h-96z" />
<glyph unicode="&#x153;" horiz-adv-x="2150" d="M120 500q0 150 84 269t230 183q-114 -68 -179 -186t-65 -266t65 -265t179 -187q-146 64 -230 183t-84 269zM230 500q0 220 142 365t358 145q272 0 420 -180v-660q-148 -180 -420 -180q-214 0 -357 145t-143 365zM290 500q0 -194 125 -322t315 -128q150 0 255 62t105 148 v480q0 86 -105 148t-255 62q-190 0 -315 -128t-125 -322zM1190 40v920l40 40h440q118 0 199 -80t81 -200v-80h-60v80q0 94 -63 157t-157 63h-420v-410h100q88 0 124 36t36 124v80h60v-80q0 -142 -94 -190q94 -48 94 -190v-80h-60v80q0 88 -36 124t-124 36h-100v-410h440 q104 0 172 68t68 172v60h60v-60q0 -132 -88 -216t-212 -84h-460zM1828 1000h82l40 -40v-82q-44 78 -122 122zM1854 0q90 48 136 136v-96l-40 -40h-96z" />
<glyph unicode="&#x178;" horiz-adv-x="1440" d="M0 1080v40h48q112 0 230 -144l422 -518v-418l-40 -40h-230v40h110q68 0 84 16t16 84v300l-428 524q-54 64 -90 90t-74 26h-48zM188 1102l2 18h250v-40h-148v-4q48 -22 102 -88l346 -424q18 -22 26 -38h8q8 18 30 42l344 396q32 36 32 66q0 50 -80 50h-108v40h108 q110 0 136 -68q96 68 182 68h22v-40h-22q-90 0 -192 -118l-426 -490v-332q0 -68 16 -84t84 -16h110v-40h-230l-40 40v416q0 18 -12 32l-402 490q-86 104 -138 124zM466 1326q0 44 16 64t52 24q8 -40 8 -88t-8 -88q-36 4 -52 24t-16 64zM570 1238q12 44 12 87t-12 89 q42 -2 59 -22t17 -66t-18 -66t-58 -22zM854 1326q0 44 16 64t52 24q8 -40 8 -88t-8 -88q-36 4 -52 24t-16 64zM958 1238q12 44 12 87t-12 89q42 -2 59 -22t17 -66t-18 -66t-58 -22z" />
<glyph unicode="&#x2000;" horiz-adv-x="750" />
<glyph unicode="&#x2001;" horiz-adv-x="1500" />
<glyph unicode="&#x2002;" horiz-adv-x="750" />
<glyph unicode="&#x2003;" horiz-adv-x="1500" />
<glyph unicode="&#x2004;" horiz-adv-x="500" />
<glyph unicode="&#x2005;" horiz-adv-x="375" />
<glyph unicode="&#x2006;" horiz-adv-x="250" />
<glyph unicode="&#x2007;" horiz-adv-x="250" />
<glyph unicode="&#x2008;" horiz-adv-x="187" />
<glyph unicode="&#x2009;" horiz-adv-x="300" />
<glyph unicode="&#x200a;" horiz-adv-x="83" />
<glyph unicode="&#x2010;" horiz-adv-x="500" d="M36 464l8 70h420l-10 -70h-418z" />
<glyph unicode="&#x2011;" horiz-adv-x="500" d="M36 464l8 70h420l-10 -70h-418z" />
<glyph unicode="&#x2012;" horiz-adv-x="500" d="M36 464l8 70h420l-10 -70h-418z" />
<glyph unicode="&#x2013;" horiz-adv-x="1120" d="M202 500l4 60h720l-4 -60h-720z" />
<glyph unicode="&#x2014;" horiz-adv-x="1840" d="M202 500l4 60h1440l-4 -60h-1440z" />
<glyph unicode="&#x2018;" horiz-adv-x="400" d="M96 980q0 110 53 193t133 83v-20q-40 0 -69 -40t-29 -96q0 -20 -6 -40q-12 -44 -12 -80q0 -42 16 -94q-86 0 -86 94zM206 980q0 50 12 94q82 0 82 -94t-82 -94q-12 44 -12 94z" />
<glyph unicode="&#x2019;" horiz-adv-x="400" d="M100 1066q0 94 82 94q12 -44 12 -94t-12 -94q-82 0 -82 94zM118 790v20q40 0 69 40t29 96q0 20 6 40q12 44 12 80q0 42 -16 94q86 0 86 -94q0 -110 -53 -193t-133 -83z" />
<glyph unicode="&#x201a;" horiz-adv-x="400" d="M100 84q0 94 82 94q12 -44 12 -94t-12 -94q-82 0 -82 94zM118 -172q40 0 69 40t29 96q0 20 6 40q12 44 12 80q0 42 -16 94q86 0 86 -94q0 -110 -53 -193t-133 -83v20z" />
<glyph unicode="&#x201c;" horiz-adv-x="680" d="M96 980q0 110 53 193t133 83v-20q-40 0 -69 -40t-29 -96q0 -20 -6 -40q-12 -44 -12 -80q0 -42 16 -94q-86 0 -86 94zM206 980q0 50 12 94q82 0 82 -94t-82 -94q-12 44 -12 94zM376 980q0 110 53 193t133 83v-20q-40 0 -69 -40t-29 -96q0 -20 -6 -40q-12 -44 -12 -80 q0 -42 16 -94q-86 0 -86 94zM486 980q0 50 12 94q82 0 82 -94t-82 -94q-12 44 -12 94z" />
<glyph unicode="&#x201d;" horiz-adv-x="680" d="M100 1066q0 94 82 94q12 -44 12 -94t-12 -94q-82 0 -82 94zM118 790v20q40 0 69 40t29 96q0 20 6 40q12 44 12 80q0 42 -16 94q86 0 86 -94q0 -110 -53 -193t-133 -83zM380 1066q0 94 82 94q12 -44 12 -94t-12 -94q-82 0 -82 94zM398 790v20q40 0 69 40t29 96q0 20 6 40 q12 44 12 80q0 42 -16 94q86 0 86 -94q0 -110 -53 -193t-133 -83z" />
<glyph unicode="&#x201e;" horiz-adv-x="680" d="M100 84q0 94 82 94q12 -44 12 -94t-12 -94q-82 0 -82 94zM118 -172q40 0 69 40t29 96q0 20 6 40q12 44 12 80q0 42 -16 94q86 0 86 -94q0 -110 -53 -193t-133 -83v20zM376 84q0 94 82 94q12 -44 12 -94t-12 -94q-82 0 -82 94zM394 -172q40 0 69 40t29 96q0 20 6 40 q12 44 12 80q0 42 -16 94q86 0 86 -94q0 -110 -53 -193t-133 -83v20z" />
<glyph unicode="&#x2022;" horiz-adv-x="984" d="M280 560q0 104 64 168t168 64t168 -63t64 -169q0 -98 -69 -165t-163 -67q-98 0 -165 69t-67 163z" />
<glyph unicode="&#x2026;" horiz-adv-x="1030" d="M96 90q0 48 18 71t60 27q12 -44 12 -99t-12 -97q-42 4 -60 27t-18 71zM210 -10q16 52 16 100t-16 100q50 -2 72 -25t22 -75t-22 -75t-72 -25zM416 90q0 48 18 71t60 27q12 -44 12 -99t-12 -97q-42 4 -60 27t-18 71zM530 -10q16 52 16 100t-16 100q50 -2 72 -25t22 -75 t-22 -75t-72 -25zM736 90q0 48 18 71t60 27q12 -44 12 -99t-12 -97q-42 4 -60 27t-18 71zM850 -10q16 52 16 100t-16 100q50 -2 72 -25t22 -75t-22 -75t-72 -25z" />
<glyph unicode="&#x202f;" horiz-adv-x="300" />
<glyph unicode="&#x2039;" horiz-adv-x="604" d="M90 556v8l324 326l24 -26l-258 -256l4 -4q48 36 88 74l184 166l28 -28l-188 -160q-96 -80 -158 -92v-8q64 -12 158 -92l188 -162l-26 -28l-186 168q-42 38 -88 74l-4 -4l260 -256l-26 -26z" />
<glyph unicode="&#x203a;" horiz-adv-x="604" d="M120 302l188 162q94 80 158 92v8q-62 12 -158 92l-188 160l28 28l184 -166q42 -38 88 -74l4 4l-258 256l24 26l324 -326v-8l-324 -326l-26 26l260 256l-4 4q-48 -36 -88 -74l-186 -168z" />
<glyph unicode="&#x205f;" horiz-adv-x="375" />
<glyph unicode="&#x20ac;" horiz-adv-x="1480" d="M66 350l14 60h188q-8 48 -8 98q0 42 8 82h-170l14 60h172q32 94 101 171t165 125q-102 -66 -160 -179t-58 -255q0 -170 74 -292t202 -188q-122 34 -206 118t-120 200h-216zM372 516q0 220 132 357t344 137q120 0 231 -58t175 -150q46 -66 46 -162h-40q-22 122 -139 216 t-267 94q-152 0 -258 -81t-142 -219h506l-14 -60h-504q-4 -34 -4 -70q0 -58 10 -110h462l-14 -60h-434q44 -140 154 -220t264 -80q138 0 257 69t167 189l56 -22q-54 -140 -190 -218t-290 -78q-224 0 -366 145t-142 381zM1114 968q54 -20 96 -20t70 18l20 12v-136l-22 -6 q-18 28 -64 66t-100 66z" />
<glyph unicode="&#x25fc;" horiz-adv-x="1000" d="M0 0v1000h1000v-1000h-1000z" />
</font>
</defs>
</svg>
