<?xml version="1.0" standalone="no"?>
<!DOCTYPE svg PUBLIC "-//W3C//DTD SVG 1.1//EN" "http://www.w3.org/Graphics/SVG/1.1/DTD/svg11.dtd" >
<svg xmlns="http://www.w3.org/2000/svg" xmlns:xlink="http://www.w3.org/1999/xlink" version="1.1">
<metadata></metadata>
<defs>
<font id="quattrocentobold" horiz-adv-x="1431" >
<font-face units-per-em="2048" ascent="1638" descent="-410" />
<missing-glyph horiz-adv-x="491" />
<glyph unicode="&#xfb01;" horiz-adv-x="1318" d="M63 0l5 70l6 8q31 0 63.5 3t48.5 19q14 10 21.5 27.5t10.5 55.5t4 102.5t1 173.5v325h-151l-9 11v98l9 8l151 31v63q0 121 24.5 219.5t78 167t139.5 106.5t209 38q104 0 194 -23.5t152 -60.5l10 -21l-24 -198h-95q-16 66 -70.5 103.5t-176.5 37.5q-70 0 -113 -22.5 t-67.5 -59.5t-34 -86t-9.5 -100v-164q244 0 410 4t283 14l12 -18q-4 -8 -7 -28.5t-4 -44t-2.5 -46t-1.5 -35.5q0 -16 -1 -31.5t-1 -36t-1 -49t-1 -73.5v-189q0 -45 1 -73.5t2 -49t2.5 -38t3.5 -37.5q4 -43 9 -64.5t21 -36.5q16 -16 46 -19t61 -3l10 -10l4 -68l-4 -8 q-16 0 -45 2t-59.5 3t-60.5 2t-44 1h-110q-14 0 -44 -1t-62 -2t-61.5 -3t-43.5 -2l-2 8l4 70l6 8q33 0 64.5 3t47.5 19q16 14 21.5 37t9.5 64q2 33 4 66.5t2 107.5v149v73t-1 52.5t-2 41t-3 38.5q-2 6 -5 16.5t-12 18.5t-27.5 14t-49.5 6h-369v-276v-120t1 -82t3 -57.5 t5 -47.5q4 -31 8 -58.5t22 -42.5q10 -8 30.5 -13t42 -7t41 -2h32.5l10 -10l4 -68l-4 -8q-14 0 -46 2t-67 3t-66.5 2t-45.5 1h-131q-14 0 -44 -1t-63 -2t-62.5 -3t-43.5 -2z" />
<glyph unicode="&#xfb02;" horiz-adv-x="1325" d="M63 0l5 70l6 8q31 0 63.5 3t48.5 19q14 12 21.5 32t10.5 65t4 120.5t1 202.5v264h-151l-9 11v98l9 8l151 31v63q0 121 24.5 219.5t80 167t145.5 106.5t219 38q84 0 152.5 -13.5t134.5 -13.5h18.5t27.5 2t44 5t68 10l12 -39q-4 -8 -6 -30t-4 -46.5t-3 -47t-1 -34.5 q-2 -33 -3.5 -61.5t-2.5 -67.5t-1 -94.5v-141.5v-385v-141t2.5 -94t3.5 -67.5t5 -65.5q4 -45 8 -66.5t20 -34.5q16 -14 46 -18t61 -4l10 -10l4 -68l-4 -8q-16 0 -45 2t-59.5 3t-60 2t-44.5 1h-110q-14 0 -44 -1t-62 -2t-61.5 -3t-43.5 -2l-2 8l4 70l6 8q33 0 64.5 3t47.5 19 q14 14 20.5 37t10.5 64q2 27 3 53.5t2 62t1 84v119.5v709q0 76 -61.5 105.5t-171.5 29.5q-82 0 -129 -22.5t-71.5 -59.5t-31 -86t-6.5 -100v-164l260 12l11 -8v-141l-11 -11h-260v-215v-144t1 -98t3 -69t5 -57q4 -31 9 -59.5t21 -41.5q10 -8 29.5 -12t41 -6t42 -3t33.5 -1 l10 -10l4 -68l-4 -8q-16 0 -47 2t-66 3t-66.5 2t-45.5 1h-131q-14 0 -44 -1t-63 -2t-62.5 -3t-43.5 -2z" />
<glyph horiz-adv-x="0" />
<glyph unicode="&#xd;" horiz-adv-x="518" />
<glyph horiz-adv-x="0" />
<glyph horiz-adv-x="0" />
<glyph unicode=" "  horiz-adv-x="491" />
<glyph unicode="&#x09;" horiz-adv-x="491" />
<glyph unicode="&#xa0;" horiz-adv-x="491" />
<glyph unicode="!" horiz-adv-x="548" d="M133 1313l8 18l250 74l10 -6q0 -18 -1 -33.5t-1 -26.5q0 -23 -2 -45t-5 -60t-7 -100.5t-9 -165t-10.5 -253t-11.5 -363.5l-10 -14l-154 -53l-12 8q-4 203 -9 351.5t-9 254t-8.5 176t-8.5 116.5t-6 73.5t-4 48.5zM135 109q0 25 10.5 49t29 43.5t42 31t49.5 11.5 q51 0 93 -42t42 -93q0 -27 -11 -50.5t-30.5 -42t-44 -29t-49.5 -10.5q-53 0 -92 39.5t-39 92.5z" />
<glyph unicode="&#x22;" horiz-adv-x="696" d="M113 1468l2 9l198 18l4 -8q-12 -88 -18 -192.5t-6 -209.5l-4 -8l-148 -20l-4 10q-2 98 -7 201.5t-17 199.5zM385 1468l4 9l197 18l4 -8q-12 -88 -18.5 -192.5t-6.5 -209.5l-4 -8l-147 -20l-4 10q-2 98 -7.5 201.5t-17.5 199.5z" />
<glyph unicode="#" horiz-adv-x="1280" d="M84 424l31 170h211l39 182h-222l31 168h225q20 92 35 195.5t25 191.5l4 8h237l5 -8q-33 -88 -61 -191.5t-48 -195.5h192q20 92 35 195.5t25 191.5l4 8h238l4 -8q-33 -88 -60.5 -191.5t-48.5 -195.5h217l-31 -168h-221l-39 -182h228l-31 -170h-234q-23 -111 -38 -217.5 t-25 -198.5l-6 -8h-238l-2 8q31 92 59.5 198.5t53.5 217.5h-193q-23 -111 -38 -217.5t-25 -198.5l-6 -8h-238l-2 8q31 92 59.5 198.5t53.5 217.5h-205zM522 594h193l39 182h-195z" />
<glyph unicode="$" horiz-adv-x="1095" d="M96 127l35 260h92l10 -12q10 -115 79 -168t206 -53q139 0 199.5 51t60.5 129q0 61 -24.5 104t-64.5 73t-91 51.5t-106 39.5q-82 31 -150 65.5t-117 82t-75.5 112t-26.5 152.5q0 78 24.5 136t69.5 97t105.5 61.5t132.5 30.5q-4 59 -8.5 116.5t-12.5 109.5l2 8h238l4 -8 q-14 -104 -19 -228q78 -8 137.5 -26.5t114.5 -42.5l9 -23l-29 -203h-98l-11 11q-4 43 -25.5 69.5t-51 40t-62.5 18.5t-61 5q-123 0 -175.5 -37t-52.5 -107q0 -84 71 -135t226 -104q70 -25 135.5 -60.5t116.5 -88t83 -125t32 -169.5q0 -84 -32 -146t-83 -105t-115.5 -68 t-130.5 -35q4 -59 8.5 -117.5t12.5 -113.5l-4 -8h-238l-2 8q6 53 9 111.5t8 117.5q-104 10 -185.5 36t-161.5 60z" />
<glyph unicode="%" horiz-adv-x="1710" d="M82 969q0 84 21.5 154.5t62.5 120.5t100 79t133 29q76 0 134.5 -29t99.5 -80t62.5 -118.5t21.5 -147.5q0 -78 -20.5 -146.5t-61.5 -121t-101.5 -82t-140.5 -29.5q-78 0 -135 28.5t-97 78t-59.5 117t-19.5 147.5zM238 977q0 -133 46.5 -196.5t114.5 -63.5q74 0 118 71.5 t44 188.5q0 119 -45 187.5t-121 68.5q-74 0 -115.5 -67.5t-41.5 -188.5zM268 39l2 8q57 68 106.5 129.5t97.5 122.5t96 127l104 143l246 338q76 104 157.5 219t153.5 244l10 8h238l-2 -8q-102 -115 -183.5 -222.5t-150.5 -203.5l-273 -375q-55 -78 -102 -143.5t-89 -126.5 t-81 -122.5t-82 -129.5l-10 -8h-238zM995 373q0 84 21.5 154.5t62.5 120.5t100.5 79t133.5 29q76 0 134 -29t99 -80t62.5 -118.5t21.5 -147.5q0 -78 -20.5 -146.5t-61.5 -121t-101.5 -82t-139.5 -29.5q-78 0 -135.5 28.5t-97.5 78t-59.5 117t-19.5 147.5zM1151 381 q0 -133 47 -196.5t115 -63.5q74 0 118 71.5t44 188.5q0 119 -45.5 187.5t-120.5 68.5q-74 0 -116 -67.5t-42 -188.5z" />
<glyph unicode="&#x26;" horiz-adv-x="1519" d="M100 352q0 61 18.5 123t52.5 116t84 98t114 69q-66 86 -96.5 150.5t-30.5 142.5q0 72 24.5 129t67.5 97t101.5 60.5t125.5 20.5q45 0 92 -10.5t88 -35t71 -63.5t40 -94l6 -20l-24 -146h-109l-8 8q-10 109 -43 152t-101 43q-59 0 -95 -36t-36 -79q0 -39 12.5 -74.5 t28.5 -70.5q14 -31 43 -73t81 -104.5t133 -151.5t200 -218q21 43 21 92q0 55 -16.5 115.5t-45.5 101.5q-39 -4 -55.5 -16t-32.5 -33l-29 45q0 18 12.5 49t37 61.5t60.5 53.5t85 23q18 0 51 -3.5t73 -6.5t83 -5t84 -2q39 0 73.5 3t61.5 20l27 -47q0 -6 -10.5 -32t-32 -53.5 t-56.5 -50t-86 -22.5q-20 0 -65 3t-93 7q14 -37 26.5 -84t12.5 -88q0 -68 -12 -129t-33 -117q72 -80 141.5 -125t172.5 -51l10 -10l6 -88l-6 -8q-20 0 -52 -1t-65 -3t-59.5 -3t-38.5 -1q-61 0 -120.5 38.5t-113.5 92.5q-78 -63 -178 -97t-211 -34q-90 0 -174 23.5 t-149.5 70.5t-104.5 116.5t-39 161.5zM330 373q0 -53 23.5 -94t60.5 -70t84 -43t94 -14q63 0 125.5 24.5t109.5 71.5q-82 90 -165.5 178t-172.5 190q-76 -25 -117.5 -88t-41.5 -155z" />
<glyph unicode="'" horiz-adv-x="423" d="M113 1468l2 9l198 18l4 -8q-12 -88 -18 -192.5t-6 -209.5l-4 -8l-148 -20l-4 10q-2 98 -7 201.5t-17 199.5z" />
<glyph unicode="(" horiz-adv-x="632" d="M80 670q0 262 108.5 495.5t305.5 413.5l92 -63v-11q-78 -98 -134.5 -205.5t-84.5 -228.5q-29 -113 -35 -218t-6 -183q0 -80 6 -176.5t32.5 -204t78 -223t143.5 -232.5v-10l-92 -64q-197 176 -305.5 412t-108.5 498z" />
<glyph unicode=")" horiz-adv-x="632" d="M47 -166q92 117 143.5 232.5t78 223t32.5 204t6 176.5q0 78 -6 183t-35 218q-29 121 -85 228.5t-134 205.5v11l92 63q197 -180 305.5 -413.5t108.5 -495.5t-108.5 -497.5t-305.5 -412.5l-92 64v10z" />
<glyph unicode="*" horiz-adv-x="921" d="M117 1004q0 4 3 12t3 12q66 16 120 33.5t113 40.5q-43 14 -68.5 24.5t-47 17.5t-44 13t-59.5 14l-16 25q35 41 57.5 69.5t42.5 71.5l27 -2q8 -10 18 -20l26.5 -26.5t44.5 -41t71 -63.5q-12 72 -21.5 121t-30.5 116l11 21q29 -4 45 -4h47h46t42 4q4 -4 5 -10.5t5 -12.5 q-16 -59 -27.5 -111.5t-21.5 -121.5q59 51 95 84t75 76q10 -2 14 -3.5t8 -1.5q20 -37 39 -67.5t54 -73.5q-2 -4 -5.5 -13t-3.5 -11q-68 -18 -117 -34t-112 -40q37 -12 64.5 -22.5t54 -19.5t56.5 -18.5t71 -17.5l4 -16q-35 -45 -54.5 -77t-35.5 -79q-4 0 -8.5 -2t-8.5 -2 q-43 43 -84 79t-104 85q6 -53 12 -90t12.5 -64t13.5 -48.5t13 -43.5l-14 -10q-33 2 -47.5 2h-42.5h-44.5t-50.5 -2l-10 10q8 29 15.5 54.5t13.5 55t11 63.5t14 79q-35 -31 -59.5 -51.5t-43 -39l-36 -36t-36.5 -37.5q-4 0 -10 1t-10 1q-23 43 -41 75t-53 73z" />
<glyph unicode="+" horiz-adv-x="999" d="M96 406l19 167h291v301h188v-301h311l-20 -167h-291v-322h-188v322h-310z" />
<glyph unicode="," horiz-adv-x="499" d="M104 -188q23 51 35.5 109.5t12.5 80.5q0 33 -16.5 64.5t-16.5 76.5q0 25 17.5 43.5t43 30.5t55 18.5t56.5 6.5t43 -12.5t25.5 -29t11.5 -35t2 -32.5q0 -55 -22.5 -115.5t-55.5 -114t-66.5 -92t-58.5 -51.5h-29l-32 23z" />
<glyph unicode="-" horiz-adv-x="958" d="M127 406l31 167h673l-32 -167h-672z" />
<glyph unicode="." horiz-adv-x="499" d="M117 109q0 25 10 49t28.5 43.5t42 31t50.5 11.5q51 0 93 -42t42 -93q0 -27 -11.5 -50.5t-30.5 -42t-44 -29t-49 -10.5q-53 0 -92 39.5t-39 92.5z" />
<glyph unicode="/" horiz-adv-x="948" d="M70 -109q68 137 131 301t118 318l138 377q18 51 42.5 118.5t48 140.5t45 146.5t36.5 137.5l6 8h242l2 -8q-35 -63 -66 -137t-59.5 -147t-53 -140.5t-43.5 -118.5l-139 -377q-57 -154 -112.5 -317.5t-88.5 -301.5l-6 -8h-241v8z" />
<glyph unicode="0" horiz-adv-x="1306" d="M111 659q0 145 36.5 273.5t106.5 223.5t170 150.5t229 55.5t230.5 -55.5t171 -150.5t106.5 -220t37 -262q0 -135 -36 -261t-105.5 -222.5t-174 -155t-239.5 -58.5q-133 0 -232.5 55.5t-166 148.5t-100 217t-33.5 261zM352 674q0 -123 22.5 -220.5t62.5 -165t94 -104.5 t120 -37q74 0 130.5 42t96.5 113t60 166t20 204q0 111 -21.5 206t-62 164.5t-99 109.5t-130.5 40t-126 -39t-91 -108.5t-56.5 -165t-19.5 -205.5z" />
<glyph unicode="1" horiz-adv-x="811" d="M88 1006v88l6 12q106 53 200.5 108.5t186.5 143.5h15l65 -19q-2 -16 -3 -37.5t-2 -44t-2 -43t-1 -32.5q-2 -33 -3 -61.5t-2 -67.5t-1 -94.5v-141.5v-248v-140t1 -91t2 -65.5t5 -63.5q4 -43 18.5 -64.5t30.5 -35.5q18 -14 57 -22.5t70 -8.5l10 -10l4 -68l-4 -8 q-14 0 -42.5 2t-61.5 3t-61.5 2t-43.5 1h-198q-14 0 -43 -1t-61.5 -2t-61.5 -3t-43 -2l-4 8l4 70l6 8q33 0 75 7t58 24q16 14 30.5 36.5t18.5 63.5q2 27 4 52.5t3.5 59t1.5 81v118.5v293v94t-1.5 61.5t-3.5 43t-4 41.5l-219 -56z" />
<glyph unicode="2" horiz-adv-x="1155" d="M82 31v47q43 55 116.5 140t156.5 180.5t164 191.5t140 174q53 72 82 134.5t29 135.5q0 74 -54 116t-130 42q-143 0 -233.5 -68.5t-98.5 -205.5l-8 -9h-90l-25 189l6 18q27 47 69 91t98 79t129 55.5t165 20.5q215 0 309 -95.5t94 -256.5q0 -96 -46 -176t-113 -172 q-51 -68 -121 -147t-132.5 -149.5t-106.5 -125t-44 -74.5l4 -6h119q117 0 186.5 3t109.5 16.5t57.5 42t31.5 79.5l10 12h97l-37 -305l-19 -20q-14 0 -71.5 2t-125 4t-131 4t-91.5 2h-203q-59 0 -133 -4t-140 -8z" />
<glyph unicode="3" horiz-adv-x="1120" d="M104 182l23 168h109l6 -8q2 -37 21.5 -71.5t57 -62.5t92 -44.5t126.5 -16.5q70 0 114.5 21.5t72.5 55.5t39 75t11 80q0 47 -13 94t-41 84t-69 59.5t-98 22.5h-66l-10 8l-6 119l10 10h37q39 0 76 21.5t64.5 55.5t45 77t17.5 84q0 72 -47 126t-144 54q-68 0 -112.5 -18.5 t-73.5 -51t-44 -81t-21 -105.5l-9 -8h-108l-25 168l4 18q23 43 60 87t90 80t121.5 57.5t154.5 21.5q70 0 137.5 -19.5t120 -58.5t85 -98.5t32.5 -138.5q0 -63 -16.5 -114.5t-43 -90.5t-57 -64.5t-61.5 -38.5v-8q115 -23 181.5 -119t66.5 -225q0 -90 -36 -166t-100.5 -130 t-156.5 -84t-203 -30q-276 0 -412 187z" />
<glyph unicode="4" horiz-adv-x="1105" d="M45 522q37 66 86 146t102.5 163.5t107.5 165.5t100 152t82 121t55 73l215 19h16l25 -43q-4 -29 -5.5 -72t-3.5 -65q-2 -33 -3 -61.5t-2 -67.5t-1 -94.5v-141.5v-233h174l8 -13l-22 -145l-14 -10h-146v-71t1 -52.5t2 -42t5 -41.5q4 -43 19.5 -64.5t32.5 -35.5 q16 -14 56 -22.5t71 -8.5l8 -10l4 -68l-4 -8q-14 0 -43 2t-60.5 3t-60.5 2t-43 1h-197q-14 0 -47 -1t-68.5 -2t-68.5 -3t-47 -2l-2 8l8 70l8 8q16 0 38 2t43.5 6t38.5 9t26 14q18 14 33.5 36.5t15.5 63.5q4 39 6 88t2 119h-449l-88 24zM260 584h336v229v73t-1 80t-2 76.5 t-3 65.5q-29 -31 -72 -92.5t-90 -135t-92 -151.5t-76 -145z" />
<glyph unicode="5" horiz-adv-x="1095" d="M100 164l23 186h115l6 -8q4 -84 72.5 -139.5t203.5 -55.5q70 0 118 21.5t76.5 58.5t42 85.5t13.5 99.5q0 68 -21.5 109.5t-55.5 66t-77 34t-86 9.5q-74 0 -145.5 -16.5t-130.5 -51.5h-21l-75 92l-4 15l65 653l12 16h205q59 0 172 3.5t262 13.5l19 -17l31 -262l-13 -14 h-78l-12 10q-8 37 -19.5 58.5t-44 33t-94 13.5t-167.5 2h-62q-12 0 -12 -11l-41 -397q39 20 89 30.5t103 10.5q84 0 162 -19.5t138.5 -63.5t96 -117.5t35.5 -184.5q0 -109 -36.5 -192.5t-103 -141t-159 -87.5t-202.5 -30q-152 0 -245 45.5t-153 120.5z" />
<glyph unicode="6" horiz-adv-x="1128" d="M125 610q0 80 8 167t28.5 171t54.5 159t87 131t126 90t171 34q37 0 85 -5t98.5 -17.5t97.5 -33t80 -49.5l-31 -170h-78q-18 29 -48 49.5t-62.5 33t-66.5 17.5t-61 5q-74 0 -129 -36t-90 -96.5t-52 -140t-17 -165.5v-16.5t2 -18.5l8 -2q39 66 116.5 98.5t174.5 32.5 q104 0 181 -37t127 -98.5t74.5 -138t24.5 -156.5t-24.5 -158t-77.5 -141.5t-138 -102.5t-208 -39q-127 0 -215 45.5t-142.5 127t-79 198.5t-24.5 262zM360 420q0 -47 10.5 -96.5t37 -90t68.5 -67.5t108 -27q111 0 168 74t57 190q0 43 -9 89.5t-35 84t-69.5 63.5t-113.5 26 q-113 0 -167.5 -68t-54.5 -178z" />
<glyph unicode="7" horiz-adv-x="1077" d="M66 1077l30 262l17 17q262 -12 416.5 -14.5t207.5 -2.5h322l10 -6l-10 -51q-14 -16 -44 -69.5t-67 -128t-80 -166t-86 -186.5t-83 -185t-70 -164q-37 -88 -67 -176t-50 -193l-8 -14q-63 0 -139 -3t-150 -9l-14 20q29 49 82 148.5t114.5 220.5t125 252t114.5 243.5 t84 193.5t33 105l-11 9h-235q-102 0 -165.5 -2t-100.5 -13.5t-53.5 -33t-22.5 -58.5l-12 -10h-78z" />
<glyph unicode="8" horiz-adv-x="1169" d="M113 381q0 125 55 224.5t172 142.5v8q-63 23 -110.5 86t-47.5 184q0 80 29 142.5t81 105.5t126 65.5t162 22.5q86 0 160.5 -21.5t130 -64.5t87 -106.5t31.5 -145.5q0 -61 -13 -106.5t-35.5 -77t-51.5 -52t-58 -32.5l-20 -8q66 -20 113 -59.5t76.5 -88.5t44 -106.5 t14.5 -112.5q0 -74 -23.5 -146.5t-79 -129t-146.5 -92.5t-226 -36q-133 0 -223.5 35t-145.5 92.5t-78.5 130t-23.5 146.5zM350 371q0 -55 20.5 -97.5t54.5 -70t77 -40.5t88 -13q43 0 85 13t74.5 40.5t52 67.5t19.5 96q0 49 -13 100t-42 93t-73.5 68.5t-110.5 26.5 t-110 -27.5t-71.5 -68.5t-39 -92t-11.5 -96zM420 1036q0 -109 45 -164t121 -55q37 0 66.5 16.5t52 46t35 68.5t12.5 84q0 82 -52.5 123t-115.5 41q-61 0 -112.5 -40t-51.5 -120z" />
<glyph unicode="9" horiz-adv-x="1128" d="M94 922q0 80 24.5 157.5t78 141t138.5 102.5t208 39q127 0 215 -45t142 -127t79 -200t25 -261q0 -80 -8.5 -167t-29 -171t-54 -158.5t-87 -131t-126 -90.5t-171.5 -34q-37 0 -85 5.5t-98 17.5t-97 32.5t-80 49.5l31 170h77q18 -29 48 -49.5t63 -32.5t66.5 -17.5 t60.5 -5.5q74 0 129 36t90 96.5t52.5 140.5t17.5 166v16t-2 19l-8 2q-39 -66 -117 -98.5t-174 -32.5q-104 0 -181 36.5t-127.5 98t-75 138.5t-24.5 157zM319 936q0 -43 9.5 -89t35 -84t69.5 -63.5t114 -25.5q113 0 167 67.5t54 178.5q0 45 -10 95t-37 91t-70 67.5t-106 26.5 q-111 0 -168.5 -73.5t-57.5 -190.5z" />
<glyph unicode=":" horiz-adv-x="522" d="M129 109q0 25 10.5 49t28.5 43.5t41.5 31t50.5 11.5q51 0 93 -42t42 -93q0 -27 -11 -50.5t-30.5 -42t-44 -29t-49.5 -10.5q-53 0 -92 39.5t-39 92.5zM129 797q0 25 10.5 49t28.5 43.5t41.5 31t50.5 11.5q51 0 93 -42t42 -93q0 -27 -11 -50.5t-30.5 -42t-44 -28.5 t-49.5 -10q-53 0 -92 39t-39 92z" />
<glyph unicode=";" horiz-adv-x="536" d="M127 -188q23 51 35 109.5t12 80.5q0 33 -16.5 64.5t-16.5 76.5q0 25 17.5 43.5t43 30.5t55.5 18.5t56 6.5q27 0 43.5 -12.5t25.5 -29t11 -35t2 -32.5q0 -55 -22.5 -115.5t-55 -114t-66.5 -92t-58 -51.5h-29l-33 23zM139 797q0 25 10.5 49t29 43.5t42 31t49.5 11.5 q51 0 93.5 -42t42.5 -93q0 -27 -11.5 -50.5t-31 -42t-44 -28.5t-49.5 -10q-53 0 -92 39t-39 92z" />
<glyph unicode="&#x3c;" horiz-adv-x="845" d="M84 487v11q147 86 294.5 181t289.5 200l10 -2l29 -125v-15q-55 -31 -101.5 -59.5t-90.5 -56t-89 -57t-96 -66.5v-11q51 -37 96 -66.5t89 -57t91 -55t103 -60.5v-15l-31 -124l-10 -3q-141 104 -289 199.5t-295 181.5z" />
<glyph unicode="=" horiz-adv-x="995" d="M145 250l31 168h674l-33 -168h-672zM145 561l31 168h674l-33 -168h-672z" />
<glyph unicode="&#x3e;" horiz-adv-x="845" d="M137 233v15q55 33 102.5 60.5t91.5 55t89 57.5t96 66v11q-51 37 -96 66.5t-89 57t-90 56.5t-102 59v15l29 125l10 2q141 -104 288.5 -199.5t295.5 -181.5v-11q-147 -86 -295 -181t-289 -200l-10 3z" />
<glyph unicode="?" horiz-adv-x="864" d="M86 1253l4 19q20 35 60 59.5t89.5 41t101.5 24.5t95 8t101.5 -14.5t110.5 -51t88 -100t36 -162.5q0 -63 -21.5 -121.5t-54 -113t-70.5 -103.5t-72 -95t-57.5 -87t-25.5 -78l-8 -86l-12 -14l-134 -33l-12 8q-2 41 -4 88t-2 70q0 82 40 152.5t87 140t87 143.5t40 164 q0 76 -41 110.5t-82 34.5q-49 0 -91 -16t-72.5 -45t-49 -66.5t-24.5 -80.5l-5 -7h-77zM252 109q0 25 10 49t28.5 43.5t42 31t50.5 11.5q51 0 93 -42t42 -93q0 -27 -11 -50.5t-30.5 -42t-44 -29t-49.5 -10.5q-53 0 -92 39.5t-39 92.5z" />
<glyph unicode="@" horiz-adv-x="1476" d="M106 369q0 117 42 249t130.5 244.5t224.5 186t324 73.5q143 0 249 -45t174.5 -116.5t101 -161.5t32.5 -183q0 -90 -29.5 -174t-85 -148.5t-132 -103t-170.5 -38.5q-74 0 -112 42t-38 107q-35 -70 -87 -110.5t-105 -40.5q-31 0 -62 15t-55.5 46t-39.5 77t-15 107 q0 92 34.5 166t91 126t126 81t139.5 29q49 0 107.5 -16.5t92.5 -51.5l-69 -303q-4 -23 -6 -42t-2 -30q0 -23 12 -40t47 -17t65.5 26.5t52 70.5t34 99.5t12.5 114.5q0 66 -20.5 132.5t-64.5 118.5t-113.5 85t-166.5 33q-127 0 -224 -54.5t-162.5 -141.5t-99.5 -195.5 t-34 -216.5q0 -113 35 -194t93.5 -133t134 -76.5t159.5 -24.5t156.5 13t131 32.5t101.5 40t66 36.5l20 -38l-28 -72q-20 -18 -64.5 -46t-106 -53.5t-137 -43t-159.5 -17.5q-123 0 -231.5 41t-190.5 116t-130.5 181.5t-48.5 237.5zM602 410q0 -47 22.5 -79t45.5 -32 q27 0 48 16.5t37.5 41t29 54t18.5 58.5l51 195q-12 12 -51 12q-47 0 -84 -25.5t-62.5 -65.5t-40 -87t-14.5 -88z" />
<glyph unicode="A" d="M-35 -4l4 78l11 8q27 0 53 4t53 18.5t52.5 40t51.5 66.5q6 12 18.5 37.5t39 91.5t74 186.5t124.5 321.5l177 452l145 62h23l352 -930q18 -51 32.5 -86t23.5 -59.5t16.5 -40t13.5 -27.5q25 -51 50.5 -78.5t51 -41t52 -15.5t53.5 -2l10 -8l6 -78l-4 -8q-14 0 -43 2t-59.5 4 t-58 4t-42.5 2h-149q-14 0 -47 -2t-69 -4t-68.5 -4t-47.5 -2l-4 8l6 78l8 8q53 0 81 13.5t28 72.5q0 33 -11 93.5t-52 150.5l-43 98h-359l-41 -98q-37 -90 -55.5 -153.5t-18.5 -90.5q0 -49 20.5 -67.5t74.5 -18.5l10 -8l6 -78l-4 -8q-14 0 -45 2t-64.5 4t-64.5 4t-45 2h-121 q-14 0 -43 -2t-59.5 -4t-58 -4t-42.5 -2zM553 659h268l-131 363z" />
<glyph unicode="B" horiz-adv-x="1259" d="M82 -4l6 78l10 8q25 0 57.5 3t51.5 15q16 12 30.5 39t20.5 80q2 31 3 92.5t1 182.5v430v93t-4 103q-4 55 -19.5 80t-31.5 37q-18 16 -37.5 18t-71.5 2l-10 9l-6 77l4 9q14 0 37.5 -2t49.5 -4.5t52.5 -4.5t48.5 -2h156q23 0 51.5 1t58 1t54 1t39.5 1q111 0 189.5 -22.5 t127.5 -63t73 -98t24 -127.5q0 -61 -19.5 -108t-51.5 -83t-73 -61.5t-84 -44.5q168 -27 260 -112.5t92 -237.5q0 -102 -36.5 -175t-103 -119t-159 -68.5t-202.5 -22.5h-355q-14 0 -46.5 -2t-67.5 -4t-68 -4t-47 -2zM489 516q0 -59 1.5 -114.5t2.5 -100.5t3 -61 q4 -55 22.5 -67.5t48.5 -12.5h43q49 0 107.5 9t110 33.5t86 67.5t34.5 111q0 57 -26.5 101t-73.5 75t-109.5 46t-136.5 15h-113v-102zM489 840q0 -47 4.5 -65.5t30.5 -18.5h19q66 0 105.5 8t86.5 43q45 29 74 83t29 128q0 78 -61.5 120t-174.5 42h-102q-6 -90 -8.5 -134.5 t-2.5 -78.5v-127z" />
<glyph unicode="C" horiz-adv-x="1331" d="M94 664q0 143 44 271t131 222t215 149.5t298 55.5q41 0 96.5 -3t117 -12.5t124 -26.5t119.5 -44l6 -19l-26 -227h-101l-6 8q-6 45 -39 77t-81 50.5t-106.5 26.5t-115.5 8q-182 0 -283 -92q-78 -70 -112.5 -185.5t-34.5 -250.5q0 -129 36 -227.5t98.5 -165t148.5 -100.5 t188 -34q88 0 203.5 19.5t218.5 75.5l24 -45l-49 -91q-106 -66 -213.5 -96.5t-220.5 -30.5q-154 0 -278.5 49.5t-213.5 140.5t-138.5 217t-49.5 280z" />
<glyph unicode="D" horiz-adv-x="1542" d="M82 -4l6 78l10 8q25 0 57.5 3t51.5 15q16 12 30.5 39t20.5 80q0 14 1 33.5t2 48.5t1 70v102v334v62v89.5t-1 92t-3 69.5q-4 51 -18.5 78t-32.5 39q-18 16 -37.5 18t-71.5 2l-10 9l-6 77l4 9q14 0 41 -2t57.5 -4.5t60 -4.5t52.5 -2h199q25 0 62.5 1t76.5 3.5t74.5 3.5 t60.5 1q160 0 286 -54.5t212 -146.5t132 -215t46 -260q0 -135 -44 -257t-130 -215.5t-215 -148.5t-299 -55q-16 0 -50 1t-72 1t-74 1t-56 1h-191q-14 0 -46.5 -2t-67.5 -4t-68 -4t-47 -2zM489 535q0 -123 1.5 -192t5.5 -103q6 -53 26.5 -66.5t73.5 -13.5h94q123 0 217 40 t158.5 109.5t98.5 162.5t34 200q0 111 -35 204t-101.5 160.5t-162.5 105.5t-219 38h-180q-4 -59 -5 -99.5t-3.5 -81.5t-2.5 -89v-122v-253z" />
<glyph unicode="E" horiz-adv-x="1177" d="M82 -4l6 78l10 8q33 0 61.5 3t47.5 17q16 14 31.5 37t19.5 80q0 14 1 33.5t2 48.5t1 70v102v334v121v84t-1 59.5t-3 48.5q-4 55 -19.5 80t-31.5 37q-18 16 -47 18t-62 2l-10 9l-6 77l4 9q14 0 47 -2t71 -4.5t73.5 -4.5t58.5 -2h336q29 0 85 1t115.5 3.5t106.5 3.5t57 1 l13 -21l-11 -264h-92l-8 8q-4 39 -11 61.5t-38 33t-95.5 12.5t-179.5 2h-116l-2 -19q-2 -29 -3 -53.5t-2.5 -57t-1.5 -79.5v-121v-70q33 1 64 1h31h29q29 0 55 1q39 2 66.5 7.5t39.5 17.5q20 20 21 57l10 10l76 5l8 -5q-4 -47 -7 -81.5t-3 -79.5q0 -49 3 -91t7 -92l-8 -4 l-78 4l-8 7q0 51 -19 75q-16 23 -93 26t-171 3h-23v-168q0 -59 1.5 -98t2.5 -66.5t3 -52.5t4 -57q2 -39 41 -39h92q117 0 183.5 4t101 19.5t50 44t27.5 77.5l9 8h96l-39 -301l-17 -20q-10 0 -50 1t-89 3t-98 3t-78 1h-414q-14 0 -46.5 -2t-67.5 -4t-68 -4t-47 -2z" />
<glyph unicode="F" horiz-adv-x="1091" d="M82 -4l6 78l10 8q33 0 61.5 3t47.5 17q16 14 31.5 37t19.5 80q0 14 1 33.5t2 48.5t1 70v102v334v121t-1 84t-2 59t-1 49q-4 59 -19.5 82t-31.5 35q-18 16 -47 18t-62 2l-10 9l-6 77l4 9q14 0 47 -2t68 -4.5t67.5 -4.5t46.5 -2h357q29 0 85 1t115.5 3.5t106.5 3.5t57 1 l13 -21l-11 -264h-92l-8 8q-4 39 -11 61.5t-38 33t-95.5 12.5t-179.5 2h-114l-4 -80q0 -20 -1 -38t-2 -40.5t-2.5 -56t-1.5 -185.5q33 1 64 1h31.5h30.5q29 0 54 1q38 2 66.5 7.5t40.5 17.5q18 18 19 59l10 11l76 4l8 -4q-2 -27 -4 -46.5t-3 -38l-2 -37t-1 -42.5 q0 -49 3 -93.5t7 -93.5l-8 -4l-78 4l-8 6q0 53 -21 80q-10 10 -36.5 16.5t-64.5 9.5t-86 3h-98v-127v-120t1.5 -76.5t2.5 -52t3 -46.5q4 -59 21.5 -81.5t33.5 -35.5q18 -16 54 -18t69 -2l10 -8l6 -78l-4 -8q-14 0 -50 2t-75 4t-74.5 4t-50.5 2h-121q-14 0 -46.5 -2t-67.5 -4 t-68 -4t-47 -2z" />
<glyph unicode="G" horiz-adv-x="1437" d="M94 664q0 147 46 274t136.5 221t223.5 148.5t309 54.5q39 0 91 -4t109.5 -14.5t118 -28t115.5 -43.5l4 -19l-35 -223h-92l-8 6q-10 70 -83 114t-230 44q-98 0 -173 -17.5t-139 -66.5q-45 -35 -73.5 -83t-45 -105.5t-22.5 -121t-6 -126.5q0 -125 34 -223.5t93 -166 t140 -103.5t175 -36q29 0 63 3.5t66.5 9.5t58 14t36.5 16q12 6 14 16.5t2 26.5v47t-4 52q-4 53 -21.5 80.5t-29.5 35.5q-18 16 -55.5 18.5t-69.5 2.5l-11 8l-6 86l4 8q14 0 46 -2t66 -4t65.5 -4t46.5 -2h143q14 0 39 2t51.5 4t51 4t38.5 2l4 -8l-4 -90l-10 -8 q-59 0 -82.5 -34t-28.5 -99q-4 -41 -5 -87t-1 -69q0 -31 1 -66.5t5 -46.5l-8 -10q-102 -31 -214.5 -52.5t-235.5 -21.5q-178 0 -310.5 54.5t-219.5 148.5t-130 219t-43 265z" />
<glyph unicode="H" horiz-adv-x="1585" d="M82 -4l6 78l10 8q33 0 61.5 3t47.5 17q16 14 31.5 37t19.5 80q0 14 1 33.5t2 48.5t1 70v102v334v121t-1 84t-2 59.5t-3 48.5q-4 53 -18.5 78t-30.5 39q-18 14 -47 17t-62 3l-10 9l-6 77l4 9q14 0 47 -2t68 -4.5t67.5 -4.5t46.5 -2h121q14 0 47 2t68 4.5t67.5 4.5t47.5 2 l4 -9l-6 -77l-9 -9q-29 0 -60.5 -3t-49.5 -17q-16 -14 -31.5 -36.5t-17.5 -80.5q-2 -29 -3 -53.5t-2.5 -57t-1.5 -79.5v-121v-21h607v19v121t-1 84t-2 59.5t-3 48.5q-4 57 -18.5 80t-31.5 37q-18 14 -47.5 17t-62.5 3l-8 9l-7 77l5 9q14 0 46.5 -2t67.5 -4.5t68 -4.5t47 -2 h121q14 0 47 2t67.5 4.5t67.5 4.5t47 2l4 -9l-6 -77l-10 -9q-33 0 -62.5 -3t-46.5 -17q-16 -14 -29.5 -36.5t-21.5 -80.5q-2 -29 -3 -53.5t-1 -57v-79.5v-121v-295v-120v-76.5t1 -52t3 -46.5q4 -57 19.5 -79.5t31.5 -37.5q18 -14 47 -17t62 -3l10 -8l6 -78l-4 -8 q-14 0 -47 2t-67.5 4t-67.5 4t-47 2h-121q-14 0 -47 -2t-68 -4t-67.5 -4t-46.5 -2l-5 8l7 78l8 8q33 0 61.5 3t48.5 17q18 14 28.5 37t21.5 80q2 14 3 33.5t2 48.5t1 70v102v164h-607v-123v-120t1.5 -76.5t2.5 -52t3 -46.5q4 -57 18 -79.5t31 -37.5q18 -14 48 -17t62 -3 l9 -8l6 -78l-4 -8q-14 0 -47 2t-68 4t-67.5 4t-47.5 2h-121q-14 0 -46.5 -2t-67.5 -4t-68 -4t-47 -2z" />
<glyph unicode="I" horiz-adv-x="751" d="M82 -4l6 78l10 8q33 0 62.5 3t46.5 17q16 14 29.5 37t21.5 80q0 14 1 33.5t2 48.5t1 70v102v334v121t-1 84t-2 59.5t-3 48.5q-4 53 -18.5 78t-30.5 39q-18 14 -47 17t-62 3l-10 9l-6 77l4 9q14 0 47 -2t68 -4.5t67.5 -4.5t46.5 -2h121q14 0 47 2t68 4.5t67.5 4.5t47.5 2 l4 -9l-6 -77l-9 -9q-33 0 -61.5 -3t-48.5 -17q-18 -14 -33.5 -36.5t-15.5 -80.5q-2 -29 -3 -53.5t-2.5 -57t-1.5 -79.5v-121v-295v-120t1.5 -76.5t2.5 -52t3 -46.5q4 -57 18 -79.5t31 -37.5q18 -14 48 -17t62 -3l9 -8l6 -78l-4 -8q-14 0 -47 2t-68 4t-67.5 4t-47.5 2h-121 q-14 0 -46.5 -2t-67.5 -4t-68 -4t-47 -2z" />
<glyph unicode="J" horiz-adv-x="708" d="M43 -207l8 10q10 0 41 1t41 1q37 0 58.5 29t31.5 66q6 25 10.5 86t6.5 139t2 160v147v416v104t-1 74t-2 52.5t-3 41.5q-4 55 -18.5 80t-31.5 37q-18 16 -46.5 18t-61.5 2l-10 9l-7 77l5 9q14 0 46.5 -2t67.5 -4.5t68 -4.5t47 -2h121q14 0 47 2t67.5 4.5t67.5 4.5t47 2 l4 -9l-6 -77l-8 -9q-33 0 -61.5 -3t-49.5 -17q-18 -14 -33.5 -36.5t-15.5 -80.5q-2 -25 -3 -46t-2 -50t-1 -70v-104v-377v-124t-1 -85t-1 -60.5v-47.5q-2 -225 -82 -336t-227 -133q-23 -4 -48.5 -5t-46.5 -1l-16 6z" />
<glyph unicode="K" horiz-adv-x="1425" d="M82 -4l6 78l10 8q33 0 61.5 3t47.5 17q16 14 31.5 37t19.5 80q0 14 1 33.5t2 48.5t1 70v102v334v121v84t-1 59.5t-3 48.5q-4 55 -19.5 80t-31.5 37q-18 16 -47 18t-62 2l-10 9l-6 77l4 9q14 0 47 -2t68 -4.5t67.5 -4.5t46.5 -2h121q14 0 47 2t68 4.5t67.5 4.5t47.5 2 l4 -9l-6 -77l-9 -9q-29 0 -60.5 -3t-49.5 -17q-16 -14 -31.5 -36.5t-17.5 -80.5q-2 -25 -3 -48t-2.5 -55t-1.5 -74v-101v-99q41 20 94.5 62.5t106.5 91.5q39 37 80 81t75 85t54.5 73.5t20.5 45.5q0 23 -9.5 36t-25 21t-36 12t-40.5 9l-10 8v78l10 8q41 -8 87 -10.5t93 -2.5 h182h42.5t35 2.5t38 4.5t48.5 6l8 -8v-78l-8 -8q-29 -4 -72.5 -17t-74.5 -31q-18 -12 -54 -44.5t-79 -76.5t-91.5 -95.5t-93.5 -98.5l-139 -147q78 -115 150.5 -231t169.5 -222q41 -47 80.5 -83t85 -61.5t96.5 -43t117 -27.5l12 -8l4 -78l-4 -8q-31 0 -66 -1t-70.5 -3 t-66.5 -3t-51 -1q-53 0 -98.5 13t-87 44t-85 82t-94.5 125q-12 18 -41.5 64t-64.5 101.5t-70 112t-61 96.5q-25 -23 -49.5 -44t-47.5 -44v-16v-132t1.5 -73.5t2.5 -45t3 -44.5q4 -59 18 -81.5t31 -35.5q18 -16 48 -18t62 -2l9 -8l6 -78l-4 -8q-14 0 -47 2t-68 4t-67.5 4 t-47.5 2h-121q-14 0 -46.5 -2t-67.5 -4t-68 -4t-47 -2z" />
<glyph unicode="L" horiz-adv-x="1083" d="M82 -4l6 78l10 8q78 0 107 22q16 14 31.5 45t19.5 72q2 20 3 56t2 75t1 73v48v334q0 113 -1 197.5t-5 115.5q-4 35 -15.5 69t-33.5 50q-16 10 -41 14t-68 4l-10 9l-6 77l4 9q18 -2 50 -4t66 -4.5t64.5 -3.5t48.5 -1h121q18 0 48 1t64 3.5t65.5 4.5t52.5 4l4 -9l-6 -77 l-9 -9q-51 0 -74.5 -5t-37.5 -15q-43 -29 -49 -117q-2 -20 -3.5 -41.5t-1.5 -55.5v-85v-129v-274v-130.5t1.5 -84t2.5 -59t5 -60.5q2 -41 47 -41h190q68 0 108 3t62.5 16.5t34.5 38t23 67.5l6 8h94l-37 -281l-16 -20q-16 2 -51 3t-74 2t-77 2t-58 1h-435q-14 0 -45.5 -1 t-66.5 -3t-68 -4t-49 -4z" />
<glyph unicode="M" horiz-adv-x="1935" d="M45 -4l6 78l12 8q31 0 60 3t49 17q16 14 32.5 37t26.5 80q4 25 10.5 68t14.5 145l29 375q6 72 9 121t4 84t2 59.5t1 48.5q0 59 -17.5 82t-33.5 35q-18 16 -47 18t-62 2l-10 9l-6 77l4 9q14 0 47 -2t68 -4.5t67.5 -4.5t46.5 -2h158q14 0 38 2t44 7l10 -7q2 -29 15.5 -80 t33 -112.5t44 -130t49.5 -133.5l129 -332q23 -55 45 -116.5t41 -117.5q6 8 32.5 72t63.5 158t79 207.5t79.5 224.5t65.5 206t36 152l10 9q16 -4 34.5 -6.5t35.5 -2.5h176q14 0 47 2t67.5 4.5t67.5 4.5t47 2l4 -9l-6 -77l-10 -9q-31 0 -60.5 -3t-47.5 -17q-16 -12 -34 -36.5 t-18 -80.5v-53.5t2 -57t5.5 -79.5t9.5 -121l24 -295q6 -74 10.5 -120t7.5 -76.5t5 -52t6 -46.5q8 -59 24.5 -81.5t32.5 -35.5q18 -16 48 -18t63 -2l10 -8l6 -78l-2 -8q-14 0 -47 2t-67.5 4t-67.5 4t-47 2h-121q-14 0 -47 -2t-68 -4t-67.5 -4t-46.5 -2l-7 8l7 78l8 8h22 q59 0 93 19.5t34 78.5l-45 670q-4 47 -5 82t-9 76q-12 -37 -39 -104.5t-60.5 -154.5t-72.5 -185.5t-78 -196t-72.5 -186.5t-58.5 -154h-168l-358 974q0 -49 -4.5 -80.5t-8.5 -80.5l-24 -336q-4 -68 -7 -112t-4 -74.5t-1 -53v-45.5q0 -59 13 -81.5t30 -35.5q16 -16 37.5 -18 t54.5 -2l8 -8l6 -78l-4 -8q-14 0 -42 2t-56.5 4t-56 4t-42.5 2h-121q-14 0 -45.5 -2t-67.5 -4t-68 -4t-46 -2z" />
<glyph unicode="N" horiz-adv-x="1599" d="M78 -4l6 78l10 8q37 0 62.5 3t46.5 17q14 10 34.5 34t26.5 83q2 14 3 33.5t1 48.5v70v102v334v121v84t-1 59.5t-3 48.5q-4 43 -23.5 74t-37.5 43q-18 16 -46 18t-63 2l-10 9l-6 77l4 9q14 0 42 -2t56.5 -4.5t56 -4.5t42.5 -2h174q16 0 40.5 2t43.5 7l10 -7 q6 -29 30.5 -79t60.5 -112.5t77 -131t82 -135.5q74 -123 131 -214t102 -159t78 -114t55 -77q0 53 1 104.5t1 104.5v279v121t-1 84t-2 59.5t-3 48.5q-4 35 -17.5 64.5t-41.5 52.5q-18 16 -48 18t-63 2l-8 9l-6 77l4 9q14 0 41 -2t54.5 -4.5t54 -4.5t40.5 -2h179q14 0 40.5 1 t55.5 3.5t55.5 4.5t40.5 4l2 -9l-4 -77l-10 -9q-31 0 -60.5 -3t-48.5 -17q-16 -14 -33.5 -36.5t-23.5 -80.5q-2 -29 -3 -53.5t-2 -57t-1 -79.5v-121v-320q0 -115 1 -188.5t2 -125.5t4 -93t7 -90l-16 -10l-252 10l-21 24l-632 955q4 -37 5 -118t1 -187v-152v-64.5t1 -82.5 t2 -83t3 -65q4 -51 22.5 -77.5t38.5 -39.5q16 -16 43 -18t68 -2l10 -8l6 -78l-4 -8q-16 0 -46 2t-61.5 4t-61.5 4t-44 2h-121q-14 0 -47 -2t-67.5 -4t-67.5 -4t-47 -2z" />
<glyph unicode="O" horiz-adv-x="1509" d="M96 659q0 145 45 273.5t129 223.5t207 150.5t279 55.5q158 0 280.5 -55.5t206.5 -150.5t128 -220t44 -262q0 -135 -43 -261t-128 -222.5t-211 -155t-292 -58.5q-160 0 -280.5 55.5t-201.5 148.5t-122 217t-41 261zM338 674q0 -123 30.5 -220.5t86 -165t131.5 -104.5 t168 -37q100 0 179 42t132 113t82 166t29 204q0 111 -30 206t-86 164.5t-136 109.5t-181 40q-98 0 -173.5 -39t-127 -108.5t-78 -165t-26.5 -205.5z" />
<glyph unicode="P" horiz-adv-x="1189" d="M82 -4l6 78l10 8q25 0 57.5 3t51.5 15q16 12 30.5 39t20.5 80q0 14 1 33.5t2 48.5t1 70v102v451v93t-4 103q-4 53 -19.5 79t-31.5 38q-18 16 -37.5 18t-71.5 2l-10 9l-6 77l4 9q14 0 37.5 -2t49.5 -4.5t52.5 -4.5t48.5 -2h156q23 0 51.5 1t58 1t54 1t41.5 1 q137 0 232.5 -27.5t154.5 -76.5t87 -117.5t28 -150.5q0 -137 -49.5 -225.5t-126 -139.5t-172 -70.5t-185.5 -19.5h-115v-86t1.5 -87t2.5 -74.5t3 -49.5q4 -59 20 -82.5t29 -34.5q18 -16 37.5 -18t72.5 -2l9 -8l6 -78l-4 -8q-14 0 -47 2t-68 4t-67.5 4t-47.5 2h-121 q-14 0 -46.5 -2t-67.5 -4t-68 -4t-47 -2zM489 743q0 -27 2.5 -42t10.5 -22t23.5 -9t41.5 -2h27q172 0 245.5 77.5t73.5 215.5q0 111 -85 165t-232 54h-96q-6 -90 -8.5 -134.5t-2.5 -78.5v-224z" />
<glyph unicode="Q" horiz-adv-x="1509" d="M96 659q0 145 45 273.5t129 223.5t207 150.5t279 55.5q158 0 280.5 -55.5t206.5 -149.5t128 -219t44 -262q0 -131 -39 -253t-115.5 -217t-189.5 -156.5t-260 -69.5q104 -2 184 -26t151 -51.5t140.5 -50t149.5 -22.5q29 0 68.5 7t84.5 34l6 -4l29 -57l-2 -9 q-47 -59 -114.5 -100t-151.5 -41q-70 0 -142.5 32t-152.5 69.5t-166 69.5t-180 32q-80 0 -155 -26.5t-109 -57.5l-7 2l-22 80l2 6q45 31 121 67.5t164 42.5q-152 2 -266.5 57.5t-191.5 148.5t-116 216t-39 260zM338 674q0 -121 30.5 -218.5t86 -166t131.5 -105.5t168 -37 q100 0 179 42t132 113t82 166t29 204q0 111 -30 206t-86 164.5t-136 109.5t-181 40q-98 0 -173.5 -39t-127 -108.5t-78 -165t-26.5 -205.5z" />
<glyph unicode="R" horiz-adv-x="1359" d="M82 -4l6 78l10 8q78 0 107 18q43 29 53 119q2 35 3 107.5t1 146.5v451q0 72 -2 113.5t-6 82.5q-8 55 -17.5 80t-27.5 39q-16 10 -40 14t-71 4l-10 9l-6 77l4 9q53 -6 105.5 -9.5t82.5 -3.5h156q47 0 107.5 2t105.5 2q244 0 369 -91t125 -271q0 -129 -75 -234.5 t-222 -183.5q70 -104 118 -169.5t82 -104.5q47 -55 88 -92t81 -61.5t83 -37t97 -16.5l12 -8l4 -78l-4 -8q-78 -4 -135.5 -7.5t-83.5 -3.5q-109 0 -194 60.5t-181 206.5q-23 33 -48.5 73.5t-51 80.5t-48 77t-36.5 64h-134v-120t1.5 -87t3.5 -63.5t4 -49.5q8 -94 45 -119 q14 -10 36.5 -14t75.5 -4l9 -8l6 -78l-4 -8q-16 2 -46 4t-64 4t-65.5 3t-54.5 1h-121q-25 0 -57.5 -1t-65 -3t-62.5 -4t-44 -4zM489 766q0 -43 10.5 -59.5t39.5 -16.5h55q150 0 234.5 72t84.5 199q0 115 -75.5 167t-241.5 52h-96q-6 -82 -8.5 -127t-2.5 -86v-201z" />
<glyph unicode="S" horiz-adv-x="1146" d="M96 119l47 274h93l10 -12q12 -141 95 -200.5t226 -59.5q141 0 205 50t64 148q0 63 -27 104.5t-75 70t-115.5 51t-149.5 53.5q-74 27 -137.5 58.5t-109.5 75.5t-72.5 105.5t-26.5 147.5q0 180 117.5 278.5t359.5 98.5q111 0 207 -25.5t162 -60.5l8 -23l-33 -233h-98 l-10 10q-12 86 -74 133t-172 47q-123 0 -190.5 -49t-67.5 -131q0 -53 28.5 -90t77.5 -64.5t114.5 -52t139.5 -51.5q74 -29 141.5 -60.5t120 -77.5t84 -108.5t31.5 -150.5q0 -90 -35 -163t-99.5 -125t-157.5 -81t-208 -29q-123 0 -245.5 31t-219.5 84z" />
<glyph unicode="T" horiz-adv-x="1202" d="M31 1063l14 274l8 19l13 6q16 -6 71.5 -11t121 -7.5t125.5 -3.5t87 -1h258q27 0 87.5 1t126 3.5t120.5 7.5t72 11l12 -6l8 -19l16 -274h-90l-8 8q-4 31 -18.5 53.5t-36.5 32.5q-6 8 -21.5 13.5t-46 7.5t-81 2h-128.5h-22q-2 -49 -3 -131t-1 -199v-336v-120t1 -76.5t2 -52 t3 -46.5q4 -59 22.5 -81.5t34.5 -35.5q8 -8 23.5 -12t34 -6t38 -2h35.5l11 -8l6 -78l-4 -8q-14 0 -45 2t-66 4t-65.5 4t-45.5 2h-198q-14 0 -45 -2t-65 -4t-64.5 -4t-44.5 -2l-4 8l6 78l10 8q31 0 73 2t60 18q16 14 32.5 37t22.5 80q2 14 3 33.5t2 48.5t1 70v102v375 q0 113 -2 201t-4 131h-22q-78 0 -129 -1t-82 -4.5t-46.5 -7.5t-21.5 -10q-23 -10 -37 -32.5t-18 -53.5l-8 -8h-88z" />
<glyph unicode="U" horiz-adv-x="1497" d="M43 1343l4 9q14 0 47 -2t68 -4.5t67.5 -4.5t46.5 -2h121q14 0 47 2t68 4.5t67.5 4.5t47.5 2l4 -9l-6 -77l-9 -9q-29 0 -60.5 -3t-49.5 -17q-16 -14 -30.5 -36.5t-18.5 -80.5q-2 -29 -3 -53.5t-2 -57t-1 -79.5v-121v-297q0 -190 74.5 -271t230.5 -81q70 0 129 19.5 t102 62.5t67.5 109.5t24.5 160.5v297v121t-1 79.5t-2 57.5t-3 53q-4 59 -19.5 82t-31.5 35q-16 16 -46 18t-63 2l-10 9l-6 77l4 9q14 0 43 -2t60.5 -4.5t60.5 -4.5t43 -2h127q14 0 45 2t64.5 4.5t64.5 4.5t45 2l4 -9l-6 -77l-8 -9q-29 0 -60.5 -3t-50.5 -17 q-16 -14 -31.5 -36.5t-19.5 -80.5q0 -25 -1 -49t-2 -59t-1 -84v-121v-352q0 -100 -34 -187.5t-99.5 -152t-162.5 -101.5t-222 -37q-154 0 -257.5 37t-165 101.5t-88 151.5t-26.5 188v352v121v84t-1 59.5t-3 48.5q-4 55 -19.5 80t-31.5 37q-18 16 -47 18t-62 2l-10 9z" />
<glyph unicode="V" horiz-adv-x="1482" d="M-23 1343l3 9q14 -2 41.5 -4t58.5 -4.5t59.5 -3.5t42.5 -1h152q14 0 47 2t68.5 4.5t68.5 4.5t47 2l4 -9l-6 -77l-10 -9q-59 0 -92 -13t-33 -73q0 -47 32 -132t79 -214l125 -336q35 -82 57 -156.5t45 -123.5q16 47 45 119.5t61 160.5l125 336q47 129 79 214t32 132 q0 59 -33 72.5t-92 13.5l-10 9l-4 77l4 9q14 -2 45 -4t63.5 -4.5t63.5 -3.5t45 -1h121q14 0 41.5 2t58.5 4.5t59.5 4.5t42.5 2l5 -9l-7 -77l-10 -9q-27 0 -51.5 -2t-48 -15t-47 -41t-47.5 -79q-4 -10 -9.5 -20t-14.5 -31.5t-25.5 -60.5t-43 -105.5t-66.5 -167t-95 -243.5 q-29 -72 -59.5 -149t-57.5 -145.5t-47.5 -121.5t-28.5 -76l-229 -23h-25l-319 889q-23 61 -38.5 102.5t-26.5 70t-19 47t-15 34.5q-23 51 -46 79t-47.5 41t-50.5 15t-52 2l-10 9z" />
<glyph unicode="W" horiz-adv-x="2316" d="M-29 1343l2 9q14 -2 42 -4t58.5 -4.5t59.5 -3.5t43 -1h152q14 0 47 2t68.5 4.5t68.5 4.5t47 2l4 -9l-6 -77l-10 -9q-59 0 -92 -13t-33 -73q0 -47 31.5 -132t78.5 -214l125 -336q35 -82 57.5 -156.5t45.5 -123.5q16 47 45 119.5t61 160.5l125 336q68 178 68 281 q0 82 -37 116.5t-145 34.5l-11 9l-4 77l2 9q14 -2 46 -4t66 -4.5t65.5 -3.5t45.5 -1h152q14 0 44 2t61.5 4.5t61.5 4.5t44 2l4 -9l-6 -77l-10 -9q-59 0 -92 -13t-33 -73q0 -47 22.5 -132t67.5 -214l117 -336q29 -84 53 -155.5t49 -120.5q14 47 39 118.5t55 157.5l117 336 q45 127 71.5 213t26.5 133q0 59 -32.5 72.5t-92.5 13.5l-10 9l-4 77l4 9q14 -2 45 -4t63.5 -4.5t63.5 -3.5t45 -1h121q14 0 42 2t58.5 4.5t59 4.5t43.5 2l4 -9l-6 -77l-11 -9q-27 0 -51 -2t-47.5 -15t-47.5 -41t-48 -79l-8 -20t-13.5 -31.5t-23.5 -60.5t-39 -105.5 t-61.5 -167t-88.5 -243.5q-25 -72 -52 -149t-52 -145.5t-43 -121.5t-25 -76l-229 -23h-25l-301 852l-122 -337q-27 -74 -58 -151t-58.5 -145.5t-48 -120.5t-28.5 -75l-229 -23h-25l-319 889q-23 61 -38.5 102.5t-26.5 70t-19.5 47t-14.5 34.5q-23 51 -46 79t-48 41t-50.5 15 t-51.5 2l-11 9z" />
<glyph unicode="X" horiz-adv-x="1454" d="M2 0v68l16 14q45 6 78 15t59.5 25.5t53.5 43.5t61 67q25 31 62 76t81 102.5t95 121t102 131.5l-10 12q-66 94 -152 209.5t-184 255.5q-16 23 -33.5 44t-33.5 34q-23 18 -54.5 26t-72.5 12l-17 9v77l13 9q47 -8 92 -10.5t88 -2.5h190q47 0 108.5 3.5t119.5 9.5l10 -9v-77 l-10 -9q-41 -2 -72 -7t-49 -17q-16 -8 -19.5 -17.5t-3.5 -17.5q0 -10 9.5 -24.5t9.5 -24.5q33 -55 59.5 -94t50 -74t48 -69.5t53.5 -77.5q74 90 125 169.5t67 114.5q4 10 13.5 25.5t9.5 32.5q0 25 -13.5 39t-33 21t-44 11t-47.5 10l-10 9v77l10 9q61 -10 100.5 -11.5 t88.5 -1.5h201q49 0 89 2t97 11l8 -9v-77l-8 -9q-45 -6 -80 -19t-65.5 -33.5t-58 -50.5t-60.5 -73q-61 -82 -105.5 -138t-77 -98t-59.5 -75t-55 -70l6 -6q72 -98 137.5 -184t116.5 -152.5t85 -107.5t44 -51q18 -20 32.5 -38t35 -33t49 -26.5t75.5 -19.5l19 -14v-70l-12 -12 q-41 6 -89.5 11t-85.5 5h-184q-47 0 -111.5 -5t-119.5 -11l-11 12v72l11 12q47 4 86 23.5t39 54.5q0 18 -23.5 59t-59.5 94.5t-80 110.5t-87 111q-41 -49 -81 -100.5t-75 -96.5t-60.5 -81t-35.5 -56q-8 -20 -8 -37q0 -18 5 -30.5t20.5 -22t46 -16.5t81.5 -13l13 -12v-70 l-13 -12q-59 10 -114.5 11t-102.5 1h-178q-47 0 -95 -2t-106 -10z" />
<glyph unicode="Y" horiz-adv-x="1337" d="M-16 1266v77l10 9q51 -6 92 -11.5t90 -5.5h168q47 0 109.5 5.5t119.5 11.5l9 -9v-77l-9 -9q-41 -2 -71.5 -7t-48.5 -17q-20 -14 -21 -37q0 -12 5 -24.5t12 -22.5l243 -387l230 354q20 35 20 72q0 25 -14.5 37t-36 18t-47 8t-47.5 9l-9 8v78l9 8q59 -10 98 -11.5t90 -1.5 h180q49 0 90 2.5t99 10.5l8 -8v-78l-8 -8q-47 -6 -80 -16.5t-59.5 -29t-52 -47t-56.5 -71.5q-61 -90 -105.5 -154.5t-76 -115t-58 -93.5t-55.5 -90q-8 -12 -18.5 -42t-10.5 -60v-31v-119t1 -75.5t2 -51t3 -45.5q4 -57 19.5 -79.5t32.5 -37.5q16 -14 45.5 -17t62.5 -3l10 -8 l7 -78l-4 -8q-14 0 -47 2t-68 4t-68 4t-47 2h-121q-14 0 -47 -2t-68.5 -4t-68.5 -4t-47 -2l-2 8l4 78l10 8q31 0 60.5 3t48.5 17q18 14 32.5 37t18.5 80q2 14 3 33.5t2 48.5t1 70v102v39q0 57 -16.5 93t-32.5 65q-68 111 -148.5 229.5t-166.5 241.5q-14 23 -33 44t-33 34 q-23 18 -54.5 26t-72.5 12z" />
<glyph unicode="Z" horiz-adv-x="1300" d="M66 31v47q39 39 102 116.5t137 179t152 215t147.5 222.5t123.5 203t83 155l-10 11h-250q-102 0 -165.5 -2t-100.5 -13.5t-53.5 -33t-22.5 -58.5l-12 -10h-78l-13 14l33 262l17 17q260 -12 435 -14.5t228 -2.5h197q12 0 33.5 1t45 3.5t47 5.5t42.5 7l16 -43l-10 -51 q-35 -37 -101.5 -121t-145.5 -191.5t-163 -228.5t-155.5 -230.5t-122.5 -196.5t-64 -128l11 -6h122q170 0 271.5 3t157 16.5t78 42t34.5 79.5l12 12h97l-37 -305l-19 -20q-10 0 -49 1t-93 3t-115.5 3t-118 2t-101.5 2t-63 1h-328q-45 0 -101.5 -4t-109.5 -8z" />
<glyph unicode="[" horiz-adv-x="628" d="M156 -186q16 137 20 302t4 316v553v117.5t-3 140.5t-8 146.5t-13 136.5l4 8h155q18 0 53 2t73 4t73 4t53 2l2 -8l-4 -78l-10 -8q-23 0 -57.5 -3t-48.5 -17q-18 -14 -33 -37t-19 -80t-5 -139t-1 -230v-432v-150.5t1 -144t2 -119t3 -75.5q4 -59 19.5 -82t32.5 -35 q14 -16 48.5 -18.5t57.5 -2.5l10 -8l4 -78l-2 -8q-18 0 -53 2t-73 4t-72.5 4t-53.5 2h-155z" />
<glyph unicode="\" horiz-adv-x="948" d="M70 1430v8h241l6 -8q14 -63 36 -137t46.5 -147t49 -140.5t43.5 -118.5l135 -377q55 -154 119.5 -317.5t132.5 -301.5l-2 -8h-242l-6 8q-33 137 -89.5 301t-111.5 318l-137 377q-18 51 -44 118.5t-54.5 140.5t-59.5 146.5t-63 137.5z" />
<glyph unicode="]" horiz-adv-x="630" d="M61 -199l5 78l10 8q23 0 57.5 2t48.5 19q16 12 31.5 34.5t19.5 82.5q2 25 3.5 76t2.5 118.5t1 144v150.5v432q0 147 -1 229t-6 140q-4 57 -18 79.5t-33 37.5q-14 14 -49 17t-57 3l-10 8l-5 78l2 8q18 0 53.5 -2t73 -4t72.5 -4t53 -2h156l4 -8q-10 -63 -14 -136t-7 -147 t-3 -140.5v-117.5v-553q0 -152 4 -316.5t20 -301.5l-4 -9h-156q-18 0 -53 -2t-72.5 -4t-72.5 -4t-54 -2z" />
<glyph unicode="^" horiz-adv-x="712" d="M117 1161l6 15l225 202h17l225 -202l6 -15l-18 -59l-15 -6l-207 84l-206 -84l-15 6z" />
<glyph unicode="_" horiz-adv-x="985" d="M49 0h887v-168h-887v168z" />
<glyph unicode="`" horiz-adv-x="448" d="M-41 1260q0 53 27.5 91t85.5 42l370 -207l7 -15l-54 -102l-16 -6l-412 158q-8 18 -8 39z" />
<glyph unicode="a" horiz-adv-x="1058" d="M55 248q0 80 35 139t92 96q53 35 125 54.5t139.5 30t123 13.5t73.5 3h29q-2 63 -8.5 99t-16.5 60q-18 41 -60 58.5t-100 17.5q-35 0 -74.5 -5t-74.5 -19.5t-60.5 -40t-29.5 -66.5l-8 -6h-66l-18 192l6 13q12 12 47 26.5t84 27.5t107.5 22.5t117.5 9.5q80 0 149.5 -19.5 t120 -58.5t79 -97.5t28.5 -135.5q0 -84 -1 -143.5t-3 -111t-3 -99.5t-1 -107q4 -47 10 -67.5t21 -33.5q16 -16 49.5 -19t62.5 -3l6 -8l4 -70l-2 -8q-35 4 -80 6t-84 2q-57 0 -114.5 -1t-108.5 -5l-12 20q6 18 9 53t9 64l-2 6q-25 -31 -56.5 -59.5t-70.5 -51t-83 -36 t-93 -13.5q-74 0 -129 23t-92 59.5t-56.5 86t-19.5 102.5zM307 260q0 -55 27.5 -88t75.5 -33q35 0 70.5 9.5t66.5 23.5t55.5 32t36.5 32q6 10 13 24t10 35l10 174h-19q-63 0 -124.5 -8t-110.5 -30.5t-80 -63.5t-31 -107z" />
<glyph unicode="b" horiz-adv-x="1271" d="M23 1421v68l8 8h102q47 0 106.5 1t100.5 7l72 11l12 -39q-4 -8 -7 -30t-5 -46.5t-3 -47t-1 -34.5v-58.5t-1 -60.5t-1 -87v-138q0 -88 -2.5 -128t-4.5 -65l7 -4q59 86 145 140.5t194 54.5q117 0 202 -41t140.5 -108.5t82 -154.5t26.5 -182q0 -139 -43 -236t-109.5 -157.5 t-145.5 -88.5t-150 -28q-98 0 -185.5 43t-150.5 148l-6 -4q0 -41 8 -74t16 -55l-12 -35h-94q-20 0 -58.5 -1t-81.5 -2t-80.5 -3t-58.5 -2l-2 8l4 70l6 8q29 0 57.5 3t45.5 19q16 14 24 37t8 64v26q0 18 1 35t1 42.5t1.5 66.5t1.5 108v471q0 84 -1.5 139.5t-2.5 94.5t-2 67.5 t-3 63.5q-2 23 -14 41t-20 24q-27 23 -57 28t-62 5zM403 365q4 -27 23.5 -65t55.5 -74t89.5 -60.5t126.5 -24.5q68 0 117 30t81 77t46 108.5t14 124.5q0 61 -15 119.5t-46 105t-79 74t-114 27.5q-70 0 -124 -23.5t-91.5 -57.5t-59 -71t-24.5 -63v-227z" />
<glyph unicode="c" horiz-adv-x="1015" d="M72 471q0 113 41 205t112.5 157.5t166.5 102.5t204 37q49 0 99 -7.5t96.5 -17.5t83 -23.5t59.5 -25.5l6 -18l-22 -219h-64l-8 6q0 47 -27.5 76.5t-66.5 46t-83 22.5t-77 6q-74 0 -129 -28.5t-90 -75.5t-52.5 -108.5t-17.5 -127.5q0 -70 19.5 -133t58.5 -112.5t99.5 -79 t142.5 -29.5q70 0 147.5 14.5t138.5 46.5l35 -49l-31 -57q-23 -16 -58.5 -33.5t-80.5 -33t-97 -26t-104 -10.5q-100 0 -191 36t-159.5 100.5t-109.5 155.5t-41 202z" />
<glyph unicode="d" horiz-adv-x="1275" d="M76 465q0 137 44 234.5t111.5 158t148.5 88t157 27.5q92 0 182 -43t147 -142l4 9q-4 59 -4 121.5v121.5v105.5t-1 71t-2 51t-3 47.5q-2 20 -14 38.5t-19 24.5q-29 23 -56.5 29t-63.5 6l-9 8v68l9 8h116q47 0 99.5 1t93.5 7l71 11l13 -39q-4 -8 -7 -30t-4.5 -46.5 t-2.5 -47t-1 -34.5q0 -31 -1 -58.5t-1 -63.5t-1 -88t-1 -134v-447q0 -86 1 -138t2 -87t2 -60.5t4 -62.5q4 -37 11 -53t21 -27q16 -16 45 -19t54 -3l8 -8l4 -70l-4 -8q-35 4 -76 6t-78 2q-55 0 -110.5 -1t-104.5 -5l-14 41q0 14 7 54t11 71l-2 8q-53 -94 -147 -142.5 t-197 -48.5q-113 0 -195.5 41t-138 109t-82 156t-26.5 182zM313 467q0 -61 15.5 -119.5t46.5 -104.5t79 -74t113 -28q70 0 124 23.5t92 57.5t59.5 71t23.5 63v228q-4 27 -23.5 64.5t-55 72.5t-89 60.5t-127.5 25.5q-68 0 -116.5 -29.5t-80.5 -77t-46.5 -109t-14.5 -124.5z " />
<glyph unicode="e" horiz-adv-x="1038" d="M74 471q0 113 36.5 205t101 157.5t152 102.5t187.5 37q53 0 119.5 -14.5t128 -54.5t110.5 -112.5t68 -191.5l-16 -78l-50 -37q-111 0 -218 -2t-220 -2h-168q-2 -14 -2 -27.5v-25.5q0 -53 18.5 -106.5t58.5 -95.5t101.5 -67.5t149.5 -25.5q63 0 134 17.5t132 46.5l35 -15 v-73l-21 -23q-49 -39 -144 -74t-206 -35q-109 0 -198 36t-153.5 101.5t-100 155.5t-35.5 201zM315 618h103q72 0 141.5 3.5t140.5 3.5q27 0 39.5 15t12.5 32q0 61 -59.5 104t-139.5 43q-100 0 -160.5 -60.5t-77.5 -140.5z" />
<glyph unicode="f" horiz-adv-x="686" d="M49 0l4 70l6 8q31 0 59.5 5t47.5 21q12 12 21.5 31t13.5 57.5t6 106.5t2 180v340h-111l-8 10v89l8 8l111 30v117q0 209 97 331t286 122q47 0 102.5 -19.5t114.5 -62.5l10 -21l-24 -178h-74q-4 59 -51 94t-107 35q-51 0 -78.5 -17.5t-41 -45t-15.5 -64.5t-2 -73v-218 l219 13l10 -8v-132l-10 -10h-219v-291v-129t1 -87t3 -61.5t4 -49.5q4 -31 16.5 -58.5t28.5 -42.5q16 -16 46 -19t48 -3l11 -10l4 -68l-4 -8q-12 0 -39 2t-55.5 3t-55 2t-39.5 1h-131q-14 0 -44 -1t-62.5 -2t-62 -3t-44.5 -2z" />
<glyph unicode="g" horiz-adv-x="1003" d="M51 -227q0 86 56.5 152.5t144.5 92.5l2 7q-49 18 -79 45.5t-30 68.5q0 53 43 86t93 45v9q-104 41 -151.5 129t-47.5 194q0 76 26.5 143.5t77 117.5t121 79t160.5 29q53 0 105.5 -10.5t91.5 -28.5q86 2 160.5 10t140.5 27l10 -8l-14 -154l-11 -10l-153 16l-2 -6 q33 -37 51 -98.5t18 -116.5q0 -68 -25.5 -129.5t-74.5 -107.5t-123 -73.5t-170 -27.5q-12 0 -31.5 1t-29.5 1q-35 -14 -52.5 -38.5t-17.5 -41.5q0 -45 96 -57l199 -21q68 -8 126 -28.5t102 -54t68.5 -82t24.5 -111.5q0 -59 -26.5 -119.5t-79.5 -108.5q-53 -45 -147.5 -73.5 t-217.5 -28.5q-111 0 -191.5 23.5t-135 63.5t-81 90t-26.5 104zM231 -205q0 -59 72 -97t195 -38q111 0 186.5 36t75.5 105q0 39 -18.5 63.5t-49 40t-68.5 24t-77 12.5l-137 14q-45 -2 -78 -16.5t-55.5 -38t-34 -51t-11.5 -54.5zM295 610q0 -39 11 -77.5t33.5 -69.5 t56.5 -49.5t79 -18.5q41 0 73 16.5t54.5 43t33.5 62.5t11 75q0 41 -12 82t-34.5 74.5t-57.5 55t-80 21.5q-43 0 -74 -19.5t-52.5 -50t-31.5 -69.5t-10 -76z" />
<glyph unicode="h" horiz-adv-x="1284" d="M23 1421v68l8 8h114q47 0 100.5 1t94.5 7l72 11l12 -39q-4 -10 -6 -34t-4 -51.5t-2 -53v-40.5q0 -53 -3 -122.5t-3 -161.5q0 -86 -1.5 -153.5t-5.5 -98.5l7 -4q25 37 58.5 74.5t75.5 69.5t92 51.5t107 19.5q63 0 125 -16.5t112 -51.5t83 -88t43 -127q6 -53 7 -121.5 t1 -111.5v-248q0 -47 12.5 -72.5t24.5 -36.5q18 -16 47 -19t61 -3l7 -8l4 -70l-4 -8q-43 4 -94.5 6t-102.5 2q-104 0 -193 -6l-14 41q8 27 12 69.5t7 75.5q4 78 6 156t2 131q0 47 -2 102.5t-15 96.5q-16 66 -69.5 97.5t-118.5 31.5q-59 0 -109.5 -22.5t-87.5 -55.5t-57 -68 t-20 -59v-164.5t1 -99.5t2 -64.5t5 -60.5q4 -43 16 -64.5t29 -36.5q16 -16 38.5 -19t53.5 -3l10 -10l4 -68l-4 -8q-14 0 -43 2t-61.5 3t-61 2t-43.5 1h-110q-14 0 -44 -1t-62 -2t-61.5 -3t-43.5 -2l-2 8l4 70l6 8q33 0 58.5 3t41.5 19q16 14 26.5 37t14.5 64q2 25 4 49t3 58 t1 80v112v450v135.5t-1 95.5t-2 71.5t-3 62.5q-2 20 -13 37.5t-17 23.5q-20 23 -54.5 30t-66.5 7z" />
<glyph unicode="i" horiz-adv-x="626" d="M57 0l4 70l7 8q31 0 63.5 3t48.5 19q14 14 20.5 37t10.5 64q2 14 3 28.5t2 30.5t1 39v55v232v62.5t-1 40t-2 29.5t-3 32q-4 20 -12.5 38.5t-14.5 24.5q-20 27 -51 31t-63 4l-9 8v70l9 6h104q47 0 100.5 1t94.5 7l71 10l13 -39q-4 -8 -7.5 -25.5t-4.5 -37t-2 -38.5t-1 -32 q0 -16 -1 -29.5t-1 -31t-1 -44t-1 -65.5v-229q0 -41 1 -66.5t2 -44t2 -34t3 -33.5q4 -43 9.5 -64.5t21.5 -36.5q16 -16 46 -19t61 -3l10 -10l4 -68l-4 -8q-14 0 -43 2t-61.5 3t-61.5 2t-43 1h-111q-14 0 -43.5 -1t-61.5 -2t-61.5 -3t-44.5 -2zM174 1255q0 25 10.5 49.5 t28.5 44t42 31t50 11.5q51 0 93 -42t42 -94q0 -27 -11 -50t-30.5 -41.5t-44 -29t-49.5 -10.5q-53 0 -92 39t-39 92z" />
<glyph unicode="j" horiz-adv-x="567" d="M-33 -449l8 11q41 0 73 7t63 42q47 43 60 109.5t15 152.5q0 12 1 51t2 90.5t1 109.5t1.5 109.5t1.5 90v53.5v68.5t-1.5 103.5t-2.5 109.5t-3 89.5q-2 23 -11 41t-15 24q-20 27 -52 31t-65 4l-8 8v70l8 6h104q47 0 101.5 1t95.5 7l72 10l10 -39q-4 -8 -6 -28.5t-3 -45 t-2 -47t-1 -36.5q0 -18 -1 -41t-2 -56.5t-1 -83v-118.5v-463q0 -123 -21.5 -213t-64.5 -151.5t-108.5 -98.5t-154.5 -55q-20 -4 -36.5 -5t-36.5 -1l-17 4zM154 1255q0 25 10 49.5t28.5 44t42 31t50.5 11.5q51 0 93 -42t42 -94q0 -27 -11.5 -50t-31 -41.5t-44 -29 t-48.5 -10.5q-53 0 -92 39t-39 92z" />
<glyph unicode="k" horiz-adv-x="1110" d="M29 0l4 70l6 8q33 0 64.5 3t48.5 19q16 14 21 37t9 64q2 23 3 46t2 54t1 74v104v451v142t-1 101.5t-2 76t-3 65.5q-2 23 -11 40t-15 25q-20 23 -50 28t-63 5l-8 8v68l8 8h102q47 0 100.5 1t94.5 7l74 11l12 -39q-4 -8 -7 -30t-4 -46.5t-2 -47t-1 -34.5q0 -33 -1 -61.5 t-2 -67.5t-2 -94.5t-1 -141.5v-391l217 203q23 23 22 43q0 33 -94 49l-8 8v66l8 8l78 -8t80 -4h125q35 0 69.5 4t69.5 8l6 -8v-70l-10 -10q-16 -4 -42 -10t-46 -19q-31 -18 -63 -42.5t-63.5 -53.5t-63.5 -58.5t-58 -54.5l-45 -41l266 -327q33 -41 61.5 -71t59.5 -50.5 t65.5 -32.5t81.5 -14l6 -8l5 -70l-5 -8q-51 -4 -111.5 -5t-121.5 -1q-45 0 -84 27.5t-68 62.5l-325 401l-12 -12q0 -70 2 -142.5t6 -121.5q2 -43 8 -64.5t22 -36.5q16 -16 46 -19t61 -3l10 -10l4 -68l-4 -8q-16 0 -45 2t-59.5 3t-60 2t-44.5 1h-110q-14 0 -44 -1t-62 -2 t-61.5 -3t-43.5 -2z" />
<glyph unicode="l" horiz-adv-x="610" d="M37 0l4 70l6 8q31 0 63.5 3t49.5 19q14 14 20 37t10 64q2 14 3.5 28.5t2.5 30.5t1 39v55v797v62.5t-1 40t-2 29.5t-4 32q-4 20 -12 38.5t-14 24.5q-20 27 -51 31t-64 4l-8 8v70l8 6h105q47 0 100 1t94 7l72 11l12 -39q-4 -8 -7 -25.5t-4 -37l-2 -39t-1 -32.5 q0 -16 -1 -29.5t-1 -30.5t-1 -44t-1 -65v-795q0 -41 1 -66.5t2 -44t2 -34t3 -33.5q4 -43 9 -64.5t22 -36.5q16 -16 45.5 -19t60.5 -3l10 -10l4 -68l-4 -8q-14 0 -42.5 2t-61.5 3t-61.5 2t-43.5 1h-110q-14 0 -44 -1t-61.5 -2t-61.5 -3t-44 -2z" />
<glyph unicode="m" horiz-adv-x="1974" d="M57 0l4 70l7 8q33 0 60.5 4t43.5 20q14 14 24.5 36t14.5 63q2 33 4 66.5t2 107.5v170v72.5t-1 52t-2 41t-3 39.5q-4 20 -12.5 38.5t-14.5 24.5q-20 27 -51 31t-63 4l-9 8v70l9 6h102q47 0 101.5 1t95.5 7l71 10l13 -39q-4 -10 -7.5 -27.5t-6.5 -38t-5 -40t-2 -33.5l6 -4 q23 41 52.5 79t68.5 65.5t88 44t113 16.5q113 0 202 -57.5t128 -159.5q23 37 53.5 75.5t71 70.5t93 51.5t117.5 19.5q63 0 123 -16.5t109 -51.5t84 -88t49 -129q10 -53 11 -112.5t1 -118.5v-256q0 -41 11.5 -59.5t21.5 -35.5q14 -20 46 -24t65 -4l8 -8l4 -70l-4 -8 q-37 4 -80 6t-84 2q-125 0 -225 -6l-15 41q6 27 11.5 69.5t7.5 75.5q2 27 3 70t3 87t3 82t1 58q0 41 -3 103.5t-13 105.5q-16 53 -61.5 81t-100.5 28q-53 0 -97 -15.5t-79 -38t-58.5 -51t-36.5 -53.5q4 -45 5.5 -90t1.5 -90v-256q0 -43 9 -63.5t25 -37.5q18 -16 46 -19 t59 -3l10 -10l4 -68l-4 -8q-14 0 -43 2t-61.5 3t-61 2t-43.5 1h-110q-14 0 -44 -1t-62 -2t-61.5 -3t-43.5 -2l-4 8l4 70l8 8q33 0 62.5 3t45.5 19q16 14 23.5 37t9.5 64q0 25 2 64.5t3 80.5t2 77t1 54v48t-2 56.5t-5 55.5t-9 49q-18 53 -62 81t-100 28q-68 0 -123 -22.5 t-95 -55.5t-61.5 -68t-21.5 -61v-189q0 -45 1 -73.5t2 -49t2 -38t3 -37.5q4 -43 18.5 -64.5t37.5 -40.5q16 -14 37.5 -16t46.5 -2l10 -10l4 -68l-4 -8q-14 0 -44 2t-61.5 3t-61.5 2t-44 1h-111q-14 0 -43.5 -1t-61.5 -2t-61.5 -3t-44.5 -2z" />
<glyph unicode="n" horiz-adv-x="1308" d="M57 0l4 70l7 8q33 0 58.5 3t41.5 19q14 14 26.5 37t16.5 64q2 14 3 28.5t2 30.5t1 39v55v211v65.5t-1 47t-2 37t-3 35.5q-4 20 -12.5 38.5t-14.5 24.5q-20 27 -51 31t-63 4l-9 8v70l9 6h104q47 0 101.5 1t95.5 7l71 10l13 -39q-16 -23 -19.5 -62.5t-3.5 -80.5l6 -4 q47 90 129 149.5t193 59.5q63 0 124.5 -16.5t112 -51.5t84 -89t43.5 -128q6 -53 7.5 -112.5t1.5 -118.5q2 -70 2 -128.5v-127.5q0 -47 11 -71t28 -32q23 -12 48 -16t58 -4l6 -8l4 -70l-4 -8q-43 4 -95 6t-101 2t-98.5 -1t-92.5 -5l-14 41q6 27 11 80t7 86q4 78 6 145.5 t2 120.5q0 47 -2 102.5t-14 96.5q-16 66 -66.5 97.5t-115.5 31.5q-61 0 -112.5 -22.5t-87.5 -54.5t-56.5 -67t-20.5 -61v-211v-66.5t1 -44t2 -34t3 -33.5q4 -43 17.5 -64.5t29.5 -36.5q16 -16 39 -19t54 -3l10 -10l4 -68l-4 -8q-14 0 -43 2t-61.5 3t-61.5 2t-43 1h-113 q-14 0 -43.5 -1t-61.5 -2t-61.5 -3t-44.5 -2z" />
<glyph unicode="o" horiz-adv-x="1153" d="M72 475q0 100 34.5 190.5t99 159t157.5 108.5t212 40q121 0 215.5 -42t159 -112.5t98 -163t33.5 -190.5q0 -94 -30.5 -182t-94 -156t-157.5 -109t-219 -41q-129 0 -225.5 43t-159 113t-93 159t-30.5 183zM315 479q0 -66 17.5 -129t51.5 -115.5t83.5 -84t110.5 -31.5 q63 0 111 29.5t81 77.5t48.5 110.5t15.5 128.5q0 63 -17.5 127.5t-51.5 116t-83 84t-113 32.5q-66 0 -113.5 -30.5t-78.5 -79.5t-46.5 -110.5t-15.5 -125.5z" />
<glyph unicode="p" horiz-adv-x="1277" d="M33 -526l4 69l10 8q31 0 60.5 3.5t46.5 21.5q16 12 21 34.5t9 63.5q2 35 3 65t2 66.5t2.5 89t1.5 136.5v350v138t-1.5 93t-3.5 70t-4 68q-2 23 -10 40t-14 23q-18 25 -49 30t-66 5l-8 8v70l8 6h37h57.5t68.5 1t69.5 2t60.5 5l72 10l12 -39q-6 -14 -8 -52t-2 -64l6 -4 q66 98 156 140t186 42q72 0 150.5 -25.5t143 -84t106.5 -154t42 -234.5q0 -94 -27.5 -183t-84 -159t-142.5 -113t-203 -43q-111 0 -195.5 55.5t-143.5 145.5l-7 -4q4 -35 5.5 -75t1.5 -115v-115t1 -82t2 -60.5t3 -52.5q4 -41 9 -63.5t21 -34.5q16 -16 51 -20.5t68 -4.5l6 -6 l4 -71l-2 -6q-14 0 -44.5 1t-63.5 2t-63.5 2t-45.5 1h-106q-14 0 -43 -1t-61.5 -2t-61.5 -2t-43 -1zM412 365q4 -27 23.5 -65t55 -74t89 -60.5t127.5 -24.5q68 0 116.5 30t80.5 77t46.5 108.5t14.5 124.5q0 61 -15.5 119.5t-46.5 105t-79 74t-113 27.5q-70 0 -124.5 -23.5 t-92 -57.5t-59 -71t-23.5 -63v-227z" />
<glyph unicode="q" horiz-adv-x="1269" d="M76 463q0 139 43 236.5t108.5 158t144.5 88t150 27.5q96 0 184.5 -42t153.5 -140l6 4q0 27 -6 64.5t-12 51.5l12 39l72 -10q27 -4 60.5 -5t68.5 -2t68.5 -1h58.5h37l8 -6v-70l-8 -8q-35 0 -66 -5t-49 -30q-6 -6 -14.5 -23.5t-10.5 -39.5q-2 -37 -4 -68t-3 -70t-1 -93 v-138v-350q0 -84 1 -136.5t2 -89t2 -66.5t3 -65q4 -41 9.5 -63.5t21.5 -34.5q16 -18 46 -21.5t61 -3.5l10 -8l4 -69l-4 -6q-14 0 -43 1t-61.5 2t-61.5 2t-43 1h-106q-14 0 -44 -1t-62 -2t-61.5 -2t-43.5 -1l-2 6l4 71l6 6q33 0 64.5 4.5t47.5 20.5q16 12 21.5 34.5t9.5 63.5 q2 27 3 52.5t2 60.5t1 82v115q0 76 1 115.5t5 74.5l-6 4q-59 -90 -144 -145.5t-196 -55.5q-117 0 -201.5 41t-139 109t-81 155t-26.5 181zM309 467q0 -61 15.5 -119.5t46 -104.5t79 -74t113.5 -28q70 0 124 23.5t92 57.5t59.5 71t23.5 63v228q-4 27 -23.5 64.5t-55 72.5 t-89 60.5t-127.5 25.5q-68 0 -117 -29.5t-80.5 -77t-46 -109t-14.5 -124.5z" />
<glyph unicode="r" horiz-adv-x="901" d="M57 0l4 70l7 8q35 0 65.5 3t46.5 19q16 14 23.5 37t11.5 78q2 25 2 66v114v150v72.5t-1 52t-2 41t-3 39.5q-4 20 -12.5 38.5t-14.5 24.5q-20 27 -51 31t-63 4l-9 8v70l9 6h36q45 0 117 1t125 7l72 10l12 -39q-12 -39 -17 -88t-5 -96l6 -2q20 39 45.5 82t58.5 80t75 61.5 t95 24.5q16 0 40 -3t47.5 -9.5t46 -14.5t34.5 -18l14 -13l-24 -221h-88q-6 25 -32 50.5t-79 25.5q-47 0 -86 -23.5t-67.5 -58.5t-45 -75t-16.5 -72v-142q0 -78 1 -116.5t3 -67.5q4 -45 11.5 -72.5t23.5 -42.5q8 -8 25.5 -13t36 -7t36 -2h27.5l10 -10l4 -68l-4 -8 q-12 0 -40.5 2t-61.5 3t-61.5 2t-41.5 1h-131q-14 0 -43.5 -1t-62.5 -2t-62.5 -3t-44.5 -2z" />
<glyph unicode="s" horiz-adv-x="874" d="M88 70l31 252h67l7 -9q0 -90 55 -142t164 -52q57 0 97 11t63.5 28.5t33.5 39t10 40.5q0 14 -2 30.5t-12 33.5t-30.5 34.5t-59.5 30.5l-197 49q-68 16 -110.5 47t-68 68.5t-35 80.5t-9.5 86q0 68 26.5 120t73 86t107.5 51.5t133 17.5q90 0 166 -21.5t117 -46.5l26 -24 l-22 -199h-64l-8 6q0 45 -23.5 75t-57.5 47t-70.5 24.5t-65.5 7.5q-82 0 -116.5 -35t-34.5 -78q0 -37 23.5 -71.5t90.5 -51.5l146 -33q86 -20 139 -55t80.5 -76t37 -84t9.5 -79q0 -66 -26.5 -121.5t-77 -95t-122 -62.5t-161.5 -23q-94 0 -176 19.5t-129 46.5z" />
<glyph unicode="t" horiz-adv-x="690" d="M76 829v91l8 8l106 28q0 66 -3 134.5t-7 134.5l15 12l28 2q14 0 40 2t54.5 5t54 7t38.5 9l18 -9q-10 -51 -16 -136t-6 -161l225 13l10 -8v-132l-10 -10h-225q0 -119 -1.5 -220t-1.5 -176t-1 -122t-1 -57q0 -80 31 -106.5t72 -26.5q31 0 69.5 6t65.5 16l12 -22l-20 -68 q-55 -31 -113.5 -48.5t-107.5 -17.5q-125 0 -178.5 57.5t-53.5 147.5q0 18 2 72.5t4 137.5t4 191.5t2 235.5h-106z" />
<glyph unicode="u" horiz-adv-x="1280" d="M27 856v70l6 6h100q47 0 100.5 1t94.5 7l71 10l13 -39q-4 -8 -6.5 -29.5t-4.5 -46t-2 -47v-34.5q0 -27 -1 -65t-2 -78t-2 -76.5t-1 -61.5q0 -53 4 -107.5t17 -99.5q20 -72 62 -105.5t118 -33.5q61 0 109.5 20.5t83 49t57 62.5t28.5 60v205q0 94 -3 145.5t-7 80.5 q-4 27 -11 43t-13 22q-23 25 -58 29t-55 4l-8 8v70l8 6h37h54t71 1t71.5 2t59.5 5l72 10l12 -39q-10 -59 -15 -155q-2 -51 -3 -83t-1 -52.5v-31.5v-22v-168q0 -113 7 -198q4 -39 10 -62.5t22 -38.5q18 -16 43 -19t60 -3l8 -8l4 -70l-4 -6q-39 4 -76 5t-86 1t-104.5 -1 t-106.5 -5l-12 41q6 23 13 60.5t11 76.5l-6 4q-55 -88 -137 -143.5t-207 -55.5q-57 0 -111.5 14.5t-98.5 45.5t-76.5 81t-47.5 122q-4 18 -7 40.5t-4 58.5t-2 88t-1 130v184q0 23 -10 45.5t-17 28.5q-20 25 -50.5 29t-63.5 4z" />
<glyph unicode="v" horiz-adv-x="1167" d="M-6 862v70l8 8q35 -4 74 -8t71 -4h162q31 0 75 4t81 8l8 -8v-66l-8 -8q-39 -4 -66.5 -23.5t-27.5 -54.5q0 -25 15 -77t36.5 -111.5t43 -116.5t34.5 -90l90 -246l102 248q12 31 32.5 82t41 107.5t35 108.5t14.5 85q0 53 -28.5 67.5t-67.5 20.5l-8 8v66l8 8q39 -8 73.5 -10 t65.5 -2h166q35 0 68.5 4t72.5 8l9 -8v-70l-13 -10q-35 -4 -60.5 -19.5t-47.5 -54.5q-25 -41 -63 -117.5t-75.5 -157.5t-67.5 -149.5t-40 -91.5l-111 -262l-211 -10l-20 10l-141 328q-16 37 -29.5 65.5t-32 67.5t-43 94t-61.5 145q-14 35 -20.5 48.5t-16.5 29.5 q-20 33 -46 51.5t-69 22.5z" />
<glyph unicode="w" horiz-adv-x="1787" d="M-6 862v70l8 8q35 -4 74 -8t71 -4h162q31 0 75 4t81 8l8 -8v-66l-8 -8q-39 -4 -66.5 -23.5t-27.5 -56.5q0 -25 17.5 -84t40 -124.5t44 -124t29.5 -78.5l90 -215l78 215q20 55 38.5 116.5t32 117.5t21.5 103.5t8 73.5q0 23 -12.5 37t-28.5 22.5t-33.5 11.5t-29.5 3l-13 10 v70l9 8q35 -4 73.5 -8t71.5 -4h162q31 0 74.5 4t80.5 8l9 -8v-66l-9 -8q-39 -4 -66.5 -23.5t-27.5 -56.5q0 -25 16.5 -84t37 -124.5t40 -124t27.5 -78.5l80 -215l82 215q14 37 35.5 90t41 110.5t33 112.5t13.5 98q0 45 -31 60.5t-66 19.5l-8 8v66l8 8q39 -8 74 -10t66 -2 h166q35 0 68.5 4t72.5 8l8 -8v-70l-12 -10q-35 -4 -60.5 -21.5t-48.5 -52.5q-35 -55 -72.5 -133t-71.5 -154.5t-59.5 -140t-33.5 -88.5l-99 -262l-211 -10l-24 8l-121 334q-25 66 -44 123t-46 123q-14 -41 -28.5 -82t-27 -76t-21.5 -61.5t-11 -34.5l-105 -324l-211 -10 l-20 10l-143 328q-10 20 -27.5 62t-39 93.5t-46.5 108.5t-49 108q-20 43 -41 78q-20 33 -46 51.5t-69 22.5z" />
<glyph unicode="x" horiz-adv-x="1148" d="M25 -4v70l10 12q76 0 130 40t101 105l191 258l-248 297q-27 31 -57.5 50.5t-77.5 23.5l-13 10v70l9 8q35 -4 76.5 -8t76.5 -4h160q33 0 75 4t83 8l8 -8v-66l-8 -8q-51 -10 -75 -22.5t-24 -34.5q0 -29 54 -111l94 -112q72 113 100.5 157.5t28.5 55.5q0 39 -16.5 49 t-63.5 18l-8 8v66l8 6q43 -6 69.5 -8t61.5 -2h164q35 0 68.5 4t74.5 8l8 -8v-70l-12 -4q-76 0 -130 -44t-99 -109l-160 -238l252 -295q25 -29 73 -56.5t113 -37.5l13 -10v-70l-9 -8q-35 4 -76.5 8t-76.5 4h-160q-33 0 -76 -4t-84 -8l-8 8v65l8 9q70 6 70 57q0 37 -39 82 l-133 158l-113 -160q-14 -23 -27.5 -43.5t-13.5 -40.5q0 -18 16.5 -32.5t57.5 -22.5l8 -9v-65l-8 -6q-43 6 -69.5 8t-61.5 2h-164q-35 0 -68.5 -4t-74.5 -8z" />
<glyph unicode="y" horiz-adv-x="1167" d="M-6 862v70l8 8q35 -4 74 -8t71 -4h162q31 0 75 4t81 8l8 -8v-66l-8 -8q-39 -4 -66.5 -23.5t-27.5 -56.5q0 -25 17.5 -81t41 -119.5t45 -117.5t27.5 -73l88 -248l102 248q14 33 35 83t40 105.5t33.5 108.5t14.5 94q0 45 -30.5 60.5t-65.5 19.5l-8 8v66l8 8q39 -8 73.5 -10 t65.5 -2h166q35 0 68.5 4t72.5 8l9 -8v-70l-13 -10q-35 -4 -60.5 -20.5t-47.5 -53.5q-31 -49 -69 -126t-74 -154.5t-64.5 -141t-36.5 -88.5l-201 -506q-25 -61 -64.5 -111t-91 -87t-108.5 -60.5t-117 -31.5q-16 -4 -37.5 -4h-62.5l-14 4l-7 104l9 10h28q25 0 53.5 5.5 t55.5 19.5q59 29 109.5 82t68.5 102l57 154l-163 375q-10 23 -33 80t-51.5 125.5t-60.5 136t-58 112.5q-20 33 -46 51.5t-69 22.5z" />
<glyph unicode="z" horiz-adv-x="1015" d="M66 8v29q27 27 66.5 80t86.5 120.5t97.5 144.5t94.5 150.5t77.5 140t52.5 113.5l-9 9h-153q-61 0 -97 -7.5t-55.5 -25t-26.5 -44t-14 -65.5l-8 -8h-76l-14 10l16 277l7 12q86 -4 165.5 -7t144 -4t111 -1h64.5h174q18 0 60 3t77 9l13 -16l-7 -33q-23 -27 -60.5 -77 t-81.5 -115.5t-92 -140.5t-94 -147.5t-84 -139t-63 -115.5l8 -8h64q106 0 166.5 4t94.5 19t49.5 47t33.5 87l6 8h86l-33 -305l-10 -20q-6 0 -39 1t-81 1t-104 2t-106.5 2t-87 1t-49.5 1h-65q-23 0 -61 -1t-81 -2t-84 -2t-65 -3z" />
<glyph unicode="{" horiz-adv-x="593" d="M55 639v61q55 2 85 31t44.5 70t16.5 86t2 82q0 31 -1 72.5t-1 84.5t-1 80t-1 60q0 63 11 117.5t45 92t95.5 59t163.5 21.5l4 -63q-39 -4 -61.5 -20.5t-33.5 -42t-14 -57.5t-3 -68q0 -18 1 -57.5t1 -82.5t1 -85t1 -68q0 -63 -12.5 -119.5t-44 -102t-85 -77t-133.5 -43.5 q80 -12 133.5 -44t85 -77t44 -101.5t12.5 -119.5q0 -27 -1 -69t-1 -85t-1 -82t-1 -57q0 -37 3 -69t14 -57.5t33.5 -42t61.5 -20.5l-4 -63q-102 0 -163.5 21.5t-95.5 59.5t-45 91t-11 119q0 23 1 61.5t1 82.5t1 87t1 72q0 37 -3 82t-16.5 84t-43 66.5t-85.5 29.5z" />
<glyph unicode="|" horiz-adv-x="550" d="M154 -225q16 137 20 302t4 316v631v117.5t-3 140.5t-8 146.5t-13 136.5l2 8h237l4 -8q-10 -63 -14 -136t-7 -147t-3 -140.5v-117.5v-631q0 -152 4 -316.5t20 -301.5l-4 -8h-237z" />
<glyph unicode="}" horiz-adv-x="593" d="M76 -154q39 4 61.5 20.5t33.5 42t14 57.5t3 69q0 18 -1 57t-1 82t-1 85t-1 69q0 63 12.5 119.5t44 101.5t85 76.5t133.5 44.5q-80 12 -133.5 43.5t-85 77t-44 101.5t-12.5 120q0 27 1 68.5t1 84.5t1 82t1 58q0 37 -3 68.5t-14 57t-33.5 42t-61.5 20.5l4 63 q102 0 163.5 -21.5t95.5 -59t45 -92t11 -117.5q0 -23 -1 -60t-1 -80t-1 -85t-1 -72q0 -37 2 -82t16.5 -86t44 -70t85.5 -31v-61q-55 -2 -85 -29.5t-43.5 -66.5t-16.5 -84t-3 -82q0 -29 1 -72t1 -87t1 -83t1 -61q0 -66 -11 -119t-45 -91t-95.5 -59.5t-163.5 -21.5z" />
<glyph unicode="~" horiz-adv-x="1001" d="M127 403q0 20 14.5 53t41 66t64.5 56.5t87 23.5q27 0 71 -3t94 -6t103 -6t98 -3q35 0 71 8t63 45l45 -37q0 -8 -11.5 -40t-36 -67.5t-62.5 -63.5t-91 -28q-23 0 -74 3.5t-111.5 6.5t-117 6t-88.5 3q-51 0 -71.5 -12.5t-41.5 -38.5z" />
<glyph unicode="&#xa1;" horiz-adv-x="501" d="M115 -362q2 20 4 47.5t6 73.5t8 117t8 176.5t9.5 254t9.5 350.5l12 9l154 -54l10 -14q6 -213 11 -363.5t10 -253t9.5 -165t7.5 -100.5t5 -60.5t2 -44.5q0 -10 1 -25.5t1 -34.5l-10 -6l-250 74zM117 842q0 53 39 92t92 39q25 0 49.5 -10.5t43.5 -29t30.5 -42t11.5 -49.5 q0 -51 -42 -93t-93 -42q-27 0 -50.5 11t-42 30.5t-28.5 44t-10 49.5z" />
<glyph unicode="&#xa2;" horiz-adv-x="1054" d="M84 410q0 104 30.5 187t86 142.5t129 96t159.5 51.5q-2 76 -7 149.5t-13 137.5l2 8h238l4 -8q-10 -63 -14.5 -136t-8.5 -147q78 -10 146.5 -28.5t103.5 -39.5l6 -18l-22 -219h-64l-8 6q0 47 -27.5 76.5t-66.5 46t-83 22.5t-77 6q-72 0 -125 -26.5t-88 -71.5t-52.5 -104.5 t-17.5 -122.5q0 -57 19.5 -110.5t58.5 -93.5t99.5 -64.5t142.5 -24.5q70 0 147.5 14.5t139.5 46.5l34 -49l-30 -57q-35 -25 -97.5 -51.5t-138.5 -40.5q4 -70 8 -136.5t15 -127.5l-4 -9h-238l-2 9q8 59 12 125.5t8 136.5q-84 12 -157.5 48t-129 91t-87 127t-31.5 158z" />
<glyph unicode="&#xa3;" horiz-adv-x="1079" d="M88 23v47q68 53 112 104t68.5 103.5t34.5 104.5t10 107v15.5t-2 17.5h-209l41 148h160q-10 66 -19.5 134t-9.5 132q0 197 94.5 311.5t268.5 114.5q43 0 92 -10.5t95 -34t86 -63.5t65 -97l-27 -207h-96l-8 8q-10 117 -50 175.5t-132 58.5q-82 0 -112 -66.5t-30 -171.5 q0 -59 7.5 -132.5t11.5 -151.5h223l-21 -148h-198q0 -66 -8.5 -126t-29 -112.5t-55 -92t-88.5 -62.5l5 -6q145 -25 218.5 -29t96.5 -4q49 0 79 6t47 19.5t25.5 35t18.5 52.5l10 12h96l-75 -315l-19 -21q-45 25 -133 43.5t-195.5 28.5t-220 15t-206.5 5z" />
<glyph unicode="&#xa4;" horiz-adv-x="1220" d="M102 856l113 113l150 -146q61 41 119.5 60.5t123.5 19.5q68 0 126.5 -19.5t115.5 -60.5l149 146l113 -111l-145 -149q41 -59 60.5 -118t19.5 -124q0 -66 -18.5 -122t-59.5 -116l149 -147l-114 -113l-152 146q-113 -82 -240 -82q-63 0 -120.5 19.5t-122.5 62.5l-150 -146 l-110 113l145 147q-80 104 -80 242q0 63 18.5 120.5t63.5 117.5zM338 469q0 -57 21.5 -107.5t58.5 -87t87 -58t107 -21.5t106.5 21.5t86.5 58t57.5 87t20.5 107.5t-20.5 107.5t-57.5 87t-87.5 58t-107.5 21.5q-55 0 -105 -21.5t-87 -58t-58.5 -87t-21.5 -107.5z" />
<glyph unicode="&#xa5;" horiz-adv-x="1519" d="M72 1266v77l10 9q51 -6 92 -11.5t90 -5.5h168q47 0 109.5 5.5t120.5 11.5l8 -9v-77l-8 -9q-41 -2 -72 -7t-49 -17q-20 -14 -21 -37q0 -12 5 -24.5t12 -22.5l243 -387l230 354q20 35 20 72q0 25 -14.5 37t-36 18t-47 8t-47.5 9l-8 8v78l8 8q59 -10 98 -11.5t90 -1.5h180 q49 0 90 2.5t99 10.5l8 -8v-78l-8 -8q-47 -6 -80 -16.5t-59.5 -29t-52 -47t-56.5 -71.5q-72 -102 -118 -172t-81 -123h238l-33 -168h-307q-8 -16 -15.5 -42t-7.5 -50v-56h351l-33 -168h-318l7 -98q4 -57 19 -79.5t32 -37.5q16 -14 46 -17t62 -3l11 -8l6 -78l-4 -8 q-14 0 -47 2t-68 4t-67.5 4t-47.5 2h-121q-14 0 -47 -2t-68.5 -4t-68.5 -4t-47 -2l-2 8l4 78l10 8q31 0 60.5 3t48.5 17q18 14 32.5 37t18.5 80q2 16 3 40t1 58h-352l31 168h323v27q0 39 -8 68.5t-21 52.5h-313l31 168h178q-53 82 -112.5 167t-118.5 173q-14 23 -33 44 t-33 34q-23 18 -54.5 26t-72.5 12z" />
<glyph unicode="&#xa6;" horiz-adv-x="559" d="M158 -225q8 68 12 117t7 91t4 82.5t1 94.5v65v59.5t-3 68.5t-8 87t-13 113l2 8h237l4 -8q-10 -63 -14 -112.5t-7 -87.5t-3 -68.5v-59.5v-65q0 -53 1 -94t3 -83t7 -91.5t13 -116.5l-4 -8h-237zM158 786q8 68 12 117t7 91t4 83t1 94v68v59.5t-3 68.5t-8 86t-13 112l2 8h237 l4 -8q-10 -63 -14 -111.5t-7 -86.5t-3 -68.5v-59.5v-68q0 -53 1 -94t3 -83t7 -91t13 -117l-4 -8h-237z" />
<glyph unicode="&#xa7;" horiz-adv-x="897" d="M88 752q0 70 38 132t103 115q-16 35 -20 63t-4 52q0 63 24.5 124.5t68.5 108t106.5 75t140.5 28.5q43 0 89 -18.5t81 -63.5l4 -16l-101 -185h-10q-25 55 -73 86t-95 31q-31 0 -55.5 -15.5t-24.5 -45.5q0 -49 24 -92.5t61.5 -84t82.5 -80.5t88 -81q49 -47 86 -84t61.5 -73 t37 -74t12.5 -83q0 -70 -46 -133t-112 -116q16 -35 20.5 -62t4.5 -51q0 -63 -21.5 -122.5t-60.5 -106t-94 -75t-123 -28.5q-53 0 -110.5 27.5t-100.5 91.5l-4 16l121 144h10q23 -59 64.5 -88t82.5 -29q31 0 55.5 15.5t24.5 45.5q0 49 -23.5 92.5t-61.5 84t-83 80.5t-88 81 q-49 45 -83.5 83t-56.5 74t-31 73t-9 84zM246 815q0 -41 10 -63.5t46 -57.5t101.5 -95t176.5 -173q27 27 43 49.5t16 32.5q0 39 -11.5 62.5t-46 57.5t-101 93t-177.5 174q-25 -25 -41 -47.5t-16 -32.5z" />
<glyph unicode="&#xa8;" horiz-adv-x="450" d="M-72 1249q0 25 10.5 49.5t29 44t42 30.5t49.5 11q51 0 93.5 -42t42.5 -93q0 -27 -11.5 -50t-31 -41.5t-44 -29t-49.5 -10.5q-53 0 -92 39t-39 92zM256 1249q0 25 10 49.5t28.5 44t42 30.5t50.5 11q51 0 93 -42t42 -93q0 -27 -11 -50t-30.5 -41.5t-44 -29t-49.5 -10.5 q-53 0 -92 39t-39 92z" />
<glyph unicode="&#xa9;" horiz-adv-x="1468" d="M113 725q0 127 48 238.5t133 195.5t197.5 132t241.5 48t243 -48t197.5 -132t133 -195.5t49.5 -238.5q0 -129 -49.5 -242.5t-134.5 -196.5t-200.5 -131.5t-248.5 -48.5q-125 0 -236.5 49.5t-194.5 133.5t-131 196.5t-48 239.5zM246 725q0 -102 38 -193.5t103.5 -159 t152.5 -106.5t185 -39q104 0 195.5 39t158 105.5t105.5 158t39 195.5q0 102 -39 192.5t-105.5 157t-156 105.5t-189.5 39t-189 -39t-154.5 -105.5t-104.5 -157t-39 -192.5zM385 723q0 74 22.5 138.5t67.5 112.5t112.5 75.5t155.5 27.5q41 0 109 -15t129 -38l2 -14l-16 -164 h-97l-12 10q-6 53 -47 69.5t-88 16.5q-29 0 -68 -14.5t-57 -42.5q-18 -25 -30.5 -65t-12.5 -93q0 -104 59.5 -159.5t139.5 -55.5q41 0 91 8t105 49l19 -61l-15 -68q-51 -29 -105 -46t-110 -17q-80 0 -145.5 25.5t-111.5 70.5t-71.5 108.5t-25.5 141.5z" />
<glyph unicode="&#xaa;" horiz-adv-x="774" d="M100 924q0 72 44 110.5t101.5 56t115 20.5t83.5 3q-2 43 -10 68.5t-22.5 39t-34 16.5t-41.5 3q-14 0 -32.5 -2t-36 -9t-30 -19.5t-14.5 -32.5l-4 -7h-53l-10 115l4 8q6 6 25.5 15.5t47 17.5t61.5 14.5t66 6.5q227 0 228 -187q0 -47 -1 -82t-1 -64.5t-1 -57t-1 -60.5 q0 -47 24.5 -55t59.5 -8l4 -68q-23 2 -46.5 3t-52.5 1q-35 0 -70.5 -1t-64.5 -1l-8 8q4 12 6 24.5t2 24.5l-4 6q-63 -76 -168 -75q-76 0 -121 45t-45 123zM231 932q0 -41 17.5 -58.5t40.5 -17.5q55 0 86 17.5t49 37.5q4 6 9 15.5t5 19.5l6 90q-43 0 -81.5 -3t-67.5 -14 t-46.5 -31.5t-17.5 -55.5z" />
<glyph unicode="&#xab;" horiz-adv-x="1087" d="M80 492q51 63 91 114t71.5 93t57.5 79t50 76l15 8h200l10 -20q-90 -90 -155.5 -173t-130.5 -177q66 -92 131 -175.5t155 -173.5l-10 -20h-200l-15 8q-25 39 -50.5 76t-57 79t-71.5 92t-91 114zM489 492q51 63 91.5 114t72 93t57 79t50.5 76l14 8h201l10 -20 q-90 -90 -155.5 -173t-131.5 -177q66 -92 131.5 -175.5t155.5 -173.5l-10 -20h-201l-14 8q-25 39 -50.5 76t-57 79t-71.5 92t-92 114z" />
<glyph unicode="&#xac;" horiz-adv-x="1277" d="M145 530v168h983v-458h-190v290h-793z" />
<glyph unicode="&#xad;" horiz-adv-x="958" d="M127 406l31 167h673l-32 -167h-672z" />
<glyph unicode="&#xae;" horiz-adv-x="1468" d="M113 725q0 127 48 238.5t133 195.5t197.5 132t241.5 48t243 -48t197.5 -132t133 -195.5t49.5 -238.5q0 -129 -49.5 -242.5t-134.5 -196.5t-200.5 -131.5t-248.5 -48.5q-125 0 -236.5 49.5t-194.5 133.5t-131 196.5t-48 239.5zM246 725q0 -102 38 -193.5t103.5 -159 t152.5 -106.5t185 -39q104 0 195.5 39t158 105.5t105.5 158t39 195.5q0 102 -39 192.5t-105.5 157t-156 105.5t-189.5 39t-189 -39t-154.5 -105.5t-104.5 -157t-39 -192.5zM426 412v63q33 2 50.5 12.5t25.5 30t9 49t1 72.5v246q0 53 -14.5 92t-71.5 43v70h279 q72 0 120.5 -17.5t78.5 -45.5t43.5 -64.5t13.5 -73.5q0 -47 -9.5 -80t-25 -55.5t-35 -37t-39.5 -24.5q25 -37 51.5 -75.5t54 -70.5t56 -53.5t55.5 -21.5v-59q-33 -4 -42 -4h-26q-35 0 -59 8t-49 29.5t-53.5 59.5t-71.5 97l-39 55h-80q0 -109 16.5 -146.5t69.5 -37.5l4 -61 h-313zM649 780q0 -20 9.5 -23t19.5 -3h41q53 0 81.5 41t28.5 86q0 49 -31.5 79.5t-76.5 30.5h-72v-211z" />
<glyph unicode="&#xb0;" horiz-adv-x="755" d="M98 1083q0 55 18.5 103.5t53.5 84.5t87 57.5t120 21.5q70 0 123 -21.5t88 -59.5t53 -87t18 -105q0 -51 -17 -98t-52 -82t-88 -56.5t-125 -21.5q-74 0 -127 21.5t-87 58.5t-49.5 85t-15.5 99zM246 1085q0 -59 32.5 -101t98.5 -42t98.5 39t32.5 96t-33 100.5t-100 43.5 q-68 0 -98.5 -41t-30.5 -95z" />
<glyph unicode="&#xb1;" horiz-adv-x="946" d="M141 82l25 170h635l-27 -170h-633zM147 580l19 170h213v182h188v-182h234l-21 -170h-213v-205h-188v205h-232z" />
<glyph unicode="&#xb2;" horiz-adv-x="774" d="M119 653v45q39 45 101.5 106.5t121.5 127t102 128t43 109.5q0 43 -30.5 71t-75.5 28q-78 0 -114 -38t-40 -100h-77l-13 111q16 23 39 46.5t53.5 42t71.5 29.5t94 11q117 0 173.5 -55t56.5 -144q0 -43 -22.5 -88t-56.5 -89t-74 -83t-73.5 -72.5t-56.5 -59t-23 -40.5h109 q43 0 73.5 2t50 13.5t31 35t17.5 66.5h59l-18 -225l-10 -10q-6 0 -39 1t-72 2t-74.5 2t-50.5 1h-151q-25 0 -55.5 -2t-59.5 -4z" />
<glyph unicode="&#xb3;" horiz-adv-x="722" d="M104 735l13 90h84q8 -61 50 -88.5t93 -27.5q59 0 106.5 34.5t47.5 94.5q0 57 -34 96t-102 39h-86l13 84q88 2 130 40t42 81q0 41 -35 66.5t-80 25.5t-85 -26.5t-40 -72.5q0 -14 2 -20h-86l-10 90q12 20 29.5 43t44 41t63.5 29.5t90 11.5q55 0 99.5 -15.5t75 -41t46 -59 t15.5 -68.5q0 -45 -21.5 -87t-74.5 -71q72 -16 102.5 -65.5t30.5 -108.5q0 -43 -19.5 -86t-56.5 -78t-89 -56.5t-118 -21.5q-86 0 -142.5 34t-97.5 93z" />
<glyph unicode="&#xb4;" horiz-adv-x="448" d="M-12 1171l6 15l371 207q57 -4 84.5 -42t27.5 -91q0 -20 -8 -39l-412 -158l-16 6z" />
<glyph unicode="&#xb5;" horiz-adv-x="1353" d="M98 856v70l6 6h105q47 0 100 1t94 7l72 10l12 -18q-4 -8 -6 -29.5t-4 -46.5t-2 -47.5v-34.5q0 -29 -1 -62.5t-2 -67.5t-2 -64.5t-1 -53.5q0 -45 3 -100t11 -98q18 -96 71.5 -143.5t121.5 -47.5q45 0 85 18.5t68.5 46t48 59.5t25.5 58v226v72.5t-1 51t-3 40t-4 41.5 q-4 23 -11 41t-14 22q-20 27 -51 31t-63 4l-8 8v70l8 6h37h58.5t69 1t70.5 2t62 5l71 10l13 -18q-4 -8 -6.5 -29.5t-4.5 -46.5t-2 -47.5v-34.5q0 -16 -1 -30.5t-1 -35t-1 -48t-1 -72.5v-189q0 -45 1 -73.5t2 -49t2 -38t1 -37.5q4 -47 10.5 -68.5t20.5 -32.5q16 -16 48 -19 t65 -3l8 -8l4 -70l-4 -8q-37 4 -80 6t-84 2q-59 0 -115.5 -1t-107.5 -5l-12 20q6 27 12 52.5t10 70.5q-41 -86 -105.5 -123t-156.5 -37q-25 0 -56.5 4.5t-61 15.5t-54.5 28.5t-37 42.5l-6 -5q-14 -121 -22.5 -191.5t-24.5 -127.5l-10 -12h-19q-78 0 -131 12t-82 39v12 q29 51 50.5 120t34.5 137.5t20.5 130t7.5 102.5v159q0 39 -1 87.5t-2 92.5t-2 77.5t-1 48.5q0 25 -6.5 40t-16.5 25q-23 23 -52.5 28t-62.5 5z" />
<glyph unicode="&#xb6;" horiz-adv-x="1269" d="M74 930q0 98 32.5 175t85 129t117 79.5t127.5 27.5h49t66 -1t69.5 -1h61.5h272q20 0 48 2t53.5 4.5t49 4.5t38.5 2l4 -9l-6 -77l-11 -9q-33 0 -45 -6t-22 -16q-16 -14 -29.5 -34.5t-21.5 -80.5q-4 -35 -5 -77t-1 -119v-451v-142t1 -157t2 -134t3 -73q6 -53 20.5 -79.5 t30.5 -39.5q10 -14 30.5 -17t36.5 -3l11 -6l6 -78l-4 -8q-14 2 -47 3t-68 3t-67.5 3t-47.5 1h-217q-16 0 -54 -1t-81 -3t-81 -3t-54 -3l-4 8l6 78l10 6q33 0 45.5 5t22.5 17q16 10 29.5 34t21.5 83q2 16 4 70.5t3 122t2 134t1 109.5v99q-74 4 -161 24.5t-160.5 67.5 t-122.5 128t-49 208zM705 -106l4 -9h161l4 9q-8 51 -12 90t-6 75.5t-2 77.5v96v519q0 90 2 208.5t18 231.5l-4 8h-161l-4 -8q14 -113 16 -231.5t2 -208.5v-519q0 -66 -1 -110.5t-2 -80.5t-5 -69.5t-10 -78.5z" />
<glyph unicode="&#xb7;" horiz-adv-x="522" d="M129 500q0 25 10.5 49t28.5 43.5t41.5 31t50.5 11.5q51 0 93 -42t42 -93q0 -27 -11 -50.5t-30.5 -42t-44 -28.5t-49.5 -10q-53 0 -92 39t-39 92z" />
<glyph unicode="&#xb8;" horiz-adv-x="413" d="M0 -365l27 78h14q25 -6 63.5 -18t77.5 -12q45 0 78 11t33 46q0 37 -32 50t-75 13q-25 0 -50 -4t-48 -10l-18 53l104 158h111l-52 -80q6 2 15.5 3t13.5 1q86 0 134 -48t48 -120q0 -37 -19 -71.5t-53 -61t-81 -43t-103 -16.5q-49 0 -97 16.5t-89 42.5z" />
<glyph unicode="&#xb9;" horiz-adv-x="614" d="M117 1145v84l2 8q72 27 134 54.5t122 70.5h8l29 -10q-6 -66 -7.5 -138.5t-1.5 -173.5v-112v-71v-47t1.5 -33.5t3.5 -33.5q2 -27 11 -40t19 -19q10 -8 34 -13t42 -5l6 -58q-10 0 -26.5 1t-36 2t-37 1h-25.5h-131h-27.5t-37 -1t-37 -2t-25.5 -1l6 58q18 0 43 4t37 14 q10 8 17.5 21.5t11.5 37.5q2 14 3 26.5t1 30v41v58.5v137v56.5v36t-1 25.5t-3 26z" />
<glyph unicode="&#xba;" horiz-adv-x="757" d="M94 1051q0 61 19.5 114.5t56.5 94t89 64.5t118 24q70 0 123 -25t90 -67t55.5 -97t18.5 -115q0 -55 -17.5 -107t-53.5 -92t-89 -64.5t-125 -24.5q-74 0 -127 24.5t-88 66.5t-52.5 95t-17.5 109zM233 1053q0 -35 10.5 -68t29 -59.5t45 -42t61.5 -15.5q70 0 105.5 53.5 t35.5 122.5q0 35 -9 68t-27.5 59.5t-46 42t-64.5 15.5q-72 0 -106 -54.5t-34 -121.5z" />
<glyph unicode="&#xbb;" horiz-adv-x="1087" d="M102 143q88 90 155 173t132 176q-66 94 -131 177t-156 173l11 20h200l15 -8q25 -39 50 -76t57 -79t72 -93t91 -114q-51 -63 -91 -113.5t-72 -92.5t-57.5 -79t-49.5 -76l-15 -8h-200zM512 143q88 90 154.5 173t132.5 176q-66 94 -131.5 177t-155.5 173l10 20h201l14 -8 q25 -39 50.5 -76t57.5 -79t71.5 -93t91.5 -114q-51 -63 -91 -113.5t-72 -92.5t-57.5 -79t-50.5 -76l-14 -8h-201z" />
<glyph unicode="&#xbc;" horiz-adv-x="1540" d="M109 1145v84l2 8q72 27 134 54.5t122 70.5h8l28 -10q-6 -66 -7 -138.5t-1 -173.5v-112v-71v-47t1 -33.5t3 -33.5q2 -27 11.5 -40t19.5 -19q10 -8 33.5 -13t42.5 -5l6 -58q-10 0 -26.5 1t-36 2t-37 1h-25.5h-131h-27.5t-37 -1t-37 -2t-25.5 -1l6 58q18 0 43 4t37 14 q10 8 17.5 21.5t11.5 37.5q2 14 3 26.5t1 30v41v58.5v137v56.5v36t-1 25.5t-3 26zM182 39l2 8q57 68 106.5 129.5t97.5 122.5t96 127l104 143l246 338q76 104 157.5 219t153.5 244l10 8h238l-2 -8q-102 -115 -183.5 -222.5t-150.5 -203.5l-273 -375q-55 -78 -102 -143.5 t-89 -126.5t-81 -122.5t-82 -129.5l-10 -8h-238zM854 281l315 448l170 16l15 -10q0 -16 -1 -35.5t-3 -61.5t-3 -114.5t-1 -193.5h94l-17 -107h-77q0 -49 2 -81.5t11 -53t30.5 -29t58.5 -8.5l4 -55q-16 0 -56 2t-57 2h-129q-8 0 -25.5 -1t-36 -1t-35.5 -1t-26 -1l7 55 q41 0 63.5 9.5t32.5 29t12 52t2 81.5h-327l-11 6zM993 330h211q0 123 -1 186.5t-3 95.5z" />
<glyph unicode="&#xbd;" horiz-adv-x="1587" d="M109 1145v84l2 8q72 27 134 54.5t122 70.5h8l28 -10q-6 -66 -7 -138.5t-1 -173.5v-112v-71v-47t1 -33.5t3 -33.5q2 -27 11.5 -40t19.5 -19q10 -8 33.5 -13t42.5 -5l6 -58q-10 0 -26.5 1t-36 2t-37 1h-25.5h-131h-27.5t-37 -1t-37 -2t-25.5 -1l6 58q18 0 43 4t37 14 q10 8 17.5 21.5t11.5 37.5q2 14 3 26.5t1 30v41v58.5v137v56.5v36t-1 25.5t-3 26zM182 39l2 8q57 68 106.5 129.5t97.5 122.5t96 127l104 143l246 338q76 104 157.5 219t153.5 244l10 8h238l-2 -8q-102 -115 -183.5 -222.5t-150.5 -203.5l-273 -375q-55 -78 -102 -143.5 t-89 -126.5t-81 -122.5t-82 -129.5l-10 -8h-238zM958 27v45q39 45 101.5 106.5t122 127t102.5 128t43 109.5q0 43 -30.5 70.5t-75.5 27.5q-78 0 -114 -38t-40 -99h-78l-12 110q16 23 38.5 46.5t53.5 42t72 29.5t94 11q117 0 173 -55t56 -143q0 -45 -22.5 -89t-56 -88 t-73.5 -83t-74 -73t-56.5 -59.5t-22.5 -39.5h109q43 0 73.5 2t50 13t31 34.5t17.5 66.5h59l-18 -225l-11 -10q-6 0 -38.5 1t-71.5 2t-75 2t-50 1h-152q-25 0 -55.5 -2t-58.5 -4z" />
<glyph unicode="&#xbe;" horiz-adv-x="1589" d="M98 735l13 90h84q8 -61 50 -88.5t93 -27.5q59 0 106.5 34.5t47.5 94.5q0 57 -34 96t-102 39h-86l13 84q88 2 130 40t42 81q0 41 -35 66.5t-80 25.5t-85 -26.5t-40 -72.5q0 -12 2 -20h-86l-10 90q12 20 29.5 43t44 41t63.5 29.5t90 11.5q55 0 99.5 -15.5t75 -41t46 -59 t15.5 -68.5q0 -45 -21.5 -87t-75.5 -71q72 -16 103 -65.5t31 -108.5q0 -43 -19.5 -86t-56.5 -78t-89.5 -56.5t-117.5 -21.5q-86 0 -142.5 34t-97.5 93zM199 39l2 8q57 68 106 129.5t97.5 122.5t96.5 127t103 143l246 338q76 104 158 219t153 244l10 8h238l-2 -8 q-102 -115 -183 -222.5t-151 -203.5l-272 -375q-55 -78 -102.5 -143.5t-89.5 -126.5t-81 -122.5t-82 -129.5l-10 -8h-237zM909 281l316 448l170 16l14 -10q0 -16 -1 -35.5t-3 -61.5t-3 -114.5t-1 -193.5h94l-16 -107h-78q0 -49 2 -81.5t11 -53t30.5 -29t58.5 -8.5l4 -55 q-16 0 -56 2t-56 2h-129q-8 0 -25.5 -1t-36 -1t-36 -1t-25.5 -1l6 55q41 0 63.5 9.5t32.5 29t12.5 52t2.5 81.5h-328l-10 6zM1049 330h211q0 123 -1.5 186.5t-3.5 95.5z" />
<glyph unicode="&#xbf;" horiz-adv-x="854" d="M86 -125q0 63 21.5 121.5t54.5 113t70.5 103.5t71.5 95t57.5 87t25.5 78l8 86l13 14l133 33l12 -8q2 -41 4 -88t2 -70q0 -82 -40 -152.5t-87 -140t-87 -144.5t-40 -163q0 -76 41 -110.5t82 -34.5q49 0 91 16.5t73 45t49 66.5t25 81l4 6h78l24 -211l-4 -18 q-20 -35 -60 -59.5t-89.5 -41t-101.5 -25t-95 -8.5t-101.5 14.5t-110.5 51.5t-88 100.5t-36 161.5zM340 844q0 27 11 50.5t30.5 41.5t44.5 28.5t49 10.5q53 0 92 -39t39 -92q0 -25 -10 -49.5t-28.5 -44t-42 -30.5t-50.5 -11q-51 0 -93 42t-42 93z" />
<glyph unicode="&#xc0;" d="M-35 -4l4 78l11 8q27 0 53 4t53 18.5t52.5 40t51.5 66.5q6 12 18.5 37.5t39 91.5t74 186.5t124.5 321.5l177 452l145 62h23l352 -930q18 -51 32.5 -86t23.5 -59.5t16.5 -40t13.5 -27.5q25 -51 50.5 -78.5t51 -41t52 -15.5t53.5 -2l10 -8l6 -78l-4 -8q-14 0 -43 2t-59.5 4 t-58 4t-42.5 2h-149q-14 0 -47 -2t-69 -4t-68.5 -4t-47.5 -2l-4 8l6 78l8 8q53 0 81 13.5t28 72.5q0 33 -11 93.5t-52 150.5l-43 98h-359l-41 -98q-37 -90 -55.5 -153.5t-18.5 -90.5q0 -49 20.5 -67.5t74.5 -18.5l10 -8l6 -78l-4 -8q-14 0 -45 2t-64.5 4t-64.5 4t-45 2h-121 q-14 0 -43 -2t-59.5 -4t-58 -4t-42.5 -2zM436 1608q0 53 28 91t85 42l371 -207l6 -14l-54 -103l-16 -6l-412 158q-8 18 -8 39zM553 659h268l-131 363z" />
<glyph unicode="&#xc1;" d="M-35 -4l4 78l11 8q27 0 53 4t53 18.5t52.5 40t51.5 66.5q6 12 18.5 37.5t39 91.5t74 186.5t124.5 321.5l177 452l145 62h23l352 -930q18 -51 32.5 -86t23.5 -59.5t16.5 -40t13.5 -27.5q25 -51 50.5 -78.5t51 -41t52 -15.5t53.5 -2l10 -8l6 -78l-4 -8q-14 0 -43 2t-59.5 4 t-58 4t-42.5 2h-149q-14 0 -47 -2t-69 -4t-68.5 -4t-47.5 -2l-4 8l6 78l8 8q53 0 81 13.5t28 72.5q0 33 -11 93.5t-52 150.5l-43 98h-359l-41 -98q-37 -90 -55.5 -153.5t-18.5 -90.5q0 -49 20.5 -67.5t74.5 -18.5l10 -8l6 -78l-4 -8q-14 0 -45 2t-64.5 4t-64.5 4t-45 2h-121 q-14 0 -43 -2t-59.5 -4t-58 -4t-42.5 -2zM451 1520l6 14l370 207q57 -4 85 -42t28 -91q0 -20 -8 -39l-412 -158l-16 6zM553 659h268l-131 363z" />
<glyph unicode="&#xc2;" d="M-35 -4l4 78l11 8q27 0 53 4t53 18.5t52.5 40t51.5 66.5q6 12 18.5 37.5t39 91.5t74 186.5t124.5 321.5l177 452l145 62h23l352 -930q18 -51 32.5 -86t23.5 -59.5t16.5 -40t13.5 -27.5q25 -51 50.5 -78.5t51 -41t52 -15.5t53.5 -2l10 -8l6 -78l-4 -8q-14 0 -43 2t-59.5 4 t-58 4t-42.5 2h-149q-14 0 -47 -2t-69 -4t-68.5 -4t-47.5 -2l-4 8l6 78l8 8q53 0 81 13.5t28 72.5q0 33 -11 93.5t-52 150.5l-43 98h-359l-41 -98q-37 -90 -55.5 -153.5t-18.5 -90.5q0 -49 20.5 -67.5t74.5 -18.5l10 -8l6 -78l-4 -8q-14 0 -45 2t-64.5 4t-64.5 4t-45 2h-121 q-14 0 -43 -2t-59.5 -4t-58 -4t-42.5 -2zM455 1524l6 14l225 203h16l226 -203l6 -14l-19 -60l-14 -6l-207 84l-207 -84l-14 6zM553 659h268l-131 363z" />
<glyph unicode="&#xc3;" d="M-35 -4l4 78l11 8q27 0 53 4t53 18.5t52.5 40t51.5 66.5q6 12 18.5 37.5t39 91.5t74 186.5t124.5 321.5l177 452l145 62h23l352 -930q18 -51 32.5 -86t23.5 -59.5t16.5 -40t13.5 -27.5q25 -51 50.5 -78.5t51 -41t52 -15.5t53.5 -2l10 -8l6 -78l-4 -8q-14 0 -43 2t-59.5 4 t-58 4t-42.5 2h-149q-14 0 -47 -2t-69 -4t-68.5 -4t-47.5 -2l-4 8l6 78l8 8q53 0 81 13.5t28 72.5q0 33 -11 93.5t-52 150.5l-43 98h-359l-41 -98q-37 -90 -55.5 -153.5t-18.5 -90.5q0 -49 20.5 -67.5t74.5 -18.5l10 -8l6 -78l-4 -8q-14 0 -45 2t-64.5 4t-64.5 4t-45 2h-121 q-14 0 -43 -2t-59.5 -4t-58 -4t-42.5 -2zM377 1559q8 27 22.5 55t36 50t53 36t74.5 14q51 0 89 -4t71 -10t63.5 -10t69.5 -4q35 0 70 8t63 45l25 -99q-6 -29 -19.5 -56.5t-35 -50t-52 -36.5t-73.5 -14q-82 0 -167 14t-151 14q-51 0 -71.5 -13t-41.5 -38zM553 659h268 l-131 363z" />
<glyph unicode="&#xc4;" d="M-35 -4l4 78l11 8q27 0 53 4t53 18.5t52.5 40t51.5 66.5q6 12 18.5 37.5t39 91.5t74 186.5t124.5 321.5l177 452l145 62h23l352 -930q18 -51 32.5 -86t23.5 -59.5t16.5 -40t13.5 -27.5q25 -51 50.5 -78.5t51 -41t52 -15.5t53.5 -2l10 -8l6 -78l-4 -8q-14 0 -43 2t-59.5 4 t-58 4t-42.5 2h-149q-14 0 -47 -2t-69 -4t-68.5 -4t-47.5 -2l-4 8l6 78l8 8q53 0 81 13.5t28 72.5q0 33 -11 93.5t-52 150.5l-43 98h-359l-41 -98q-37 -90 -55.5 -153.5t-18.5 -90.5q0 -49 20.5 -67.5t74.5 -18.5l10 -8l6 -78l-4 -8q-14 0 -45 2t-64.5 4t-64.5 4t-45 2h-121 q-14 0 -43 -2t-59.5 -4t-58 -4t-42.5 -2zM393 1604q0 25 10.5 49t29 43.5t42 31t49.5 11.5q51 0 93 -42t42 -93q0 -27 -11 -50.5t-30.5 -42t-44 -28.5t-49.5 -10q-53 0 -92 39t-39 92zM553 659h268l-131 363zM721 1604q0 25 10 49t28.5 43.5t42 31t50.5 11.5q51 0 93 -42 t42 -93q0 -27 -11 -50.5t-30.5 -42t-44 -28.5t-49.5 -10q-53 0 -92 39t-39 92z" />
<glyph unicode="&#xc5;" d="M-35 -4l4 78l11 8q27 0 53 4t53 18.5t52.5 40t51.5 66.5q6 12 18.5 37.5t39 91.5t74 186.5t124.5 321.5l177 452q-59 20 -88 65.5t-29 92.5q0 66 49 118t139 52q45 0 80 -15.5t59.5 -40t37 -55t12.5 -63.5q0 -41 -19.5 -77t-56.5 -58l336 -887q18 -51 32.5 -86 t23.5 -59.5t16.5 -40t13.5 -27.5q25 -51 50.5 -78.5t51 -41t52 -15.5t53.5 -2l10 -8l6 -78l-4 -8q-14 0 -43 2t-59.5 4t-58 4t-42.5 2h-149q-14 0 -47 -2t-69 -4t-68.5 -4t-47.5 -2l-4 8l6 78l8 8q53 0 81 13.5t28 72.5q0 33 -11 93.5t-52 150.5l-43 98h-359l-41 -98 q-37 -90 -55.5 -153.5t-18.5 -90.5q0 -49 20.5 -67.5t74.5 -18.5l10 -8l6 -78l-4 -8q-14 0 -45 2t-64.5 4t-64.5 4t-45 2h-121q-14 0 -43 -2t-59.5 -4t-58 -4t-42.5 -2zM553 659h268l-131 363zM623 1460q0 -29 20 -54.5t53 -25.5q31 0 49.5 23.5t18.5 50.5q0 29 -19.5 56.5 t-52.5 27.5q-35 0 -52 -24.5t-17 -53.5z" />
<glyph unicode="&#xc6;" horiz-adv-x="1929" d="M-53 -4l4 78l10 8q37 4 85 11t77 28q20 14 41.5 39.5t44.5 58.5q6 10 33.5 53t67.5 111t90.5 151.5t103.5 174t107.5 182.5t101.5 174q31 53 51 88t20 66q0 6 -1 12t-9 11t-23.5 9t-45.5 6l-9 9l-6 77l4 9q14 -2 50 -4t80 -4.5t92.5 -3.5t89.5 -1h417q29 0 85.5 1 t115.5 3.5t106.5 3.5t57.5 1l12 -21l-10 -264h-92l-8 8q-4 39 -11.5 61.5t-38 33t-95 12.5t-179.5 2h-117l-2 -19q-2 -29 -3 -53.5t-2 -57t-1 -79.5v-121v-70q49 2 94 2t83 2t65.5 8.5t40.5 18.5q10 10 16 22.5t6 30.5l10 10l76 5l8 -5q-4 -47 -7 -81.5t-3 -79.5 q0 -49 3 -91t7 -92l-8 -4l-78 4l-8 7q0 49 -20 75q-16 23 -92 26t-170 3h-23v-168q0 -59 1 -98t2 -66.5t3 -52.5t4 -57q2 -39 41 -39h92q117 0 183.5 4t101.5 19.5t50.5 44t27.5 77.5l8 8h96l-39 -301l-16 -20q-10 0 -50 1t-89 3t-98.5 3t-77.5 1h-414q-51 0 -113.5 -2 t-115.5 -2l-4 6l6 72l10 8q43 0 67.5 5t40.5 15q16 14 31 44t19 69q4 33 5 87t1 93v215h-346q-88 -141 -138.5 -224t-76 -129t-31.5 -67.5t-6 -42.5q0 -23 10 -36t26.5 -19t38 -8t44.5 -2l10 -8l6 -78l-6 -8q-14 0 -50 2t-76 4t-76 4t-50 2h-141q-14 0 -43 -2t-60 -4 t-59.5 -4t-42.5 -2v8zM739 750h275l4 430h-8z" />
<glyph unicode="&#xc7;" horiz-adv-x="1333" d="M96 664q0 143 44 271t131 222t215 149.5t298 55.5q41 0 96.5 -3t117 -12.5t124 -26.5t119.5 -44l6 -19l-26 -227h-101l-6 8q-6 45 -39 77t-81 50.5t-106.5 26.5t-115.5 8q-182 0 -283 -92q-78 -70 -112.5 -185.5t-34.5 -250.5q0 -129 36 -227.5t98.5 -165t148.5 -100.5 t188 -34q88 0 204 19.5t218 75.5l25 -45l-50 -91q-106 -66 -213.5 -96.5t-220.5 -30.5q-6 0 -12 1.5t-12 1.5l-37 -60q6 2 15 3t13 1q86 0 134.5 -48t48.5 -120q0 -37 -19.5 -71.5t-53.5 -61t-81 -43t-102 -16.5q-49 0 -97.5 16.5t-89.5 42.5l-2 12l27 78h14q25 -6 64 -18 t78 -12q45 0 77.5 11t32.5 46q0 37 -31.5 50t-74.5 13q-25 0 -50.5 -4t-48.5 -10l-18 53l96 146q-127 18 -228.5 75.5t-173 144.5t-110.5 202.5t-39 253.5z" />
<glyph unicode="&#xc8;" horiz-adv-x="1177" d="M82 -4l6 78l10 8q33 0 61.5 3t47.5 17q16 14 31.5 37t19.5 80q0 14 1 33.5t2 48.5t1 70v102v334v121v84t-1 59.5t-3 48.5q-4 55 -19.5 80t-31.5 37q-18 16 -47 18t-62 2l-10 9l-6 77l4 9q14 0 47 -2t71 -4.5t73.5 -4.5t58.5 -2h336q29 0 85 1t115.5 3.5t106.5 3.5t57 1 l13 -21l-11 -264h-92l-8 8q-4 39 -11 61.5t-38 33t-95.5 12.5t-179.5 2h-116l-2 -19q-2 -29 -3 -53.5t-2.5 -57t-1.5 -79.5v-121v-70q49 2 94.5 1t84.5 1t66.5 7.5t39.5 17.5q20 20 21 57l10 10l76 5l8 -5q-4 -47 -7 -81.5t-3 -79.5q0 -49 3 -91t7 -92l-8 -4l-78 4l-8 7 q0 51 -19 75q-16 23 -93 26t-171 3h-23v-168q0 -59 1.5 -98t2.5 -66.5t3 -52.5t4 -57q2 -39 41 -39h92q117 0 183.5 4t101 19.5t50 44t27.5 77.5l9 8h96l-39 -301l-17 -20q-10 0 -50 1t-89 3t-98 3t-78 1h-414q-14 0 -46.5 -2t-67.5 -4t-68 -4t-47 -2zM324 1608 q0 53 27.5 91t84.5 42l371 -207l6 -14l-53 -103l-17 -6l-411 158q-8 18 -8 39z" />
<glyph unicode="&#xc9;" horiz-adv-x="1177" d="M82 -4l6 78l10 8q33 0 61.5 3t47.5 17q16 14 31.5 37t19.5 80q0 14 1 33.5t2 48.5t1 70v102v334v121v84t-1 59.5t-3 48.5q-4 55 -19.5 80t-31.5 37q-18 16 -47 18t-62 2l-10 9l-6 77l4 9q14 0 47 -2t71 -4.5t73.5 -4.5t58.5 -2h336q29 0 85 1t115.5 3.5t106.5 3.5t57 1 l13 -21l-11 -264h-92l-8 8q-4 39 -11 61.5t-38 33t-95.5 12.5t-179.5 2h-116l-2 -19q-2 -29 -3 -53.5t-2.5 -57t-1.5 -79.5v-121v-70q49 2 94.5 1t84.5 1t66.5 7.5t39.5 17.5q20 20 21 57l10 10l76 5l8 -5q-4 -47 -7 -81.5t-3 -79.5q0 -49 3 -91t7 -92l-8 -4l-78 4l-8 7 q0 51 -19 75q-16 23 -93 26t-171 3h-23v-168q0 -59 1.5 -98t2.5 -66.5t3 -52.5t4 -57q2 -39 41 -39h92q117 0 183.5 4t101 19.5t50 44t27.5 77.5l9 8h96l-39 -301l-17 -20q-10 0 -50 1t-89 3t-98 3t-78 1h-414q-14 0 -46.5 -2t-67.5 -4t-68 -4t-47 -2zM324 1520l6 14 l370 207q57 -4 85 -42t28 -91q0 -20 -8 -39l-412 -158l-16 6z" />
<glyph unicode="&#xca;" horiz-adv-x="1177" d="M82 -4l6 78l10 8q33 0 61.5 3t47.5 17q16 14 31.5 37t19.5 80q0 14 1 33.5t2 48.5t1 70v102v334v121v84t-1 59.5t-3 48.5q-4 55 -19.5 80t-31.5 37q-18 16 -47 18t-62 2l-10 9l-6 77l4 9q14 0 47 -2t71 -4.5t73.5 -4.5t58.5 -2h336q29 0 85 1t115.5 3.5t106.5 3.5t57 1 l13 -21l-11 -264h-92l-8 8q-4 39 -11 61.5t-38 33t-95.5 12.5t-179.5 2h-116l-2 -19q-2 -29 -3 -53.5t-2.5 -57t-1.5 -79.5v-121v-70q49 2 94.5 1t84.5 1t66.5 7.5t39.5 17.5q20 20 21 57l10 10l76 5l8 -5q-4 -47 -7 -81.5t-3 -79.5q0 -49 3 -91t7 -92l-8 -4l-78 4l-8 7 q0 51 -19 75q-16 23 -93 26t-171 3h-23v-168q0 -59 1.5 -98t2.5 -66.5t3 -52.5t4 -57q2 -39 41 -39h92q117 0 183.5 4t101 19.5t50 44t27.5 77.5l9 8h96l-39 -301l-17 -20q-10 0 -50 1t-89 3t-98 3t-78 1h-414q-14 0 -46.5 -2t-67.5 -4t-68 -4t-47 -2zM328 1522l6 14 l225 203h16l226 -203l6 -14l-19 -60l-14 -6l-207 84l-207 -84l-14 6z" />
<glyph unicode="&#xcb;" horiz-adv-x="1177" d="M82 -4l6 78l10 8q33 0 61.5 3t47.5 17q16 14 31.5 37t19.5 80q0 14 1 33.5t2 48.5t1 70v102v334v121v84t-1 59.5t-3 48.5q-4 55 -19.5 80t-31.5 37q-18 16 -47 18t-62 2l-10 9l-6 77l4 9q14 0 47 -2t71 -4.5t73.5 -4.5t58.5 -2h336q29 0 85 1t115.5 3.5t106.5 3.5t57 1 l13 -21l-11 -264h-92l-8 8q-4 39 -11 61.5t-38 33t-95.5 12.5t-179.5 2h-116l-2 -19q-2 -29 -3 -53.5t-2.5 -57t-1.5 -79.5v-121v-70q49 2 94.5 1t84.5 1t66.5 7.5t39.5 17.5q20 20 21 57l10 10l76 5l8 -5q-4 -47 -7 -81.5t-3 -79.5q0 -49 3 -91t7 -92l-8 -4l-78 4l-8 7 q0 51 -19 75q-16 23 -93 26t-171 3h-23v-168q0 -59 1.5 -98t2.5 -66.5t3 -52.5t4 -57q2 -39 41 -39h92q117 0 183.5 4t101 19.5t50 44t27.5 77.5l9 8h96l-39 -301l-17 -20q-10 0 -50 1t-89 3t-98 3t-78 1h-414q-14 0 -46.5 -2t-67.5 -4t-68 -4t-47 -2zM307 1606 q0 25 10.5 49t29 43.5t42 31t49.5 11.5q51 0 93 -42t42 -93q0 -27 -11 -50.5t-30.5 -42t-44 -28.5t-49.5 -10q-53 0 -92 39t-39 92zM635 1606q0 25 10 49t28.5 43.5t42 31t50.5 11.5q51 0 93 -42t42 -93q0 -27 -11 -50.5t-30.5 -42t-44 -28.5t-49.5 -10q-53 0 -92 39t-39 92 z" />
<glyph unicode="&#xcc;" horiz-adv-x="751" d="M82 -4l6 78l10 8q33 0 62.5 3t46.5 17q16 14 29.5 37t21.5 80q0 14 1 33.5t2 48.5t1 70v102v334v121t-1 84t-2 59.5t-3 48.5q-4 53 -18.5 78t-30.5 39q-18 14 -47 17t-62 3l-10 9l-6 77l4 9q14 0 47 -2t68 -4.5t67.5 -4.5t46.5 -2h121q14 0 47 2t68 4.5t67.5 4.5t47.5 2 l4 -9l-6 -77l-9 -9q-33 0 -61.5 -3t-48.5 -17q-18 -14 -33.5 -36.5t-15.5 -80.5q-2 -29 -3 -53.5t-2.5 -57t-1.5 -79.5v-121v-295v-120t1.5 -76.5t2.5 -52t3 -46.5q4 -57 18 -79.5t31 -37.5q18 -14 48 -17t62 -3l9 -8l6 -78l-4 -8q-14 0 -47 2t-68 4t-67.5 4t-47.5 2h-121 q-14 0 -46.5 -2t-67.5 -4t-68 -4t-47 -2zM127 1606q0 53 27.5 91t85.5 42l370 -207l6 -14l-53 -103l-16 -6l-412 158q-8 18 -8 39z" />
<glyph unicode="&#xcd;" horiz-adv-x="751" d="M82 -4l6 78l10 8q33 0 62.5 3t46.5 17q16 14 29.5 37t21.5 80q0 14 1 33.5t2 48.5t1 70v102v334v121t-1 84t-2 59.5t-3 48.5q-4 53 -18.5 78t-30.5 39q-18 14 -47 17t-62 3l-10 9l-6 77l4 9q14 0 47 -2t68 -4.5t67.5 -4.5t46.5 -2h121q14 0 47 2t68 4.5t67.5 4.5t47.5 2 l4 -9l-6 -77l-9 -9q-33 0 -61.5 -3t-48.5 -17q-18 -14 -33.5 -36.5t-15.5 -80.5q-2 -29 -3 -53.5t-2.5 -57t-1.5 -79.5v-121v-295v-120t1.5 -76.5t2.5 -52t3 -46.5q4 -57 18 -79.5t31 -37.5q18 -14 48 -17t62 -3l9 -8l6 -78l-4 -8q-14 0 -47 2t-68 4t-67.5 4t-47.5 2h-121 q-14 0 -46.5 -2t-67.5 -4t-68 -4t-47 -2zM139 1520l6 14l371 207q57 -4 85 -42t28 -91q0 -20 -8 -39l-412 -158l-16 6z" />
<glyph unicode="&#xce;" horiz-adv-x="751" d="M82 -4l6 78l10 8q33 0 62.5 3t46.5 17q16 14 29.5 37t21.5 80q0 14 1 33.5t2 48.5t1 70v102v334v121t-1 84t-2 59.5t-3 48.5q-4 53 -18.5 78t-30.5 39q-18 14 -47 17t-62 3l-10 9l-6 77l4 9q14 0 47 -2t68 -4.5t67.5 -4.5t46.5 -2h121q14 0 47 2t68 4.5t67.5 4.5t47.5 2 l4 -9l-6 -77l-9 -9q-33 0 -61.5 -3t-48.5 -17q-18 -14 -33.5 -36.5t-15.5 -80.5q-2 -29 -3 -53.5t-2.5 -57t-1.5 -79.5v-121v-295v-120t1.5 -76.5t2.5 -52t3 -46.5q4 -57 18 -79.5t31 -37.5q18 -14 48 -17t62 -3l9 -8l6 -78l-4 -8q-14 0 -47 2t-68 4t-67.5 4t-47.5 2h-121 q-14 0 -46.5 -2t-67.5 -4t-68 -4t-47 -2zM133 1524l6 14l226 203h16l225 -203l6 -14l-18 -60l-14 -6l-207 84l-207 -84l-14 6z" />
<glyph unicode="&#xcf;" horiz-adv-x="751" d="M76 1608q0 25 10 49t28.5 43.5t42 31t50.5 11.5q51 0 93 -42t42 -93q0 -27 -11.5 -50.5t-30.5 -42t-44 -28.5t-49 -10q-53 0 -92 39t-39 92zM82 -4l6 78l10 8q33 0 62.5 3t46.5 17q16 14 29.5 37t21.5 80q0 14 1 33.5t2 48.5t1 70v102v334v121t-1 84t-2 59.5t-3 48.5 q-4 53 -18.5 78t-30.5 39q-18 14 -47 17t-62 3l-10 9l-6 77l4 9q14 0 47 -2t68 -4.5t67.5 -4.5t46.5 -2h121q14 0 47 2t68 4.5t67.5 4.5t47.5 2l4 -9l-6 -77l-9 -9q-33 0 -61.5 -3t-48.5 -17q-18 -14 -33.5 -36.5t-15.5 -80.5q-2 -29 -3 -53.5t-2.5 -57t-1.5 -79.5v-121 v-295v-120t1.5 -76.5t2.5 -52t3 -46.5q4 -57 18 -79.5t31 -37.5q18 -14 48 -17t62 -3l9 -8l6 -78l-4 -8q-14 0 -47 2t-68 4t-67.5 4t-47.5 2h-121q-14 0 -46.5 -2t-67.5 -4t-68 -4t-47 -2zM403 1608q0 25 10.5 49t29 43.5t42 31t50.5 11.5q51 0 93 -42t42 -93 q0 -27 -11.5 -50.5t-31 -42t-44 -28.5t-48.5 -10q-53 0 -92.5 39t-39.5 92z" />
<glyph unicode="&#xd0;" horiz-adv-x="1566" d="M63 590l31 168h172v49v62v89.5t-1 92.5t-3 69q-4 51 -18.5 78t-32.5 39q-18 16 -37.5 18t-71.5 2l-10 9l-6 77l4 9q14 0 41 -2t57.5 -4.5t60.5 -4.5t52 -2h199q27 0 66.5 1t81.5 3.5t82 3.5t65 1q160 0 285.5 -54.5t211.5 -146.5t132 -215t46 -260q0 -135 -44 -257 t-130 -215.5t-215 -148.5t-299 -55q-18 0 -55 1t-78 1t-79 1t-60 1h-191q-14 0 -46.5 -2t-67.5 -4t-68 -4t-47 -2l-4 8l6 78l10 8q25 0 58 3t51 15q16 12 30.5 39t20.5 80q0 14 1 33.5t2 48.5t1 70v102v117h-203zM494 535q0 -123 1 -192t5 -103q6 -53 26.5 -66.5t73.5 -13.5 h115q123 0 217 40t158.5 109.5t98.5 162.5t34 200q0 111 -35 204t-101.5 160.5t-163 105.5t-218.5 38h-201q-4 -59 -5 -99.5t-3 -81.5t-2 -89v-122v-30h274l-33 -168h-241v-55z" />
<glyph unicode="&#xd1;" horiz-adv-x="1599" d="M78 -4l6 78l10 8q37 0 62.5 3t46.5 17q14 10 34.5 34t26.5 83q2 14 3 33.5t1 48.5v70v102v334v121v84t-1 59.5t-3 48.5q-4 43 -23.5 74t-37.5 43q-18 16 -46 18t-63 2l-10 9l-6 77l4 9q14 0 42 -2t56.5 -4.5t56 -4.5t42.5 -2h174q16 0 40.5 2t43.5 7l10 -7 q6 -29 30.5 -79t60.5 -112.5t77 -131t82 -135.5q74 -123 131 -214t102 -159t78 -114t55 -77q0 53 1 104.5t1 104.5v279v121t-1 84t-2 59.5t-3 48.5q-4 35 -17.5 64.5t-41.5 52.5q-18 16 -48 18t-63 2l-8 9l-6 77l4 9q14 0 41 -2t54.5 -4.5t54 -4.5t40.5 -2h179q14 0 40.5 1 t55.5 3.5t55.5 4.5t40.5 4l2 -9l-4 -77l-10 -9q-31 0 -60.5 -3t-48.5 -17q-16 -14 -33.5 -36.5t-23.5 -80.5q-2 -29 -3 -53.5t-2 -57t-1 -79.5v-121v-320q0 -115 1 -188.5t2 -125.5t4 -93t7 -90l-16 -10l-252 10l-21 24l-632 955q4 -37 5 -118t1 -187v-152v-64.5t1 -82.5 t2 -83t3 -65q4 -51 22.5 -77.5t38.5 -39.5q16 -16 43 -18t68 -2l10 -8l6 -78l-4 -8q-16 0 -46 2t-61.5 4t-61.5 4t-44 2h-121q-14 0 -47 -2t-67.5 -4t-67.5 -4t-47 -2zM481 1567q8 27 22.5 55.5t36 50t53.5 35.5t75 14q51 0 89 -4t70.5 -10t63.5 -10t70 -4q35 0 69.5 8 t63.5 45l24 -98q-6 -29 -19.5 -56.5t-35 -50t-52 -37t-73.5 -14.5q-82 0 -167 14.5t-150 14.5q-51 0 -72 -13.5t-41 -38.5z" />
<glyph unicode="&#xd2;" horiz-adv-x="1509" d="M96 659q0 145 45 273.5t129 223.5t207 150.5t279 55.5q158 0 280.5 -55.5t206.5 -150.5t128 -220t44 -262q0 -135 -43 -261t-128 -222.5t-211 -155t-292 -58.5q-160 0 -280.5 55.5t-201.5 148.5t-122 217t-41 261zM338 674q0 -123 30.5 -220.5t86 -165t131.5 -104.5 t168 -37q100 0 179 42t132 113t82 166t29 204q0 111 -30 206t-86 164.5t-136 109.5t-181 40q-98 0 -173.5 -39t-127 -108.5t-78 -165t-26.5 -205.5zM438 1606q0 53 28 91t85 42l371 -207l6 -14l-54 -103l-16 -6l-412 158q-8 18 -8 39z" />
<glyph unicode="&#xd3;" horiz-adv-x="1509" d="M96 659q0 145 45 273.5t129 223.5t207 150.5t279 55.5q158 0 280.5 -55.5t206.5 -150.5t128 -220t44 -262q0 -135 -43 -261t-128 -222.5t-211 -155t-292 -58.5q-160 0 -280.5 55.5t-201.5 148.5t-122 217t-41 261zM338 674q0 -123 30.5 -220.5t86 -165t131.5 -104.5 t168 -37q100 0 179 42t132 113t82 166t29 204q0 111 -30 206t-86 164.5t-136 109.5t-181 40q-98 0 -173.5 -39t-127 -108.5t-78 -165t-26.5 -205.5zM573 1520l7 14l370 207q57 -4 85 -42t28 -91q0 -20 -8 -39l-412 -158l-16 6z" />
<glyph unicode="&#xd4;" horiz-adv-x="1509" d="M96 659q0 145 45 273.5t129 223.5t207 150.5t279 55.5q158 0 280.5 -55.5t206.5 -150.5t128 -220t44 -262q0 -135 -43 -261t-128 -222.5t-211 -155t-292 -58.5q-160 0 -280.5 55.5t-201.5 148.5t-122 217t-41 261zM338 674q0 -123 30.5 -220.5t86 -165t131.5 -104.5 t168 -37q100 0 179 42t132 113t82 166t29 204q0 111 -30 206t-86 164.5t-136 109.5t-181 40q-98 0 -173.5 -39t-127 -108.5t-78 -165t-26.5 -205.5zM526 1522l6 14l226 203h16l225 -203l7 -14l-19 -60l-14 -6l-207 84l-207 -84l-14 6z" />
<glyph unicode="&#xd5;" horiz-adv-x="1509" d="M96 659q0 145 45 273.5t129 223.5t207 150.5t279 55.5q158 0 280.5 -55.5t206.5 -150.5t128 -220t44 -262q0 -135 -43 -261t-128 -222.5t-211 -155t-292 -58.5q-160 0 -280.5 55.5t-201.5 148.5t-122 217t-41 261zM338 674q0 -123 30.5 -220.5t86 -165t131.5 -104.5 t168 -37q100 0 179 42t132 113t82 166t29 204q0 111 -30 206t-86 164.5t-136 109.5t-181 40q-98 0 -173.5 -39t-127 -108.5t-78 -165t-26.5 -205.5zM436 1563q8 27 22.5 55.5t36 50t53.5 35.5t75 14q51 0 89 -4t70.5 -10t63.5 -10t69 -4q35 0 70 8t64 45l24 -98 q-6 -29 -19.5 -56.5t-35 -50t-52 -37t-73.5 -14.5q-82 0 -167 14.5t-151 14.5q-51 0 -71.5 -13.5t-40.5 -38.5z" />
<glyph unicode="&#xd6;" horiz-adv-x="1509" d="M96 659q0 145 45 273.5t129 223.5t207 150.5t279 55.5q158 0 280.5 -55.5t206.5 -150.5t128 -220t44 -262q0 -135 -43 -261t-128 -222.5t-211 -155t-292 -58.5q-160 0 -280.5 55.5t-201.5 148.5t-122 217t-41 261zM338 674q0 -123 30.5 -220.5t86 -165t131.5 -104.5 t168 -37q100 0 179 42t132 113t82 166t29 204q0 111 -30 206t-86 164.5t-136 109.5t-181 40q-98 0 -173.5 -39t-127 -108.5t-78 -165t-26.5 -205.5zM457 1608q0 25 10 49t28.5 43.5t42 31t50.5 11.5q51 0 93 -42t42 -93q0 -27 -11.5 -50.5t-30.5 -42t-44 -28.5t-49 -10 q-53 0 -92 39t-39 92zM784 1608q0 25 10.5 49t29 43.5t42 31t49.5 11.5q51 0 93.5 -42t42.5 -93q0 -27 -11.5 -50.5t-31 -42t-44 -28.5t-49.5 -10q-53 0 -92 39t-39 92z" />
<glyph unicode="&#xd7;" horiz-adv-x="952" d="M137 258l232 231l-232 230l107 106l231 -229l234 233l106 -106l-233 -234l233 -235l-104 -104l-236 233l-231 -231z" />
<glyph unicode="&#xd8;" horiz-adv-x="1511" d="M66 61l2 9q35 33 75.5 71.5t81.5 79.5q-66 92 -97.5 204t-31.5 234q0 145 45 273.5t129 223.5t207 150.5t279 55.5q111 0 205 -28.5t169 -80.5q39 47 74 92.5t62 86.5l8 6l186 -125l-2 -8q-47 -41 -93 -89.5t-93 -97.5q72 -92 107.5 -205.5t35.5 -238.5q0 -135 -43 -261 t-128 -222.5t-211 -155t-292 -58.5q-111 0 -201.5 27t-162.5 74q-84 -102 -135 -176l-9 -4zM338 674q0 -160 53 -279q154 168 308.5 346.5t304.5 358.5q-53 43 -118 67.5t-143 24.5q-98 0 -173.5 -39t-127 -108.5t-78 -165t-26.5 -205.5zM506 233q105 -86 248 -86 q100 0 179 42t132 113t82 166t29 204q0 150 -58 274q-160 -180 -313.5 -357t-298.5 -356z" />
<glyph unicode="&#xd9;" horiz-adv-x="1499" d="M43 1343l4 9q14 0 47 -2t68 -4.5t67.5 -4.5t46.5 -2h121q14 0 47 2t68 4.5t67.5 4.5t47.5 2l4 -9l-6 -77l-9 -9q-29 0 -60.5 -3t-49.5 -17q-16 -14 -30.5 -36.5t-18.5 -80.5q-2 -29 -3 -53.5t-2 -57t-1 -79.5v-121v-297q0 -190 74.5 -271t230.5 -81q70 0 129 19.5 t102 62.5t67.5 109.5t24.5 160.5v297v121t-1 79.5t-2 57.5t-3 53q-4 59 -19.5 82t-31.5 35q-16 16 -46 18t-63 2l-10 9l-6 77l4 9q14 0 43 -2t60.5 -4.5t60.5 -4.5t43 -2h127q14 0 45 2t64.5 4.5t64.5 4.5t45 2l4 -9l-6 -77l-8 -9q-29 0 -60.5 -3t-50.5 -17 q-16 -14 -31.5 -36.5t-19.5 -80.5q0 -25 -1 -49t-2 -59t-1 -84v-121v-352q0 -100 -34 -187.5t-99.5 -152t-162.5 -101.5t-222 -37q-154 0 -257.5 37t-165 101.5t-88 151.5t-26.5 188v352v121v84t-1 59.5t-3 48.5q-4 55 -19.5 80t-31.5 37q-18 16 -47 18t-62 2l-10 9z M485 1608q0 53 28 91t85 42l371 -207l6 -14l-53 -103l-17 -6l-411 158q-8 18 -9 39z" />
<glyph unicode="&#xda;" horiz-adv-x="1499" d="M43 1343l4 9q14 0 47 -2t68 -4.5t67.5 -4.5t46.5 -2h121q14 0 47 2t68 4.5t67.5 4.5t47.5 2l4 -9l-6 -77l-9 -9q-29 0 -60.5 -3t-49.5 -17q-16 -14 -30.5 -36.5t-18.5 -80.5q-2 -29 -3 -53.5t-2 -57t-1 -79.5v-121v-297q0 -190 74.5 -271t230.5 -81q70 0 129 19.5 t102 62.5t67.5 109.5t24.5 160.5v297v121t-1 79.5t-2 57.5t-3 53q-4 59 -19.5 82t-31.5 35q-16 16 -46 18t-63 2l-10 9l-6 77l4 9q14 0 43 -2t60.5 -4.5t60.5 -4.5t43 -2h127q14 0 45 2t64.5 4.5t64.5 4.5t45 2l4 -9l-6 -77l-8 -9q-29 0 -60.5 -3t-50.5 -17 q-16 -14 -31.5 -36.5t-19.5 -80.5q0 -25 -1 -49t-2 -59t-1 -84v-121v-352q0 -100 -34 -187.5t-99.5 -152t-162.5 -101.5t-222 -37q-154 0 -257.5 37t-165 101.5t-88 151.5t-26.5 188v352v121v84t-1 59.5t-3 48.5q-4 55 -19.5 80t-31.5 37q-18 16 -47 18t-62 2l-10 9z M537 1516l6 14l370 207q57 -4 85 -42t28 -91q0 -20 -8 -39l-412 -158l-16 6z" />
<glyph unicode="&#xdb;" horiz-adv-x="1497" d="M43 1343l4 9q14 0 47 -2t68 -4.5t67.5 -4.5t46.5 -2h121q14 0 47 2t68 4.5t67.5 4.5t47.5 2l4 -9l-6 -77l-9 -9q-29 0 -60.5 -3t-49.5 -17q-16 -14 -30.5 -36.5t-18.5 -80.5q-2 -29 -3 -53.5t-2 -57t-1 -79.5v-121v-297q0 -190 74.5 -271t230.5 -81q70 0 129 19.5 t102 62.5t67.5 109.5t24.5 160.5v297v121t-1 79.5t-2 57.5t-3 53q-4 59 -19.5 82t-31.5 35q-16 16 -46 18t-63 2l-10 9l-6 77l4 9q14 0 43 -2t60.5 -4.5t60.5 -4.5t43 -2h127q14 0 45 2t64.5 4.5t64.5 4.5t45 2l4 -9l-6 -77l-8 -9q-29 0 -60.5 -3t-50.5 -17 q-16 -14 -31.5 -36.5t-19.5 -80.5q0 -25 -1 -49t-2 -59t-1 -84v-121v-352q0 -100 -34 -187.5t-99.5 -152t-162.5 -101.5t-222 -37q-154 0 -257.5 37t-165 101.5t-88 151.5t-26.5 188v352v121v84t-1 59.5t-3 48.5q-4 55 -19.5 80t-31.5 37q-18 16 -47 18t-62 2l-10 9z M518 1526l6 14l226 203h16l225 -203l6 -14l-18 -60l-14 -6l-207 84l-207 -84l-14 6z" />
<glyph unicode="&#xdc;" horiz-adv-x="1497" d="M43 1343l4 9q14 0 47 -2t68 -4.5t67.5 -4.5t46.5 -2h121q14 0 47 2t68 4.5t67.5 4.5t47.5 2l4 -9l-6 -77l-9 -9q-29 0 -60.5 -3t-49.5 -17q-16 -14 -30.5 -36.5t-18.5 -80.5q-2 -29 -3 -53.5t-2 -57t-1 -79.5v-121v-297q0 -190 74.5 -271t230.5 -81q70 0 129 19.5 t102 62.5t67.5 109.5t24.5 160.5v297v121t-1 79.5t-2 57.5t-3 53q-4 59 -19.5 82t-31.5 35q-16 16 -46 18t-63 2l-10 9l-6 77l4 9q14 0 43 -2t60.5 -4.5t60.5 -4.5t43 -2h127q14 0 45 2t64.5 4.5t64.5 4.5t45 2l4 -9l-6 -77l-8 -9q-29 0 -60.5 -3t-50.5 -17 q-16 -14 -31.5 -36.5t-19.5 -80.5q0 -25 -1 -49t-2 -59t-1 -84v-121v-352q0 -100 -34 -187.5t-99.5 -152t-162.5 -101.5t-222 -37q-154 0 -257.5 37t-165 101.5t-88 151.5t-26.5 188v352v121v84t-1 59.5t-3 48.5q-4 55 -19.5 80t-31.5 37q-18 16 -47 18t-62 2l-10 9z M467 1602q0 25 10 49t28.5 43.5t42 31t50.5 11.5q51 0 93 -42t42 -93q0 -27 -11 -50.5t-30.5 -42t-44 -29t-49.5 -10.5q-53 0 -92 39.5t-39 92.5zM795 1602q0 25 10 49t28.5 43.5t42 31t50.5 11.5q51 0 93 -42t42 -93q0 -27 -11.5 -50.5t-31 -42t-44 -29t-48.5 -10.5 q-53 0 -92 39.5t-39 92.5z" />
<glyph unicode="&#xdd;" horiz-adv-x="1337" d="M-16 1266v77l10 9q51 -6 92 -11.5t90 -5.5h168q47 0 109.5 5.5t119.5 11.5l9 -9v-77l-9 -9q-41 -2 -71.5 -7t-48.5 -17q-20 -14 -21 -37q0 -12 5 -24.5t12 -22.5l243 -387l230 354q20 35 20 72q0 25 -14.5 37t-36 18t-47 8t-47.5 9l-9 8v78l9 8q59 -10 98 -11.5t90 -1.5 h180q49 0 90 2.5t99 10.5l8 -8v-78l-8 -8q-47 -6 -80 -16.5t-59.5 -29t-52 -47t-56.5 -71.5q-61 -90 -105.5 -154.5t-76 -115t-58 -93.5t-55.5 -90q-8 -12 -18.5 -42t-10.5 -60v-31v-119t1 -75.5t2 -51t3 -45.5q4 -57 19.5 -79.5t32.5 -37.5q16 -14 45.5 -17t62.5 -3l10 -8 l7 -78l-4 -8q-14 0 -47 2t-68 4t-68 4t-47 2h-121q-14 0 -47 -2t-68.5 -4t-68.5 -4t-47 -2l-2 8l4 78l10 8q31 0 60.5 3t48.5 17q18 14 32.5 37t18.5 80q2 14 3 33.5t2 48.5t1 70v102v39q0 57 -16.5 93t-32.5 65q-68 111 -148.5 229.5t-166.5 241.5q-14 23 -33 44t-33 34 q-23 18 -54.5 26t-72.5 12zM532 1513l7 15l370 207q57 -4 85 -42t28 -91q0 -20 -8 -39l-412 -158l-16 6z" />
<glyph unicode="&#xde;" horiz-adv-x="1202" d="M82 -4l6 78l10 8q31 0 60.5 3t48.5 17q16 14 31.5 37t19.5 80q0 12 1 28.5t2 40t1 58.5v86v416v121v83.5t-1 59.5t-3 49q-4 35 -20.5 51.5t-32.5 26.5t-45 14t-62 4l-10 9l-6 77l4 9q14 0 47 -2t68 -4.5t67.5 -4.5t46.5 -2h121q14 0 47 2t68 4.5t67.5 4.5t47.5 2l4 -9 l-6 -77l-9 -9q-33 0 -62.5 -4t-49.5 -14q-29 -16 -41.5 -32.5t-12.5 -39.5v-61h107q147 0 250.5 -28.5t168 -82t94.5 -127t30 -161.5q0 -129 -53.5 -211t-136.5 -129.5t-184 -65.5t-200 -18h-76v-70q0 -43 15.5 -69.5t34.5 -41.5q18 -14 51 -17t65 -3l9 -8l6 -78l-4 -8 q-14 0 -47 2t-68 4t-67.5 4t-47.5 2h-121q-14 0 -46.5 -2t-67.5 -4t-68 -4t-47 -2zM489 434h148q150 0 214 69.5t64 192.5q0 125 -73.5 187.5t-202.5 62.5h-150v-512z" />
<glyph unicode="&#xdf;" horiz-adv-x="1263" d="M66 0l4 70l6 8q31 0 60.5 3t47.5 19q12 12 20.5 32t11.5 64t4 120.5t1 203.5v264h-147l-8 11v98l8 8l147 31v59q0 117 27.5 212t83 163t139.5 104.5t199 36.5q76 0 136 -22.5t101 -60.5t63.5 -86t22.5 -99q0 -70 -27.5 -123t-60.5 -98t-60.5 -88t-27.5 -92 q0 -47 27.5 -81t70.5 -66t91.5 -65.5t91.5 -78.5t70.5 -107.5t27.5 -150.5q0 -90 -33 -149.5t-81 -95.5t-104 -51.5t-106 -15.5q-66 0 -127 24t-98 50l-8 19l8 231h76l6 -8q0 -76 31 -123t102 -47q47 0 81 37t34 100q0 72 -24.5 119t-62.5 81t-82 60.5t-82 58t-62.5 75.5 t-24.5 112q0 74 22.5 130t50 106.5t51 102.5t23.5 118q0 47 -33.5 85t-93.5 38q-76 0 -119.5 -32t-67 -82t-30 -113.5t-6.5 -125.5v-424v-95t1 -107.5t2 -98.5t3 -67q2 -43 15.5 -67.5t34 -37t44 -15.5t48.5 -3l10 -10l4 -68l-4 -8q-14 0 -40 2t-53.5 3t-52 2t-38.5 1h-138 q-14 0 -42.5 -1t-59.5 -2t-59.5 -3t-42.5 -2z" />
<glyph unicode="&#xe0;" horiz-adv-x="1058" d="M55 248q0 80 35 139t92 96q53 35 125 54.5t139.5 30t123 13.5t73.5 3h29q-2 63 -8.5 99t-16.5 60q-18 41 -60 58.5t-100 17.5q-35 0 -74.5 -5t-74.5 -19.5t-60.5 -40t-29.5 -66.5l-8 -6h-66l-18 192l6 13q12 12 47 26.5t84 27.5t107.5 22.5t117.5 9.5q80 0 149.5 -19.5 t120 -58.5t79 -97.5t28.5 -135.5q0 -84 -1 -143.5t-3 -111t-3 -99.5t-1 -107q4 -47 10 -67.5t21 -33.5q16 -16 49.5 -19t62.5 -3l6 -8l4 -70l-2 -8q-35 4 -80 6t-84 2q-57 0 -114.5 -1t-108.5 -5l-12 20q6 18 9 53t9 64l-2 6q-25 -31 -56.5 -59.5t-70.5 -51t-83 -36 t-93 -13.5q-74 0 -129 23t-92 59.5t-56.5 86t-19.5 102.5zM193 1260q0 53 27.5 91t84.5 42l371 -207l6 -15l-53 -102l-17 -6l-411 158q-8 18 -8 39zM307 260q0 -55 27.5 -88t75.5 -33q35 0 70.5 9.5t66.5 23.5t55.5 32t36.5 32q6 10 13 24t10 35l10 174h-19q-63 0 -124.5 -8 t-110.5 -30.5t-80 -63.5t-31 -107z" />
<glyph unicode="&#xe1;" horiz-adv-x="1058" d="M55 248q0 80 35 139t92 96q53 35 125 54.5t139.5 30t123 13.5t73.5 3h29q-2 63 -8.5 99t-16.5 60q-18 41 -60 58.5t-100 17.5q-35 0 -74.5 -5t-74.5 -19.5t-60.5 -40t-29.5 -66.5l-8 -6h-66l-18 192l6 13q12 12 47 26.5t84 27.5t107.5 22.5t117.5 9.5q80 0 149.5 -19.5 t120 -58.5t79 -97.5t28.5 -135.5q0 -84 -1 -143.5t-3 -111t-3 -99.5t-1 -107q4 -47 10 -67.5t21 -33.5q16 -16 49.5 -19t62.5 -3l6 -8l4 -70l-2 -8q-35 4 -80 6t-84 2q-57 0 -114.5 -1t-108.5 -5l-12 20q6 18 9 53t9 64l-2 6q-25 -31 -56.5 -59.5t-70.5 -51t-83 -36 t-93 -13.5q-74 0 -129 23t-92 59.5t-56.5 86t-19.5 102.5zM307 260q0 -55 27.5 -88t75.5 -33q35 0 70.5 9.5t66.5 23.5t55.5 32t36.5 32q6 10 13 24t10 35l10 174h-19q-63 0 -124.5 -8t-110.5 -30.5t-80 -63.5t-31 -107zM324 1171l6 15l370 207q57 -4 85 -42t28 -91 q0 -20 -8 -39l-412 -158l-16 6z" />
<glyph unicode="&#xe2;" horiz-adv-x="1058" d="M55 248q0 80 35 139t92 96q53 35 125 54.5t139.5 30t123 13.5t73.5 3h29q-2 63 -8.5 99t-16.5 60q-18 41 -60 58.5t-100 17.5q-35 0 -74.5 -5t-74.5 -19.5t-60.5 -40t-29.5 -66.5l-8 -6h-66l-18 192l6 13q12 12 47 26.5t84 27.5t107.5 22.5t117.5 9.5q80 0 149.5 -19.5 t120 -58.5t79 -97.5t28.5 -135.5q0 -84 -1 -143.5t-3 -111t-3 -99.5t-1 -107q4 -47 10 -67.5t21 -33.5q16 -16 49.5 -19t62.5 -3l6 -8l4 -70l-2 -8q-35 4 -80 6t-84 2q-57 0 -114.5 -1t-108.5 -5l-12 20q6 18 9 53t9 64l-2 6q-25 -31 -56.5 -59.5t-70.5 -51t-83 -36 t-93 -13.5q-74 0 -129 23t-92 59.5t-56.5 86t-19.5 102.5zM256 1176l6 14l225 203h17l225 -203l6 -14l-18 -60l-15 -6l-206 84l-207 -84l-15 6zM307 260q0 -55 27.5 -88t75.5 -33q35 0 70.5 9.5t66.5 23.5t55.5 32t36.5 32q6 10 13 24t10 35l10 174h-19q-63 0 -124.5 -8 t-110.5 -30.5t-80 -63.5t-31 -107z" />
<glyph unicode="&#xe3;" horiz-adv-x="1058" d="M55 248q0 80 35 139t92 96q53 35 125 54.5t139.5 30t123 13.5t73.5 3h29q-2 63 -8.5 99t-16.5 60q-18 41 -60 58.5t-100 17.5q-35 0 -74.5 -5t-74.5 -19.5t-60.5 -40t-29.5 -66.5l-8 -6h-66l-18 192l6 13q12 12 47 26.5t84 27.5t107.5 22.5t117.5 9.5q80 0 149.5 -19.5 t120 -58.5t79 -97.5t28.5 -135.5q0 -84 -1 -143.5t-3 -111t-3 -99.5t-1 -107q4 -47 10 -67.5t21 -33.5q16 -16 49.5 -19t62.5 -3l6 -8l4 -70l-2 -8q-35 4 -80 6t-84 2q-57 0 -114.5 -1t-108.5 -5l-12 20q6 18 9 53t9 64l-2 6q-25 -31 -56.5 -59.5t-70.5 -51t-83 -36 t-93 -13.5q-74 0 -129 23t-92 59.5t-56.5 86t-19.5 102.5zM172 1212q8 27 22.5 55.5t36 50t53 36t74.5 14.5q51 0 89 -4t71 -10t63.5 -10.5t69.5 -4.5q35 0 70 8.5t63 45.5l25 -99q-6 -29 -19.5 -56.5t-35 -50t-52 -36.5t-73.5 -14q-82 0 -167 14t-151 14q-51 0 -71.5 -13 t-40.5 -38zM307 260q0 -55 27.5 -88t75.5 -33q35 0 70.5 9.5t66.5 23.5t55.5 32t36.5 32q6 10 13 24t10 35l10 174h-19q-63 0 -124.5 -8t-110.5 -30.5t-80 -63.5t-31 -107z" />
<glyph unicode="&#xe4;" horiz-adv-x="1058" d="M55 248q0 80 35 139t92 96q53 35 125 54.5t139.5 30t123 13.5t73.5 3h29q-2 63 -8.5 99t-16.5 60q-18 41 -60 58.5t-100 17.5q-35 0 -74.5 -5t-74.5 -19.5t-60.5 -40t-29.5 -66.5l-8 -6h-66l-18 192l6 13q12 12 47 26.5t84 27.5t107.5 22.5t117.5 9.5q80 0 149.5 -19.5 t120 -58.5t79 -97.5t28.5 -135.5q0 -84 -1 -143.5t-3 -111t-3 -99.5t-1 -107q4 -47 10 -67.5t21 -33.5q16 -16 49.5 -19t62.5 -3l6 -8l4 -70l-2 -8q-35 4 -80 6t-84 2q-57 0 -114.5 -1t-108.5 -5l-12 20q6 18 9 53t9 64l-2 6q-25 -31 -56.5 -59.5t-70.5 -51t-83 -36 t-93 -13.5q-74 0 -129 23t-92 59.5t-56.5 86t-19.5 102.5zM215 1255q0 25 10.5 49.5t28.5 44t41.5 31t50.5 11.5q51 0 93 -42t42 -94q0 -27 -11 -50t-30.5 -41.5t-44 -29t-49.5 -10.5q-53 0 -92 39t-39 92zM307 260q0 -55 27.5 -88t75.5 -33q35 0 70.5 9.5t66.5 23.5 t55.5 32t36.5 32q6 10 13 24t10 35l10 174h-19q-63 0 -124.5 -8t-110.5 -30.5t-80 -63.5t-31 -107zM543 1255q0 25 10 49.5t28.5 44t42 31t50.5 11.5q51 0 93 -42t42 -94q0 -27 -11.5 -50t-30.5 -41.5t-44 -29t-49 -10.5q-53 0 -92 39t-39 92z" />
<glyph unicode="&#xe5;" horiz-adv-x="1058" d="M55 248q0 80 35 139t92 96q53 35 125 54.5t139.5 30t123 13.5t73.5 3h29q-2 63 -8.5 99t-16.5 60q-18 41 -60 58.5t-100 17.5q-35 0 -74.5 -5t-74.5 -19.5t-60.5 -40t-29.5 -66.5l-8 -6h-66l-18 192l6 13q12 12 47 26.5t84 27.5t107.5 22.5t117.5 9.5q80 0 149.5 -19.5 t120 -58.5t79 -97.5t28.5 -135.5q0 -84 -1 -143.5t-3 -111t-3 -99.5t-1 -107q4 -47 10 -67.5t21 -33.5q16 -16 49.5 -19t62.5 -3l6 -8l4 -70l-2 -8q-35 4 -80 6t-84 2q-57 0 -114.5 -1t-108.5 -5l-12 20q6 18 9 53t9 64l-2 6q-25 -31 -56.5 -59.5t-70.5 -51t-83 -36 t-93 -13.5q-74 0 -129 23t-92 59.5t-56.5 86t-19.5 102.5zM307 260q0 -55 27.5 -88t75.5 -33q35 0 70.5 9.5t66.5 23.5t55.5 32t36.5 32q6 10 13 24t10 35l10 174h-19q-63 0 -124.5 -8t-110.5 -30.5t-80 -63.5t-31 -107zM352 1249q0 66 49.5 118t139.5 52q45 0 79.5 -15 t59.5 -40t37 -55.5t12 -63.5q0 -61 -47 -112.5t-139 -51.5q-49 0 -85 15.5t-59.5 39t-35 53.5t-11.5 60zM469 1251q0 -29 20.5 -54.5t53.5 -25.5q31 0 49 24t18 50q0 29 -19.5 56.5t-51.5 27.5q-35 0 -52.5 -24.5t-17.5 -53.5z" />
<glyph unicode="&#xe6;" horiz-adv-x="1603" d="M53 248q0 80 35 139t92 96q53 35 125 54.5t139.5 30t123 13.5t73.5 3h29q-2 63 -8.5 99t-16.5 60q-18 41 -60 58.5t-100 17.5q-35 0 -74.5 -5t-74.5 -19.5t-60.5 -40t-29.5 -66.5l-8 -6h-66l-18 192l6 13q12 12 45 26.5t79 27.5t101.5 22.5t110.5 9.5q98 0 178 -34 t114 -110q59 72 145.5 108t182.5 36q53 0 120 -14.5t128 -54.5t110.5 -112.5t67.5 -191.5l-16 -78l-49 -37q-111 0 -218.5 -2t-220.5 -2h-168q-2 -14 -2 -27.5v-25.5q0 -53 18.5 -106.5t58.5 -95.5t101.5 -67.5t149.5 -25.5q63 0 134 17.5t132 46.5l35 -15v-73l-20 -23 q-49 -39 -144.5 -74t-206.5 -35q-117 0 -213 47.5t-147 139.5q-35 -53 -86 -89t-108.5 -57.5t-111.5 -31t-91 -9.5q-74 0 -132.5 23t-99.5 59.5t-62.5 86t-21.5 102.5zM305 260q0 -55 27.5 -88t75.5 -33q35 0 70.5 11.5t66 29t55.5 38t37 38.5q6 10 13 24.5t9 34.5l11 154 h-19q-63 0 -124.5 -8t-110.5 -30.5t-80 -63.5t-31 -107zM909 618h103q72 0 141.5 3.5t140.5 3.5q27 0 39.5 15t12.5 32q0 61 -59.5 104t-139.5 43q-100 0 -160.5 -60.5t-77.5 -140.5z" />
<glyph unicode="&#xe7;" horiz-adv-x="1015" d="M72 471q0 113 41 205t112.5 157.5t166.5 102.5t204 37q49 0 99 -7.5t96.5 -17.5t83 -23.5t59.5 -25.5l6 -18l-22 -219h-64l-8 6q0 47 -27.5 76.5t-66.5 46t-83 22.5t-77 6q-74 0 -129 -28.5t-90 -75.5t-52.5 -108.5t-17.5 -127.5q0 -70 19.5 -133t58.5 -112.5t99.5 -79 t142.5 -29.5q70 0 147.5 14.5t138.5 46.5l35 -49l-31 -57q-23 -16 -58.5 -33.5t-80.5 -33t-97 -26t-104 -10.5h-22l-37 -57q6 2 15.5 3t13.5 1q86 0 134 -48t48 -120q0 -37 -19.5 -71.5t-53.5 -61t-81 -43t-102 -16.5q-49 0 -97 16.5t-89 42.5l-2 12l26 78h15 q25 -6 63.5 -18t77.5 -12q45 0 77.5 11t32.5 46q0 37 -31.5 50t-74.5 13q-25 0 -50.5 -4t-47.5 -10l-19 53l99 150q-80 18 -149 61t-119 104.5t-79.5 141.5t-29.5 172z" />
<glyph unicode="&#xe8;" horiz-adv-x="1038" d="M74 471q0 113 36.5 205t101 157.5t152 102.5t187.5 37q53 0 119.5 -14.5t128 -54.5t110.5 -112.5t68 -191.5l-16 -78l-50 -37q-111 0 -218 -2t-220 -2h-168q-2 -14 -2 -27.5v-25.5q0 -53 18.5 -106.5t58.5 -95.5t101.5 -67.5t149.5 -25.5q63 0 134 17.5t132 46.5l35 -15 v-73l-21 -23q-49 -39 -144 -74t-206 -35q-109 0 -198 36t-153.5 101.5t-100 155.5t-35.5 201zM248 1260q0 53 27.5 91t84.5 42l371 -207l6 -15l-53 -102l-16 -6l-412 158q-8 18 -8 39zM315 618h103q72 0 141.5 3.5t140.5 3.5q27 0 39.5 15t12.5 32q0 61 -59.5 104t-139.5 43 q-100 0 -160.5 -60.5t-77.5 -140.5z" />
<glyph unicode="&#xe9;" horiz-adv-x="1038" d="M74 471q0 113 36.5 205t101 157.5t152 102.5t187.5 37q53 0 119.5 -14.5t128 -54.5t110.5 -112.5t68 -191.5l-16 -78l-50 -37q-111 0 -218 -2t-220 -2h-168q-2 -14 -2 -27.5v-25.5q0 -53 18.5 -106.5t58.5 -95.5t101.5 -67.5t149.5 -25.5q63 0 134 17.5t132 46.5l35 -15 v-73l-21 -23q-49 -39 -144 -74t-206 -35q-109 0 -198 36t-153.5 101.5t-100 155.5t-35.5 201zM315 618h103q72 0 141.5 3.5t140.5 3.5q27 0 39.5 15t12.5 32q0 61 -59.5 104t-139.5 43q-100 0 -160.5 -60.5t-77.5 -140.5zM358 1171l7 15l370 207q57 -4 85 -42t28 -91 q0 -20 -8 -39l-412 -158l-16 6z" />
<glyph unicode="&#xea;" horiz-adv-x="1038" d="M74 471q0 113 36.5 205t101 157.5t152 102.5t187.5 37q53 0 119.5 -14.5t128 -54.5t110.5 -112.5t68 -191.5l-16 -78l-50 -37q-111 0 -218 -2t-220 -2h-168q-2 -14 -2 -27.5v-25.5q0 -53 18.5 -106.5t58.5 -95.5t101.5 -67.5t149.5 -25.5q63 0 134 17.5t132 46.5l35 -15 v-73l-21 -23q-49 -39 -144 -74t-206 -35q-109 0 -198 36t-153.5 101.5t-100 155.5t-35.5 201zM293 1174l6 14l225 203h17l225 -203l6 -14l-18 -60l-15 -6l-207 84l-206 -84l-15 6zM315 618h103q72 0 141.5 3.5t140.5 3.5q27 0 39.5 15t12.5 32q0 61 -59.5 104t-139.5 43 q-100 0 -160.5 -60.5t-77.5 -140.5z" />
<glyph unicode="&#xeb;" horiz-adv-x="1038" d="M74 471q0 113 36.5 205t101 157.5t152 102.5t187.5 37q53 0 119.5 -14.5t128 -54.5t110.5 -112.5t68 -191.5l-16 -78l-50 -37q-111 0 -218 -2t-220 -2h-168q-2 -14 -2 -27.5v-25.5q0 -53 18.5 -106.5t58.5 -95.5t101.5 -67.5t149.5 -25.5q63 0 134 17.5t132 46.5l35 -15 v-73l-21 -23q-49 -39 -144 -74t-206 -35q-109 0 -198 36t-153.5 101.5t-100 155.5t-35.5 201zM236 1255q0 25 10 49.5t28.5 44t42 31t50.5 11.5q51 0 93 -42t42 -94q0 -27 -11.5 -50t-31 -41.5t-44 -29t-48.5 -10.5q-53 0 -92 39t-39 92zM315 618h103q72 0 141.5 3.5 t140.5 3.5q27 0 39.5 15t12.5 32q0 61 -59.5 104t-139.5 43q-100 0 -160.5 -60.5t-77.5 -140.5zM563 1255q0 25 10.5 49.5t29 44t42 31t49.5 11.5q51 0 93 -42t42 -94q0 -27 -11 -50t-30.5 -41.5t-44 -29t-49.5 -10.5q-53 0 -92 39t-39 92z" />
<glyph unicode="&#xec;" horiz-adv-x="628" d="M8 1260q0 53 27.5 91t85.5 42l371 -207l6 -15l-54 -102l-16 -6l-412 158q-8 18 -8 39zM57 0l4 70l7 8q31 0 63.5 3t48.5 19q14 14 20.5 37t10.5 64q2 33 4 66.5t2 107.5v170v72.5t-1 51t-2 40t-3 41.5q-4 23 -12.5 41t-14.5 22q-20 27 -51 31t-63 4l-9 8v70l9 6h104 q47 0 100.5 1t94.5 7l71 10l13 -39q-4 -10 -7.5 -33.5t-4.5 -50t-2 -51t-1 -39.5q0 -16 -1 -31.5t-1 -36t-1 -49t-1 -73.5v-148q0 -45 1 -73.5t2 -49t2 -38t3 -37.5q4 -45 9.5 -66.5t21.5 -34.5q16 -14 46 -18t61 -4l10 -10l4 -68l-4 -8q-14 0 -43 2t-61.5 3t-61.5 2t-43 1 h-111q-14 0 -43.5 -1t-61.5 -2t-61.5 -3t-44.5 -2z" />
<glyph unicode="&#xed;" horiz-adv-x="628" d="M57 0l4 70l7 8q31 0 63.5 3t48.5 19q14 14 20.5 37t10.5 64q2 33 4 66.5t2 107.5v170v72.5t-1 51t-2 40t-3 41.5q-4 23 -12.5 41t-14.5 22q-20 27 -51 31t-63 4l-9 8v70l9 6h104q47 0 100.5 1t94.5 7l71 10l13 -39q-4 -10 -7.5 -33.5t-4.5 -50t-2 -51t-1 -39.5 q0 -16 -1 -31.5t-1 -36t-1 -49t-1 -73.5v-148q0 -45 1 -73.5t2 -49t2 -38t3 -37.5q4 -45 9.5 -66.5t21.5 -34.5q16 -14 46 -18t61 -4l10 -10l4 -68l-4 -8q-14 0 -43 2t-61.5 3t-61.5 2t-43 1h-111q-14 0 -43.5 -1t-61.5 -2t-61.5 -3t-44.5 -2zM70 1171l6 15l370 207 q57 -4 85 -42t28 -91q0 -20 -8 -39l-412 -158l-16 6z" />
<glyph unicode="&#xee;" horiz-adv-x="628" d="M57 0l4 70l7 8q31 0 63.5 3t48.5 19q14 14 20.5 37t10.5 64q2 33 4 66.5t2 107.5v170v72.5t-1 51t-2 40t-3 41.5q-4 23 -12.5 41t-14.5 22q-20 27 -51 31t-63 4l-9 8v70l9 6h104q47 0 100.5 1t94.5 7l71 10l13 -39q-4 -10 -7.5 -33.5t-4.5 -50t-2 -51t-1 -39.5 q0 -16 -1 -31.5t-1 -36t-1 -49t-1 -73.5v-148q0 -45 1 -73.5t2 -49t2 -38t3 -37.5q4 -45 9.5 -66.5t21.5 -34.5q16 -14 46 -18t61 -4l10 -10l4 -68l-4 -8q-14 0 -43 2t-61.5 3t-61.5 2t-43 1h-111q-14 0 -43.5 -1t-61.5 -2t-61.5 -3t-44.5 -2zM74 1174l6 14l225 203h17 l225 -203l6 -14l-18 -60l-15 -6l-207 84l-207 -84l-14 6z" />
<glyph unicode="&#xef;" horiz-adv-x="628" d="M25 1255q0 25 10 49.5t28.5 44t42 31t50.5 11.5q51 0 93 -42t42 -94q0 -27 -11.5 -50t-31 -41.5t-44 -29t-48.5 -10.5q-53 0 -92 39t-39 92zM57 0l4 70l7 8q31 0 63.5 3t48.5 19q14 14 20.5 37t10.5 64q2 33 4 66.5t2 107.5v170v72.5t-1 51t-2 40t-3 41.5q-4 23 -12.5 41 t-14.5 22q-20 27 -51 31t-63 4l-9 8v70l9 6h104q47 0 100.5 1t94.5 7l71 10l13 -39q-4 -10 -7.5 -33.5t-4.5 -50t-2 -51t-1 -39.5q0 -16 -1 -31.5t-1 -36t-1 -49t-1 -73.5v-148q0 -45 1 -73.5t2 -49t2 -38t3 -37.5q4 -45 9.5 -66.5t21.5 -34.5q16 -14 46 -18t61 -4l10 -10 l4 -68l-4 -8q-14 0 -43 2t-61.5 3t-61.5 2t-43 1h-111q-14 0 -43.5 -1t-61.5 -2t-61.5 -3t-44.5 -2zM352 1255q0 25 10.5 49.5t29 44t42 31t49.5 11.5q51 0 93 -42t42 -94q0 -27 -11 -50t-30.5 -41.5t-44 -29t-49.5 -10.5q-53 0 -92 39t-39 92z" />
<glyph unicode="&#xf0;" horiz-adv-x="1146" d="M74 475q0 100 31.5 190.5t94 159t153.5 108.5t210 40q63 0 129 -18.5t115 -61.5q-16 92 -42 170t-67 141l-227 -90l-63 111l227 94q-29 49 -64.5 77.5t-62.5 39.5l63 80q66 -16 114 -50t97 -88l205 82l64 -110l-187 -86q94 -135 139.5 -307.5t45.5 -360.5 q0 -123 -26 -234.5t-82 -197.5t-148.5 -136.5t-225.5 -50.5q-129 0 -223 43t-153.5 113t-88 159t-28.5 183zM319 481q0 -59 15.5 -119.5t45.5 -108.5t74 -78t103 -30q61 0 104.5 28t72 73t41.5 102.5t13 114.5q0 160 -63 247t-178 87q-61 0 -104.5 -28t-71 -72t-40 -101 t-12.5 -115z" />
<glyph unicode="&#xf1;" horiz-adv-x="1308" d="M57 0l4 70l7 8q33 0 58.5 3t41.5 19q14 14 26.5 37t16.5 64q2 14 3 28.5t2 30.5t1 39v55v211v65.5t-1 47t-2 37t-3 35.5q-4 20 -12.5 38.5t-14.5 24.5q-20 27 -51 31t-63 4l-9 8v70l9 6h104q47 0 101.5 1t95.5 7l71 10l13 -39q-16 -23 -19.5 -62.5t-3.5 -80.5l6 -4 q47 90 129 149.5t193 59.5q63 0 124.5 -16.5t112 -51.5t84 -89t43.5 -128q6 -53 7.5 -112.5t1.5 -118.5q2 -70 2 -128.5v-127.5q4 -47 16 -67.5t25 -33.5q18 -16 44.5 -19t59.5 -3l6 -8l4 -70l-4 -8q-43 4 -95 6t-101 2t-98.5 -1t-92.5 -5l-14 41q6 27 11 80t7 86 q4 78 6 145.5t2 120.5q0 47 -2 102.5t-14 96.5q-16 66 -66.5 97.5t-115.5 31.5q-61 0 -112.5 -22.5t-87.5 -54.5t-56.5 -67t-20.5 -61v-211v-66.5t1 -44t2 -34t3 -33.5q4 -43 17.5 -64.5t29.5 -36.5q16 -16 39 -19t54 -3l10 -10l4 -68l-4 -8q-14 0 -43 2t-61.5 3t-61.5 2 t-43 1h-113q-14 0 -43.5 -1t-61.5 -2t-61.5 -3t-44.5 -2zM330 1210q8 27 22.5 55.5t36 50t53 36t74.5 14.5q51 0 89 -4t71 -10t63.5 -10.5t69.5 -4.5q35 0 69.5 8.5t63.5 45.5l25 -99q-6 -29 -19.5 -56.5t-35 -50t-52.5 -36.5t-74 -14q-82 0 -166.5 14t-150.5 14 q-51 0 -71.5 -13t-41.5 -38z" />
<glyph unicode="&#xf2;" horiz-adv-x="1153" d="M72 475q0 100 34.5 190.5t99 159t157.5 108.5t212 40q121 0 215.5 -42t159 -112.5t98 -163t33.5 -190.5q0 -94 -30.5 -182t-94 -156t-157.5 -109t-219 -41q-129 0 -225.5 43t-159 113t-93 159t-30.5 183zM315 479q0 -66 17.5 -129t51.5 -115.5t83.5 -84t110.5 -31.5 q63 0 111 29.5t81 77.5t48.5 110.5t15.5 128.5q0 63 -17.5 127.5t-51.5 116t-83 84t-113 32.5q-66 0 -113.5 -30.5t-78.5 -79.5t-46.5 -110.5t-15.5 -125.5zM328 1260q0 53 27.5 91t84.5 42l371 -207l6 -15l-53 -102l-16 -6l-412 158q-8 18 -8 39z" />
<glyph unicode="&#xf3;" horiz-adv-x="1153" d="M72 475q0 100 34.5 190.5t99 159t157.5 108.5t212 40q121 0 215.5 -42t159 -112.5t98 -163t33.5 -190.5q0 -94 -30.5 -182t-94 -156t-157.5 -109t-219 -41q-129 0 -225.5 43t-159 113t-93 159t-30.5 183zM315 479q0 -66 17.5 -129t51.5 -115.5t83.5 -84t110.5 -31.5 q63 0 111 29.5t81 77.5t48.5 110.5t15.5 128.5q0 63 -17.5 127.5t-51.5 116t-83 84t-113 32.5q-66 0 -113.5 -30.5t-78.5 -79.5t-46.5 -110.5t-15.5 -125.5zM332 1171l6 15l371 207q57 -4 84.5 -42t27.5 -91q0 -20 -8 -39l-412 -158l-16 6z" />
<glyph unicode="&#xf4;" horiz-adv-x="1153" d="M72 475q0 100 34.5 190.5t99 159t157.5 108.5t212 40q121 0 215.5 -42t159 -112.5t98 -163t33.5 -190.5q0 -94 -30.5 -182t-94 -156t-157.5 -109t-219 -41q-129 0 -225.5 43t-159 113t-93 159t-30.5 183zM315 479q0 -66 17.5 -129t51.5 -115.5t83.5 -84t110.5 -31.5 q63 0 111 29.5t81 77.5t48.5 110.5t15.5 128.5q0 63 -17.5 127.5t-51.5 116t-83 84t-113 32.5q-66 0 -113.5 -30.5t-78.5 -79.5t-46.5 -110.5t-15.5 -125.5zM336 1176l6 14l225 203h17l225 -203l6 -14l-18 -60l-15 -6l-207 84l-206 -84l-15 6z" />
<glyph unicode="&#xf5;" horiz-adv-x="1153" d="M72 475q0 100 34.5 190.5t99 159t157.5 108.5t212 40q121 0 215.5 -42t159 -112.5t98 -163t33.5 -190.5q0 -94 -30.5 -182t-94 -156t-157.5 -109t-219 -41q-129 0 -225.5 43t-159 113t-93 159t-30.5 183zM258 1212q8 27 22.5 55.5t36 50t53 36t74.5 14.5q51 0 89 -4 t71 -10t63.5 -10.5t69.5 -4.5q35 0 70 8.5t63 45.5l25 -99q-6 -29 -19.5 -56.5t-35 -50t-52 -36.5t-73.5 -14q-82 0 -167 14t-151 14q-51 0 -71.5 -13t-40.5 -38zM315 479q0 -66 17.5 -129t51.5 -115.5t83.5 -84t110.5 -31.5q63 0 111 29.5t81 77.5t48.5 110.5t15.5 128.5 q0 63 -17.5 127.5t-51.5 116t-83 84t-113 32.5q-66 0 -113.5 -30.5t-78.5 -79.5t-46.5 -110.5t-15.5 -125.5z" />
<glyph unicode="&#xf6;" horiz-adv-x="1153" d="M72 475q0 100 34.5 190.5t99 159t157.5 108.5t212 40q121 0 215.5 -42t159 -112.5t98 -163t33.5 -190.5q0 -94 -30.5 -182t-94 -156t-157.5 -109t-219 -41q-129 0 -225.5 43t-159 113t-93 159t-30.5 183zM279 1257q0 25 10 49.5t28.5 44t42 31t50.5 11.5q51 0 93 -42 t42 -94q0 -27 -11.5 -50t-31 -41.5t-44 -29t-48.5 -10.5q-53 0 -92 39t-39 92zM315 479q0 -66 17.5 -129t51.5 -115.5t83.5 -84t110.5 -31.5q63 0 111 29.5t81 77.5t48.5 110.5t15.5 128.5q0 63 -17.5 127.5t-51.5 116t-83 84t-113 32.5q-66 0 -113.5 -30.5t-78.5 -79.5 t-46.5 -110.5t-15.5 -125.5zM606 1257q0 25 10.5 49.5t29 44t42 31t49.5 11.5q51 0 93 -42t42 -94q0 -27 -11 -50t-30.5 -41.5t-44 -29t-49.5 -10.5q-53 0 -92 39t-39 92z" />
<glyph unicode="&#xf7;" horiz-adv-x="1079" d="M111 373l30 168h832l-33 -168h-829zM428 109q0 25 10.5 49t28.5 43.5t41.5 31t50.5 11.5q51 0 93 -42t42 -93q0 -27 -11 -50.5t-30.5 -42t-44 -29t-49.5 -10.5q-53 0 -92 39.5t-39 92.5zM428 797q0 25 10.5 49t28.5 43.5t41.5 31t50.5 11.5q51 0 93 -42t42 -93 q0 -27 -11 -50.5t-30.5 -42t-44 -28.5t-49.5 -10q-53 0 -92 39t-39 92z" />
<glyph unicode="&#xf8;" horiz-adv-x="1155" d="M63 16l3 9l116 122q-57 68 -83.5 153t-26.5 175q0 100 34.5 190.5t99 159t157.5 108.5t212 40q72 0 134.5 -15.5t115.5 -44.5l97 129l8 7l180 -131l-2 -9l-129 -129q51 -66 76.5 -147.5t25.5 -167.5q0 -94 -30.5 -182t-94 -156t-157.5 -109t-219 -41q-72 0 -132.5 13.5 t-111.5 36.5l-111 -142l-8 -4zM315 479q0 -88 27 -162q98 109 191.5 219.5t185.5 227.5q-31 29 -68 45t-82 16q-66 0 -113.5 -30.5t-78.5 -79.5t-46.5 -110.5t-15.5 -125.5zM436 172q60 -53 142 -53q63 0 111 29.5t81 77.5t48.5 110.5t15.5 128.5q0 70 -23 141 q-98 -111 -191.5 -218t-183.5 -216z" />
<glyph unicode="&#xf9;" horiz-adv-x="1280" d="M27 856v70l6 6h100q47 0 100.5 1t94.5 7l71 10l13 -39q-4 -8 -6.5 -29.5t-4.5 -46t-2 -47v-34.5q0 -33 -1 -72t-2 -79t-2 -75.5t-1 -62.5q0 -45 5 -101.5t12 -97.5q16 -70 68 -104.5t120 -34.5q57 0 104.5 19.5t83 49t58 62.5t28.5 61v226q0 43 -1 72.5t-2 52t-2 41 t-3 39.5q-4 20 -13 38.5t-15 24.5q-20 27 -49 31t-62 4l-8 8v70l8 6h37h57.5t68.5 1t69.5 2t60.5 5l72 10l12 -39q-4 -8 -6 -29.5t-4 -46t-2 -47v-34.5q0 -16 -1.5 -30.5t-1.5 -35t-1 -48.5t-1 -73v-168q0 -45 1 -73.5t2.5 -49t2.5 -38t1 -37.5q4 -47 10 -67.5t20 -33.5 q16 -16 43 -19t60 -3l8 -8l4 -70l-4 -6q-39 4 -76 5t-78 1q-119 0 -219 -6l-12 41q6 23 13 60.5t11 76.5l-6 4q-53 -86 -136 -142.5t-204 -56.5q-59 0 -113.5 13.5t-100.5 44.5t-78.5 82t-47.5 129q-10 53 -9 111.5t-1 117.5q0 25 -1 65t-1 81v76.5v52.5q0 23 -10 41t-17 24 q-20 25 -50.5 29t-63.5 4zM350 1260q0 53 28 91t85 42l371 -207l6 -15l-54 -102l-16 -6l-412 158q-8 18 -8 39z" />
<glyph unicode="&#xfa;" horiz-adv-x="1280" d="M27 856v70l6 6h100q47 0 100.5 1t94.5 7l71 10l13 -39q-4 -8 -6.5 -29.5t-4.5 -46t-2 -47v-34.5q0 -33 -1 -72t-2 -79t-2 -75.5t-1 -62.5q0 -45 5 -101.5t12 -97.5q16 -70 68 -104.5t120 -34.5q57 0 104.5 19.5t83 49t58 62.5t28.5 61v226q0 43 -1 72.5t-2 52t-2 41 t-3 39.5q-4 20 -13 38.5t-15 24.5q-20 27 -49 31t-62 4l-8 8v70l8 6h37h57.5t68.5 1t69.5 2t60.5 5l72 10l12 -39q-4 -8 -6 -29.5t-4 -46t-2 -47v-34.5q0 -16 -1.5 -30.5t-1.5 -35t-1 -48.5t-1 -73v-168q0 -45 1 -73.5t2.5 -49t2.5 -38t1 -37.5q4 -47 10 -67.5t20 -33.5 q16 -16 43 -19t60 -3l8 -8l4 -70l-4 -6q-39 4 -76 5t-78 1q-119 0 -219 -6l-12 41q6 23 13 60.5t11 76.5l-6 4q-53 -86 -136 -142.5t-204 -56.5q-59 0 -113.5 13.5t-100.5 44.5t-78.5 82t-47.5 129q-10 53 -9 111.5t-1 117.5q0 25 -1 65t-1 81v76.5v52.5q0 23 -10 41t-17 24 q-20 25 -50.5 29t-63.5 4zM367 1171l6 15l370 207q57 -4 85 -42t28 -91q0 -20 -8 -39l-412 -158l-16 6z" />
<glyph unicode="&#xfb;" horiz-adv-x="1280" d="M27 856v70l6 6h100q47 0 100.5 1t94.5 7l71 10l13 -39q-4 -8 -6.5 -29.5t-4.5 -46t-2 -47v-34.5q0 -33 -1 -72t-2 -79t-2 -75.5t-1 -62.5q0 -45 5 -101.5t12 -97.5q16 -70 68 -104.5t120 -34.5q57 0 104.5 19.5t83 49t58 62.5t28.5 61v226q0 43 -1 72.5t-2 52t-2 41 t-3 39.5q-4 20 -13 38.5t-15 24.5q-20 27 -49 31t-62 4l-8 8v70l8 6h37h57.5t68.5 1t69.5 2t60.5 5l72 10l12 -39q-4 -8 -6 -29.5t-4 -46t-2 -47v-34.5q0 -16 -1.5 -30.5t-1.5 -35t-1 -48.5t-1 -73v-168q0 -45 1 -73.5t2.5 -49t2.5 -38t1 -37.5q4 -47 10 -67.5t20 -33.5 q16 -16 43 -19t60 -3l8 -8l4 -70l-4 -6q-39 4 -76 5t-78 1q-119 0 -219 -6l-12 41q6 23 13 60.5t11 76.5l-6 4q-53 -86 -136 -142.5t-204 -56.5q-59 0 -113.5 13.5t-100.5 44.5t-78.5 82t-47.5 129q-10 53 -9 111.5t-1 117.5q0 25 -1 65t-1 81v76.5v52.5q0 23 -10 41t-17 24 q-20 25 -50.5 29t-63.5 4zM362 1174l7 14l225 203h16l226 -203l6 -14l-19 -60l-14 -6l-207 84l-207 -84l-14 6z" />
<glyph unicode="&#xfc;" horiz-adv-x="1280" d="M27 856v70l6 6h100q47 0 100.5 1t94.5 7l71 10l13 -39q-4 -8 -6.5 -29.5t-4.5 -46t-2 -47v-34.5q0 -33 -1 -72t-2 -79t-2 -75.5t-1 -62.5q0 -45 5 -101.5t12 -97.5q16 -70 68 -104.5t120 -34.5q57 0 104.5 19.5t83 49t58 62.5t28.5 61v226q0 43 -1 72.5t-2 52t-2 41 t-3 39.5q-4 20 -13 38.5t-15 24.5q-20 27 -49 31t-62 4l-8 8v70l8 6h37h57.5t68.5 1t69.5 2t60.5 5l72 10l12 -39q-4 -8 -6 -29.5t-4 -46t-2 -47v-34.5q0 -16 -1.5 -30.5t-1.5 -35t-1 -48.5t-1 -73v-168q0 -45 1 -73.5t2.5 -49t2.5 -38t1 -37.5q4 -47 10 -67.5t20 -33.5 q16 -16 43 -19t60 -3l8 -8l4 -70l-4 -6q-39 4 -76 5t-78 1q-119 0 -219 -6l-12 41q6 23 13 60.5t11 76.5l-6 4q-53 -86 -136 -142.5t-204 -56.5q-59 0 -113.5 13.5t-100.5 44.5t-78.5 82t-47.5 129q-10 53 -9 111.5t-1 117.5q0 25 -1 65t-1 81v76.5v52.5q0 23 -10 41t-17 24 q-20 25 -50.5 29t-63.5 4zM305 1255q0 25 10.5 49.5t28.5 44t42 31t50 11.5q51 0 93 -42t42 -94q0 -27 -11 -50t-30.5 -41.5t-44 -29t-49.5 -10.5q-53 0 -92 39t-39 92zM633 1255q0 25 10 49.5t28.5 44t42 31t50.5 11.5q51 0 93 -42t42 -94q0 -27 -11 -50t-30.5 -41.5 t-44.5 -29t-49 -10.5q-53 0 -92 39t-39 92z" />
<glyph unicode="&#xfd;" horiz-adv-x="1167" d="M-6 862v70l8 8q35 -4 74 -8t71 -4h162q31 0 75 4t81 8l8 -8v-66l-8 -8q-39 -4 -66.5 -23.5t-27.5 -56.5q0 -25 17.5 -81t41 -119.5t45 -117.5t27.5 -73l88 -248l102 248q12 33 34 82t41 103.5t33.5 108.5t14.5 97q0 45 -30.5 60.5t-65.5 19.5l-8 8v66l8 8q39 -8 73.5 -10 t65.5 -2h166q35 0 68.5 4t72.5 8l9 -8v-70l-13 -10q-35 -4 -60.5 -20.5t-47.5 -53.5q-29 -49 -68 -127t-76 -157.5t-65.5 -145t-36.5 -86.5l-199 -500q-25 -61 -64.5 -111t-91 -87t-108.5 -60.5t-117 -31.5q-16 -4 -37.5 -4h-62.5l-14 4l-7 104l9 10h28q25 0 53.5 5.5 t55.5 19.5q59 29 109.5 82t68.5 102l57 154l-163 375q-10 23 -33 80t-51.5 125.5t-60.5 136t-58 112.5q-20 33 -46 51.5t-69 22.5zM336 1171l6 15l371 207q57 -4 84.5 -42t27.5 -91q0 -20 -8 -39l-411 -158l-17 6z" />
<glyph unicode="&#xfe;" horiz-adv-x="1243" d="M-2 -526l4 69l10 8q31 0 60.5 3.5t46.5 21.5q16 12 21 34.5t10 63.5q2 35 3 65t2 66.5t2 89t1 136.5v915v138.5t-1 93.5t-3 69.5t-4 67.5q-2 20 -10.5 38.5t-14.5 24.5q-18 27 -49 31t-66 4l-8 8v70l8 6h37h57.5t68.5 1t69.5 2t60.5 5l72 11l12 -39q-4 -49 -5 -133 t-3 -180.5t-2 -194v-174.5l6 -4q66 98 156 140t186 42q72 0 150.5 -25.5t143 -84t106.5 -154t42 -234.5q0 -94 -27.5 -183t-84 -159t-142.5 -113t-202 -43q-111 0 -196 55.5t-144 145.5l-6 -4q4 -35 5 -75t1 -115v-115t1 -82t2 -60.5t3 -52.5q4 -41 9 -63.5t22 -34.5 q16 -16 51 -20.5t67 -4.5l6 -6l5 -71l-2 -6q-14 0 -45 1t-64 2t-63.5 2t-45.5 1h-106q-14 0 -43 -1t-61.5 -2t-61.5 -2t-43 -1zM377 356q2 -27 23.5 -63.5t59.5 -70.5t92 -57.5t124 -23.5q66 0 114 28t78.5 74t46 104.5t15.5 119.5q0 63 -14.5 124.5t-46 109t-81 77 t-116.5 29.5q-74 0 -127 -25.5t-89 -60.5t-55.5 -73t-23.5 -64v-228z" />
<glyph unicode="&#xff;" horiz-adv-x="1167" d="M-6 862v70l8 8q35 -4 74 -8t71 -4h162q31 0 75 4t81 8l8 -8v-66l-8 -8q-39 -4 -66.5 -23.5t-27.5 -56.5q0 -25 17.5 -81t41 -119.5t45 -117.5t27.5 -73l88 -248l102 248q12 33 34 82t41 103.5t33.5 108.5t14.5 97q0 45 -30.5 60.5t-65.5 19.5l-8 8v66l8 8q39 -8 73.5 -10 t65.5 -2h166q35 0 68.5 4t72.5 8l9 -8v-70l-13 -10q-35 -4 -60.5 -20.5t-47.5 -53.5q-29 -49 -68 -127t-76 -157.5t-65.5 -145t-36.5 -86.5l-199 -500q-25 -61 -64.5 -111t-91 -87t-108.5 -60.5t-117 -31.5q-16 -4 -37.5 -4h-62.5l-14 4l-7 104l9 10h28q25 0 53.5 5.5 t55.5 19.5q59 29 109.5 82t68.5 102l57 154l-163 375q-10 23 -33 80t-51.5 125.5t-60.5 136t-58 112.5q-20 33 -46 51.5t-69 22.5zM291 1255q0 25 10 49.5t28.5 44t42 31t50.5 11.5q51 0 93 -42t42 -94q0 -27 -11 -50t-30.5 -41.5t-44.5 -29t-49 -10.5q-53 0 -92 39t-39 92z M618 1255q0 25 10.5 49.5t29 44t42 31t50.5 11.5q51 0 93 -42t42 -94q0 -27 -11.5 -50t-31 -41.5t-44 -29t-48.5 -10.5q-53 0 -92.5 39t-39.5 92z" />
<glyph unicode="&#x152;" horiz-adv-x="1970" d="M96 672q0 137 44 260t128 215t206 146.5t278 54.5q25 0 64.5 -1t81.5 -3.5t82 -3.5t67 -1h417q29 0 85.5 1t115.5 3.5t106.5 3.5t57.5 1l12 -21l-10 -264h-92l-8 8q-4 39 -11.5 61.5t-38 33t-95 12.5t-179.5 2h-117l-2 -19q-2 -29 -3 -53.5t-2 -57t-1 -79.5v-121v-70 q49 2 94 2t83 2t65.5 8.5t40.5 18.5q10 10 16 22.5t6 30.5l10 10l76 5l8 -5q-4 -47 -7 -81.5t-3 -79.5q0 -49 3 -91t7 -92l-8 -4l-78 4l-8 7q0 49 -20 75q-16 23 -92 26t-170 3h-23v-168q0 -59 1 -98t2 -66.5t3 -52.5t4 -57q2 -39 41 -39h92q117 0 183.5 4t101.5 19.5 t50.5 44t27.5 77.5l8 8h96l-39 -301l-16 -20q-10 0 -50 1t-89 3t-98.5 3t-77.5 1h-486q-23 0 -60.5 -1t-78.5 -1t-78 -1t-55 -1q-164 0 -289 55t-209 148.5t-127 215.5t-43 257zM344 672q0 -106 32 -199.5t93 -163t152.5 -109.5t209.5 -40h115q53 0 73.5 13t27.5 67 q4 35 5 103.5t1 191.5v253v147t-2 126q-2 53 -32 86t-87 33h-90q-117 0 -210 -38t-156.5 -105.5t-97.5 -161t-34 -203.5z" />
<glyph unicode="&#x153;" horiz-adv-x="1812" d="M72 475q0 100 34.5 190.5t99 159t157.5 108.5t212 40q123 0 218.5 -44t167.5 -124q76 86 168 127t196 41q53 0 119.5 -14.5t128 -54.5t111 -112.5t67.5 -191.5l-16 -78l-49 -37q-111 0 -218.5 -2t-220.5 -2h-168q-2 -14 -2 -27.5v-25.5q0 -53 18.5 -106.5t58.5 -95.5 t101.5 -67.5t149.5 -25.5q63 0 134 17.5t132 46.5l35 -15v-73l-20 -23q-49 -39 -144.5 -74t-206.5 -35q-225 0 -370 164q-72 -80 -166 -122t-219 -42q-129 0 -225.5 43t-159 113t-93 159t-30.5 183zM315 479q0 -66 17.5 -129t51.5 -115.5t83.5 -84t110.5 -31.5 q63 0 111 29.5t81 77.5t48.5 110.5t15.5 128.5q0 63 -17.5 127.5t-51.5 116t-83 84t-113 32.5q-66 0 -113.5 -30.5t-78.5 -79.5t-46.5 -110.5t-15.5 -125.5zM1085 618h103q72 0 141.5 3.5t140.5 3.5q27 0 39.5 15t12.5 32q0 61 -59.5 104t-139.5 43q-100 0 -160.5 -60.5 t-77.5 -140.5z" />
<glyph unicode="&#x178;" horiz-adv-x="1337" d="M-16 1266v77l10 9q51 -6 92 -11.5t90 -5.5h168q47 0 109.5 5.5t119.5 11.5l9 -9v-77l-9 -9q-41 -2 -71.5 -7t-48.5 -17q-20 -14 -21 -37q0 -12 5 -24.5t12 -22.5l243 -387l230 354q20 35 20 72q0 25 -14.5 37t-36 18t-47 8t-47.5 9l-9 8v78l9 8q59 -10 98 -11.5t90 -1.5 h180q49 0 90 2.5t99 10.5l8 -8v-78l-8 -8q-47 -6 -80 -16.5t-59.5 -29t-52 -47t-56.5 -71.5q-61 -90 -105.5 -154.5t-76 -115t-58 -93.5t-55.5 -90q-8 -12 -18.5 -42t-10.5 -60v-31v-119t1 -75.5t2 -51t3 -45.5q4 -57 19.5 -79.5t32.5 -37.5q16 -14 45.5 -17t62.5 -3l10 -8 l7 -78l-4 -8q-14 0 -47 2t-68 4t-68 4t-47 2h-121q-14 0 -47 -2t-68.5 -4t-68.5 -4t-47 -2l-2 8l4 78l10 8q31 0 60.5 3t48.5 17q18 14 32.5 37t18.5 80q2 14 3 33.5t2 48.5t1 70v102v39q0 57 -16.5 93t-32.5 65q-68 111 -148.5 229.5t-166.5 241.5q-14 23 -33 44t-33 34 q-23 18 -54.5 26t-72.5 12zM385 1604q0 25 10.5 49t28.5 43.5t41.5 31t50.5 11.5q51 0 93 -42t42 -93q0 -27 -11 -50.5t-30.5 -42t-44 -28.5t-49.5 -10q-53 0 -92 39t-39 92zM713 1604q0 25 10 49t28.5 43.5t42 31t50.5 11.5q51 0 93 -42t42 -93q0 -27 -11.5 -50.5 t-30.5 -42t-44 -28.5t-49 -10q-53 0 -92 39t-39 92z" />
<glyph unicode="&#x2c6;" horiz-adv-x="479" d="M0 1161l6 15l225 202h17l225 -202l6 -15l-18 -59l-15 -6l-206 84l-207 -84l-15 6z" />
<glyph unicode="&#x2dc;" horiz-adv-x="636" d="M0 1194q8 27 22.5 55.5t36 50t53 36t74.5 14.5q51 0 89 -4.5t71 -10.5t63.5 -10t69.5 -4q35 0 70 8t63 45l25 -98q-6 -29 -19.5 -56.5t-35 -50t-52 -37t-73.5 -14.5q-82 0 -167 14.5t-151 14.5q-51 0 -71.5 -13.5t-40.5 -37.5z" />
<glyph unicode="&#x2000;" horiz-adv-x="873" />
<glyph unicode="&#x2001;" horiz-adv-x="1747" />
<glyph unicode="&#x2002;" horiz-adv-x="873" />
<glyph unicode="&#x2003;" horiz-adv-x="1747" />
<glyph unicode="&#x2004;" horiz-adv-x="582" />
<glyph unicode="&#x2005;" horiz-adv-x="436" />
<glyph unicode="&#x2006;" horiz-adv-x="291" />
<glyph unicode="&#x2007;" horiz-adv-x="291" />
<glyph unicode="&#x2008;" horiz-adv-x="218" />
<glyph unicode="&#x2009;" horiz-adv-x="349" />
<glyph unicode="&#x200a;" horiz-adv-x="97" />
<glyph unicode="&#x2010;" horiz-adv-x="958" d="M127 406l31 167h673l-32 -167h-672z" />
<glyph unicode="&#x2011;" horiz-adv-x="958" d="M127 406l31 167h673l-32 -167h-672z" />
<glyph unicode="&#x2012;" horiz-adv-x="958" d="M127 406l31 167h673l-32 -167h-672z" />
<glyph unicode="&#x2013;" horiz-adv-x="1114" d="M127 406l33 167h827l-31 -167h-829z" />
<glyph unicode="&#x2014;" horiz-adv-x="1601" d="M127 406l33 167h1315l-31 -167h-1317z" />
<glyph unicode="&#x2018;" horiz-adv-x="481" d="M117 1143q0 55 22.5 115.5t55 113.5t66.5 92t58 52h29l33 -23l4 -29q-23 -51 -35 -109.5t-12 -80.5q0 -33 16.5 -64.5t16.5 -76.5q0 -25 -17.5 -43.5t-43 -30.5t-55.5 -18.5t-56 -6.5q-29 0 -44.5 11.5t-24.5 29t-11 35.5t-2 33z" />
<glyph unicode="&#x2019;" horiz-adv-x="448" d="M115 1085q23 51 35 109.5t12 81.5q0 33 -16.5 64.5t-16.5 76.5q0 25 17.5 43.5t43 30.5t55 18.5t56.5 6.5t43 -12.5t25.5 -29t11.5 -35t2 -32.5q0 -55 -22.5 -115.5t-55.5 -114t-66.5 -92t-58.5 -51.5h-28l-33 23z" />
<glyph unicode="&#x201a;" horiz-adv-x="499" d="M104 -188q23 51 35.5 109.5t12.5 80.5q0 33 -16.5 64.5t-16.5 76.5q0 25 17.5 43.5t43 30.5t55 18.5t56.5 6.5t43 -12.5t25.5 -29t11.5 -35t2 -32.5q0 -55 -22.5 -115.5t-55.5 -114t-66.5 -92t-58.5 -51.5h-29l-32 23z" />
<glyph unicode="&#x201c;" horiz-adv-x="808" d="M117 1143q0 55 22.5 115.5t55 113.5t66.5 92t58 52h29l33 -23l4 -29q-23 -51 -35 -109.5t-12 -80.5q0 -33 16.5 -64.5t16.5 -76.5q0 -25 -17.5 -43.5t-43 -30.5t-55.5 -18.5t-56 -6.5q-29 0 -44.5 11.5t-24.5 29t-11 35.5t-2 33zM444 1143q0 55 22.5 115.5t55.5 113.5 t67 92t58 52h29l33 -23l4 -29q-23 -51 -35 -109.5t-12 -80.5q0 -33 16 -64.5t16 -76.5q0 -25 -17 -43.5t-43 -30.5t-55.5 -18.5t-56.5 -6.5q-29 0 -44 11.5t-24 29t-11.5 35.5t-2.5 33z" />
<glyph unicode="&#x201d;" horiz-adv-x="776" d="M115 1085q23 51 35 109.5t12 81.5q0 33 -16.5 64.5t-16.5 76.5q0 25 17.5 43.5t43 30.5t55 18.5t56.5 6.5t43 -12.5t25.5 -29t11.5 -35t2 -32.5q0 -55 -22.5 -115.5t-55.5 -114t-66.5 -92t-58.5 -51.5h-28l-33 23zM442 1085q23 51 35 109.5t12 81.5q0 33 -16 64.5 t-16 76.5q0 25 17.5 43.5t43 30.5t55 18.5t56.5 6.5t43 -12.5t25.5 -29t11.5 -35t2 -32.5q0 -55 -22.5 -115.5t-55.5 -114t-67 -92t-58 -51.5h-29l-33 23z" />
<glyph unicode="&#x201e;" horiz-adv-x="827" d="M104 -188q23 51 35.5 109.5t12.5 80.5q0 33 -16.5 64.5t-16.5 76.5q0 25 17.5 43.5t43 30.5t55 18.5t56.5 6.5t43 -12.5t25.5 -29t11.5 -35t2 -32.5q0 -55 -22.5 -115.5t-55.5 -114t-66.5 -92t-58.5 -51.5h-29l-32 23zM432 -188q23 51 35 109.5t12 80.5q0 33 -16.5 64.5 t-16.5 76.5q0 25 17.5 43.5t43 30.5t55.5 18.5t56 6.5q27 0 43.5 -12.5t25.5 -29t11 -35t2 -32.5q0 -55 -22.5 -115.5t-55 -114t-66.5 -92t-58 -51.5h-29l-33 23z" />
<glyph unicode="&#x2022;" horiz-adv-x="733" d="M186 498q0 35 13.5 67.5t38 58t57.5 41t72 15.5q35 0 67.5 -15.5t57 -41t40 -58.5t15.5 -67q0 -78 -55.5 -128.5t-124.5 -50.5q-78 0 -129.5 50.5t-51.5 128.5z" />
<glyph unicode="&#x2026;" horiz-adv-x="1388" d="M117 109q0 25 10 49t28.5 43.5t42 31t50.5 11.5q51 0 93 -42t42 -93q0 -27 -11.5 -50.5t-30.5 -42t-44 -29t-49 -10.5q-53 0 -92 39.5t-39 92.5zM561 109q0 25 10.5 49t28.5 43.5t42 31t50 11.5q51 0 93 -42t42 -93q0 -27 -11 -50.5t-30.5 -42t-44 -29t-49.5 -10.5 q-53 0 -92 39.5t-39 92.5zM1006 109q0 25 10 49t28.5 43.5t42 31t50.5 11.5q51 0 93 -42t42 -93q0 -27 -11.5 -50.5t-31 -42t-44 -29t-48.5 -10.5q-53 0 -92 39.5t-39 92.5z" />
<glyph unicode="&#x202f;" horiz-adv-x="349" />
<glyph unicode="&#x2039;" horiz-adv-x="677" d="M80 492q51 63 91 114t71.5 93t57.5 79t50 76l15 8h200l10 -20q-90 -90 -155.5 -173t-130.5 -177q66 -92 131 -175.5t155 -173.5l-10 -20h-200l-15 8q-25 39 -50.5 76t-57 79t-71.5 92t-91 114z" />
<glyph unicode="&#x203a;" horiz-adv-x="677" d="M102 143q88 90 154 173t131 176q-66 94 -131.5 177t-153.5 173l9 20h200l17 -8q25 -39 50 -76t57 -79t72 -93t91 -114q-51 -63 -91 -113.5t-72 -92.5t-57.5 -79t-49.5 -76l-17 -8h-200z" />
<glyph unicode="&#x205f;" horiz-adv-x="436" />
<glyph unicode="&#x20ac;" horiz-adv-x="1331" d="M82 422l31 168h147q-2 16 -2 35.5v38.5v36.5t2 36.5h-166l31 168h162q27 100 75 184.5t118.5 144.5t161.5 94t202 34q33 0 76 -3t89 -12.5t95 -26.5t94 -44l6 -19l-26 -227h-101l-6 8q-4 45 -26.5 77t-56.5 50.5t-75 26.5t-82 8q-61 0 -117.5 -23.5t-95.5 -66.5 q-70 -80 -96 -205h502l-33 -168h-487v-65q0 -23 1 -43.5t3 -38.5h504l-33 -168h-440q43 -137 131 -207t202 -70q70 0 163 19.5t177 75.5l25 -45l-49 -91q-88 -66 -174 -96.5t-178 -30.5q-205 0 -349.5 119t-199.5 326h-205z" />
<glyph unicode="&#x2122;" horiz-adv-x="1617" d="M170 1182v155l8 13q8 -4 34 -6.5t56.5 -4.5t58 -2h40.5h92h39.5t57.5 2t55.5 4.5t31.5 6.5l6 -7l8 -161l-61 2q-6 37 -23 45q-6 4 -20 7t-68 3h-8q0 -14 -1 -31.5t-1 -48.5v-164q0 -55 3 -88t12.5 -49t24.5 -20t40 -4l4 -68q-6 0 -18.5 1t-27.5 1t-27.5 1t-18.5 1h-113 q-12 0 -43.5 -2t-44.5 -2l4 68q29 0 45.5 6t23.5 22.5t9 45t2 71.5v180q0 29 -1 48.5t-3 31.5h-8q-53 0 -68.5 -3t-19.5 -7q-18 -12 -25 -45zM684 766l6 68q35 0 49.5 22.5t18.5 91.5l12 160q4 57 5 83t1 44q0 25 -8 33t-25 8q-10 0 -16 -1t-16 -1l-4 69q6 0 19 -1t27.5 -2 l29 -2t20.5 -1h80q6 0 26.5 1t30.5 5q-2 0 12.5 -52t35 -121.5t42 -141.5t37.5 -108q2 4 12.5 30.5t24.5 65.5t31.5 87t33 93t27.5 84t18 63q8 -6 50 -6h84q12 0 47 3t47 3v-67h-37q-23 0 -30 -22.5t-7 -51.5q0 -27 3 -52.5t5 -41.5l10 -113q2 -23 6.5 -56.5t8.5 -61.5 q8 -23 19.5 -33t37.5 -10l6 -68q-12 0 -47 2t-47 2h-65q-6 0 -19.5 -1t-29 -1t-27.5 -1t-19 -1l4 68q25 0 39.5 11t22.5 46q4 14 4 36.5v51.5l-20 231q-8 -20 -29 -74.5t-44.5 -120t-46 -130t-34.5 -103.5h-102l-132 426q0 -16 -1 -38.5t-3 -71.5l-6 -133q-2 -33 -2 -44.5 v-17.5q0 -27 3 -41t9.5 -20t16.5 -7t22 -1l7 -68q-12 0 -41 2t-41 2h-64q-6 0 -18.5 -1t-26.5 -1t-25.5 -1t-17.5 -1z" />
<glyph unicode="&#x25fc;" horiz-adv-x="942" d="M0 0v942h942v-942h-942z" />
</font>
</defs>
</svg>
