<?xml version="1.0" standalone="no"?>
<!DOCTYPE svg PUBLIC "-//W3C//DTD SVG 1.1//EN" "http://www.w3.org/Graphics/SVG/1.1/DTD/svg11.dtd" >
<svg xmlns="http://www.w3.org/2000/svg" xmlns:xlink="http://www.w3.org/1999/xlink" version="1.1">
<metadata></metadata>
<defs>
<font id="roboto_condensedbold" horiz-adv-x="1036" >
<font-face units-per-em="2048" ascent="1536" descent="-512" />
<missing-glyph horiz-adv-x="472" />
<glyph unicode="&#xfb01;" horiz-adv-x="1118" d="M29 869v213h131v43q0 105 28.5 185.5t83 135.5t133.5 83t179 28q75 0 143.5 -16.5t143.5 -42.5l-41 -241q-45 17 -99 31.5t-128 14.5q-81 0 -120 -45t-39 -133v-43h167v-213h-167v-869h-284v869h-131zM716 0v1082h284v-1082h-284z" />
<glyph horiz-adv-x="0" />
<glyph unicode="&#xd;" horiz-adv-x="472" />
<glyph horiz-adv-x="0" />
<glyph horiz-adv-x="0" />
<glyph horiz-adv-x="40" />
<glyph unicode="&#x9;" horiz-adv-x="40" />
<glyph unicode=" "  horiz-adv-x="472" />
<glyph unicode="&#x09;" horiz-adv-x="472" />
<glyph unicode="&#xa0;" horiz-adv-x="472" />
<glyph unicode="!" horiz-adv-x="533" d="M119 137q0 33 11 61.5t31 49t48.5 32.5t64.5 12q35 0 63.5 -12t48.5 -32.5t31 -49t11 -61.5t-11 -61t-31 -48.5t-48.5 -32t-63.5 -11.5q-36 0 -64.5 11.5t-48.5 32t-31 48.5t-11 61zM124 1456h301l-33 -1008h-235z" />
<glyph unicode="&#x22;" horiz-adv-x="656" d="M62 985v551h203v-138l-39 -413h-164zM389 985v551h203v-138l-40 -413h-163z" />
<glyph unicode="#" horiz-adv-x="1057" d="M58 410v173h208l42 283h-188v174h213l61 416h174l-61 -416h134l61 416h175l-61 -416h179v-174h-204l-42 -283h182v-173h-207l-60 -410h-175l60 410h-134l-59 -410h-175l60 410h-183zM440 583h134l42 283h-134z" />
<glyph unicode="$" d="M92 458h283q0 -71 12.5 -118t33.5 -75.5t48.5 -40t57.5 -11.5q33 0 57.5 13t40.5 35.5t24 54t8 68.5q0 41 -8 73t-26 57.5t-45.5 47.5t-66.5 43q-83 37 -151.5 77.5t-117.5 94t-76 124t-27 169.5q0 84 24 153.5t68 121.5t105.5 85t137.5 43v214h151v-218 q72 -14 131 -51.5t100 -96.5t63.5 -138.5t22.5 -177.5h-283q0 120 -34.5 179t-89.5 59q-30 0 -51 -13.5t-35 -37t-20.5 -55t-6.5 -68.5t8 -66.5t25.5 -55t46 -48t69.5 -46.5q82 -39 150 -80t117 -94.5t75.5 -124.5t26.5 -168q0 -87 -24 -157t-68 -121t-106.5 -82.5 t-138.5 -41.5v-199h-150v199q-70 10 -135 40.5t-115.5 87t-80.5 142t-30 204.5z" />
<glyph unicode="%" horiz-adv-x="1308" d="M97 1099v77q0 62 17.5 116.5t51.5 95.5t85 65t118 24q69 0 120 -24t85.5 -65t51.5 -95.5t17 -116.5v-77q0 -61 -17 -115.5t-51 -95t-85 -64.5t-119 -24t-119 24t-85.5 64.5t-52 95t-17.5 115.5zM281 1099q0 -26 5.5 -49.5t17 -41.5t28 -29t39.5 -11q22 0 38.5 11t27 29 t16 41.5t5.5 49.5v77q0 26 -5.5 50t-16.5 42.5t-28 29.5t-39 11t-38.5 -11t-27.5 -29.5t-16.5 -42.5t-5.5 -50v-77zM288 185l597 1138l135 -76l-598 -1138zM671 279v78q0 61 17.5 116t52 95.5t85.5 64.5t118 24q69 0 120 -24t85.5 -64.5t51.5 -95.5t17 -116v-78 q0 -62 -17 -116t-51 -95t-85 -64.5t-119 -23.5t-119.5 23.5t-86 64.5t-52 95t-17.5 116zM856 279q0 -26 6.5 -50t18.5 -42t28.5 -29t36.5 -11q27 0 44 11t26.5 29t13 42t3.5 50v78q0 26 -5.5 50t-16.5 42t-28 29t-39 11q-23 0 -39.5 -11t-27 -29t-16 -42t-5.5 -50v-78z" />
<glyph unicode="&#x26;" horiz-adv-x="1186" d="M72 392q0 63 16 114.5t45 95.5t69.5 84t90.5 81q-55 87 -87 164.5t-32 160.5q0 87 25 157.5t70.5 121t110 78t143.5 27.5q75 0 135.5 -27.5t103 -74t66 -108t23.5 -130.5q0 -102 -43 -181t-121 -140l-75 -61l187 -261q17 50 26 105t9 117h239q0 -131 -25 -245t-85 -207 l188 -263h-321l-54 76q-67 -50 -140 -73t-158 -23q-94 0 -169.5 30.5t-128 85t-80.5 130.5t-28 166zM356 409q0 -42 10.5 -78t29 -62t43.5 -40.5t54 -14.5q79 0 149 52l-230 325l-6 -5q-31 -48 -40.5 -92t-9.5 -85zM426 1097q0 -42 18.5 -84.5t49.5 -89.5l47 36 q26 20 41.5 39t23.5 38.5t10.5 39.5t2.5 42t-6.5 44.5t-19 39.5t-30.5 28t-41 11q-24 0 -42 -11.5t-30 -31t-18 -45.5t-6 -56z" />
<glyph unicode="'" horiz-adv-x="330" d="M62 983v553h213v-148l-29 -405h-184z" />
<glyph unicode="(" horiz-adv-x="662" d="M120 568v24q0 140 19 263.5t51 229t75 192t91 153.5t98.5 113.5t98.5 71.5l53 -156q-45 -42 -89 -114t-79.5 -178t-57.5 -248t-22 -325v-28q0 -183 22 -325t57.5 -248t79.5 -178.5t89 -115.5l-53 -154q-48 25 -98.5 71.5t-98.5 113.5t-91 153.5t-75 192t-51 228.5 t-19 264z" />
<glyph unicode=")" horiz-adv-x="662" d="M56 -301q44 42 88 114t79.5 178.5t58 249t22.5 325.5v28q0 183 -23 325.5t-59 249t-80 178.5t-86 114l52 154q75 -38 154 -126t144.5 -219.5t107.5 -303t42 -374.5v-24q0 -203 -42 -374t-107.5 -302.5t-144.5 -220t-154 -126.5z" />
<glyph unicode="*" horiz-adv-x="930" d="M27 1051l60 182l310 -126l-19 349h196l-20 -356l304 123l59 -183l-320 -90l210 -265l-160 -113l-182 291l-181 -282l-159 109l217 272z" />
<glyph unicode="+" horiz-adv-x="973" d="M64 553v263h288v390h268v-390h283v-263h-283v-407h-268v407h-288z" />
<glyph unicode="," horiz-adv-x="503" d="M36 -288q18 34 36.5 68t33.5 72t24.5 82.5t9.5 98.5v213h246l-1 -198q0 -57 -15 -115t-41 -112.5t-62.5 -102.5t-79.5 -85z" />
<glyph unicode="-" horiz-adv-x="744" d="M123 506v236h489v-236h-489z" />
<glyph unicode="." horiz-adv-x="596" d="M126 144q0 33 11.5 61.5t33 49.5t51.5 33t68 12q37 0 67.5 -12t52.5 -33t33.5 -49.5t11.5 -61.5t-11.5 -61.5t-33.5 -49t-52.5 -32.5t-67.5 -12q-38 0 -68 12t-51.5 32.5t-33 49t-11.5 61.5z" />
<glyph unicode="/" horiz-adv-x="678" d="M-1 -125l437 1581h207l-437 -1581h-207z" />
<glyph unicode="0" d="M95 602v254q0 163 31 280.5t87 193t133.5 111t170.5 35.5t171 -35.5t134 -111t87.5 -193t31.5 -280.5v-254q0 -164 -31 -281.5t-87 -193t-133.5 -111.5t-170.5 -36t-171 36t-134 111.5t-87.5 193t-31.5 281.5zM377 563q0 -97 10 -163.5t28.5 -107.5t44.5 -59t59 -18 q32 0 57.5 18t43.5 59t27.5 107.5t9.5 163.5v334q0 96 -10 161.5t-28 106t-44 58.5t-58 18t-58 -18t-44 -58.5t-28 -106t-10 -161.5v-334z" />
<glyph unicode="1" d="M157 1005v236l531 217h30v-1458h-284v1112z" />
<glyph unicode="2" d="M71 997q0 99 30.5 186t87 152t138 103t183.5 38q100 0 176.5 -28.5t128.5 -81.5t78.5 -130t26.5 -173q0 -73 -19 -141.5t-54.5 -136.5t-86.5 -137.5t-115 -145.5l-187 -267h495v-235h-858v200l394 501q42 58 70 105.5t45 87.5t24 74t7 66q0 97 -33.5 152t-96.5 55 q-38 0 -66 -18.5t-47 -51t-28 -77.5t-9 -97h-284z" />
<glyph unicode="3" d="M67 399h283q0 -40 11 -73.5t30 -58t45.5 -38.5t58.5 -14q37 0 66 14t49.5 40t31.5 62.5t11 81.5q0 115 -44.5 165.5t-124.5 50.5h-137v228h137q78 0 114.5 54.5t36.5 145.5q0 40 -8.5 73.5t-26 58t-43.5 38.5t-60 14q-27 0 -51.5 -11t-42.5 -32t-29 -51t-11 -68h-283 q0 90 32 163.5t87 125t129.5 80t160.5 28.5q95 0 174 -26.5t135.5 -79t88 -130t31.5 -179.5q0 -48 -12.5 -93.5t-36.5 -86t-58.5 -75t-79.5 -58.5q103 -44 153.5 -132t50.5 -208q0 -102 -34.5 -182t-94.5 -134.5t-142 -83t-177 -28.5q-80 0 -155.5 25t-134 77t-94.5 130.5 t-36 186.5z" />
<glyph unicode="4" d="M63 498l494 958h284v-906h124v-235h-124v-315h-283v315h-482zM338 550h220v487l-6 -11z" />
<glyph unicode="5" d="M95 406h280q7 -91 45 -141t98 -50q40 0 68 21t45.5 57t25 85t7.5 106t-10 104t-31.5 80t-54 51.5t-77.5 18.5q-30 0 -52.5 -7t-39 -18t-28.5 -25.5t-22 -29.5l-225 58l72 740h705v-242h-473l-26 -312q12 8 29 17.5t39 18t47.5 14t53.5 5.5q91 0 161 -33t117.5 -96 t72 -154t24.5 -207q0 -97 -26 -185t-79 -155t-133 -107t-188 -40q-81 0 -157 28.5t-135.5 83.5t-95.5 134t-37 180z" />
<glyph unicode="6" d="M99 560v112q0 177 42 324t122.5 252.5t198.5 164t270 58.5h38v-240h-14q-82 0 -146 -24.5t-109.5 -71t-74 -113t-38.5 -150.5q42 48 99 75.5t128 27.5q87 0 152 -39.5t108.5 -107t65 -157.5t21.5 -191q0 -106 -30 -197.5t-85 -158.5t-134 -105.5t-176 -38.5 q-101 0 -182 42t-138 118.5t-87.5 183.5t-30.5 236zM382 521q0 -154 41 -230t108 -76q34 0 62 19.5t47.5 54.5t30 83t10.5 105q0 58 -11 106.5t-31.5 83.5t-49 54.5t-62.5 19.5q-54 0 -90.5 -34t-54.5 -84v-102z" />
<glyph unicode="7" d="M68 1221v235h881v-163l-460 -1293h-299l462 1221h-584z" />
<glyph unicode="8" d="M98 399q0 121 52 211t143 140q-80 49 -125 131t-45 188q0 99 29 175t81.5 127.5t125 78t158.5 26.5q87 0 159.5 -26.5t124.5 -78t81 -127.5t29 -175q0 -106 -45 -188t-124 -131q90 -51 142 -140.5t52 -210.5q0 -104 -31.5 -182t-87 -131t-132 -79.5t-166.5 -26.5 t-167 26.5t-133.5 79.5t-88.5 131t-32 182zM381 421q0 -97 36.5 -151.5t101.5 -54.5q64 0 98.5 54.5t34.5 151.5t-36 152t-99 55t-99.5 -55t-36.5 -152zM407 1054q0 -86 28 -138.5t84 -52.5t83 52.5t27 138.5q0 85 -27.5 136t-84.5 51q-54 0 -82 -49.5t-28 -137.5z" />
<glyph unicode="9" d="M90 961q0 106 29.5 199.5t84 163.5t132.5 111t174 41q94 0 172 -42.5t133 -120.5t85.5 -187.5t30.5 -243.5v-102q0 -180 -40 -326.5t-120 -251t-199.5 -161t-278.5 -56.5h-18v244h15q168 0 252.5 85t101.5 249q-41 -42 -91 -67t-106 -25q-87 0 -154 37t-112 102.5 t-68 155.5t-23 195zM372 964q0 -56 8.5 -105t26.5 -86t46 -58.5t66 -21.5q43 0 76 32t53 80v130q0 77 -11 134.5t-30.5 95.5t-45 57t-53.5 19q-33 0 -58.5 -23.5t-42.5 -62t-26 -88.5t-9 -103z" />
<glyph unicode=":" horiz-adv-x="562" d="M128 144q0 33 11.5 61.5t33 49.5t51.5 33t68 12q37 0 67.5 -12t52.5 -33t33.5 -49.5t11.5 -61.5t-11.5 -61.5t-33.5 -49t-52.5 -32.5t-67.5 -12q-38 0 -68 12t-51.5 32.5t-33 49t-11.5 61.5zM128 962q0 33 11.5 61.5t33 49.5t51.5 33t68 12q37 0 67.5 -12t52.5 -33 t33.5 -49.5t11.5 -61.5t-11.5 -61.5t-33.5 -49t-52.5 -32.5t-67.5 -12q-38 0 -68 12t-51.5 32.5t-33 49t-11.5 61.5z" />
<glyph unicode=";" horiz-adv-x="522" d="M60 -288q18 34 36.5 68t33.5 72t24.5 82.5t9.5 98.5v213h246l-1 -198q0 -57 -15 -115t-41 -112.5t-62.5 -102.5t-79.5 -85zM112 962q0 33 11.5 61.5t33 49.5t51.5 33t68 12q37 0 67.5 -12t52.5 -33t33.5 -49.5t11.5 -61.5t-11.5 -61.5t-33.5 -49t-52.5 -32.5t-67.5 -12 q-38 0 -68 12t-51.5 32.5t-33 49t-11.5 61.5z" />
<glyph unicode="&#x3c;" horiz-adv-x="915" d="M61 500v238l728 365v-282l-453 -204l453 -199v-282z" />
<glyph unicode="=" horiz-adv-x="1030" d="M132 311v237h763v-237h-763zM132 744v238h763v-238h-763z" />
<glyph unicode="&#x3e;" horiz-adv-x="930" d="M121 135v280l462 206l-462 201v280l738 -364v-238z" />
<glyph unicode="?" horiz-adv-x="918" d="M50 1068q1 105 32 182t84.5 127t125 74.5t155.5 24.5q92 0 164.5 -26t123 -76t77.5 -123t27 -168q0 -65 -18 -118t-47 -99.5t-67 -90t-78 -88.5q-22 -26 -36.5 -52t-23 -54.5t-12.5 -61t-5 -71.5h-248q0 67 6 120.5t20.5 98.5t39 84t60.5 77q27 30 50 58.5t39.5 57.5 t26 60t9.5 67q0 167 -108 167q-19 0 -39 -9.5t-36.5 -30.5t-27 -53t-11.5 -77h-283zM278 142q0 33 11 61t31 48.5t48.5 32.5t63.5 12q36 0 64.5 -12t48.5 -32.5t31 -48.5t11 -61t-11 -61t-31 -49t-48.5 -32.5t-64.5 -11.5q-35 0 -63.5 11.5t-48.5 32.5t-31 49t-11 61z" />
<glyph unicode="@" horiz-adv-x="1569" d="M82 463q7 205 62 379t151 301.5t229.5 199.5t299.5 72q162 0 288.5 -63t211 -178.5t126 -277.5t34.5 -359q-2 -68 -12.5 -136t-30.5 -130t-50 -115.5t-71.5 -92.5t-95 -61.5t-119.5 -22.5q-71 0 -123 35t-81 99q-42 -66 -95 -98.5t-114 -32.5q-62 0 -111.5 32t-82 91 t-46.5 141.5t-6 184.5q12 128 47.5 231.5t88 176t119 112t141.5 39.5q50 0 88.5 -9t69.5 -24t57 -35t53 -41l-44 -578q-4 -50 0.5 -81.5t15 -49.5t26 -24.5t33.5 -6.5q37 0 67.5 30t53 82.5t36 123.5t15.5 153q6 164 -20.5 297t-87.5 227.5t-157 146t-228 51.5 q-127 0 -226 -59.5t-169 -165t-108.5 -250t-44.5 -314.5q-7 -182 23 -320t94 -231.5t159.5 -141t220.5 -47.5q37 0 75 5t74.5 14t69.5 21.5t60 27.5l34 -155q-30 -23 -68.5 -39.5t-80.5 -27.5t-85 -16.5t-82 -5.5q-168 0 -298.5 59.5t-218.5 176t-131 287.5t-36 393z M661 431q-8 -133 18 -201t83 -68q11 0 25 7t29 24t30 47t27 75l36 491q-11 3 -23 5t-25 2q-47 0 -81.5 -25t-58.5 -73t-38.5 -119.5t-21.5 -164.5z" />
<glyph unicode="A" horiz-adv-x="1223" d="M22 0l455 1456h269l458 -1456h-314l-78 298h-401l-78 -298h-311zM475 543h272l-136 519z" />
<glyph unicode="B" horiz-adv-x="1149" d="M117 0v1456h450q109 0 195.5 -24t146.5 -73.5t91.5 -124.5t31.5 -177q0 -50 -10.5 -96t-33 -86t-57 -72.5t-82.5 -53.5q56 -16 95 -48.5t63 -75.5t35 -93.5t11 -103.5q0 -212 -116.5 -320t-337.5 -108h-482zM411 244h188q43 0 73.5 14t50 39.5t28.5 59.5t9 75 q0 93 -34.5 147t-116.5 54h-198v-389zM411 847h153q88 0 130.5 45.5t42.5 133.5q0 99 -40 142t-130 43h-156v-364z" />
<glyph unicode="C" horiz-adv-x="1168" d="M90 603v248q0 152 35.5 269t102.5 196t162 119.5t214 40.5q238 0 361.5 -133t140.5 -382h-295q-2 78 -13.5 130.5t-35.5 83.5t-62.5 44t-95.5 13q-59 0 -100.5 -20t-67.5 -64.5t-38.5 -117t-12.5 -177.5v-250q0 -102 10 -174t35 -117.5t66 -66.5t104 -21q54 0 92.5 11.5 t63.5 40.5t38 80t16 129h294q-11 -249 -140 -377t-364 -128q-121 0 -216 40t-160 119t-99.5 195.5t-34.5 268.5z" />
<glyph unicode="D" horiz-adv-x="1157" d="M117 0v1456h385q126 0 229.5 -41.5t177 -120t114 -193t40.5 -261.5v-226q0 -147 -40 -261t-114 -192.5t-178 -119.5t-232 -41h-382zM411 244h88q78 0 130 20.5t83 65.5t44 115t13 169v228q0 100 -13 170t-44 114t-82.5 64.5t-127.5 20.5h-91v-967z" />
<glyph unicode="E" horiz-adv-x="1005" d="M117 0v1456h834v-245h-540v-344h458v-237h-458v-386h542v-244h-836z" />
<glyph unicode="F" horiz-adv-x="974" d="M117 0v1456h806v-245h-512v-373h457v-244h-457v-594h-294z" />
<glyph unicode="G" horiz-adv-x="1198" d="M95 604v246q0 159 36 276.5t102.5 195.5t162 116t214.5 38q124 0 214 -31t150 -92.5t92 -152t41 -208.5h-286q-6 69 -19.5 115t-38 73.5t-60 39.5t-84.5 12q-58 0 -101 -20.5t-71.5 -66t-42.5 -118t-14 -175.5v-248q0 -104 15.5 -176t47 -117.5t79.5 -66t113 -20.5 q39 0 66.5 6t47 14.5t32 17.5t21.5 15v267h-206v222h501v-601q-23 -25 -62 -57t-97.5 -60.5t-137.5 -48t-182 -19.5q-122 0 -220 38t-168 115t-107.5 194.5t-37.5 276.5z" />
<glyph unicode="H" horiz-adv-x="1257" d="M117 0v1456h294v-589h434v589h293v-1456h-293v623h-434v-623h-294z" />
<glyph unicode="I" horiz-adv-x="554" d="M130 0v1456h294v-1456h-294z" />
<glyph unicode="J" horiz-adv-x="1004" d="M46 430h295q0 -58 9.5 -97.5t26 -63.5t40 -34.5t51.5 -10.5q61 0 94.5 58t33.5 166v1008h294v-1008q0 -109 -32 -196t-89 -147.5t-134 -92.5t-167 -32q-91 0 -168.5 27t-133.5 82.5t-88 140t-32 200.5z" />
<glyph unicode="K" horiz-adv-x="1133" d="M117 0v1456h294v-635l93 157l271 478h360l-417 -640l424 -816h-349l-266 562l-116 -146v-416h-294z" />
<glyph unicode="L" horiz-adv-x="980" d="M117 0v1456h294v-1212h516v-244h-810z" />
<glyph unicode="M" horiz-adv-x="1553" d="M117 0v1456h384l275 -1053l274 1053h384v-1456h-295v394l27 607l-291 -1001h-200l-291 1001l27 -607v-394h-294z" />
<glyph unicode="N" horiz-adv-x="1254" d="M117 0v1456h294l431 -956v956h293v-1456h-294l-430 955v-955h-294z" />
<glyph unicode="O" horiz-adv-x="1236" d="M92 597v242q0 157 38 276.5t107 199.5t166 120.5t214 40.5t213.5 -40.5t166 -120.5t107.5 -199.5t38 -276.5v-242q0 -153 -38 -269t-106.5 -193t-165 -116t-213.5 -39t-214 39t-166.5 116t-108 193t-38.5 269zM386 597q0 -99 15 -169.5t44.5 -115.5t73 -66t100.5 -21 q56 0 98.5 21t71.5 66t43.5 115.5t14.5 169.5v244q0 104 -15 177.5t-44 120.5t-72 69t-99 22q-57 0 -100 -22t-72 -69t-44 -120.5t-15 -177.5v-244z" />
<glyph unicode="P" horiz-adv-x="1165" d="M117 0v1456h496q111 0 198.5 -36t148.5 -100.5t93.5 -153t32.5 -192.5q0 -106 -32.5 -191.5t-93.5 -145.5t-149 -92.5t-198 -32.5h-202v-512h-294zM411 757h202q46 0 79.5 16t55 44.5t31.5 68t10 86.5t-10 90t-31.5 76t-55 53t-79.5 20h-202v-454z" />
<glyph unicode="Q" horiz-adv-x="1236" d="M90 615v224q0 157 38 276.5t107 199.5t166 120.5t214 40.5t214 -40.5t166.5 -120.5t107.5 -199.5t38 -276.5v-224q0 -186 -51 -316.5t-144 -208.5l201 -180l-185 -170l-268 245q-19 -2 -38 -3.5t-39 -1.5q-117 0 -214 40t-166.5 120t-108 198.5t-38.5 276.5zM384 615 q0 -103 15 -177t44.5 -121t73 -69.5t100.5 -22.5q56 0 98.5 22.5t71.5 69.5t44 121t15 177v226q0 104 -15 177.5t-44.5 120.5t-72.5 69t-99 22q-57 0 -100 -22t-72 -69t-44 -120.5t-15 -177.5v-226z" />
<glyph unicode="R" horiz-adv-x="1134" d="M118 0v1456h469q109 0 194.5 -28.5t145 -84t91 -137.5t31.5 -190q0 -79 -14.5 -142.5t-42 -113t-66.5 -86.5t-88 -64l255 -596v-14h-316l-219 532h-146v-532h-294zM412 777h167q88 0 132 58.5t44 156.5q0 50 -9.5 90.5t-30 69t-52.5 44t-76 15.5h-175v-434z" />
<glyph unicode="S" horiz-adv-x="1106" d="M74 459h295q0 -66 13 -112t39.5 -74.5t65.5 -41t91 -12.5q42 0 71.5 12.5t48 34t26.5 51.5t8 65q0 38 -7 68t-29.5 56.5t-64 51.5t-110.5 53q-82 31 -156.5 71t-131 94.5t-90 126t-33.5 166.5q0 91 34 166.5t95.5 128.5t146 82.5t186.5 29.5q105 0 189.5 -33.5t144 -93 t91.5 -142t32 -181.5h-293q0 46 -9.5 84.5t-30 66t-52.5 43t-77 15.5q-42 0 -72.5 -13t-50.5 -35.5t-30 -53.5t-10 -66q0 -36 15.5 -65t44 -54t69 -47t89.5 -43q102 -37 178 -82t127 -102t76 -128.5t25 -161.5q0 -96 -31.5 -171t-90 -126.5t-141.5 -79t-187 -27.5 q-94 0 -184.5 28.5t-161.5 87.5t-114.5 149t-43.5 214z" />
<glyph unicode="T" horiz-adv-x="1112" d="M51 1211v245h1009v-245h-360v-1211h-295v1211h-354z" />
<glyph unicode="U" horiz-adv-x="1170" d="M105 456v1000h296v-1000q0 -72 12 -117t35.5 -70.5t58 -35t79.5 -9.5t79.5 9.5t57.5 35t35 70.5t12 117v1000h294v-1000q0 -127 -35.5 -217t-99 -147.5t-151.5 -84.5t-192 -27q-106 0 -194.5 27t-152 84.5t-99 147.5t-35.5 217z" />
<glyph unicode="V" horiz-adv-x="1184" d="M21 1456h326l244 -1056l245 1056h328l-420 -1456h-306z" />
<glyph unicode="W" horiz-adv-x="1534" d="M44 1456h293l137 -914l171 914h247l171 -915l138 915h291l-259 -1456h-295l-170 858l-168 -858h-296z" />
<glyph unicode="X" horiz-adv-x="1146" d="M33 0l350 734l-343 722h337l196 -500l196 500h337l-342 -722l350 -734h-341l-200 509l-199 -509h-341z" />
<glyph unicode="Y" horiz-adv-x="1111" d="M16 1456h320l220 -654l219 654h320l-390 -928v-528h-298v528z" />
<glyph unicode="Z" horiz-adv-x="1086" d="M72 1211v245h939v-173l-589 -1039h600v-244h-944v177l594 1034h-600z" />
<glyph unicode="[" horiz-adv-x="540" d="M110 -339v2034h389v-224h-105v-1587h105v-223h-389z" />
<glyph unicode="\" horiz-adv-x="781" d="M10 1456h289l510 -1581h-289z" />
<glyph unicode="]" horiz-adv-x="540" d="M34 -116h106v1587h-106v224h389v-2034h-389v223z" />
<glyph unicode="^" horiz-adv-x="800" d="M49 729l252 727h203l251 -727h-221l-132 455l-131 -455h-222z" />
<glyph unicode="_" horiz-adv-x="819" d="M21 0h775v-228h-775v228z" />
<glyph unicode="`" horiz-adv-x="678" d="M52 1536h317l198 -310h-239z" />
<glyph unicode="a" horiz-adv-x="964" d="M72 303q0 82 26.5 148.5t80 113t134 71.5t189.5 25h77v87q0 73 -25 103t-73 30q-55 0 -80.5 -32.5t-25.5 -91.5h-283q0 71 27.5 133.5t79.5 109.5t125 74.5t165 27.5q81 0 149 -20.5t118 -64t78 -111t28 -162.5v-480q0 -47 2.5 -83.5t7.5 -66t12.5 -53t17.5 -44.5v-17 h-285q-8 17 -13.5 38.5t-10.5 45.5q-32 -44 -82.5 -74t-123.5 -30q-66 0 -123.5 23t-100 65t-67 101.5t-24.5 133.5zM356 322q0 -59 24.5 -89.5t69.5 -30.5q47 0 80 19t49 45v225h-67q-40 0 -69 -13t-48.5 -36t-29 -54t-9.5 -66z" />
<glyph unicode="b" horiz-adv-x="1014" d="M103 0v1536h283v-542q38 51 90 79.5t121 28.5q182 0 266 -133.5t84 -391.5v-71q0 -263 -84 -394.5t-264 -131.5q-75 0 -130.5 33.5t-95.5 93.5l-9 -107h-261zM386 291q18 -36 50 -56t82 -20q46 0 75 16t44.5 51t21 90t5.5 134v71q0 73 -5.5 127t-21.5 90t-45 53.5 t-76 17.5q-48 0 -79.5 -21.5t-50.5 -59.5v-493z" />
<glyph unicode="c" horiz-adv-x="942" d="M69 501v78q0 124 26.5 221.5t79.5 164.5t134 102t189 35q87 0 158.5 -27.5t122 -81t78 -132.5t28.5 -183h-266q-1 91 -30 140t-96 49q-47 0 -74.5 -19t-42 -55.5t-19 -90t-4.5 -123.5v-78q0 -71 4 -124.5t18.5 -89.5t42.5 -54t76 -18q59 0 91.5 36.5t33.5 123.5h266 q-1 -92 -31 -165.5t-81.5 -124.5t-121.5 -78t-151 -27q-109 0 -190 35t-134.5 101.5t-80 163.5t-26.5 221z" />
<glyph unicode="d" horiz-adv-x="1015" d="M65 503v71q0 266 90 397t262 131q66 0 117.5 -28.5t90.5 -79.5v542h285v-1536h-257l-13 110q-41 -61 -96.5 -95.5t-127.5 -34.5q-172 0 -261.5 133t-89.5 390zM349 503q0 -75 7 -129t24.5 -89.5t46 -52t71.5 -16.5q45 0 76 20t51 55v494q-20 38 -51.5 59t-74.5 21 q-42 0 -70.5 -17t-46.5 -52t-25.5 -90.5t-7.5 -131.5v-71z" />
<glyph unicode="e" horiz-adv-x="980" d="M78 479v89q0 132 29.5 231.5t85 167t136 101.5t182.5 34q206 0 309 -133t103 -394v-129h-563q3 -65 17.5 -109t39.5 -71t60.5 -39t80.5 -12q75 0 133.5 25.5t103.5 71.5l111 -171q-21 -29 -55 -57.5t-80 -51.5t-104 -37.5t-127 -14.5q-111 0 -197 34t-145 98t-89.5 156.5 t-30.5 210.5zM362 644h283v26q-2 97 -32 147t-104 50t-107.5 -53t-39.5 -170z" />
<glyph unicode="f" horiz-adv-x="671" d="M37 869v213h131v93q0 93 24.5 164t70.5 119.5t111.5 73.5t146.5 25q35 0 66 -6t62 -14l-2 -226q-29 9 -69 9q-61 0 -93.5 -37t-32.5 -108v-93h169v-213h-169v-869h-284v869h-131z" />
<glyph unicode="g" horiz-adv-x="1030" d="M69 503v71q0 266 96 397t269 131q79 0 134 -30.5t93 -85.5l11 96h255v-1082q0 -111 -32.5 -191.5t-91.5 -132.5t-141.5 -77t-183.5 -25q-38 0 -84 8t-92 23.5t-87.5 39t-69.5 55.5l95 196q19 -20 45.5 -37.5t56 -30t61.5 -20t62 -7.5q43 0 76.5 9.5t56.5 32.5t34.5 61 t11.5 95v87q-39 -51 -90.5 -78.5t-120.5 -27.5q-86 0 -153.5 34t-114 100t-71.5 163.5t-25 225.5zM352 503q0 -150 39 -218.5t124 -68.5q46 0 77.5 16.5t51.5 46.5v517q-21 33 -52.5 51t-74.5 18q-84 0 -124.5 -69t-40.5 -222v-71z" />
<glyph unicode="h" horiz-adv-x="1008" d="M96 0v1536h283v-549q44 55 100.5 85t125.5 30q67 0 123 -23t96 -73t62 -130t22 -195v-681h-284v683q0 52 -8 87t-24 56t-39 30t-54 9q-42 0 -71 -19t-49 -52v-794h-283z" />
<glyph unicode="i" horiz-adv-x="516" d="M103 1362q0 33 11 60.5t31 47.5t48.5 31t63.5 11t63.5 -11t48.5 -31t31 -47.5t11 -60.5t-11 -60.5t-31 -48t-48.5 -31.5t-63.5 -11t-63.5 11t-48.5 31.5t-31 48t-11 60.5zM116 0v1082h284v-1082h-284z" />
<glyph unicode="j" horiz-adv-x="503" d="M-54 -189q21 -4 39.5 -6.5t35.5 -2.5q48 0 72 33.5t24 106.5v1140h284v-1140q0 -185 -85 -282t-241 -97q-33 0 -64 4t-64 13zM98 1362q0 33 11 60.5t31 47.5t48.5 31t63.5 11t63.5 -11t48.5 -31t31 -47.5t11 -60.5t-11 -60.5t-31 -48t-48.5 -31.5t-63.5 -11t-63.5 11 t-48.5 31.5t-31 48t-11 60.5z" />
<glyph unicode="k" horiz-adv-x="980" d="M103 0v1536h283v-830l35 52l196 324h337l-314 -446l344 -636h-324l-198 417l-76 -85v-332h-283z" />
<glyph unicode="l" horiz-adv-x="516" d="M116 0v1536h284v-1536h-284z" />
<glyph unicode="m" horiz-adv-x="1519" d="M104 0v1082h265l8 -100q45 57 107.5 88.5t143.5 31.5q75 0 134.5 -35t94.5 -111q44 69 109.5 107.5t155.5 38.5q66 0 119.5 -22t91.5 -71t59 -128t21 -193v-688h-283v689q0 54 -7.5 88t-22.5 53.5t-36 27t-48 7.5q-42 0 -71 -26t-47 -71q1 -11 1.5 -23t0.5 -24v-721h-283 v687q0 54 -7.5 88.5t-22 54.5t-36 27.5t-48.5 7.5q-39 0 -67.5 -21t-48.5 -58v-786h-283z" />
<glyph unicode="n" horiz-adv-x="1008" d="M96 0v1082h266l8 -107q47 62 110 94.5t141 32.5q63 0 116 -21.5t91 -70.5t59 -128t21 -194v-688h-284v689q0 52 -8 86t-23.5 54t-38.5 28t-54 8q-40 0 -70 -21t-50 -58v-786h-284z" />
<glyph unicode="o" horiz-adv-x="1019" d="M70 505v71q0 127 31 225t88 165t137.5 101.5t180.5 34.5q101 0 182 -34.5t138 -101.5t88 -165t31 -225v-71q0 -128 -30.5 -225.5t-87.5 -164.5t-138 -101t-181 -34q-101 0 -182 34t-138 101t-88 164.5t-31 225.5zM354 505q0 -151 41 -220.5t114 -69.5q77 0 116 69.5 t39 220.5v71q0 148 -41 219.5t-116 71.5q-72 0 -112.5 -71.5t-40.5 -219.5v-71z" />
<glyph unicode="p" horiz-adv-x="1014" d="M103 -416v1498h262l10 -99q39 57 93.5 88t127.5 31q175 0 262.5 -129t87.5 -395v-71q0 -255 -87.5 -391t-260.5 -136q-69 0 -121.5 28t-90.5 79v-503h-283zM386 285q18 -33 49.5 -51.5t79.5 -18.5q84 0 116.5 71t32.5 221v71q0 77 -8 131.5t-26 89t-46.5 50.5t-70.5 16 q-45 0 -76.5 -19t-50.5 -54v-507z" />
<glyph unicode="q" horiz-adv-x="1018" d="M65 505v71q0 266 89 396t264 130q75 0 130.5 -33.5t95.5 -94.5l18 108h247v-1498h-284v500q-38 -50 -89.5 -77t-118.5 -27q-173 0 -262.5 135.5t-89.5 389.5zM349 505q0 -75 7.5 -129.5t25 -90.5t46 -53t71.5 -17q46 0 76.5 17.5t49.5 49.5v515q-40 70 -125 70 q-42 0 -71 -17t-46.5 -52t-25.5 -90.5t-8 -131.5v-71z" />
<glyph unicode="r" horiz-adv-x="679" d="M102 0v1082h267l8 -117q32 65 78.5 101t106.5 36q19 0 41.5 -3.5t36.5 -9.5l-3 -280q-19 2 -46.5 5t-47.5 3q-61 0 -99 -26t-58 -76v-715h-284z" />
<glyph unicode="s" horiz-adv-x="930" d="M58 335h269q1 -44 12 -72.5t29.5 -45.5t44 -23.5t55.5 -6.5q114 0 114 103q0 21 -10.5 38.5t-33 35t-58.5 35.5t-86 40q-74 30 -131 61.5t-96 71t-59 89t-20 114.5q0 68 25.5 127.5t73.5 104t117.5 70t157.5 25.5q91 0 163.5 -24.5t123.5 -69t78 -107t27 -138.5h-283 q0 62 -25 97t-85 35q-45 0 -74 -28t-29 -78q0 -21 9.5 -37.5t31 -32.5t56.5 -33t86 -39q81 -30 140.5 -63t98.5 -73.5t58 -91.5t19 -118q0 -72 -28 -131t-79.5 -101t-124.5 -65.5t-163 -23.5q-99 0 -174.5 30.5t-126.5 81t-77 114t-26 129.5z" />
<glyph unicode="t" horiz-adv-x="629" d="M24 869v213h125v266h283v-266h145v-213h-145v-537q0 -34 4.5 -56t15 -34.5t26.5 -17t39 -4.5q21 0 38.5 2t28.5 5l-2 -220q-32 -12 -69 -19.5t-87 -7.5q-63 0 -114 17.5t-87.5 56t-56 99.5t-19.5 147v569h-125z" />
<glyph unicode="u" horiz-adv-x="1008" d="M96 382v700h283v-702q0 -89 29 -126.5t76 -37.5q52 0 86 22.5t54 61.5v782h285v-1082h-266l-8 99q-42 -57 -100.5 -88t-135.5 -31q-68 0 -123.5 22.5t-95.5 71t-62 125t-22 183.5z" />
<glyph unicode="v" horiz-adv-x="920" d="M25 1082h296l137 -682l137 682h295l-297 -1082h-270z" />
<glyph unicode="w" horiz-adv-x="1296" d="M34 1082h272l96 -608l144 608h201l144 -607l97 607h271l-224 -1082h-235l-153 626l-153 -626h-236z" />
<glyph unicode="x" horiz-adv-x="927" d="M32 0l256 553l-245 529h301l121 -321l126 321h300l-247 -529l256 -553h-301l-133 339l-132 -339h-302z" />
<glyph unicode="y" horiz-adv-x="914" d="M16 1082h304l130 -611l144 611h302l-356 -1244q-12 -41 -32.5 -89t-55.5 -89.5t-87 -69t-126 -27.5q-19 0 -33.5 1.5t-27 3.5t-25.5 5.5t-30 8.5v221q8 -1 16.5 -1h16.5q34 0 59 6.5t42.5 20.5t29 35.5t19.5 51.5l22 73z" />
<glyph unicode="z" horiz-adv-x="927" d="M80 0v177l418 669h-408v236h748v-171l-422 -676h428v-235h-764z" />
<glyph unicode="{" horiz-adv-x="610" d="M56 514v208q36 0 62 14.5t42.5 41.5t24.5 65.5t8 85.5v203q0 79 15 150.5t51 132t95 107t148 75.5l54 -162q-33 -16 -54.5 -45.5t-34 -69t-17 -87.5t-4.5 -101v-203q0 -100 -38 -181t-121 -129q82 -48 120.5 -129.5t38.5 -180.5v-203q0 -53 4.5 -101t16.5 -87.5t33.5 -69 t54.5 -45.5l-53 -163q-89 29 -148 76t-95 107.5t-51 132t-15 150.5v203q0 93 -32 149t-105 56z" />
<glyph unicode="|" horiz-adv-x="519" d="M173 -270v1726h176v-1726h-176z" />
<glyph unicode="}" horiz-adv-x="610" d="M53 1435l54 162q89 -29 148.5 -75.5t95 -107t50.5 -132t15 -150.5v-203q0 -47 8 -85.5t24.5 -65.5t42.5 -41.5t63 -14.5v-208q-37 0 -63 -14.5t-42.5 -41.5t-24.5 -65t-8 -84v-203q0 -79 -15 -150.5t-50.5 -132t-95 -107.5t-148.5 -76l-53 163q34 16 55.5 45.5t33.5 69 t16.5 87.5t4.5 101v203q0 101 39 182t124 127q-86 47 -124.5 128t-38.5 183v203q0 53 -4.5 101t-17 87.5t-34 69t-55.5 45.5z" />
<glyph unicode="~" horiz-adv-x="1141" d="M99 415q0 96 22 173t60.5 130t91.5 81.5t115 28.5q66 0 121.5 -32.5t111.5 -98.5q29 -42 57.5 -63t57.5 -21q21 0 39 14t31.5 38.5t21 57.5t7.5 71h206q0 -95 -22 -172.5t-61 -132.5t-92 -84.5t-115 -29.5q-33 0 -62.5 8t-57.5 24t-55 41t-57 59q-30 41 -58.5 62 t-57.5 21q-21 0 -38.5 -13.5t-30 -37.5t-19.5 -56.5t-7 -70.5z" />
<glyph unicode="&#xa1;" horiz-adv-x="555" d="M125 947q0 33 11 61t31 49t48.5 32.5t63.5 11.5q36 0 64.5 -11.5t48.5 -32.5t31 -49t11 -61t-11 -61t-31 -48.5t-48.5 -32.5t-64.5 -12q-35 0 -63.5 12t-48.5 32.5t-31 48.5t-11 61zM128 -369l33 1007h235l33 -1007h-301z" />
<glyph unicode="&#xa2;" horiz-adv-x="1043" d="M97 501v78q0 220 82.5 353t252.5 162v224h191v-226q134 -27 211 -131.5t79 -282.5h-266q-1 91 -30 140t-96 49q-47 0 -74.5 -19t-42 -55.5t-19 -90t-4.5 -123.5v-78q0 -71 4 -124.5t18.5 -89.5t42.5 -54t76 -18q59 0 91.5 36.5t33.5 123.5h266q-1 -78 -22.5 -143 t-60 -113.5t-91.5 -81t-116 -46.5v-236h-191v233q-170 29 -252.5 161.5t-82.5 351.5z" />
<glyph unicode="&#xa3;" horiz-adv-x="1074" d="M104 575v237h121l-6 227q0 103 29 184.5t81 137t124.5 85t160.5 29.5q95 0 168.5 -30t124 -85t76.5 -132t26 -171h-279q0 49 -9.5 82t-25.5 53.5t-37 29.5t-44 9q-42 0 -71.5 -48t-29.5 -144l8 -227h250v-237h-242l5 -137q-1 -60 -14 -108t-42 -86h534v-244h-906v244h74 q19 6 30 23.5t16.5 42t7 53.5t1.5 58l-4 154h-127z" />
<glyph unicode="&#xa4;" horiz-adv-x="1417" d="M80 118l135 137q-48 75 -74 164t-26 189q0 104 28.5 196t80.5 169l-144 147l141 144l142 -145q74 55 162 85t186 30t186.5 -30.5t162.5 -86.5l144 148l142 -145l-148 -151q51 -76 79 -167t28 -194q0 -99 -25.5 -186.5t-72.5 -162.5l139 -141l-142 -145l-132 134 q-75 -60 -166.5 -93.5t-194.5 -33.5t-194.5 33t-166.5 93l-129 -132zM301 608q0 -92 32 -172t87.5 -139t130 -93t160.5 -34q85 0 159.5 34t130 93t87.5 139t32 172t-32 172t-87.5 138.5t-130 92t-159.5 33.5q-86 0 -160.5 -33.5t-130 -92t-87.5 -138.5t-32 -172z" />
<glyph unicode="&#xa5;" horiz-adv-x="1101" d="M31 1456h322l198 -550l197 550h322l-309 -714h177v-176h-244v-114h244v-175h-244v-277h-294v277h-264v175h264v114h-264v176h204z" />
<glyph unicode="&#xa6;" horiz-adv-x="517" d="M127 -270v795h262v-795h-262zM127 698v758h262v-758h-262z" />
<glyph unicode="&#xa7;" horiz-adv-x="1131" d="M94 -34h283q0 -55 16 -90t42 -55.5t59 -28t67 -7.5q81 0 122 37t41 100q0 32 -11 56.5t-37.5 46.5t-70.5 42.5t-110 44.5q-95 30 -169 65.5t-125.5 84.5t-78.5 115t-27 156q0 91 35.5 158.5t101.5 112.5q-58 51 -88.5 120t-30.5 170q0 87 31.5 157.5t90 120.5t141.5 77 t185 27q104 0 187 -28t140.5 -82.5t88.5 -134t31 -182.5h-283q0 40 -10 75t-30.5 61t-51.5 41t-72 15q-44 0 -75 -11.5t-50.5 -31t-29 -46t-9.5 -56.5q0 -36 9.5 -61.5t34.5 -47t68.5 -41t111.5 -42.5q97 -29 172.5 -64.5t127 -85t78.5 -115.5t27 -157q0 -92 -36 -158.5 t-102 -110.5q58 -51 88 -120t30 -170q0 -90 -31.5 -160t-90 -117.5t-140.5 -72t-183 -24.5q-87 0 -171 20t-150 68t-106 128.5t-40 200.5zM377 564q0 -39 9 -66.5t33 -50.5t66 -44.5t108 -46.5l52.5 -17.5t49.5 -17.5q25 23 38.5 56.5t13.5 75.5q0 35 -11 62t-36.5 51 t-68 46t-106.5 48q-28 9 -53.5 17.5t-49.5 18.5q-23 -23 -34 -56.5t-11 -75.5z" />
<glyph unicode="&#xa8;" horiz-adv-x="959" d="M93 1365q0 27 10.5 50.5t29 40.5t44 27t55.5 10t55.5 -10t44 -27t29 -40.5t10.5 -50.5t-10.5 -50t-29 -40t-44 -27t-55.5 -10t-55.5 10t-44 27t-29 40t-10.5 50zM582 1365q0 27 10.5 50t29 40t44 27t55.5 10t55.5 -10t44 -27t29 -40t10.5 -50t-10.5 -50t-29 -40.5 t-44 -27t-55.5 -9.5t-55.5 9.5t-44 27t-29 40.5t-10.5 50z" />
<glyph unicode="&#xa9;" horiz-adv-x="1606" d="M86 729q0 106 25.5 202.5t71.5 179.5t111 150.5t144 115t169.5 73.5t188.5 26t188.5 -26t169.5 -73.5t144 -115t111 -150.5t71.5 -179.5t25.5 -202.5q0 -159 -56 -295.5t-152.5 -237.5t-225.5 -158.5t-276 -57.5q-98 0 -188.5 26t-169.5 74t-144 116t-111 151 t-71.5 179.5t-25.5 202.5zM208 729q0 -132 46 -246.5t126 -198.5t187 -132t229 -48q81 0 156 22t140 62t119 96.5t92 126t59 150t21 168.5t-21 168.5t-59 149.5t-92 125t-119 96t-140 61.5t-156 21.5q-122 0 -229 -47.5t-187 -131t-126 -197.5t-46 -246zM433 669v119 q0 86 24.5 157t69.5 122t109.5 79.5t145.5 28.5q77 0 139.5 -19.5t106 -59t67 -98.5t23.5 -137h-156q0 96 -46 137.5t-134 41.5q-48 0 -84.5 -18.5t-60.5 -52t-36.5 -79.5t-12.5 -101v-120q0 -56 12.5 -102.5t36.5 -79.5t60.5 -51.5t84.5 -18.5q89 0 134 40.5t45 138.5h156 q0 -79 -23.5 -138t-67 -98t-105.5 -58.5t-139 -19.5q-81 0 -145.5 28t-109.5 79t-69.5 122.5t-24.5 157.5z" />
<glyph unicode="&#xaa;" horiz-adv-x="805" d="M130 919q0 111 70.5 171t219.5 60h75v51q0 62 -20.5 94.5t-63.5 32.5q-48 0 -74 -25.5t-26 -73.5l-165 14q0 51 19 93.5t53.5 73.5t83.5 48.5t109 17.5q56 0 102 -17.5t79 -52t51 -86t18 -120.5v-314q0 -49 5 -93t17 -88h-168q-5 15 -8 30.5t-6 32.5q-25 -32 -64.5 -54.5 t-97.5 -22.5q-50 0 -89 16t-65.5 46t-40.5 72t-14 94zM296 923q0 -42 21.5 -65t64.5 -23q29 0 60 16.5t53 39.5v142h-74q-33 0 -57 -9t-39 -24t-22 -35t-7 -42z" />
<glyph unicode="&#xab;" horiz-adv-x="920" d="M73 514v19l233 390h175l-192 -400l192 -399h-175zM414 514v19l233 390h175l-192 -400l192 -399h-175z" />
<glyph unicode="&#xac;" horiz-adv-x="993" d="M126 634v171h709v-431h-192v260h-517z" />
<glyph unicode="&#xad;" horiz-adv-x="744" d="M123 506v236h489v-236h-489z" />
<glyph unicode="&#xae;" horiz-adv-x="1606" d="M86 729q0 106 25.5 202.5t71.5 179.5t111 150.5t144 115t169.5 73.5t188.5 26t188.5 -26t169.5 -73.5t144 -115t111 -150.5t71.5 -179.5t25.5 -202.5q0 -159 -56 -295.5t-152.5 -237.5t-225.5 -158.5t-276 -57.5q-98 0 -188.5 26t-169.5 74t-144 116t-111 151 t-71.5 179.5t-25.5 202.5zM208 729q0 -132 46 -246.5t126 -198.5t187 -132t229 -48q81 0 156 22t140 62t119 96.5t92 126t59 150t21 168.5t-21 168.5t-59 149.5t-92 125t-119 96t-140 61.5t-156 21.5q-122 0 -229 -47.5t-187 -131t-126 -197.5t-46 -246zM501 316v850h281 q74 0 134 -17t102.5 -50t65.5 -82t23 -114q0 -58 -29 -101t-83 -73q60 -31 84.5 -86.5t24.5 -127.5v-56q0 -38 3.5 -71t13.5 -56v-16h-155q-5 13 -7.5 33t-4 41t-1.5 40v30v54q0 71 -32.5 105t-110.5 34h-158v-337h-151zM652 787h135q34 0 64.5 7.5t54 22t37.5 36t14 50.5 q0 36 -9 61t-29.5 40.5t-54 22t-82.5 6.5h-130v-246z" />
<glyph unicode="&#xaf;" horiz-adv-x="938" d="M153 1290v167h631v-167h-631z" />
<glyph unicode="&#xb0;" horiz-adv-x="796" d="M126 1200q0 57 21.5 107t59 87.5t87 59.5t105.5 22q55 0 104 -22t85.5 -59.5t57.5 -87.5t21 -107t-21 -107t-57.5 -86.5t-85.5 -58t-104 -21.5q-56 0 -105.5 21.5t-87 58t-59 86.5t-21.5 107zM273 1200q0 -27 10 -49.5t27.5 -39t40 -26t48.5 -9.5q25 0 47.5 9t38.5 25.5 t25.5 39.5t9.5 50t-9.5 50.5t-25.5 41t-38.5 27t-47.5 9.5q-26 0 -48.5 -9.5t-40 -27t-27.5 -41t-10 -50.5z" />
<glyph unicode="&#xb1;" horiz-adv-x="969" d="M98 702v243h263v342h247v-342h260v-243h-260v-363h-247v363h-263zM113 0v238h730v-238h-730z" />
<glyph unicode="&#xb2;" horiz-adv-x="687" d="M61 1192q0 56 18.5 106t52.5 87.5t83 59.5t109 22q131 0 200.5 -64.5t69.5 -183.5q0 -44 -11 -81t-34 -71.5t-59 -70.5t-85 -79l-69 -85h273v-165h-533v138l240 257q43 49 62 91t19 65q0 38 -16 61t-48 23q-19 0 -32.5 -9t-22.5 -24t-13.5 -35t-4.5 -42h-199z" />
<glyph unicode="&#xb3;" horiz-adv-x="687" d="M55 902h199q0 -32 21.5 -57t60.5 -25q43 0 60.5 26.5t17.5 61.5q0 51 -22.5 71.5t-64.5 20.5h-77v137h77q39 0 57.5 23.5t18.5 63.5q0 14 -3.5 27.5t-12 24.5t-22.5 18t-35 7q-27 0 -47 -15.5t-20 -44.5h-197q0 55 21.5 97.5t57 70.5t82 42.5t97.5 14.5q61 0 112 -14.5 t87.5 -43t56.5 -71t20 -97.5q0 -61 -31.5 -103.5t-84.5 -65.5q59 -19 93.5 -62.5t34.5 -121.5q0 -56 -22 -99t-61 -72.5t-92 -45t-114 -15.5q-47 0 -95 13t-86.5 42.5t-62.5 76.5t-24 115z" />
<glyph unicode="&#xb4;" horiz-adv-x="680" d="M101 1226l196 310h318l-278 -310h-236z" />
<glyph unicode="&#xb5;" horiz-adv-x="1125" d="M132 -416v1498h282v-620q0 -76 9 -123.5t25.5 -74.5t41 -37t55.5 -10q53 0 88 22.5t56 63.5v779h284v-1082h-266l-4 50q-33 -35 -74.5 -53t-91.5 -18q-71 0 -123 34v-429h-282z" />
<glyph unicode="&#xb6;" horiz-adv-x="892" d="M80 988q0 100 27 186t79.5 148.5t129.5 98t177 35.5h274v-1456h-211v520h-63q-100 0 -177 35t-129.5 97.5t-79.5 148.5t-27 187z" />
<glyph unicode="&#xb7;" horiz-adv-x="583" d="M131 696q0 33 11 61.5t31.5 49.5t49 33t64.5 12t65 -12t49 -33t31 -49.5t11 -61.5t-11 -61.5t-31 -49t-49 -32.5t-65 -12t-64.5 12t-49 32.5t-31.5 49t-11 61.5z" />
<glyph unicode="&#xb8;" horiz-adv-x="511" d="M96 -136l27 143h211l-9 -58q22 -5 43.5 -16.5t39 -32t28 -51t10.5 -73.5q0 -54 -19.5 -97.5t-57.5 -75t-95 -48.5t-133 -17l-6 167q35 0 54 18.5t19 63.5q0 40 -25.5 56t-86.5 21z" />
<glyph unicode="&#xb9;" horiz-adv-x="686" d="M135 1174v159l327 121h18v-786h-197v547z" />
<glyph unicode="&#xba;" horiz-adv-x="831" d="M114 1044v77q0 78 21 143t60 112t94 73.5t123 26.5q69 0 124 -26.5t94 -73.5t59.5 -112t20.5 -143v-77q0 -78 -20.5 -143t-59 -112t-93.5 -73t-124 -26t-124 26t-94 73t-60 112t-21 143zM281 1044q0 -45 8 -83t24.5 -65.5t41.5 -43.5t58 -16t57 16t40.5 43.5t24.5 65.5 t8 83v77q0 44 -8 82t-24.5 65.5t-41 43.5t-57.5 16t-57.5 -16t-41 -43.5t-24.5 -65.5t-8 -82v-77z" />
<glyph unicode="&#xbb;" horiz-adv-x="921" d="M84 124l193 399l-193 400h177l233 -390v-19l-233 -390h-177zM432 124l193 399l-193 400h177l233 -390v-19l-233 -390h-177z" />
<glyph unicode="&#xbc;" horiz-adv-x="1275" d="M99 1170v159l327 121h18v-786h-197v547zM282 193l597 1138l135 -76l-598 -1138zM642 295l287 490v4h197v-462h67v-168h-67v-159h-197v159h-276zM826 327h103v198l-6 -10z" />
<glyph unicode="&#xbd;" horiz-adv-x="1357" d="M86 1176v159l327 121h18v-786h-197v547zM247 193l597 1138l135 -76l-598 -1138zM725 525q0 56 18.5 106t52.5 87.5t83 59.5t109 22q131 0 200.5 -64.5t69.5 -183.5q0 -44 -11 -81t-34 -71.5t-59 -70.5t-85 -79l-69 -85h273v-165h-533v138l240 257q43 49 62 91t19 65 q0 38 -16 61t-48 23q-19 0 -32.5 -9t-22.5 -24t-13.5 -35t-4.5 -42h-199z" />
<glyph unicode="&#xbe;" horiz-adv-x="1443" d="M94 903h199q0 -32 21.5 -57t60.5 -25q43 0 60.5 26.5t17.5 61.5q0 51 -22.5 71.5t-64.5 20.5h-77v137h77q39 0 57.5 23.5t18.5 63.5q0 14 -3.5 27.5t-12 24.5t-22.5 18t-35 7q-27 0 -47 -15.5t-20 -44.5h-197q0 55 21.5 97.5t57 70.5t82 42.5t97.5 14.5q61 0 112 -14.5 t87.5 -43t56.5 -71t20 -97.5q0 -61 -31.5 -103.5t-84.5 -65.5q59 -19 93.5 -62.5t34.5 -121.5q0 -56 -22 -99t-61 -72.5t-92 -45t-114 -15.5q-47 0 -95 13t-86.5 42.5t-62.5 76.5t-24 115zM418 193l597 1138l135 -76l-598 -1138zM779 295l287 490v4h197v-462h67v-168h-67 v-159h-197v159h-276zM963 327h103v198l-6 -10z" />
<glyph unicode="&#xbf;" horiz-adv-x="915" d="M73 7q0 65 18 119.5t47 102.5t67 92.5t77 89.5q22 25 36 50t22.5 52.5t11.5 58.5t4 70h250q0 -68 -7 -120.5t-22 -97t-39 -82.5t-59 -77q-27 -32 -49.5 -61t-39 -59t-25.5 -63t-9 -74q0 -80 28.5 -117.5t75.5 -37.5q22 0 43.5 10t38.5 30.5t27.5 52.5t10.5 77h284 q-1 -105 -32 -181.5t-84.5 -127t-126 -75t-156.5 -24.5q-92 0 -165 25.5t-123.5 75t-77 123t-26.5 168.5zM330 948q0 33 11 61t31 49t48.5 32.5t64.5 11.5q35 0 63.5 -11.5t48.5 -32.5t31 -49t11 -61t-11 -61t-31 -48.5t-48.5 -32.5t-63.5 -12q-36 0 -64.5 12t-48.5 32.5 t-31 48.5t-11 61z" />
<glyph unicode="&#xc0;" horiz-adv-x="1223" d="M22 0l455 1456h269l458 -1456h-314l-78 298h-401l-78 -298h-311zM243 1846h317l198 -310h-239zM475 543h272l-136 519z" />
<glyph unicode="&#xc1;" horiz-adv-x="1223" d="M22 0l455 1456h269l458 -1456h-314l-78 298h-401l-78 -298h-311zM475 543h272l-136 519zM475 1536l196 310h318l-278 -310h-236z" />
<glyph unicode="&#xc2;" horiz-adv-x="1223" d="M22 0l455 1456h269l458 -1456h-314l-78 298h-401l-78 -298h-311zM273 1554v16l260 276h162l265 -280v-12h-221l-125 144l-125 -144h-216zM475 543h272l-136 519z" />
<glyph unicode="&#xc3;" horiz-adv-x="1223" d="M22 0l455 1456h269l458 -1456h-314l-78 298h-401l-78 -298h-311zM287 1565q0 54 14.5 102.5t41 85.5t62.5 58.5t79 21.5q32 0 60 -13.5t55.5 -29t55.5 -29t59 -13.5q26 0 45.5 24.5t19.5 70.5l159 -12q0 -55 -15 -103.5t-41 -84.5t-63 -57t-80 -21q-39 0 -67.5 13.5 t-53.5 29.5t-50 29.5t-58 13.5q-27 0 -45 -24.5t-18 -70.5zM475 543h272l-136 519z" />
<glyph unicode="&#xc4;" horiz-adv-x="1223" d="M22 0l455 1456h269l458 -1456h-314l-78 298h-401l-78 -298h-311zM229 1675q0 27 10.5 50.5t29 40.5t44 27t55.5 10t55.5 -10t44 -27t29 -40.5t10.5 -50.5t-10.5 -50t-29 -40t-44 -27t-55.5 -10t-55.5 10t-44 27t-29 40t-10.5 50zM475 543h272l-136 519zM718 1675 q0 27 10.5 50t29 40t44 27t55.5 10t55.5 -10t44 -27t29 -40t10.5 -50t-10.5 -50t-29 -40.5t-44 -27t-55.5 -9.5t-55.5 9.5t-44 27t-29 40.5t-10.5 50z" />
<glyph unicode="&#xc5;" horiz-adv-x="1223" d="M22 0l455 1456h269l458 -1456h-314l-78 298h-401l-78 -298h-311zM392 1730q0 42 17 79.5t46.5 65t70.5 44t89 16.5t89 -16.5t71 -44t46.5 -65t16.5 -79.5t-16.5 -78.5t-46.5 -64t-71 -43t-89 -15.5t-89 15.5t-70.5 43t-46.5 64t-17 78.5zM475 543h272l-136 519zM508 1730 q0 -22 7.5 -41.5t21.5 -34t34 -23t44 -8.5q50 0 79 31t29 76q0 22 -7.5 42t-21.5 35t-34 23.5t-45 8.5q-24 0 -44 -8.5t-34 -23.5t-21.5 -35t-7.5 -42z" />
<glyph unicode="&#xc6;" horiz-adv-x="1674" d="M15 0l643 1456h892v-238h-485l13 -352h404v-238h-396l13 -390h503v-238h-778l-12 333h-333l-132 -333h-332zM577 582h226l-18 524z" />
<glyph unicode="&#xc7;" horiz-adv-x="1168" d="M90 603v248q0 152 35.5 269t102.5 196t162 119.5t214 40.5q238 0 361.5 -133t140.5 -382h-295q-2 78 -13.5 130.5t-35.5 83.5t-62.5 44t-95.5 13q-59 0 -100.5 -20t-67.5 -64.5t-38.5 -117t-12.5 -177.5v-250q0 -102 10 -174t35 -117.5t66 -66.5t104 -21q54 0 92.5 11.5 t63.5 40.5t38 80t16 129h294q-11 -249 -140 -377t-364 -128q-121 0 -216 40t-160 119t-99.5 195.5t-34.5 268.5zM468 -137l27 143h211l-9 -58q22 -5 43.5 -16.5t39 -32t28 -51t10.5 -73.5q0 -54 -19.5 -97.5t-57.5 -75t-95 -48.5t-133 -17l-6 167q35 0 54 18.5t19 63.5 q0 40 -25.5 56t-86.5 21z" />
<glyph unicode="&#xc8;" horiz-adv-x="1005" d="M117 0v1456h834v-245h-540v-344h458v-237h-458v-386h542v-244h-836zM185 1849h317l198 -310h-239z" />
<glyph unicode="&#xc9;" horiz-adv-x="1005" d="M117 0v1456h834v-245h-540v-344h458v-237h-458v-386h542v-244h-836zM417 1539l196 310h318l-278 -310h-236z" />
<glyph unicode="&#xca;" horiz-adv-x="1005" d="M117 0v1456h834v-245h-540v-344h458v-237h-458v-386h542v-244h-836zM215 1557v16l260 276h162l265 -280v-12h-221l-125 144l-125 -144h-216z" />
<glyph unicode="&#xcb;" horiz-adv-x="1005" d="M117 0v1456h834v-245h-540v-344h458v-237h-458v-386h542v-244h-836zM171 1678q0 27 10.5 50.5t29 40.5t44 27t55.5 10t55.5 -10t44 -27t29 -40.5t10.5 -50.5t-10.5 -50t-29 -40t-44 -27t-55.5 -10t-55.5 10t-44 27t-29 40t-10.5 50zM660 1678q0 27 10.5 50t29 40t44 27 t55.5 10t55.5 -10t44 -27t29 -40t10.5 -50t-10.5 -50t-29 -40.5t-44 -27t-55.5 -9.5t-55.5 9.5t-44 27t-29 40.5t-10.5 50z" />
<glyph unicode="&#xcc;" horiz-adv-x="554" d="M-95 1849h317l198 -310h-239zM130 0v1456h294v-1456h-294z" />
<glyph unicode="&#xcd;" horiz-adv-x="554" d="M130 0v1456h294v-1456h-294zM136 1539l196 310h318l-278 -310h-236z" />
<glyph unicode="&#xce;" horiz-adv-x="554" d="M-65 1557v16l260 276h162l265 -280v-12h-221l-125 144l-125 -144h-216zM130 0v1456h294v-1456h-294z" />
<glyph unicode="&#xcf;" horiz-adv-x="554" d="M-109 1678q0 27 10.5 50.5t29 40.5t44 27t55.5 10t55.5 -10t44 -27t29 -40.5t10.5 -50.5t-10.5 -50t-29 -40t-44 -27t-55.5 -10t-55.5 10t-44 27t-29 40t-10.5 50zM130 0v1456h294v-1456h-294zM380 1678q0 27 10.5 50t29 40t44 27t55.5 10t55.5 -10t44 -27t29 -40 t10.5 -50t-10.5 -50t-29 -40.5t-44 -27t-55.5 -9.5t-55.5 9.5t-44 27t-29 40.5t-10.5 50z" />
<glyph unicode="&#xd0;" horiz-adv-x="1187" d="M21 641v183h126v632h385q126 0 229.5 -41.5t177 -120t114 -193t40.5 -261.5v-226q0 -147 -40 -261t-114 -192.5t-178 -119.5t-232 -41h-382v641h-126zM441 244h88q78 0 130 20.5t83 65.5t44 115t13 169v228q0 100 -13 170t-44 114t-82.5 64.5t-127.5 20.5h-91v-387h187 v-183h-187v-397z" />
<glyph unicode="&#xd1;" horiz-adv-x="1254" d="M117 0v1456h294l431 -956v956h293v-1456h-294l-430 955v-955h-294zM303 1565q0 54 14.5 102.5t41 85.5t62.5 58.5t79 21.5q32 0 60 -13.5t55.5 -29t55.5 -29t59 -13.5q26 0 45.5 24.5t19.5 70.5l159 -12q0 -55 -15 -103.5t-41 -84.5t-63 -57t-80 -21q-39 0 -67.5 13.5 t-53.5 29.5t-50 29.5t-58 13.5q-27 0 -45 -24.5t-18 -70.5z" />
<glyph unicode="&#xd2;" horiz-adv-x="1236" d="M92 597v242q0 157 38 276.5t107 199.5t166 120.5t214 40.5t213.5 -40.5t166 -120.5t107.5 -199.5t38 -276.5v-242q0 -153 -38 -269t-106.5 -193t-165 -116t-213.5 -39t-214 39t-166.5 116t-108 193t-38.5 269zM247 1846h317l198 -310h-239zM386 597q0 -99 15 -169.5 t44.5 -115.5t73 -66t100.5 -21q56 0 98.5 21t71.5 66t43.5 115.5t14.5 169.5v244q0 104 -15 177.5t-44 120.5t-72 69t-99 22q-57 0 -100 -22t-72 -69t-44 -120.5t-15 -177.5v-244z" />
<glyph unicode="&#xd3;" horiz-adv-x="1236" d="M92 597v242q0 157 38 276.5t107 199.5t166 120.5t214 40.5t213.5 -40.5t166 -120.5t107.5 -199.5t38 -276.5v-242q0 -153 -38 -269t-106.5 -193t-165 -116t-213.5 -39t-214 39t-166.5 116t-108 193t-38.5 269zM386 597q0 -99 15 -169.5t44.5 -115.5t73 -66t100.5 -21 q56 0 98.5 21t71.5 66t43.5 115.5t14.5 169.5v244q0 104 -15 177.5t-44 120.5t-72 69t-99 22q-57 0 -100 -22t-72 -69t-44 -120.5t-15 -177.5v-244zM479 1536l196 310h318l-278 -310h-236z" />
<glyph unicode="&#xd4;" horiz-adv-x="1236" d="M92 597v242q0 157 38 276.5t107 199.5t166 120.5t214 40.5t213.5 -40.5t166 -120.5t107.5 -199.5t38 -276.5v-242q0 -153 -38 -269t-106.5 -193t-165 -116t-213.5 -39t-214 39t-166.5 116t-108 193t-38.5 269zM277 1554v16l260 276h162l265 -280v-12h-221l-125 144 l-125 -144h-216zM386 597q0 -99 15 -169.5t44.5 -115.5t73 -66t100.5 -21q56 0 98.5 21t71.5 66t43.5 115.5t14.5 169.5v244q0 104 -15 177.5t-44 120.5t-72 69t-99 22q-57 0 -100 -22t-72 -69t-44 -120.5t-15 -177.5v-244z" />
<glyph unicode="&#xd5;" horiz-adv-x="1236" d="M92 597v242q0 157 38 276.5t107 199.5t166 120.5t214 40.5t213.5 -40.5t166 -120.5t107.5 -199.5t38 -276.5v-242q0 -153 -38 -269t-106.5 -193t-165 -116t-213.5 -39t-214 39t-166.5 116t-108 193t-38.5 269zM291 1565q0 54 14.5 102.5t41 85.5t62.5 58.5t79 21.5 q32 0 60 -13.5t55.5 -29t55.5 -29t59 -13.5q26 0 45.5 24.5t19.5 70.5l159 -12q0 -55 -15 -103.5t-41 -84.5t-63 -57t-80 -21q-39 0 -67.5 13.5t-53.5 29.5t-50 29.5t-58 13.5q-27 0 -45 -24.5t-18 -70.5zM386 597q0 -99 15 -169.5t44.5 -115.5t73 -66t100.5 -21 q56 0 98.5 21t71.5 66t43.5 115.5t14.5 169.5v244q0 104 -15 177.5t-44 120.5t-72 69t-99 22q-57 0 -100 -22t-72 -69t-44 -120.5t-15 -177.5v-244z" />
<glyph unicode="&#xd6;" horiz-adv-x="1236" d="M92 597v242q0 157 38 276.5t107 199.5t166 120.5t214 40.5t213.5 -40.5t166 -120.5t107.5 -199.5t38 -276.5v-242q0 -153 -38 -269t-106.5 -193t-165 -116t-213.5 -39t-214 39t-166.5 116t-108 193t-38.5 269zM233 1675q0 27 10.5 50.5t29 40.5t44 27t55.5 10t55.5 -10 t44 -27t29 -40.5t10.5 -50.5t-10.5 -50t-29 -40t-44 -27t-55.5 -10t-55.5 10t-44 27t-29 40t-10.5 50zM386 597q0 -99 15 -169.5t44.5 -115.5t73 -66t100.5 -21q56 0 98.5 21t71.5 66t43.5 115.5t14.5 169.5v244q0 104 -15 177.5t-44 120.5t-72 69t-99 22q-57 0 -100 -22 t-72 -69t-44 -120.5t-15 -177.5v-244zM722 1675q0 27 10.5 50t29 40t44 27t55.5 10t55.5 -10t44 -27t29 -40t10.5 -50t-10.5 -50t-29 -40.5t-44 -27t-55.5 -9.5t-55.5 9.5t-44 27t-29 40.5t-10.5 50z" />
<glyph unicode="&#xd7;" horiz-adv-x="960" d="M64 998l166 170l246 -299l247 299l165 -170l-259 -315l255 -309l-166 -170l-242 294l-242 -294l-166 170l255 309z" />
<glyph unicode="&#xd8;" horiz-adv-x="1233" d="M100 597v242q0 157 38 276.5t107 199.5t166 120.5t214 40.5q143 0 256 -61l51 103h178l-102 -207q68 -81 105 -198.5t37 -273.5v-242q0 -153 -38 -269t-106.5 -193t-165 -116t-213.5 -39q-138 0 -247 53l-63 -128h-178l111 226q-72 78 -111 193.5t-39 272.5zM394 597 q0 -44 3 -81t8 -69l360 731q-27 27 -62 39.5t-78 12.5q-57 0 -100 -22t-72 -69t-44 -120.5t-15 -177.5v-244zM494 267q52 -42 133 -42q56 0 98.5 21t71.5 66t43.5 115.5t14.5 169.5v244q0 79 -9 141z" />
<glyph unicode="&#xd9;" horiz-adv-x="1170" d="M105 456v1000h296v-1000q0 -72 12 -117t35.5 -70.5t58 -35t79.5 -9.5t79.5 9.5t57.5 35t35 70.5t12 117v1000h294v-1000q0 -127 -35.5 -217t-99 -147.5t-151.5 -84.5t-192 -27q-106 0 -194.5 27t-152 84.5t-99 147.5t-35.5 217zM207 1846h317l198 -310h-239z" />
<glyph unicode="&#xda;" horiz-adv-x="1170" d="M105 456v1000h296v-1000q0 -72 12 -117t35.5 -70.5t58 -35t79.5 -9.5t79.5 9.5t57.5 35t35 70.5t12 117v1000h294v-1000q0 -127 -35.5 -217t-99 -147.5t-151.5 -84.5t-192 -27q-106 0 -194.5 27t-152 84.5t-99 147.5t-35.5 217zM439 1536l196 310h318l-278 -310h-236z " />
<glyph unicode="&#xdb;" horiz-adv-x="1170" d="M105 456v1000h296v-1000q0 -72 12 -117t35.5 -70.5t58 -35t79.5 -9.5t79.5 9.5t57.5 35t35 70.5t12 117v1000h294v-1000q0 -127 -35.5 -217t-99 -147.5t-151.5 -84.5t-192 -27q-106 0 -194.5 27t-152 84.5t-99 147.5t-35.5 217zM237 1554v16l260 276h162l265 -280v-12 h-221l-125 144l-125 -144h-216z" />
<glyph unicode="&#xdc;" horiz-adv-x="1170" d="M105 456v1000h296v-1000q0 -72 12 -117t35.5 -70.5t58 -35t79.5 -9.5t79.5 9.5t57.5 35t35 70.5t12 117v1000h294v-1000q0 -127 -35.5 -217t-99 -147.5t-151.5 -84.5t-192 -27q-106 0 -194.5 27t-152 84.5t-99 147.5t-35.5 217zM193 1675q0 27 10.5 50.5t29 40.5t44 27 t55.5 10t55.5 -10t44 -27t29 -40.5t10.5 -50.5t-10.5 -50t-29 -40t-44 -27t-55.5 -10t-55.5 10t-44 27t-29 40t-10.5 50zM682 1675q0 27 10.5 50t29 40t44 27t55.5 10t55.5 -10t44 -27t29 -40t10.5 -50t-10.5 -50t-29 -40.5t-44 -27t-55.5 -9.5t-55.5 9.5t-44 27t-29 40.5 t-10.5 50z" />
<glyph unicode="&#xdd;" horiz-adv-x="1111" d="M16 1456h320l220 -654l219 654h320l-390 -928v-528h-298v528zM419 1536l196 310h318l-278 -310h-236z" />
<glyph unicode="&#xde;" horiz-adv-x="1092" d="M120 0v1456h283v-267h162q113 0 200 -33.5t146 -93.5t89.5 -142.5t30.5 -181.5t-30.5 -182t-89.5 -143t-146 -93.5t-200 -33.5h-162v-286h-283zM403 521h162q49 0 84 18t57 47.5t32 68.5t10 81t-10 81.5t-32 70t-57 48.5t-84 18h-158l-4 5v-438z" />
<glyph unicode="&#xdf;" horiz-adv-x="1145" d="M129 0v1101q0 114 30 199.5t85 143t133 86.5t175 29q78 0 146.5 -23t118.5 -69.5t79 -116t29 -161.5q0 -50 -6.5 -84.5t-16.5 -61.5t-21 -49t-21 -45t-16.5 -51t-6.5 -67q0 -34 18 -64.5t44.5 -62.5t57.5 -67t57.5 -77t44.5 -92t18 -113q0 -178 -96 -276.5t-292 -98.5 q-32 0 -65.5 4t-64 11.5t-56.5 18t-43 22.5l51 230q25 -17 69 -34t104 -17q56 0 83.5 36t27.5 99q0 41 -18 73.5t-44.5 63t-57.5 62t-57.5 70t-44.5 86.5t-18 113q0 45 6.5 77.5t17 59.5t22 50t22 47.5t17 53.5t6.5 68q0 69 -31.5 110t-85.5 41q-27 0 -49 -12t-37.5 -39 t-23.5 -70.5t-8 -106.5v-1097h-282z" />
<glyph unicode="&#xe0;" horiz-adv-x="964" d="M72 303q0 82 26.5 148.5t80 113t134 71.5t189.5 25h77v87q0 73 -25 103t-73 30q-55 0 -80.5 -32.5t-25.5 -91.5h-283q0 71 27.5 133.5t79.5 109.5t125 74.5t165 27.5q81 0 149 -20.5t118 -64t78 -111t28 -162.5v-480q0 -47 2.5 -83.5t7.5 -66t12.5 -53t17.5 -44.5v-17 h-285q-8 17 -13.5 38.5t-10.5 45.5q-32 -44 -82.5 -74t-123.5 -30q-66 0 -123.5 23t-100 65t-67 101.5t-24.5 133.5zM107 1536h317l198 -310h-239zM356 322q0 -59 24.5 -89.5t69.5 -30.5q47 0 80 19t49 45v225h-67q-40 0 -69 -13t-48.5 -36t-29 -54t-9.5 -66z" />
<glyph unicode="&#xe1;" horiz-adv-x="964" d="M72 303q0 82 26.5 148.5t80 113t134 71.5t189.5 25h77v87q0 73 -25 103t-73 30q-55 0 -80.5 -32.5t-25.5 -91.5h-283q0 71 27.5 133.5t79.5 109.5t125 74.5t165 27.5q81 0 149 -20.5t118 -64t78 -111t28 -162.5v-480q0 -47 2.5 -83.5t7.5 -66t12.5 -53t17.5 -44.5v-17 h-285q-8 17 -13.5 38.5t-10.5 45.5q-32 -44 -82.5 -74t-123.5 -30q-66 0 -123.5 23t-100 65t-67 101.5t-24.5 133.5zM339 1226l196 310h318l-278 -310h-236zM356 322q0 -59 24.5 -89.5t69.5 -30.5q47 0 80 19t49 45v225h-67q-40 0 -69 -13t-48.5 -36t-29 -54t-9.5 -66z" />
<glyph unicode="&#xe2;" horiz-adv-x="964" d="M72 303q0 82 26.5 148.5t80 113t134 71.5t189.5 25h77v87q0 73 -25 103t-73 30q-55 0 -80.5 -32.5t-25.5 -91.5h-283q0 71 27.5 133.5t79.5 109.5t125 74.5t165 27.5q81 0 149 -20.5t118 -64t78 -111t28 -162.5v-480q0 -47 2.5 -83.5t7.5 -66t12.5 -53t17.5 -44.5v-17 h-285q-8 17 -13.5 38.5t-10.5 45.5q-32 -44 -82.5 -74t-123.5 -30q-66 0 -123.5 23t-100 65t-67 101.5t-24.5 133.5zM137 1244v16l260 276h162l265 -280v-12h-221l-125 144l-125 -144h-216zM356 322q0 -59 24.5 -89.5t69.5 -30.5q47 0 80 19t49 45v225h-67q-40 0 -69 -13 t-48.5 -36t-29 -54t-9.5 -66z" />
<glyph unicode="&#xe3;" horiz-adv-x="964" d="M72 303q0 82 26.5 148.5t80 113t134 71.5t189.5 25h77v87q0 73 -25 103t-73 30q-55 0 -80.5 -32.5t-25.5 -91.5h-283q0 71 27.5 133.5t79.5 109.5t125 74.5t165 27.5q81 0 149 -20.5t118 -64t78 -111t28 -162.5v-480q0 -47 2.5 -83.5t7.5 -66t12.5 -53t17.5 -44.5v-17 h-285q-8 17 -13.5 38.5t-10.5 45.5q-32 -44 -82.5 -74t-123.5 -30q-66 0 -123.5 23t-100 65t-67 101.5t-24.5 133.5zM151 1256q0 54 14.5 102.5t41 85.5t62.5 58.5t79 21.5q32 0 60 -13.5t55.5 -29t55.5 -29t59 -13.5q26 0 45.5 24.5t19.5 70.5l159 -12q0 -55 -15 -103.5 t-41 -84.5t-63 -57t-80 -21q-39 0 -67.5 13.5t-53.5 29.5t-50 29.5t-58 13.5q-27 0 -45 -24.5t-18 -70.5zM356 322q0 -59 24.5 -89.5t69.5 -30.5q47 0 80 19t49 45v225h-67q-40 0 -69 -13t-48.5 -36t-29 -54t-9.5 -66z" />
<glyph unicode="&#xe4;" horiz-adv-x="964" d="M72 303q0 82 26.5 148.5t80 113t134 71.5t189.5 25h77v87q0 73 -25 103t-73 30q-55 0 -80.5 -32.5t-25.5 -91.5h-283q0 71 27.5 133.5t79.5 109.5t125 74.5t165 27.5q81 0 149 -20.5t118 -64t78 -111t28 -162.5v-480q0 -47 2.5 -83.5t7.5 -66t12.5 -53t17.5 -44.5v-17 h-285q-8 17 -13.5 38.5t-10.5 45.5q-32 -44 -82.5 -74t-123.5 -30q-66 0 -123.5 23t-100 65t-67 101.5t-24.5 133.5zM93 1365q0 27 10.5 50.5t29 40.5t44 27t55.5 10t55.5 -10t44 -27t29 -40.5t10.5 -50.5t-10.5 -50t-29 -40t-44 -27t-55.5 -10t-55.5 10t-44 27t-29 40 t-10.5 50zM356 322q0 -59 24.5 -89.5t69.5 -30.5q47 0 80 19t49 45v225h-67q-40 0 -69 -13t-48.5 -36t-29 -54t-9.5 -66zM582 1365q0 27 10.5 50t29 40t44 27t55.5 10t55.5 -10t44 -27t29 -40t10.5 -50t-10.5 -50t-29 -40.5t-44 -27t-55.5 -9.5t-55.5 9.5t-44 27t-29 40.5 t-10.5 50z" />
<glyph unicode="&#xe5;" horiz-adv-x="964" d="M72 303q0 82 26.5 148.5t80 113t134 71.5t189.5 25h77v87q0 73 -25 103t-73 30q-55 0 -80.5 -32.5t-25.5 -91.5h-283q0 71 27.5 133.5t79.5 109.5t125 74.5t165 27.5q81 0 149 -20.5t118 -64t78 -111t28 -162.5v-480q0 -47 2.5 -83.5t7.5 -66t12.5 -53t17.5 -44.5v-17 h-285q-8 17 -13.5 38.5t-10.5 45.5q-32 -44 -82.5 -74t-123.5 -30q-66 0 -123.5 23t-100 65t-67 101.5t-24.5 133.5zM256 1420q0 42 17 79.5t46.5 65t70.5 44t89 16.5t89 -16.5t71 -44t46.5 -65t16.5 -79.5t-16.5 -78.5t-46.5 -64t-71 -43t-89 -15.5t-89 15.5t-70.5 43 t-46.5 64t-17 78.5zM356 322q0 -59 24.5 -89.5t69.5 -30.5q47 0 80 19t49 45v225h-67q-40 0 -69 -13t-48.5 -36t-29 -54t-9.5 -66zM372 1420q0 -22 7.5 -41.5t21.5 -34t34 -23t44 -8.5q50 0 79 31t29 76q0 22 -7.5 42t-21.5 35t-34 23.5t-45 8.5q-24 0 -44 -8.5t-34 -23.5 t-21.5 -35t-7.5 -42z" />
<glyph unicode="&#xe6;" horiz-adv-x="1491" d="M71 319q0 159 108 245t320 86h116v55q0 76 -29 119t-81 43q-57 0 -89 -36t-32 -87l-282 19q0 73 29 135.5t82 107.5t128 70.5t167 25.5q84 0 152 -23.5t118 -70.5q51 46 117 70.5t148 23.5q91 0 163.5 -34t122.5 -98t76.5 -154.5t26.5 -203.5v-163h-540q4 -51 17.5 -94.5 t38 -74.5t60.5 -48.5t86 -17.5q43 0 77 6.5t62.5 17.5t53 24.5t48.5 28.5l72 -191q-21 -21 -56 -42t-79.5 -38.5t-97.5 -28.5t-111 -11q-106 0 -186.5 35.5t-137.5 100.5q-23 -27 -55 -52t-72.5 -43.5t-89.5 -29.5t-107 -11q-83 0 -147.5 24t-108 68t-66 107t-22.5 140z M354 315q0 -55 27.5 -88.5t89.5 -33.5q35 0 74.5 19.5t69.5 47.5v200h-114q-36 0 -63 -12t-46 -32t-28.5 -46.5t-9.5 -54.5zM893 644h262v28q0 87 -26.5 141t-85.5 54q-37 0 -63.5 -16.5t-44.5 -46t-28 -70.5t-14 -90z" />
<glyph unicode="&#xe7;" horiz-adv-x="942" d="M69 501v78q0 124 26.5 221.5t79.5 164.5t134 102t189 35q87 0 158.5 -27.5t122 -81t78 -132.5t28.5 -183h-266q-1 91 -30 140t-96 49q-47 0 -74.5 -19t-42 -55.5t-19 -90t-4.5 -123.5v-78q0 -71 4 -124.5t18.5 -89.5t42.5 -54t76 -18q59 0 91.5 36.5t33.5 123.5h266 q-1 -92 -31 -165.5t-81.5 -124.5t-121.5 -78t-151 -27q-109 0 -190 35t-134.5 101.5t-80 163.5t-26.5 221zM358 -137l27 143h211l-9 -58q22 -5 43.5 -16.5t39 -32t28 -51t10.5 -73.5q0 -54 -19.5 -97.5t-57.5 -75t-95 -48.5t-133 -17l-6 167q35 0 54 18.5t19 63.5 q0 40 -25.5 56t-86.5 21z" />
<glyph unicode="&#xe8;" horiz-adv-x="980" d="M78 479v89q0 132 29.5 231.5t85 167t136 101.5t182.5 34q206 0 309 -133t103 -394v-129h-563q3 -65 17.5 -109t39.5 -71t60.5 -39t80.5 -12q75 0 133.5 25.5t103.5 71.5l111 -171q-21 -29 -55 -57.5t-80 -51.5t-104 -37.5t-127 -14.5q-111 0 -197 34t-145 98t-89.5 156.5 t-30.5 210.5zM102 1536h317l198 -310h-239zM362 644h283v26q-2 97 -32 147t-104 50t-107.5 -53t-39.5 -170z" />
<glyph unicode="&#xe9;" horiz-adv-x="980" d="M78 479v89q0 132 29.5 231.5t85 167t136 101.5t182.5 34q206 0 309 -133t103 -394v-129h-563q3 -65 17.5 -109t39.5 -71t60.5 -39t80.5 -12q75 0 133.5 25.5t103.5 71.5l111 -171q-21 -29 -55 -57.5t-80 -51.5t-104 -37.5t-127 -14.5q-111 0 -197 34t-145 98t-89.5 156.5 t-30.5 210.5zM334 1226l196 310h318l-278 -310h-236zM362 644h283v26q-2 97 -32 147t-104 50t-107.5 -53t-39.5 -170z" />
<glyph unicode="&#xea;" horiz-adv-x="980" d="M78 479v89q0 132 29.5 231.5t85 167t136 101.5t182.5 34q206 0 309 -133t103 -394v-129h-563q3 -65 17.5 -109t39.5 -71t60.5 -39t80.5 -12q75 0 133.5 25.5t103.5 71.5l111 -171q-21 -29 -55 -57.5t-80 -51.5t-104 -37.5t-127 -14.5q-111 0 -197 34t-145 98t-89.5 156.5 t-30.5 210.5zM132 1244v16l260 276h162l265 -280v-12h-221l-125 144l-125 -144h-216zM362 644h283v26q-2 97 -32 147t-104 50t-107.5 -53t-39.5 -170z" />
<glyph unicode="&#xeb;" horiz-adv-x="980" d="M78 479v89q0 132 29.5 231.5t85 167t136 101.5t182.5 34q206 0 309 -133t103 -394v-129h-563q3 -65 17.5 -109t39.5 -71t60.5 -39t80.5 -12q75 0 133.5 25.5t103.5 71.5l111 -171q-21 -29 -55 -57.5t-80 -51.5t-104 -37.5t-127 -14.5q-111 0 -197 34t-145 98t-89.5 156.5 t-30.5 210.5zM89 1365q0 27 10.5 50.5t29 40.5t44 27t55.5 10t55.5 -10t44 -27t29 -40.5t10.5 -50.5t-10.5 -50t-29 -40t-44 -27t-55.5 -10t-55.5 10t-44 27t-29 40t-10.5 50zM362 644h283v26q-2 97 -32 147t-104 50t-107.5 -53t-39.5 -170zM578 1365q0 27 10.5 50t29 40 t44 27t55.5 10t55.5 -10t44 -27t29 -40t10.5 -50t-10.5 -50t-29 -40.5t-44 -27t-55.5 -9.5t-55.5 9.5t-44 27t-29 40.5t-10.5 50z" />
<glyph unicode="&#xec;" horiz-adv-x="537" d="M-102 1521h317l198 -310h-239zM124 0v1082h283v-1082h-283z" />
<glyph unicode="&#xed;" horiz-adv-x="537" d="M124 0v1082h283v-1082h-283zM129 1211l196 310h318l-278 -310h-236z" />
<glyph unicode="&#xee;" horiz-adv-x="537" d="M-72 1229v16l260 276h162l265 -280v-12h-221l-125 144l-125 -144h-216zM124 0v1082h283v-1082h-283z" />
<glyph unicode="&#xef;" horiz-adv-x="537" d="M-116 1350q0 27 10.5 50.5t29 40.5t44 27t55.5 10t55.5 -10t44 -27t29 -40.5t10.5 -50.5t-10.5 -50t-29 -40t-44 -27t-55.5 -10t-55.5 10t-44 27t-29 40t-10.5 50zM124 0v1082h283v-1082h-283zM373 1350q0 27 10.5 50t29 40t44 27t55.5 10t55.5 -10t44 -27t29 -40 t10.5 -50t-10.5 -50t-29 -40.5t-44 -27t-55.5 -9.5t-55.5 9.5t-44 27t-29 40.5t-10.5 50z" />
<glyph unicode="&#xf0;" horiz-adv-x="1029" d="M75 468q0 112 26 203.5t75.5 157t121 101t161.5 35.5q52 0 98 -15.5t85 -44.5q-22 73 -54 133t-74 109l-154 -114l-73 114l128 94q-51 39 -105 66.5t-111 46.5l89 225q97 -24 185 -68t163 -107l141 104l72 -115l-116 -86q106 -123 166 -288.5t60 -368.5v-72 q0 -133 -34 -243t-94.5 -189t-143.5 -122.5t-181 -43.5q-97 0 -176.5 38t-136 104t-87.5 155t-31 191zM359 468q0 -52 10 -98t29.5 -80.5t47.5 -54.5t64 -20q42 0 73 25.5t51.5 70t31 105.5t10.5 132v104q0 5 -0.5 9.5t-0.5 9.5q-21 31 -58.5 52.5t-91.5 21.5q-41 0 -72 -19 t-52 -55t-31.5 -87.5t-10.5 -115.5z" />
<glyph unicode="&#xf1;" horiz-adv-x="1008" d="M96 0v1082h266l8 -107q47 62 110 94.5t141 32.5q63 0 116 -21.5t91 -70.5t59 -128t21 -194v-688h-284v689q0 52 -8 86t-23.5 54t-38.5 28t-54 8q-40 0 -70 -21t-50 -58v-786h-284zM176 1256q0 54 14.5 102.5t41 85.5t62.5 58.5t79 21.5q32 0 60 -13.5t55.5 -29t55.5 -29 t59 -13.5q26 0 45.5 24.5t19.5 70.5l159 -12q0 -55 -15 -103.5t-41 -84.5t-63 -57t-80 -21q-39 0 -67.5 13.5t-53.5 29.5t-50 29.5t-58 13.5q-27 0 -45 -24.5t-18 -70.5z" />
<glyph unicode="&#xf2;" horiz-adv-x="1019" d="M70 505v71q0 127 31 225t88 165t137.5 101.5t180.5 34.5q101 0 182 -34.5t138 -101.5t88 -165t31 -225v-71q0 -128 -30.5 -225.5t-87.5 -164.5t-138 -101t-181 -34q-101 0 -182 34t-138 101t-88 164.5t-31 225.5zM131 1536h317l198 -310h-239zM354 505q0 -151 41 -220.5 t114 -69.5q77 0 116 69.5t39 220.5v71q0 148 -41 219.5t-116 71.5q-72 0 -112.5 -71.5t-40.5 -219.5v-71z" />
<glyph unicode="&#xf3;" horiz-adv-x="1019" d="M70 505v71q0 127 31 225t88 165t137.5 101.5t180.5 34.5q101 0 182 -34.5t138 -101.5t88 -165t31 -225v-71q0 -128 -30.5 -225.5t-87.5 -164.5t-138 -101t-181 -34q-101 0 -182 34t-138 101t-88 164.5t-31 225.5zM354 505q0 -151 41 -220.5t114 -69.5q77 0 116 69.5 t39 220.5v71q0 148 -41 219.5t-116 71.5q-72 0 -112.5 -71.5t-40.5 -219.5v-71zM363 1226l196 310h318l-278 -310h-236z" />
<glyph unicode="&#xf4;" horiz-adv-x="1019" d="M70 505v71q0 127 31 225t88 165t137.5 101.5t180.5 34.5q101 0 182 -34.5t138 -101.5t88 -165t31 -225v-71q0 -128 -30.5 -225.5t-87.5 -164.5t-138 -101t-181 -34q-101 0 -182 34t-138 101t-88 164.5t-31 225.5zM161 1244v16l260 276h162l265 -280v-12h-221l-125 144 l-125 -144h-216zM354 505q0 -151 41 -220.5t114 -69.5q77 0 116 69.5t39 220.5v71q0 148 -41 219.5t-116 71.5q-72 0 -112.5 -71.5t-40.5 -219.5v-71z" />
<glyph unicode="&#xf5;" horiz-adv-x="1019" d="M70 505v71q0 127 31 225t88 165t137.5 101.5t180.5 34.5q101 0 182 -34.5t138 -101.5t88 -165t31 -225v-71q0 -128 -30.5 -225.5t-87.5 -164.5t-138 -101t-181 -34q-101 0 -182 34t-138 101t-88 164.5t-31 225.5zM175 1256q0 54 14.5 102.5t41 85.5t62.5 58.5t79 21.5 q32 0 60 -13.5t55.5 -29t55.5 -29t59 -13.5q26 0 45.5 24.5t19.5 70.5l159 -12q0 -55 -15 -103.5t-41 -84.5t-63 -57t-80 -21q-39 0 -67.5 13.5t-53.5 29.5t-50 29.5t-58 13.5q-27 0 -45 -24.5t-18 -70.5zM354 505q0 -151 41 -220.5t114 -69.5q77 0 116 69.5t39 220.5v71 q0 148 -41 219.5t-116 71.5q-72 0 -112.5 -71.5t-40.5 -219.5v-71z" />
<glyph unicode="&#xf6;" horiz-adv-x="1019" d="M70 505v71q0 127 31 225t88 165t137.5 101.5t180.5 34.5q101 0 182 -34.5t138 -101.5t88 -165t31 -225v-71q0 -128 -30.5 -225.5t-87.5 -164.5t-138 -101t-181 -34q-101 0 -182 34t-138 101t-88 164.5t-31 225.5zM117 1365q0 27 10.5 50.5t29 40.5t44 27t55.5 10 t55.5 -10t44 -27t29 -40.5t10.5 -50.5t-10.5 -50t-29 -40t-44 -27t-55.5 -10t-55.5 10t-44 27t-29 40t-10.5 50zM354 505q0 -151 41 -220.5t114 -69.5q77 0 116 69.5t39 220.5v71q0 148 -41 219.5t-116 71.5q-72 0 -112.5 -71.5t-40.5 -219.5v-71zM606 1365q0 27 10.5 50 t29 40t44 27t55.5 10t55.5 -10t44 -27t29 -40t10.5 -50t-10.5 -50t-29 -40.5t-44 -27t-55.5 -9.5t-55.5 9.5t-44 27t-29 40.5t-10.5 50z" />
<glyph unicode="&#xf7;" horiz-adv-x="1023" d="M71 570v232h870v-232h-870zM349 277q0 33 11 61.5t31.5 48.5t49 31.5t64.5 11.5t65 -11.5t49 -31.5t31 -48.5t11 -61.5q0 -66 -42 -108.5t-114 -42.5q-36 0 -64.5 11t-49 31.5t-31.5 48t-11 60.5zM349 1089q0 33 11 61t31.5 48.5t49 31.5t64.5 11t65 -11t49 -31.5 t31 -48.5t11 -61q0 -66 -42 -108.5t-114 -42.5q-36 0 -64.5 11t-49 31.5t-31.5 48t-11 60.5z" />
<glyph unicode="&#xf8;" horiz-adv-x="1017" d="M70 505v71q0 127 31 225t88 165t137.5 101.5t180.5 34.5q80 0 151 -23l56 137h151l-84 -205q79 -66 122 -174.5t43 -260.5v-71q0 -128 -30.5 -225.5t-87.5 -164.5t-138 -101t-181 -34q-39 0 -74.5 5t-68.5 15l-58 -142h-151l84 206q-82 65 -126.5 175.5t-44.5 265.5z M354 505q0 -80 12 -137l199 485q-26 14 -58 14q-72 0 -112.5 -71.5t-40.5 -219.5v-71zM458 225q23 -10 51 -10q77 0 116 69.5t39 220.5v71q0 36 -2.5 67t-7.5 58z" />
<glyph unicode="&#xf9;" horiz-adv-x="1008" d="M96 382v700h283v-702q0 -89 29 -126.5t76 -37.5q52 0 86 22.5t54 61.5v782h285v-1082h-266l-8 99q-42 -57 -100.5 -88t-135.5 -31q-68 0 -123.5 22.5t-95.5 71t-62 125t-22 183.5zM128 1536h317l198 -310h-239z" />
<glyph unicode="&#xfa;" horiz-adv-x="1008" d="M96 382v700h283v-702q0 -89 29 -126.5t76 -37.5q52 0 86 22.5t54 61.5v782h285v-1082h-266l-8 99q-42 -57 -100.5 -88t-135.5 -31q-68 0 -123.5 22.5t-95.5 71t-62 125t-22 183.5zM360 1226l196 310h318l-278 -310h-236z" />
<glyph unicode="&#xfb;" horiz-adv-x="1008" d="M96 382v700h283v-702q0 -89 29 -126.5t76 -37.5q52 0 86 22.5t54 61.5v782h285v-1082h-266l-8 99q-42 -57 -100.5 -88t-135.5 -31q-68 0 -123.5 22.5t-95.5 71t-62 125t-22 183.5zM158 1244v16l260 276h162l265 -280v-12h-221l-125 144l-125 -144h-216z" />
<glyph unicode="&#xfc;" horiz-adv-x="1008" d="M96 382v700h283v-702q0 -89 29 -126.5t76 -37.5q52 0 86 22.5t54 61.5v782h285v-1082h-266l-8 99q-42 -57 -100.5 -88t-135.5 -31q-68 0 -123.5 22.5t-95.5 71t-62 125t-22 183.5zM114 1365q0 27 10.5 50.5t29 40.5t44 27t55.5 10t55.5 -10t44 -27t29 -40.5t10.5 -50.5 t-10.5 -50t-29 -40t-44 -27t-55.5 -10t-55.5 10t-44 27t-29 40t-10.5 50zM603 1365q0 27 10.5 50t29 40t44 27t55.5 10t55.5 -10t44 -27t29 -40t10.5 -50t-10.5 -50t-29 -40.5t-44 -27t-55.5 -9.5t-55.5 9.5t-44 27t-29 40.5t-10.5 50z" />
<glyph unicode="&#xfd;" horiz-adv-x="914" d="M16 1082h304l130 -611l144 611h302l-356 -1244q-12 -41 -32.5 -89t-55.5 -89.5t-87 -69t-126 -27.5q-19 0 -33.5 1.5t-27 3.5t-25.5 5.5t-30 8.5v221q8 -1 16.5 -1h16.5q34 0 59 6.5t42.5 20.5t29 35.5t19.5 51.5l22 73zM319 1226l196 310h318l-278 -310h-236z" />
<glyph unicode="&#xfe;" horiz-adv-x="1023" d="M104 0v1536h284v-538q38 50 90 77t120 27q175 0 262.5 -129t87.5 -395v-71q0 -255 -87.5 -391t-260.5 -136q-69 0 -121.5 28t-90.5 79v-503h-283v416h-1zM388 285q18 -33 49.5 -51.5t79.5 -18.5q84 0 116.5 71t32.5 221v71q0 77 -8 131.5t-26 89t-46.5 50.5t-70.5 16 q-45 0 -76.5 -19t-50.5 -54v-507z" />
<glyph unicode="&#xff;" horiz-adv-x="914" d="M16 1082h304l130 -611l144 611h302l-356 -1244q-12 -41 -32.5 -89t-55.5 -89.5t-87 -69t-126 -27.5q-19 0 -33.5 1.5t-27 3.5t-25.5 5.5t-30 8.5v221q8 -1 16.5 -1h16.5q34 0 59 6.5t42.5 20.5t29 35.5t19.5 51.5l22 73zM74 1365q0 27 10.5 50.5t29 40.5t44 27t55.5 10 t55.5 -10t44 -27t29 -40.5t10.5 -50.5t-10.5 -50t-29 -40t-44 -27t-55.5 -10t-55.5 10t-44 27t-29 40t-10.5 50zM563 1365q0 27 10.5 50t29 40t44 27t55.5 10t55.5 -10t44 -27t29 -40t10.5 -50t-10.5 -50t-29 -40.5t-44 -27t-55.5 -9.5t-55.5 9.5t-44 27t-29 40.5t-10.5 50z " />
<glyph unicode="&#x152;" horiz-adv-x="1724" d="M99 576v304q0 132 37.5 242t106 188.5t164.5 122t213 43.5q63 0 122.5 -6t114.5 -14h752v-245h-540v-344h458v-237h-458v-386h542v-244h-754q-55 -8 -114 -14t-121 -6q-117 0 -213 43.5t-165 122t-107 188.5t-38 242zM381 576q0 -180 65 -270.5t176 -90.5q40 0 78 3t75 8 v1003q-37 5 -75.5 8.5t-79.5 3.5q-111 0 -175 -89.5t-64 -269.5v-306z" />
<glyph unicode="&#x153;" horiz-adv-x="1579" d="M88 530v21q0 118 28 219t83 174.5t136 115.5t187 42q94 0 168.5 -33t128.5 -92q52 60 122 93t158 32q97 0 171 -35t124 -98.5t75 -154t25 -201.5v-164h-525q5 -49 18 -92t35.5 -74.5t55.5 -50t78 -18.5q43 0 77 6t62.5 16.5t54 24.5t52.5 30l75 -188q-24 -23 -59.5 -45.5 t-80 -39.5t-98 -27.5t-114.5 -10.5q-96 0 -172 33t-132 93q-54 -60 -128.5 -93t-169.5 -33q-107 0 -188 41.5t-136 115t-83 174t-28 219.5zM371 530q0 -66 7 -123.5t24 -100t46.5 -67.5t74.5 -25q44 0 73 25t46.5 67.5t24.5 100t7 123.5v21q0 64 -7 121t-24 100.5t-46.5 69 t-74.5 25.5q-44 0 -73.5 -25.5t-46.5 -69t-24 -100.5t-7 -121v-21zM971 647h246v26q0 43 -6 79t-19.5 61.5t-36.5 39.5t-56 14q-30 0 -52 -16.5t-37.5 -46t-25 -70t-13.5 -87.5z" />
<glyph unicode="&#x178;" horiz-adv-x="1111" d="M16 1456h320l220 -654l219 654h320l-390 -928v-528h-298v528zM173 1675q0 27 10.5 50.5t29 40.5t44 27t55.5 10t55.5 -10t44 -27t29 -40.5t10.5 -50.5t-10.5 -50t-29 -40t-44 -27t-55.5 -10t-55.5 10t-44 27t-29 40t-10.5 50zM662 1675q0 27 10.5 50t29 40t44 27t55.5 10 t55.5 -10t44 -27t29 -40t10.5 -50t-10.5 -50t-29 -40.5t-44 -27t-55.5 -9.5t-55.5 9.5t-44 27t-29 40.5t-10.5 50z" />
<glyph unicode="&#x2c6;" horiz-adv-x="929" d="M118 1244v16l260 276h162l265 -280v-12h-221l-125 144l-125 -144h-216z" />
<glyph unicode="&#x2dc;" horiz-adv-x="895" d="M123 1258q0 54 14.5 102.5t41 85.5t62.5 58.5t79 21.5q32 0 60 -13.5t55.5 -29t55.5 -29t59 -13.5q26 0 45.5 24.5t19.5 70.5l159 -12q0 -55 -15 -103.5t-41 -84.5t-63 -57t-80 -21q-39 0 -67.5 13.5t-53.5 29.5t-50 29.5t-58 13.5q-27 0 -45 -24.5t-18 -70.5z" />
<glyph unicode="&#x2000;" horiz-adv-x="967" />
<glyph unicode="&#x2001;" horiz-adv-x="1935" />
<glyph unicode="&#x2002;" horiz-adv-x="967" />
<glyph unicode="&#x2003;" horiz-adv-x="1935" />
<glyph unicode="&#x2004;" horiz-adv-x="645" />
<glyph unicode="&#x2005;" horiz-adv-x="483" />
<glyph unicode="&#x2006;" horiz-adv-x="322" />
<glyph unicode="&#x2007;" horiz-adv-x="322" />
<glyph unicode="&#x2008;" horiz-adv-x="241" />
<glyph unicode="&#x2009;" horiz-adv-x="387" />
<glyph unicode="&#x200a;" horiz-adv-x="107" />
<glyph unicode="&#x2010;" horiz-adv-x="744" d="M123 506v236h489v-236h-489z" />
<glyph unicode="&#x2011;" horiz-adv-x="744" d="M123 506v236h489v-236h-489z" />
<glyph unicode="&#x2012;" horiz-adv-x="744" d="M123 506v236h489v-236h-489z" />
<glyph unicode="&#x2013;" horiz-adv-x="1121" d="M151 594v238h876v-238h-876z" />
<glyph unicode="&#x2014;" horiz-adv-x="1352" d="M122 594v238h1168v-238h-1168z" />
<glyph unicode="&#x2018;" horiz-adv-x="469" d="M108 1047v152q0 49 13 101t35.5 101.5t53 93t64.5 76.5l130 -79q-15 -30 -28.5 -62t-24 -67.5t-16.5 -76t-6 -87.5v-152h-221z" />
<glyph unicode="&#x2019;" horiz-adv-x="460" d="M67 1088q15 30 28 61.5t23.5 67t16.5 76t6 87.5v156h222v-156q0 -49 -13.5 -101t-36 -101.5t-52.5 -93t-64 -75.5z" />
<glyph unicode="&#x201a;" horiz-adv-x="502" d="M79 -226q30 60 48.5 129t18.5 162v166h231l-1 -166q0 -49 -13.5 -100.5t-36 -101t-53 -93t-63.5 -75.5z" />
<glyph unicode="&#x201c;" horiz-adv-x="793" d="M117 1047v152q0 49 13 101t35.5 101.5t53 93t64.5 76.5l130 -79q-15 -30 -28.5 -62t-24 -67.5t-16.5 -76t-6 -87.5v-152h-221zM431 1047v152q0 49 13 101t35.5 101.5t53 93t64.5 76.5l130 -79q-15 -30 -28.5 -62t-24 -67.5t-16.5 -76t-6 -87.5v-152h-221z" />
<glyph unicode="&#x201d;" horiz-adv-x="800" d="M81 1088q15 30 28 61.5t23.5 67t16.5 76t6 87.5v156h222v-156q0 -49 -13.5 -101t-36 -101.5t-52.5 -93t-64 -75.5zM400 1088q15 30 28 61.5t23.5 67t16.5 76t6 87.5v156h222v-156q0 -49 -13.5 -101t-36 -101.5t-52.5 -93t-64 -75.5z" />
<glyph unicode="&#x201e;" horiz-adv-x="790" d="M79 -246q30 63 48.5 137.5t18.5 173.5v198h231l-1 -198q0 -51 -12 -106t-33.5 -106.5t-50.5 -97.5t-62 -80zM389 -246q30 63 52 137.5t22 173.5v198h230l-1 -198q0 -51 -13 -106t-35.5 -106.5t-52.5 -97.5t-64 -80z" />
<glyph unicode="&#x2022;" horiz-adv-x="737" d="M135 728v50q0 51 17 93t47.5 73t74.5 48t98 17q56 0 100.5 -17t75.5 -48t47.5 -73t16.5 -93v-50q0 -50 -16.5 -92t-47 -72.5t-75 -47.5t-99.5 -17t-99 17t-75 47.5t-48 72.5t-17 92z" />
<glyph unicode="&#x2026;" horiz-adv-x="1358" d="M128 144q0 33 11.5 61.5t33 49.5t51.5 33t68 12q37 0 67.5 -12t52.5 -33t33.5 -49.5t11.5 -61.5t-11.5 -61.5t-33.5 -49t-52.5 -32.5t-67.5 -12q-38 0 -68 12t-51.5 32.5t-33 49t-11.5 61.5zM539 144q0 33 11.5 61.5t33 49.5t51.5 33t68 12q37 0 67.5 -12t52.5 -33 t33.5 -49.5t11.5 -61.5t-11.5 -61.5t-33.5 -49t-52.5 -32.5t-67.5 -12q-38 0 -68 12t-51.5 32.5t-33 49t-11.5 61.5zM945 144q0 33 11.5 61.5t33 49.5t51.5 33t68 12q37 0 67.5 -12t52.5 -33t33.5 -49.5t11.5 -61.5t-11.5 -61.5t-33.5 -49t-52.5 -32.5t-67.5 -12 q-38 0 -68 12t-51.5 32.5t-33 49t-11.5 61.5z" />
<glyph unicode="&#x202f;" horiz-adv-x="387" />
<glyph unicode="&#x2039;" horiz-adv-x="582" d="M111 514v19l233 390h175l-192 -400l192 -399h-175z" />
<glyph unicode="&#x203a;" horiz-adv-x="562" d="M83 124l193 399l-193 400h177l233 -390v-19l-233 -390h-177z" />
<glyph unicode="&#x205f;" horiz-adv-x="483" />
<glyph unicode="&#x20ac;" d="M97 515v153h137v124h-137v152h138q8 131 48.5 230.5t107.5 166t157.5 100.5t198.5 34q51 0 101 -8.5t100 -22.5l-36 -245q-32 14 -71.5 23t-77.5 9q-103 0 -163 -67.5t-69 -219.5h258v-152h-260v-124h260v-153h-260q2 -83 19.5 -139t47.5 -90t70.5 -48.5t90.5 -14.5 q42 0 81 7.5t74 23.5l36 -244q-52 -14 -107.5 -21.5t-113.5 -7.5q-105 0 -194 33.5t-154.5 100.5t-103.5 167t-41 233h-137z" />
<glyph unicode="&#x2122;" horiz-adv-x="1134" d="M119 1348v108h344v-108h-101v-431h-135v431h-108zM520 914v542h148l89 -367l97 367h139v-542h-120v351l-84 -351h-65l-84 352v-352h-120z" />
<glyph unicode="&#x25fc;" horiz-adv-x="1080" d="M0 0v1080h1080v-1080h-1080z" />
<glyph unicode="&#xfb02;" horiz-adv-x="1187" d="M37 869v213h131v93q0 93 24.5 164t70.5 119.5t111.5 73.5t146.5 25q35 0 66 -6t62 -14l-2 -226q-29 9 -69 9q-61 0 -93.5 -37t-32.5 -108v-93h169v-213h-169v-869h-284v869h-131zM787 0v1536h284v-1536h-284z" />
<glyph unicode="&#xfb03;" horiz-adv-x="1789" d="M37 869v213h131v93q0 93 24.5 164t70.5 119.5t111.5 73.5t146.5 25q35 0 66 -6t62 -14l-2 -226q-29 9 -69 9q-61 0 -93.5 -37t-32.5 -108v-93h169v-213h-169v-869h-284v869h-131zM700 869v213h131v43q0 105 28.5 185.5t83 135.5t133.5 83t179 28q75 0 143.5 -16.5 t143.5 -42.5l-41 -241q-45 17 -99 31.5t-128 14.5q-81 0 -120 -45t-39 -133v-43h167v-213h-167v-869h-284v869h-131zM1387 0v1082h284v-1082h-284z" />
<glyph unicode="&#xfb04;" horiz-adv-x="1858" d="M37 869v213h131v93q0 93 24.5 164t70.5 119.5t111.5 73.5t146.5 25q35 0 66 -6t62 -14l-2 -226q-29 9 -69 9q-61 0 -93.5 -37t-32.5 -108v-93h169v-213h-169v-869h-284v869h-131zM708 869v213h131v93q0 93 24.5 164t70.5 119.5t111.5 73.5t146.5 25q35 0 66 -6t62 -14 l-2 -226q-29 9 -69 9q-61 0 -93.5 -37t-32.5 -108v-93h169v-213h-169v-869h-284v869h-131zM1458 0v1536h284v-1536h-284z" />
</font>
</defs>
</svg>
