<?xml version="1.0" standalone="no"?>
<!DOCTYPE svg PUBLIC "-//W3C//DTD SVG 1.1//EN" "http://www.w3.org/Graphics/SVG/1.1/DTD/svg11.dtd" >
<svg xmlns="http://www.w3.org/2000/svg" xmlns:xlink="http://www.w3.org/1999/xlink" version="1.1">
<metadata></metadata>
<defs>
<font id="sacramentoregular" horiz-adv-x="750" >
<font-face units-per-em="2048" ascent="1638" descent="-410" />
<missing-glyph horiz-adv-x="450" />
<glyph unicode="&#xfb01;" horiz-adv-x="885" d="M40 -244.5q0 82.5 0.5 177t1 198t1.5 207.5t2 204.5t3 190.5q3 172 12 307t29 228t54.5 141.5t87.5 48.5q42 0 71 -23.5t47 -63t26 -92.5t8 -111q0 -122 -21 -236t-57 -221t-84.5 -209t-103.5 -201v-88.5v-95t-0.5 -91t-0.5 -75.5q74 33 134.5 76t108 90.5t81 97 t53.5 94.5q1 2 1.5 3.5t2.5 3.5q4 84 15 170q2 14 12.5 24.5t27.5 10.5q15 0 25 -11.5t10 -26.5q0 -6 -2.5 -36t-6 -71.5t-6 -88t-2.5 -85.5q0 -53 10.5 -85.5t27 -50.5t35 -24t35.5 -6q28 0 58 20t61.5 56t63.5 86.5t63 112.5q5 10 14 15.5t20 5.5q16 0 26.5 -12t10.5 -26 q0 -10 -4 -17q-12 -23 -30 -56t-41 -68t-50.5 -69.5t-58.5 -62t-65 -44.5t-69 -17q-41 0 -73 15.5t-54.5 42.5t-36 64t-17.5 80q-52 -75 -133.5 -145t-201.5 -126q54 -56 94 -124.5t66.5 -142.5t40 -149.5t13.5 -144.5q0 -63 -11.5 -118.5t-34 -96.5t-54.5 -64.5t-73 -23.5 q-60 0 -93 44.5t-48.5 123t-18 185t-2.5 231.5v144.5zM115 -389q0 -93 1 -184t9.5 -163.5t26 -117t50.5 -44.5q30 0 49 27t29.5 64t14.5 75.5t4 62.5q0 61 -11.5 128t-35 132.5t-57.5 126.5t-79 110q0 -63 -0.5 -117.5t-0.5 -99.5zM119 455q41 77 75.5 162.5t59.5 176.5 t39 186t14 191q0 48 -4.5 87t-14 66.5t-24 43t-33.5 15.5q-20 0 -35 -24t-26 -64t-18.5 -92t-12.5 -108.5t-8 -113t-4.5 -106t-2 -87.5t-0.5 -57q-1 -40 -1.5 -71t-1.5 -61t-1.5 -64t-0.5 -80zM474 785q0 19 7 35.5t19.5 29t29 19.5t35.5 7t35.5 -7t29 -19.5t19.5 -29 t7 -35.5q0 -38 -26.5 -64.5t-64.5 -26.5t-64.5 26.5t-26.5 64.5zM531 785q0 -14 10 -24t24 -10t24.5 10t10.5 24t-10.5 24.5t-24.5 10.5t-24 -10.5t-10 -24.5z" />
<glyph unicode="&#xfb02;" horiz-adv-x="956" d="M40 -244.5q0 82.5 0.5 177t1 198t1.5 207.5t2 204.5t3 190.5q3 172 12 307t29 228t54.5 141.5t87.5 48.5q42 0 71 -23.5t47 -63t26 -92.5t8 -111q0 -122 -21 -236t-57 -221t-84.5 -209t-103.5 -201v-88.5v-95t-0.5 -91t-0.5 -75.5q74 33 134.5 76t108 90.5t81 97 t53.5 94.5q6 13 19 19q-17 96 -22 190.5t-5 165.5q0 84 5.5 174t17.5 176t30.5 163t44 135t58.5 92t75 34q33 0 59.5 -15.5t44.5 -50.5t28 -91t10 -137q0 -100 -21 -206.5t-57 -214.5t-85 -215.5t-105 -209.5q25 -127 67 -199.5t101 -72.5q40 0 77 31.5t68 74.5t54.5 87.5 t36.5 71.5q5 10 14 15.5t20 5.5q17 0 27.5 -12t10.5 -27q0 -6 -4 -16q-11 -23 -27.5 -54.5t-37.5 -65.5t-47 -67.5t-56.5 -60t-65 -43t-73.5 -16.5q-43 0 -77.5 19.5t-61.5 54t-47 81t-35 99.5q-24 -44 -58.5 -89t-80 -88t-104 -83t-130.5 -73q54 -56 94 -124.5t66.5 -142.5 t40 -149.5t13.5 -144.5q0 -63 -11.5 -118.5t-34 -96.5t-54.5 -64.5t-73 -23.5q-60 0 -93 44.5t-48.5 123t-18 185t-2.5 231.5v144.5zM115 -389q0 -93 1 -184t9.5 -163.5t26 -117t50.5 -44.5q30 0 49 27t29.5 64t14.5 75.5t4 62.5q0 61 -11.5 128t-35 132.5t-57.5 126.5 t-79 110q0 -63 -0.5 -117.5t-0.5 -99.5zM119 455q41 77 75.5 162.5t59.5 176.5t39 186t14 191q0 48 -4.5 87t-14 66.5t-24 43t-33.5 15.5q-20 0 -35 -24t-26 -64t-18.5 -92t-12.5 -108.5t-8 -113t-4.5 -106t-2 -87.5t-0.5 -57q-1 -40 -1.5 -71t-1.5 -61t-1.5 -64t-0.5 -80z M561 679q0 -64 3 -123t8 -113q42 81 80 172.5t67 185t46.5 186t17.5 176.5q0 118 -19 169t-51 51q-21 0 -40.5 -29t-36.5 -79t-31 -118t-23.5 -146t-15 -163t-5.5 -169z" />
<glyph horiz-adv-x="0" />
<glyph unicode="&#xd;" horiz-adv-x="450" />
<glyph unicode=" "  horiz-adv-x="450" />
<glyph unicode="&#x09;" horiz-adv-x="450" />
<glyph unicode="&#xa0;" horiz-adv-x="450" />
<glyph unicode="!" horiz-adv-x="535" d="M200 22q0 23 15.5 38.5t38.5 15.5t38.5 -15.5t15.5 -38.5t-15.5 -38.5t-38.5 -15.5t-38.5 15.5t-15.5 38.5zM226 268l33 1132q1 16 12 27t27 10t26.5 -12t10.5 -27l-34 -1133q-1 -15 -11.5 -25.5t-26.5 -10.5h-1q-16 0 -26.5 11.5t-9.5 27.5z" />
<glyph unicode="&#x22;" horiz-adv-x="404" d="M74 1151q0 4 0.5 8.5t1.5 11.5l25 208q2 15 13 24t25 9q17 0 27 -11.5t10 -26.5q0 -4 -1.5 -17.5t-2.5 -20.5l-23 -191q-2 -14 -13 -23.5t-25 -9.5t-25.5 11t-11.5 28zM217 1171q0 6 2 16l36 221q2 14 13 22.5t25 8.5q16 0 26.5 -11t10.5 -26q0 -4 -2 -14l-36 -226 q-2 -14 -13 -22.5t-25 -8.5q-17 0 -27 11.5t-10 28.5z" />
<glyph unicode="#" horiz-adv-x="694" d="M40 521q0 16 11 27t27 11h105l57 184q-40 -1 -62.5 -1.5t-26.5 -0.5q-16 0 -27 10.5t-11 26.5t10.5 27t26.5 11l113 2l60 191q4 12 14 19.5t22 7.5q17 0 27.5 -12t10.5 -27q0 -5 -2 -13t-3 -10l-48 -155l94 2l68 234q4 12 14 19.5t22 7.5q17 0 27.5 -11.5t10.5 -25.5 q0 -3 -1 -7.5t-2 -6.5l-61 -209l99 2q16 0 27 -11t12 -27q0 -15 -11 -26.5t-26 -11.5h-63t-59 -1l-55 -187h97q15 0 26 -11t11 -26q0 -16 -11 -27t-26 -11h-119l-89 -309q-4 -12 -14 -19.5t-23 -7.5q-17 0 -27.5 11.5t-10.5 25.5q0 3 0.5 5.5t1.5 5.5l84 287h-101l-76 -245 q-4 -12 -14 -19t-22 -7q-17 0 -27.5 10.5t-10.5 25.5q0 4 2 12l69 222h-82q-16 0 -27 11t-11 27zM263 559q26 0 52.5 0.5t46.5 0.5l54 187q-26 -1 -50 -1t-45 -1z" />
<glyph unicode="$" horiz-adv-x="1018" d="M70 811q0 66 36.5 117.5t96 88.5t136 60t157.5 32l15 274q1 14 12 24.5t26 10.5q17 0 27.5 -12t10.5 -28l-16 -264h21q87 0 156.5 -14.5t118.5 -41.5t75 -66t26 -89q0 -10 -1.5 -22t-6 -22t-12.5 -17t-22 -7q-16 0 -26.5 11.5t-10.5 26.5q0 8 1.5 15t1.5 14q0 34 -22 59 q-10 11 -28.5 24.5t-51 25t-80 19.5t-114.5 8q-77 0 -157 -15.5t-145 -44.5t-106.5 -71t-41.5 -95q0 -41 31 -67t79.5 -42.5t108 -25t116.5 -14.5q71 -7 136.5 -14t116 -22.5t80.5 -44t30 -77.5q0 -35 -15.5 -70t-51.5 -63t-94.5 -46t-144.5 -20l-11 -277q-1 -15 -12 -25.5 t-26 -10.5q-17 0 -28 11.5t-10 28.5l12 275q-57 4 -100.5 13.5t-72.5 20t-45 19t-17 9.5q-17 11 -17 32q0 16 12 27t26 11q9 0 20 -6l16.5 -8.5t48 -18.5t78 -18t108.5 -8q58 0 104 9t78 24.5t49 36.5t17 45q0 25 -17.5 40t-52.5 24t-88 15t-124 13q-133 13 -214.5 36.5 t-126.5 53.5t-60 64t-15 69z" />
<glyph unicode="%" horiz-adv-x="1188" d="M50 925q0 56 20.5 105t56 86t83 58t101.5 21t101 -21t82.5 -58t56 -86t20.5 -105t-20.5 -104.5t-56 -85.5t-82.5 -58t-101 -21t-101.5 21t-83 58t-56 85.5t-20.5 104.5zM116 925q0 -42 15.5 -79t41.5 -64.5t61.5 -43.5t76.5 -16q40 0 75.5 16t61.5 43.5t41.5 64.5 t15.5 79t-15.5 79.5t-41.5 65t-61.5 43.5t-75.5 16q-41 0 -76.5 -16t-61.5 -43.5t-41.5 -65t-15.5 -79.5zM173 128q0 12 7 20l759 1018q5 7 12 10t15 3q14 0 23 -10t9 -23q0 -11 -6 -20l-759 -1018q-9 -13 -26 -13q-15 0 -24.5 10t-9.5 23zM617 376q0 55 20.5 104t56 86 t83 58t101.5 21t101 -21t82.5 -58t56 -86t20.5 -104q0 -56 -20.5 -105t-56 -86t-82.5 -58t-101 -21t-101.5 21t-83 58t-56 86t-20.5 105zM683 376q0 -42 15.5 -79.5t41.5 -65t61.5 -43.5t76.5 -16q40 0 75.5 16t61.5 43.5t41.5 65t15.5 79.5t-15.5 79t-41.5 64.5t-61.5 43.5 t-75.5 16q-41 0 -76.5 -16t-61.5 -43.5t-41.5 -64.5t-15.5 -79z" />
<glyph unicode="&#x26;" horiz-adv-x="1112" d="M60 287q0 57 23 105t62.5 85.5t93.5 63.5t117 40q-18 8 -37.5 22.5t-35.5 35t-26.5 47t-10.5 58.5q0 76 34.5 132t88.5 93t119.5 55t127.5 18q54 0 100.5 -12.5t80 -35t53 -55t19.5 -71.5q0 -33 -13 -62.5t-35.5 -51.5t-53 -34.5t-66.5 -12.5q-32 0 -56.5 9.5t-41.5 23 t-26 28t-9 24.5q0 16 10.5 27t26.5 11q11 0 17 -5.5t12 -12.5q10 -12 24.5 -24t46.5 -12q22 0 38 7.5t27 20t16.5 28t5.5 30.5q0 19 -10.5 38t-31.5 34t-54 24t-78 9t-96.5 -12.5t-96 -38t-74 -66t-29.5 -95.5q0 -36 12.5 -60.5t34.5 -40.5t52.5 -25.5t67.5 -16.5 q14 -3 26.5 -5.5t22 -7t15 -12t5.5 -20.5q0 -16 -10.5 -25.5t-28.5 -9.5t-53 -2t-77.5 -10.5t-87.5 -24t-81.5 -43t-60 -67.5t-23.5 -97t21.5 -99.5t58.5 -70t86.5 -41t106.5 -13.5q80 0 158.5 19.5t140.5 59.5t100.5 101t38.5 143q0 4 -0.5 7.5t-0.5 8.5q-54 -5 -97.5 -9.5 t-68.5 -6.5q-8 -1 -13.5 -1.5t-8.5 -0.5q-17 0 -29 10t-12 29q0 14 9.5 24.5t25.5 12.5q29 3 75 8t100.5 9.5t112.5 9t110.5 8.5t96 6t69.5 2q56 0 76 -10t20 -32q0 -14 -10 -24.5t-29 -10.5q-14 0 -29.5 1t-44.5 1q-15 0 -44.5 -1.5t-67 -4.5t-80.5 -6.5t-87 -7.5 q1 -5 1 -16q0 -97 -42.5 -172t-113 -126.5t-163.5 -78t-193 -26.5q-72 0 -135.5 20t-111 58t-75 93t-27.5 126z" />
<glyph unicode="'" horiz-adv-x="250" d="M74 1178q0 4 0.5 8.5t1.5 11.5l25 208q2 15 13 24t25 9q17 0 27 -11.5t10 -26.5q0 -4 -1.5 -17.5t-2.5 -20.5l-23 -191q-2 -14 -13 -23.5t-25 -9.5t-25.5 11t-11.5 28z" />
<glyph unicode="(" horiz-adv-x="704" d="M150 632q0 122 22.5 228t58.5 195t80 161t86 126q46 59 90 103t78.5 74t56.5 45.5t24 16.5q9 6 20 6q21 0 32 -17q6 -11 6 -21q0 -9 -4 -18t-13 -14q-1 -1 -21.5 -15.5t-53 -42.5t-74 -70t-84.5 -97.5t-84 -125t-73.5 -152t-52 -178t-19.5 -204.5q0 -146 23 -261 t58 -203.5t76 -150.5t76 -101.5t58.5 -58.5t24.5 -19q17 -12 17 -32q0 -17 -11.5 -27.5t-26.5 -10.5q-11 0 -20 6q-4 2 -31.5 23t-66 64.5t-83 111t-82 162t-62.5 218t-25 279.5z" />
<glyph unicode=")" horiz-adv-x="704" d="M0 -200q0 20 17 32q1 1 21.5 15.5t53 42.5t74 70t84.5 98t84 125t73.5 151.5t52 178.5t19.5 205q0 145 -23 260.5t-58 203.5t-76 150t-76 102t-58.5 58.5t-24.5 19.5q-17 14 -17 31t11.5 27.5t26.5 10.5q11 0 20 -6q4 -2 31.5 -23t66 -64.5t83 -110.5t82 -161.5 t62.5 -218t25 -279.5q0 -122 -22.5 -228.5t-58.5 -195.5t-80 -161t-86 -126q-46 -59 -90 -103t-78.5 -74t-56.5 -45.5t-24 -16.5q-9 -6 -20 -6q-14 0 -26 10.5t-12 27.5z" />
<glyph unicode="*" horiz-adv-x="574" d="M79 1300q0 17 11.5 27.5t25.5 10.5q9 0 19 -5l111 -62l6 132q1 15 11.5 25.5t25.5 10.5q17 0 28 -11t10 -28l-5 -133l122 48q8 2 14 2q14 0 25.5 -10t11.5 -27q0 -25 -24 -35l-130 -52l87 -110q8 -11 8 -23q0 -16 -11 -27t-27 -11q-19 0 -29 15l-92 115l-103 -107 q-11 -12 -27 -12q-17 0 -27.5 12t-10.5 26q0 16 10 26l100 104l-120 66q-20 11 -20 33z" />
<glyph unicode="+" d="M65 599q0 16 9.5 27.5t26.5 12.5l243 12q4 50 8 106.5t9 119.5q1 15 12 25t25 10q18 0 28.5 -12t10.5 -28l-17 -217l225 12q16 1 27.5 -9t12.5 -26q0 -16 -9.5 -27.5t-26.5 -12.5l-234 -12l-17 -224q-2 -15 -12.5 -25t-25.5 -10t-26 11t-11 26q0 1 4 58t12 160l-234 -12 q-15 -1 -27.5 8.5t-12.5 26.5z" />
<glyph unicode="," horiz-adv-x="368" d="M50 -198q0 16 11 27q38 39 58.5 89.5t20.5 115.5q0 16 9.5 27.5t26.5 11.5q15 0 26.5 -9.5t12.5 -26.5q0 -72 -21.5 -139.5t-78.5 -121.5q-13 -11 -27 -11t-26 10.5t-12 26.5z" />
<glyph unicode="-" d="M240 327q0 16 9.5 27.5t26.5 12.5l344 18q16 1 27.5 -9t12.5 -26q0 -16 -9.5 -27.5t-26.5 -12.5l-344 -18q-15 -1 -27.5 8.5t-12.5 26.5z" />
<glyph unicode="." horiz-adv-x="368" d="M130 29q0 22 15.5 37.5t38.5 15.5t38.5 -15.5t15.5 -37.5q0 -23 -15.5 -38.5t-38.5 -15.5t-38.5 15.5t-15.5 38.5z" />
<glyph unicode="/" horiz-adv-x="1000" d="M54 0q0 9 3 15t6 11l813 1392q5 9 14.5 14t18.5 5q17 0 27 -12t10 -26q0 -7 -3.5 -15t-6.5 -13l-812 -1390q-11 -19 -32 -19q-17 0 -27.5 12t-10.5 26z" />
<glyph unicode="0" horiz-adv-x="1574" d="M60 685q0 104 26 200.5t73.5 180t114 152.5t147 118t173.5 76t193 27t193 -27t173.5 -76t147 -118t114 -152.5t73.5 -180t26 -200.5t-26 -200.5t-73.5 -180t-114 -152.5t-147 -118t-173.5 -76t-193 -27t-193 27t-173.5 76t-147 118t-114 152.5t-73.5 180t-26 200.5z M135 685q0 -93 23.5 -180t66 -162.5t102 -137.5t132 -106t155.5 -68.5t173 -24.5t173.5 24.5t155.5 68.5t132 106t102 137.5t65.5 162t23.5 180.5q0 93 -23.5 180t-65.5 162.5t-102 137.5t-132 106t-155.5 68.5t-173.5 24.5t-173 -24.5t-155.5 -68.5t-132 -106t-102 -137.5 t-66 -162.5t-23.5 -180z" />
<glyph unicode="1" horiz-adv-x="675" d="M50 785q0 20 18 32q1 1 21 14.5t52 38t73 60t83.5 79t82.5 95t71 108.5v35.5v39v37v29.5q2 45 18.5 65.5t45.5 20.5t47.5 -25t18.5 -59q0 -41 -18 -82.5t-36 -79.5q0 -69 -0.5 -156.5t-0.5 -183.5t-0.5 -196t-1 -194.5t-0.5 -177.5t-0.5 -146t-0.5 -100v-39 q0 -16 -11 -27t-27 -11t-26.5 11t-10.5 27v54.5t0.5 138.5t0.5 196.5t0.5 229t1 236t0.5 217.5q-52 -71 -110.5 -128.5t-109 -99t-85 -65t-38.5 -26.5q-11 -6 -20 -6q-14 0 -26 10.5t-12 27.5z" />
<glyph unicode="2" horiz-adv-x="1622" d="M0 127q0 27 14 54t42 48.5t71 35.5t101 14q43 0 94.5 -8t109 -21.5t121 -31t129.5 -37.5q69 36 140 83.5t136.5 105t122.5 124t99 141t66.5 156.5t24.5 170q0 106 -35 190.5t-99 143t-153.5 89.5t-198.5 31q-55 0 -115.5 -12t-119.5 -35.5t-112.5 -58.5t-94.5 -81 t-65 -102.5t-24 -123.5q0 -43 8 -80t18 -65.5t18.5 -45.5t10.5 -20q5 -10 5 -19q0 -14 -10 -26t-28 -12q-22 0 -33 19q0 1 -10 20.5t-22 53.5t-22 79t-10 97q0 75 25.5 140.5t69.5 120t103 96.5t127 71.5t141 44.5t144 15q124 0 227 -37.5t176.5 -106.5t114 -167t40.5 -219 q0 -114 -41 -228t-115.5 -219t-178 -197.5t-227.5 -165.5q67 -20 133 -38.5t126.5 -32t115.5 -21.5t102 -8q113 0 195.5 25t137 55.5t81.5 56.5t29 29q12 14 30 14q16 0 26.5 -11.5t10.5 -26.5q0 -12 -8 -23q-2 -2 -16 -17t-41.5 -36.5t-68 -46.5t-95.5 -45.5t-124.5 -34.5 t-154.5 -14q-74 0 -147.5 12t-146 30t-142.5 40t-137 42q-128 -62 -244.5 -91t-210.5 -29q-62 0 -106.5 12.5t-73.5 33t-42.5 47t-13.5 54.5zM75 127q0 -12 9 -25t28.5 -23t49.5 -16.5t73 -6.5q73 0 160.5 19t183.5 58q-100 29 -189.5 49.5t-154.5 20.5q-38 0 -67.5 -7 t-50 -17.5t-31.5 -24.5t-11 -27z" />
<glyph unicode="3" horiz-adv-x="1226" d="M40 120q0 16 11 27t26 11q17 0 28 -12l13.5 -12.5t40.5 -32t68 -42t95 -42t121 -32.5t147 -13q106 0 197.5 25.5t159 74.5t105.5 120.5t38 162.5q0 74 -29.5 131t-80.5 99.5t-119 71.5t-145 47q-63 -23 -134.5 -37.5t-140.5 -14.5q-80 0 -114.5 19t-34.5 51q0 7 4 21 t23 28t58 24t109 10q48 0 106 -5t121 -18q73 29 128.5 68t92.5 81.5t55.5 85.5t18.5 80q0 64 -27 113.5t-71 83.5t-102 51.5t-119 17.5q-86 0 -160 -20t-134 -50t-106.5 -65.5t-77.5 -65.5t-47.5 -50.5l-16.5 -20.5q-5 -8 -13.5 -12t-17.5 -4q-16 0 -26.5 11.5t-10.5 25.5 q0 12 7 22q2 2 20.5 26t53.5 57.5t85.5 72.5t116.5 72t147 55t177 22q75 0 146 -22t127 -65.5t90 -107.5t34 -148q0 -47 -18.5 -94.5t-52 -92t-81 -84.5t-105.5 -72q68 -23 129.5 -58.5t108.5 -84t74.5 -112t27.5 -142.5q0 -83 -25 -149.5t-68 -117.5t-100 -87.5t-121 -59.5 t-131.5 -34t-131.5 -11q-88 0 -162.5 14.5t-134 36t-104.5 46.5t-75.5 47t-46 37.5l-16.5 16.5q-10 10 -10 25zM389 726q10 -5 26 -6.5t36 -1.5q35 0 75.5 5.5t73.5 14.5q-39 6 -86 6q-40 0 -75 -5t-50 -13z" />
<glyph unicode="4" horiz-adv-x="1640" d="M20 391q0 23 21 34q1 1 48.5 27t127.5 77t187 126t228 173t249.5 219t252.5 264q3 35 6.5 60t8.5 37q11 32 24 51t26 28.5t24.5 12.5t19.5 3q27 0 45.5 -19t18.5 -48q0 -19 -10 -39t-25 -40t-32.5 -39.5t-32.5 -37.5q-5 -61 -8.5 -149t-6.5 -193t-5.5 -223t-3.5 -238 q90 -1 163.5 -2.5t126 -3t81.5 -3t30 -1.5q17 -1 26.5 -12.5t9.5 -27.5q-1 -16 -12 -26t-26 -10q-3 0 -32 1.5t-80.5 3t-124.5 3t-163 2.5q-2 -113 -2.5 -222t-0.5 -207q0 -16 -11 -27t-27 -11t-26.5 10.5t-10.5 25.5v55.5t0.5 96.5t1 128t1.5 151q-113 0 -242 -2t-271 -8 q-129 -5 -263 -14t-273 -23q-15 0 -26.5 10t-11.5 27zM224 444q121 10 240 16t231 10t216 5.5t196 1.5q1 91 3 187t4 188.5t5 178.5t7 158q-126 -138 -255 -254.5t-248 -210t-221.5 -164t-177.5 -116.5z" />
<glyph unicode="5" horiz-adv-x="1326" d="M-20 66q0 15 11 27t27 12q8 0 14 -3t13 -8q16 -10 52.5 -33.5t94.5 -47.5t136.5 -42.5t177.5 -18.5q83 0 165.5 9t157.5 29.5t139 53.5t111.5 80t74 110t26.5 143q0 93 -38.5 162t-110 115.5t-173 69.5t-227.5 23q-96 0 -164.5 -7.5t-115 -18t-75 -21.5t-44.5 -19 q-8 -4 -18.5 -8t-20.5 -4q-17 0 -27 11.5t-9 27.5l30 669q1 16 12.5 26t28.5 10q13 0 46.5 -1.5t75 -3t85 -3t77.5 -1.5q127 0 233.5 5.5t184.5 11.5t123 11.5t49 5.5q14 0 25.5 -10t11.5 -26q0 -14 -9 -25.5t-24 -13.5q-1 0 -47 -5.5t-125.5 -12t-188 -12t-234.5 -5.5 q-60 0 -122.5 1.5t-127.5 5.5l-26 -573q27 9 66 20t89 20t110 15t129 6q126 0 240 -25.5t200 -80t136.5 -139t50.5 -201.5q0 -90 -29.5 -161.5t-81 -127t-122.5 -94.5t-153.5 -64.5t-174 -37t-184.5 -11.5q-100 0 -184 17t-150 41.5t-113 52t-73 48.5q-6 5 -8.5 11.5 t-2.5 14.5z" />
<glyph unicode="6" horiz-adv-x="1479" d="M70 560q0 134 41.5 264.5t117.5 245t181.5 206t233.5 146.5q72 31 136 48t113.5 25t80 9.5t33.5 1.5q16 0 27 -11t11 -27t-11 -27t-27 -11q-1 0 -28.5 -1.5t-73.5 -9t-106.5 -23t-127.5 -44.5q-112 -49 -208 -130.5t-166.5 -185t-110.5 -225t-40 -250.5 q0 -101 29.5 -180.5t78 -140t111.5 -102.5t130.5 -69t134 -39t122.5 -12q117 0 224.5 34t189 95t130 145t48.5 184q0 106 -42 180t-108.5 120.5t-147.5 67t-159 20.5q-102 0 -193 -29t-164 -79.5t-123.5 -119t-70.5 -148.5q-3 -13 -13.5 -21t-22.5 -8q-17 0 -28 11.5 t-11 26.5q0 4 2 12q24 92 81 171t139.5 136.5t186 90.5t219.5 33q102 0 198 -29t169.5 -87t118 -146t44.5 -205q0 -115 -54.5 -212.5t-147 -168t-213 -110.5t-252.5 -40q-87 0 -171 19.5t-160 57t-140 91.5t-111 122.5t-73.5 151t-26.5 176.5z" />
<glyph unicode="7" horiz-adv-x="1323" d="M0 1365q0 16 11.5 27t26.5 11q5 0 33.5 -5t76 -12.5t111.5 -16.5t140.5 -16.5t162.5 -12.5t178 -5q137 0 274.5 14.5t259.5 51.5q6 2 10 2q14 0 26.5 -11.5t12.5 -27.5q0 -17 -14 -29q-1 -1 -29 -25.5t-76.5 -71t-114.5 -114t-142 -155t-159.5 -194t-167.5 -230.5 t-165.5 -264.5t-153.5 -296.5q-11 -22 -34 -22q-17 0 -27.5 12t-10.5 26q0 9 4 16q73 158 156 301t168.5 269t170.5 234.5t162.5 198t144 158.5t116.5 117q-101 -19 -206.5 -27t-208.5 -8q-90 0 -176.5 5t-163 12t-141.5 16t-113.5 16.5t-77.5 13t-34 6.5q-14 2 -22 12.5 t-8 24.5z" />
<glyph unicode="8" horiz-adv-x="1346" d="M60 318q0 58 19.5 108.5t54 93.5t82 80t102 69t115 60t121.5 54q-65 22 -126.5 53.5t-110 76t-78 102.5t-29.5 135q0 74 37 136.5t105.5 107.5t165.5 70t216 25q76 0 137 -14.5t107.5 -39.5t79.5 -57.5t54 -68.5t30.5 -72.5t9.5 -69.5q0 -63 -23.5 -115t-69.5 -96.5 t-115 -84t-160 -76.5q502 -131 502 -441q0 -78 -27 -140.5t-74 -111t-109 -83.5t-132.5 -57.5t-144.5 -33.5t-144 -11q-55 0 -120.5 5.5t-131.5 21t-128 43t-109.5 72t-76.5 108.5t-29 151zM135 315q0 -80 38 -140.5t107 -101t165.5 -61.5t214.5 -21q57 0 119.5 7.5 t124 24.5t117 45t98 68t67.5 93.5t25 122.5q0 66 -26.5 117.5t-70 90.5t-100 68t-117 51t-120.5 38.5t-110 30.5q-62 -25 -125.5 -52t-122.5 -57t-111 -64.5t-90.5 -74.5t-60.5 -86t-22 -99zM285 1150q0 -71 34.5 -123t89 -90t122 -64.5t132.5 -45.5q35 13 79.5 29.5 t90.5 37.5t90 48t78 60.5t55 74.5t21 91q0 62 -31.5 108.5t-81 77t-110.5 45.5t-120 15q-101 0 -183.5 -19.5t-141.5 -54.5t-91.5 -83.5t-32.5 -106.5z" />
<glyph unicode="9" horiz-adv-x="1479" d="M60 930q0 115 54.5 213t146.5 168.5t213 110.5t253 40q87 0 171.5 -19.5t160.5 -57t140 -91.5t110.5 -123t73 -151.5t26.5 -177.5q0 -134 -41.5 -264.5t-117 -244t-181.5 -204.5t-234 -146q-72 -31 -136 -48t-113.5 -25t-79.5 -9.5t-33 -1.5q-16 -1 -27 10.5t-11 27.5 t11 26.5t27 10.5q1 0 28.5 1.5t73 9t106 23.5t127.5 45q112 49 208.5 130t167 184.5t110.5 225t40 250.5q0 101 -29.5 180.5t-78 140t-112 103t-131 69.5t-134 39t-122.5 12q-78 0 -152 -15.5t-139.5 -44t-121 -69t-95 -91.5t-62 -110.5t-22.5 -125.5q0 -72 19 -128.5 t52.5 -100t78 -74.5t95 -50.5t104.5 -28.5t106 -9q103 0 194.5 28.5t164.5 79t123.5 119.5t71.5 150q3 13 13 20.5t23 7.5q17 0 27.5 -11.5t10.5 -26.5v-2.5t-1 -6.5q-20 -93 -77 -172.5t-140.5 -137t-187.5 -90.5t-219 -33q-102 0 -198 29t-170.5 87t-119.5 145t-45 204z " />
<glyph unicode=":" horiz-adv-x="468" d="M180 29q0 22 15.5 37.5t38.5 15.5t38.5 -15.5t15.5 -37.5q0 -23 -15.5 -38.5t-38.5 -15.5t-38.5 15.5t-15.5 38.5zM180 429q0 22 15.5 37.5t38.5 15.5t38.5 -15.5t15.5 -37.5q0 -23 -15.5 -38.5t-38.5 -15.5t-38.5 15.5t-15.5 38.5z" />
<glyph unicode=";" horiz-adv-x="468" d="M100 -198q0 16 11 27q38 39 58.5 89.5t20.5 115.5q0 16 9.5 27.5t26.5 11.5q15 0 26.5 -9.5t12.5 -26.5q0 -72 -21.5 -139.5t-78.5 -121.5q-13 -11 -27 -11t-26 10.5t-12 26.5zM177 429q0 22 15.5 37.5t38.5 15.5t38.5 -15.5t15.5 -37.5q0 -23 -15.5 -38.5t-38.5 -15.5 t-38.5 15.5t-15.5 38.5z" />
<glyph unicode="&#x3c;" d="M98 605q0 22 21 33q68 37 128 78.5t111.5 83t92.5 79.5t70 67t45 47t17 19q12 15 30 15q16 0 27 -11.5t11 -26.5q0 -14 -7 -22q-4 -6 -34.5 -40t-85.5 -85t-133 -113.5t-177 -123.5q47 -28 82.5 -50t66 -41.5t58 -38.5t58.5 -40.5t68 -47.5t86 -59q16 -11 16 -31 q0 -11 -7 -21q-5 -8 -14.5 -13.5t-18.5 -5.5q-11 0 -21 7q-53 36 -93.5 64.5t-76 53t-67.5 46t-66.5 44t-75 46.5t-92.5 53q-19 11 -19 34z" />
<glyph unicode="=" d="M74 483q0 15 10.5 27t26.5 12l510 7q16 0 27 -10.5t12 -26.5q0 -16 -11 -27t-26 -11l-511 -8q-16 0 -27 11t-11 26zM77 727q0 16 10 27t26 12l524 12q15 1 26.5 -10.5t11.5 -26.5q0 -16 -9.5 -27.5t-26.5 -11.5l-524 -11q-16 -1 -27 10t-11 26z" />
<glyph unicode="&#x3e;" d="M98 989q0 15 11 26.5t27 11.5q18 0 30 -15q1 -1 17 -19t45 -47t70 -67t92.5 -79.5t112 -83t127.5 -78.5q21 -11 21 -33q0 -23 -19 -34q-52 -29 -92.5 -53t-75 -46.5t-66.5 -44t-67.5 -46t-76.5 -53t-93 -64.5q-10 -7 -21 -7q-9 0 -18.5 5.5t-14.5 13.5q-7 10 -7 21 q0 20 16 31q49 33 86 59t68 47.5t58.5 40.5t58 38.5t66 41.5t82.5 50q-99 61 -177 123.5t-133 113.5t-85.5 85t-34.5 40q-7 8 -7 22z" />
<glyph unicode="?" horiz-adv-x="1588" d="M60 1054q0 101 48.5 181.5t136.5 136.5t211.5 86.5t272.5 30.5q218 0 370 -43t247.5 -114.5t138.5 -162.5t43 -187q0 -81 -33 -158t-96 -131q-53 -45 -118.5 -82t-134.5 -69.5t-137 -63.5t-126 -65t-102 -73t-64 -88q-10 -23 -35 -23q-16 0 -26.5 11.5t-10.5 25.5 q0 7 3 15q27 61 76 106.5t110.5 81.5t131.5 66t138.5 61t131.5 66t111 80t76.5 103.5t28.5 137.5q0 83 -33 147t-88.5 111.5t-128.5 80.5t-153 53t-162.5 29t-156.5 9q-133 0 -242.5 -24.5t-188 -71t-121.5 -113.5t-43 -152q0 -63 23.5 -112t64 -83t94 -51.5t114.5 -17.5 q48 0 93.5 12t80.5 35q9 6 20 6q15 0 26.5 -10.5t11.5 -27.5q0 -22 -26 -39t-62.5 -28.5t-77 -17.5t-68.5 -6q-86 0 -154.5 26.5t-116 72.5t-73 108.5t-25.5 134.5zM612 22q0 23 15.5 38.5t38.5 15.5t38.5 -15.5t15.5 -38.5t-15.5 -38.5t-38.5 -15.5t-38.5 15.5t-15.5 38.5z " />
<glyph unicode="@" horiz-adv-x="1390" d="M200 341q0 129 43 238.5t120.5 190t185.5 126t238 45.5q111 0 203.5 -34t159 -93t103.5 -139t37 -172q0 -71 -16.5 -135.5t-48.5 -113.5t-79 -78t-109 -29t-105.5 34.5t-63.5 99.5q-39 -66 -88 -97t-93 -31q-39 0 -69.5 14t-52 38t-32.5 57t-11 72q0 80 27 140.5 t69.5 101.5t93.5 61.5t99 20.5q27 0 50 -6.5t41 -15.5t30.5 -18t18.5 -14q5 -5 10 -12.5t5 -17.5q0 -15 -11 -27t-27 -12q-12 0 -20.5 7.5t-20.5 17t-31 17t-53 7.5q-28 0 -63.5 -14.5t-67 -44.5t-53 -77t-21.5 -113q0 -26 7.5 -46.5t19.5 -34.5t28 -22t33 -8q57 0 101 52.5 t59 155.5q1 15 11 24.5t23 9.5q17 0 27 -10.5t12 -25.5q1 -20 4.5 -56t16 -71t36.5 -61t65 -26q28 0 58.5 15.5t55.5 49.5t41.5 89t16.5 134q0 69 -29 134.5t-83.5 116.5t-134 82t-180.5 31q-117 0 -211 -41t-161 -112t-103 -167t-36 -207q0 -84 33 -157.5t90.5 -128 t135 -86.5t167.5 -32q60 0 90 5t39 5q17 0 25.5 -9.5t8.5 -22.5q0 -15 -13.5 -25t-36 -16t-50.5 -8t-56 -2q-95 0 -186.5 32.5t-163 94t-115 150t-43.5 200.5z" />
<glyph unicode="A" horiz-adv-x="2165" d="M-100 115q0 16 11 27t26 11q17 0 28 -12q2 -2 24 -20.5t65.5 -39.5t110.5 -38t159 -17q126 0 241 34t217.5 88.5t191 124.5t160.5 142q-71 -6 -141 -9t-138 -3q-134 0 -255 15t-213 50.5t-146.5 94.5t-54.5 147q0 40 16.5 80t39.5 72.5t48 53t43 20.5q14 0 26 -10t12 -27 q0 -9 -4 -17.5t-12 -13.5q-2 -2 -17 -14t-32 -32.5t-31 -49t-14 -61.5q0 -57 39.5 -100.5t115 -73t185.5 -44.5t251 -15q81 0 171 5t190 15q48 53 85 100t63 84q43 61 90 130t93.5 140t91 140.5t83.5 131t70 112t51 83.5q6 27 18 49.5t39 22.5q15 0 29 -12.5t14 -31.5 q0 -14 -10 -30t-19 -27q-3 -19 -9.5 -81t-13 -151.5t-11 -197t-4.5 -217.5v-81t2 -81q150 19 219 26.5t73 7.5q13 0 25.5 -10.5t12.5 -27.5q0 -14 -9.5 -24.5t-24.5 -12.5q-18 -2 -42 -5t-59 -7t-82 -9.5t-110 -13.5q3 -82 9.5 -157.5t16 -140.5t22.5 -117t30 -85 q4 -7 4 -17q0 -15 -10.5 -26t-27.5 -11q-11 0 -19.5 5t-13.5 15q-19 37 -33.5 92.5t-25 123.5t-17 146.5t-10.5 162.5q-75 -10 -168.5 -22t-213.5 -28q-84 -12 -171 -21q-214 -233 -450.5 -353.5t-474.5 -120.5q-106 0 -183.5 20.5t-128 46t-76 47.5t-27.5 24q-10 10 -10 26 zM1323 510q22 2 43.5 5t44.5 6q118 16 214.5 28.5t174.5 22.5q-1 43 -1.5 86t-0.5 87q0 141 5 269.5t14 223.5q-40 -63 -88.5 -139.5t-100.5 -156t-105 -157.5t-101 -146q-24 -34 -49 -66t-50 -63z" />
<glyph unicode="B" horiz-adv-x="2359" d="M60 408q0 106 41.5 219.5t123.5 230.5q78 110 173 197.5t199.5 153.5t215.5 113t220.5 77t214 43.5t196.5 13.5q75 0 143 -5t130 -15q36 40 58 57.5t25 19.5q12 6 21 6q14 0 25 -8t11 -23q0 -20 -14 -33.5t-38 -36.5q183 -45 280 -135.5t97 -223.5q0 -73 -24 -131 t-65.5 -102t-97 -76.5t-117.5 -54.5q86 -24 146.5 -55t102 -64.5t65.5 -68.5t37 -67t16.5 -59.5t3.5 -46.5q0 -70 -26.5 -125t-71.5 -97t-104.5 -71t-124.5 -47.5t-133 -27t-129 -8.5q-99 0 -204.5 20t-213.5 65q-24 10 -24 35q0 17 12 27.5t26 10.5q7 0 15 -3 q93 -39 191 -59t197 -20q135 0 232 26t159.5 68.5t92.5 96t30 108.5q0 61 -33.5 113t-95 93t-147.5 70t-191 43q-69 -12 -134 -17t-120 -5h-23q-7 0 -13 1q-72 -173 -171.5 -299t-212 -208.5t-231 -122t-227.5 -39.5q-113 0 -207.5 31.5t-162.5 89.5t-106 140.5t-38 184.5z M135 409q0 -87 31.5 -156t89.5 -116.5t139 -73t179 -25.5t204 35.5t207 109t192 186t159 267.5q-18 0 -37 10.5t-19 33.5q0 24 23 34.5t72 17.5q27 82 55 164t62 162t75 157.5t95 151.5q-51 7 -105 10t-113 3q-88 0 -187 -13t-203 -41t-209.5 -72.5t-205 -107t-189.5 -145.5 t-164 -187q-75 -106 -113 -209t-38 -196zM1457 738q20 1 37 1h29q39 0 85 -2.5t99 -8.5q44 8 90.5 21t91 31.5t84.5 44t69.5 60t47 77.5t17.5 98q0 112 -93 185t-267 108q-50 -62 -94 -137t-81 -155.5t-66.5 -163t-48.5 -159.5z" />
<glyph unicode="C" horiz-adv-x="1739" d="M60 647q0 117 34.5 222t96.5 194.5t147 161.5t186 122.5t213 77.5t229 27q129 0 242.5 -30.5t198.5 -86t134.5 -133t49.5 -172.5q0 -88 -41 -167.5t-112.5 -139.5t-167 -95t-203.5 -35q-87 0 -154 21.5t-112 59.5t-68 89t-23 110q0 49 15.5 89.5t34 69.5t35 45.5 l18.5 18.5q5 5 11.5 6.5t12.5 1.5q16 0 27 -10t11 -26q0 -18 -13 -30q-2 -1 -14 -13.5t-26 -34t-25.5 -51.5t-11.5 -66q0 -57 25.5 -96t66.5 -63.5t91 -35t100 -10.5q93 0 174.5 30t142.5 80t96 115t35 136q0 78 -44 142.5t-119 110t-175.5 70.5t-214.5 25 q-86 0 -180.5 -20.5t-186.5 -61.5t-175.5 -102t-146.5 -142.5t-100.5 -182.5t-37.5 -221q0 -109 30.5 -197t84.5 -156.5t126.5 -118.5t156 -82.5t174.5 -48t181 -15.5q120 0 231 33.5t205.5 88t167.5 122.5t116 137q5 9 14 13.5t19 4.5q17 0 27 -11.5t10 -25.5q0 -5 -1 -10 t-4 -10q-47 -76 -127 -150.5t-182.5 -134t-223.5 -96t-250 -36.5q-101 0 -201.5 18t-193 55t-172 93.5t-138.5 133.5t-92.5 175t-33.5 218z" />
<glyph unicode="D" horiz-adv-x="2094" d="M60 182q0 39 19.5 73t55 60t85 41t108.5 15q174 0 412 -128q44 55 72 124q31 77 48.5 158.5t31 162.5t28 158t40 145t67 124.5t108.5 96.5q10 5 18 5q14 0 26.5 -10t12.5 -28q0 -21 -19 -32q-53 -31 -86.5 -77.5t-55.5 -104.5t-35 -125t-25 -140q-10 -60 -22 -125.5 t-30 -130t-45.5 -126t-67.5 -113.5q2 -1 2.5 -1.5t2.5 -1.5q127 -76 264 -115t268 -39q142 0 254.5 47t190.5 126.5t119 185.5t41 224q0 120 -40 223.5t-109.5 188.5t-165 151t-206 110.5t-232 68t-243.5 23.5q-164 0 -299.5 -27.5t-233 -80.5t-151.5 -130t-54 -175 q0 -56 16.5 -99t42 -74.5t55.5 -53.5t56 -35.5t44.5 -19.5t21.5 -7q13 -3 20.5 -13.5t7.5 -23.5q0 -17 -12 -26t-26 -9q-20 0 -50 9.5t-63.5 29t-67 49t-60.5 69.5t-43.5 91t-16.5 113q0 113 57.5 203.5t162.5 153.5t251.5 97t325.5 34q123 0 251 -22.5t249 -68.5 t228 -115.5t187 -162.5t126.5 -210t46.5 -259t-50 -263t-140 -209t-215 -138t-275 -50q-71 0 -147 10.5t-152 32.5t-149.5 54.5t-140.5 77.5q-79 -78 -182.5 -121.5t-218.5 -43.5q-62 0 -116 14t-93.5 40t-62 63t-22.5 82zM135 181q0 -22 13.5 -44t41 -39t68.5 -28t96 -11 q94 0 179.5 33.5t152.5 93.5q-104 55 -193 83t-163 28q-42 0 -77.5 -9.5t-61.5 -25.5t-41 -37t-15 -44z" />
<glyph unicode="E" horiz-adv-x="1698" d="M60 416q0 147 81.5 253t241.5 165q-57 53 -85 117t-28 133q0 86 39.5 159t109.5 126t166.5 82.5t211.5 29.5q116 0 202.5 -22t148 -55t101 -72t62.5 -73t32 -57.5t10 -26.5q1 -4 1 -11q0 -14 -10.5 -25.5t-27.5 -11.5q-12 0 -21.5 7.5t-13.5 20.5q0 2 -8 21.5t-28 47.5 t-54.5 59.5t-88.5 59t-129 45.5t-176 18q-116 0 -201.5 -29t-141 -75.5t-82.5 -103.5t-27 -112q0 -65 32 -124t92 -101q54 14 106 22t98 12.5t83.5 6t61.5 1.5q44 0 81 -6.5t63.5 -19t41.5 -32t15 -44.5t-15 -45t-41.5 -34t-63.5 -21.5t-81 -7.5q-48 0 -97 6t-95.5 17 t-89.5 27.5t-78 37.5q-159 -48 -241 -138.5t-82 -223.5q0 -72 25.5 -129.5t70.5 -101.5t105.5 -75.5t129.5 -51.5t144 -29.5t149 -9.5q48 0 93 3.5t87 10.5q126 20 221.5 58.5t165 84t115.5 93t73.5 87t39 64.5t11.5 26q4 12 13.5 18.5t21.5 6.5q16 0 27 -11t11 -26 q0 -4 -2 -12q-1 -4 -14 -34t-43.5 -74t-80.5 -97t-126 -103.5t-180 -92t-241 -63.5q-92 -15 -193 -15q-84 0 -168.5 11.5t-162 36t-144.5 62.5t-116.5 90t-78 119.5t-28.5 150.5zM564 810q52 -19 119.5 -30.5t136.5 -11.5q63 0 93 10t30 22q0 8 -13 14t-33.5 9.5t-46.5 5 t-53 1.5q-59 0 -112 -3.5t-121 -16.5z" />
<glyph unicode="F" horiz-adv-x="2216" d="M0 1032q0 90 42.5 160t116.5 119t174.5 74.5t217.5 25.5q69 0 157 -12.5t189.5 -32.5t213 -45t227.5 -50.5t233 -48.5t229 -39q28 78 80.5 134.5t119.5 92.5t142.5 53t148.5 17q34 0 73.5 -7.5t73.5 -25t56 -47t22 -73.5q0 -54 -31.5 -98t-88.5 -75.5t-136.5 -49 t-175.5 -17.5q-108 0 -234 15q-23 -72 -34.5 -161t-12.5 -198q38 1 77.5 1.5t81.5 0.5q56 0 113 -1.5t115 -3.5q17 -1 26.5 -12.5t9.5 -26.5q0 -16 -11 -26t-26 -10q-57 0 -113.5 2t-111.5 2q-42 0 -82 -0.5t-79 -1.5q0 -14 0.5 -27t0.5 -27q0 -156 -47 -277.5 t-137.5 -204.5t-222.5 -126t-303 -43q-126 0 -223.5 22.5t-171 59.5t-126 83.5t-87.5 94t-56 92t-31 76.5q-1 3 -1.5 5.5t-0.5 5.5q0 15 11 26.5t28 11.5q12 0 21.5 -7t13.5 -19q9 -28 27 -67t49.5 -80.5t78 -82.5t113 -73t154 -52t201.5 -20q314 0 474.5 146t160.5 431 q0 12 -0.5 24.5t-0.5 24.5q-101 -4 -186 -9.5t-148.5 -11t-102.5 -9t-48 -3.5q-17 0 -30 9.5t-13 28.5q0 14 10 24.5t24 12.5q1 0 38.5 4t103.5 9.5t156 11t196 9.5q2 221 46 372q-109 16 -222 38.5t-225 47.5t-220.5 49.5t-208.5 44.5t-188 32t-160 12q-101 0 -188 -20.5 t-150.5 -59.5t-100 -95.5t-36.5 -128.5q0 -47 17.5 -84.5t39.5 -64t41 -41t21 -15.5q9 -5 13 -14t4 -18q0 -17 -11.5 -27.5t-25.5 -10.5q-11 0 -21 7q-24 16 -51 42t-49.5 59.5t-37.5 75.5t-15 91zM1878 1173q111 -12 205 -12q77 0 142.5 12.5t113 34.5t74.5 53t27 68 q0 24 -15.5 38.5t-38.5 23t-48.5 11.5t-46.5 3q-48 0 -106.5 -10t-116 -36t-108 -71t-82.5 -115z" />
<glyph unicode="G" horiz-adv-x="1775" d="M80 468q0 128 40 252.5t111 237t168.5 207.5t213 164.5t244 109t262.5 39.5q129 0 224 -29.5t161.5 -75t108 -99t65.5 -101.5q20 -41 31.5 -79t17 -67t7 -47t1.5 -19q0 -15 -10.5 -27t-26.5 -12q-15 0 -26 10t-13 27q-1 4 -4.5 38t-20 83.5t-50.5 106t-93.5 104.5 t-150.5 80t-221 32q-115 0 -231.5 -34.5t-223.5 -97t-200 -149t-161.5 -190.5t-108 -222t-39.5 -243q0 -113 31 -193.5t86 -131.5t129.5 -74.5t160.5 -23.5q149 0 278.5 51.5t240 139t201.5 204t163 245.5q8 122 28.5 186.5t61.5 64.5q23 0 38.5 -19t15.5 -49q0 -33 -17 -84 t-52 -118q-3 -47 -3 -101q0 -79 6.5 -173t20.5 -200q42 21 65.5 30.5t34.5 13t14 3t5 -0.5q15 0 26.5 -10.5t11.5 -27.5q0 -12 -7 -21.5t-19 -13.5q-2 -1 -34.5 -13.5t-86.5 -39.5q5 -54 8 -109t3 -111q0 -132 -19 -252t-62.5 -211t-115.5 -144.5t-177 -53.5q-52 0 -96 18 t-76 50t-50 76.5t-18 97.5q0 75 25.5 148t68 141t97.5 128.5t113 111.5t114.5 90t103.5 63q-13 100 -21 196.5t-10 187.5q-87 -139 -191.5 -245t-218.5 -178t-234.5 -108.5t-239.5 -36.5q-108 0 -196 32.5t-151 95.5t-97 156t-34 214zM1027 -528q0 -38 12 -68.5t34 -52 t52 -33.5t66 -12q141 0 220 149.5t79 436.5q0 43 -2 87.5t-6 91.5q-50 -28 -103.5 -66.5t-104 -84.5t-95.5 -99t-79 -110t-53.5 -117.5t-19.5 -121.5z" />
<glyph unicode="H" horiz-adv-x="2425" d="M0 1027q0 88 38.5 151.5t100.5 104t138.5 59.5t153.5 19q87 0 172.5 -14.5t171.5 -31.5t172.5 -31.5t176.5 -14.5q36 0 65 2.5t55 10.5q18 63 41.5 108.5t50 75t53.5 43.5t52 14q33 0 55.5 -20t22.5 -52q0 -35 -19 -69t-49 -63t-67.5 -52.5t-74.5 -38.5 q-10 -42 -16.5 -93.5t-7.5 -114.5q-2 -78 -6 -155t-12 -153q81 3 177 6.5t201 6.5t215.5 5t220.5 2q8 160 35 284t70.5 209t102.5 129t131 44q12 0 29.5 -2t34.5 -7.5t29 -16t12 -28.5q0 -5 -1 -9.5t-4 -9.5q-11 -18 -30 -18q-8 0 -12.5 2.5t-11 5t-16.5 5t-28 2.5 q-15 0 -38.5 -5.5t-50.5 -25.5t-55.5 -58.5t-53 -104t-43 -162.5t-24.5 -234q66 -1 130 -2t126 -3q17 0 26.5 -11.5t9.5 -27.5t-11 -26t-26 -10q-20 0 -41.5 0.5t-51 1.5t-69.5 2t-95 1q-1 -16 -1 -32v-33q0 -110 8.5 -197t21 -154t27.5 -114.5t28 -78t21 -44.5l9 -15 q7 -10 7 -22q0 -15 -11 -26.5t-27 -11.5q-19 0 -30 16q-2 3 -22.5 39t-44.5 113.5t-43.5 199t-19.5 295.5v65q-111 0 -223 -2t-217.5 -5t-202 -6.5t-177.5 -6.5q-19 -139 -58.5 -262t-113 -215.5t-187.5 -146t-281 -53.5q-88 0 -170.5 18.5t-153.5 52t-128 80.5t-93 103 q-6 9 -6 20q0 15 10.5 26.5t27.5 11.5q9 0 18 -4.5t14 -12.5q31 -49 80.5 -89t112.5 -69t136.5 -45t152.5 -16q147 0 247 46.5t163.5 127.5t98 189.5t51.5 233.5q-96 -5 -152 -8t-58 -3q-15 0 -27.5 9.5t-12.5 26.5q0 16 9.5 27t25.5 13q2 0 62 3t162 8q8 77 12.5 155.5 t8.5 158.5q2 51 7.5 98.5t13.5 86.5q-23 -5 -51.5 -8.5t-56.5 -3.5q-88 0 -173 14t-170.5 30.5t-172 30.5t-176.5 14q-74 0 -138.5 -15.5t-112.5 -47.5t-75.5 -80.5t-27.5 -114.5q0 -42 15 -74t34 -54t36.5 -34.5t22.5 -15.5q18 -13 18 -33q0 -16 -10 -26.5t-25 -10.5 q-7 0 -13.5 2.5t-11.5 5.5q-23 14 -48 36t-46 52.5t-34.5 68.5t-13.5 83zM1325 1309q33 15 58 39t40 47.5t19 40t-6 16.5q-8 0 -21.5 -8.5t-29.5 -26t-32 -44.5t-28 -64z" />
<glyph unicode="I" horiz-adv-x="1300" d="M5 296q0 78 33 144.5t89 116t130.5 77.5t158.5 28q13 0 26.5 -0.5t24.5 -4t18.5 -12t7.5 -23.5q0 -16 -11.5 -26.5t-26.5 -10.5q-10 0 -19.5 0.5t-19.5 0.5q-68 0 -129 -22t-107 -61t-73 -92t-27 -115q0 -55 20 -98t54 -75.5t78.5 -55.5t93.5 -37t99.5 -20.5t96.5 -6.5 q127 0 219 36t155.5 101t102.5 155.5t61 200t29.5 234t8.5 257.5q1 64 5 125.5t11 111.5q-40 -21 -88 -41t-96.5 -41.5t-94.5 -46t-81.5 -54t-57 -66t-21.5 -81.5q0 -41 14 -71.5t35 -51.5t46 -34.5t46.5 -21t37 -11t17.5 -3.5q17 -5 23 -13.5t6 -20.5q0 -17 -10 -27.5 t-25 -10.5q-2 0 -8.5 0.5t-8.5 1.5q-33 7 -76 24.5t-81.5 49t-65 79.5t-26.5 117q0 61 30 108t78.5 84t108 66t118.5 54.5t111 49.5t85 52q28 121 65 178t75 57q24 0 42 -21t18 -52q0 -42 -33.5 -93.5t-96.5 -107.5q-11 -56 -19 -127.5t-8 -162.5q0 -140 -9 -273t-34 -250 t-70.5 -215t-119 -168.5t-178.5 -110t-249 -39.5q-120 0 -214 28t-159.5 77.5t-100 116t-34.5 144.5z" />
<glyph unicode="J" horiz-adv-x="1157" d="M100 816q0 73 29.5 130.5t82.5 102.5t128 79t166 60q66 19 131 40t123.5 43.5t107.5 47t84 51.5q40 112 86 172.5t88 60.5q9 0 19.5 -3.5t20 -11t15.5 -20.5t6 -32q0 -44 -46 -100t-125 -113q-29 -84 -49 -192.5t-20 -238.5q0 -92 6 -186t10 -202q24 13 42 13 q14 0 25 -9.5t11 -24.5q0 -22 -20 -32.5t-57 -26.5v-87q0 -228 -26.5 -418.5t-85.5 -328t-155.5 -214.5t-235.5 -77q-59 0 -116 22.5t-101.5 68.5t-72 114.5t-27.5 160.5q0 101 37.5 192.5t99 172t140.5 149t161.5 124.5t162.5 98t143 69q-2 103 -9 206.5t-7 212.5 q0 102 12.5 196.5t34.5 176.5q-39 -22 -85.5 -41t-97.5 -36t-104.5 -33t-105.5 -31q-79 -23 -143.5 -50.5t-110.5 -63.5t-71.5 -82t-25.5 -106q0 -70 27 -119t70.5 -79.5t98 -44t108.5 -13.5q16 0 26.5 -11t10.5 -27t-11.5 -26.5t-25.5 -10.5q-68 0 -135.5 19.5t-121.5 60 t-88 102.5t-34 146zM219 -334q0 -73 21 -128t56.5 -92t81 -55.5t93.5 -18.5q83 0 146 38.5t109.5 107t77.5 163t50 208t27 241t8 261.5q-58 -25 -130 -64t-146.5 -91t-145 -115t-126 -135.5t-89 -153t-33.5 -166.5z" />
<glyph unicode="K" horiz-adv-x="2363" d="M0 128q0 15 11 26.5t26 11.5q16 0 26 -10q65 -59 157 -91.5t193 -32.5q127 0 211.5 43t136.5 121.5t78 188t37 243.5q-12 11 -17.5 23.5t-5.5 26.5q0 34 31 56q3 59 4.5 120.5t3.5 126.5q2 103 22 173t44 118q-13 -1 -27 -1q-38 1 -78 5q-55 6 -112 12.5l-114 13 t-111 6.5q-69 0 -130 -20t-106.5 -56.5t-71.5 -87.5t-26 -112q0 -53 22.5 -87t50.5 -54.5t51.5 -28.5t26.5 -9q13 -3 21 -13.5t8 -23.5q0 -17 -12 -27t-26 -10q-6 0 -9 1q-28 6 -64 24t-68 48.5t-54 75t-22 104.5q0 78 32 142.5t87.5 111t130 72t158.5 25.5q65 0 132 -7 t131 -14.5t122 -13.5q34 -3 65 -3q22 0 43 2q19 24 46 47t57.5 40.5t62 28.5t61.5 11q32 0 55 -19.5t23 -49.5q0 -24 -21.5 -46t-58 -40t-85 -30t-101.5 -15q-15 -21 -28.5 -48.5t-24.5 -63.5t-18 -82.5t-9 -104.5q-2 -54 -3.5 -108t-4.5 -108q5 1 16 1q51 0 115 -15.5 t132 -46.5q92 24 162.5 63t125 87.5t97 104t78.5 111.5t68 110.5t67 100.5q36 48 82.5 91t96 74.5t99.5 50t94 18.5q15 0 27.5 -9.5t12.5 -26.5q0 -16 -10.5 -27t-26.5 -12q-30 -1 -70.5 -16t-83.5 -42t-85 -64t-76 -83q-39 -53 -72.5 -108t-68 -108.5t-73.5 -105t-89 -98 t-114.5 -87.5t-149.5 -74q71 -45 137 -112.5t143 -150.5q64 -69 120.5 -130t110 -106.5t104 -71.5t102.5 -26q64 0 123 33.5t100 97.5q11 17 32 17q17 0 27.5 -12t10.5 -26q0 -11 -6 -20q-51 -81 -127 -123.5t-159 -42.5q-64 0 -123 27.5t-118 76t-121 114t-132 141.5 q-46 49 -86.5 92t-79 78.5t-77.5 64t-81 49.5q-54 -13 -104 -18t-92 -5q-20 0 -37 1t-31 4q-8 -88 -23.5 -169.5t-41.5 -153t-65.5 -130.5t-96 -101t-133 -65.5t-176.5 -23.5q-57 0 -112.5 9.5t-107 28t-98 45t-83.5 60.5q-12 10 -12 28zM954 667q15 -4 54 -4h19t28.5 1 t30 2t23.5 4q-9 3 -24 6.5t-33 6.5t-38 5t-39 2q-5 0 -9.5 -0.5t-9.5 -1.5q-1 -5 -1 -10.5t-1 -10.5zM1105 1351q26 2 53.5 12t48.5 21t30.5 20t0.5 9q-10 0 -26.5 -5t-35 -14t-37.5 -20t-34 -23z" />
<glyph unicode="L" horiz-adv-x="1846" d="M-60 193q0 60 27.5 108.5t76 82.5t114.5 52.5t142 18.5q57 0 113.5 -10t110.5 -27t105 -38.5t96 -43.5q6 18 10.5 36t8 39.5t5 48t1.5 61.5q0 33 -1.5 63t-3 65.5t-3 80t-1.5 106.5q0 143 28 260.5t83 201.5t137 130.5t191 46.5q66 0 125.5 -21t105 -60t72 -93t26.5 -120 q0 -36 -10 -75t-27.5 -71.5t-40 -53.5t-47.5 -21q-14 0 -25 8t-11 25q0 12 5.5 20.5t13.5 15.5q29 26 47.5 64t18.5 88t-20.5 90.5t-55 69t-80 44t-95.5 15.5q-94 0 -163 -41t-114 -115.5t-66.5 -180t-21.5 -234.5q0 -62 1.5 -109t3 -86t3 -73.5t1.5 -70.5q0 -21 -2 -45.5 t-6 -50t-10.5 -50t-14.5 -44.5q76 -40 150 -85t150.5 -82.5t158 -62t172.5 -24.5q80 0 138.5 24t97 53.5t57.5 54t19 25.5q11 18 32 18q17 0 27.5 -12t10.5 -26q0 -11 -6 -20q-1 -2 -12 -17t-31.5 -36.5t-51 -46t-72 -45t-93.5 -34.5t-115 -14q-98 0 -184 24.5t-165.5 62.5 t-156.5 84t-157 90q-49 -82 -112.5 -133.5t-132 -80.5t-136 -39.5t-124.5 -10.5q-55 0 -111.5 11.5t-102 38t-74.5 69.5t-29 107zM15 197q0 -40 20 -69.5t53.5 -49t77.5 -29t92 -9.5q58 0 120 9.5t120 35t109 70t89 113.5q-43 21 -90.5 41.5t-97.5 36.5t-102.5 25.5 t-104.5 9.5q-59 0 -111 -12.5t-91 -36.5t-61.5 -58t-22.5 -77z" />
<glyph unicode="M" horiz-adv-x="2722" d="M30 406q0 81 34 148.5t92 116t134.5 75.5t161.5 27q62 0 111.5 -10.5t87.5 -26.5t65 -35t45 -35t26 -27.5t9 -11.5q6 -11 6 -21q0 -14 -10.5 -26t-27.5 -12q-20 0 -32 17q-1 1 -16 18.5t-49 38.5t-87.5 38t-130.5 17q-70 0 -132.5 -21.5t-109 -60.5t-74 -92.5 t-27.5 -117.5q0 -63 21 -115t56 -93t81 -71t96 -49.5t100.5 -29t95.5 -9.5q76 0 148.5 11.5t143 43.5t138.5 88t135 146t132.5 217t131.5 300q20 52 39 112t39 121q-17 88 -24.5 150t-7.5 103q0 44 7 70t18 39.5t24 17t25 3.5q10 0 22.5 -4t23 -17.5t17.5 -39.5t7 -70 q0 -48 -9 -111t-27 -139q13 -61 30 -136t35 -155.5t37 -164.5t37 -164t34.5 -153t30.5 -132q27 68 66 164.5t87 205t101.5 221t109.5 212.5q79 142 145 243.5t114 167.5t75.5 97.5t29.5 34.5q11 11 27 11q17 0 27.5 -11.5t10.5 -26.5q0 -7 -3 -14q0 -1 -11.5 -29.5t-29 -78 t-38.5 -116t-41 -143t-35.5 -160t-22.5 -166.5q-3 -38 -5 -79.5t-2 -83.5q0 -66 6 -133t20 -129t38 -116.5t59 -95.5t83.5 -66t112.5 -27q16 -1 25.5 -13.5t9.5 -26.5t-11 -25t-26 -11q-16 0 -32 3q-72 10 -127 41.5t-95 78t-66.5 106t-42.5 127.5t-22.5 141.5t-6.5 148.5 q0 89 9 178t24 173.5t35 163.5t41 147q-43 -63 -96 -151t-113 -197q-51 -91 -100.5 -193.5t-94.5 -203t-83 -193t-66 -163t-44 -113t-16 -43.5q-10 -25 -36 -25q-13 0 -23 8.5t-13 21.5q0 1 -9.5 42.5t-25.5 111t-36.5 160t-43 189t-45.5 199.5t-43 192 q-67 -189 -134.5 -334.5t-138.5 -253t-146.5 -180.5t-158 -117.5t-173 -63.5t-191.5 -19q-52 0 -111 11.5t-117 35.5t-111 60t-94 85.5t-65 112t-24 139.5z" />
<glyph unicode="N" horiz-adv-x="2310" d="M30 382q0 81 36.5 151.5t98 122.5t141 82t165.5 30q71 0 127.5 -14t100 -35.5t75 -46.5t52 -47.5t31 -38.5t12.5 -19q4 -8 4 -18q0 -14 -10.5 -26t-27.5 -12q-22 0 -33 20q-1 3 -19.5 28.5t-57 55.5t-99.5 54.5t-148 24.5q-71 0 -138.5 -24t-119.5 -66t-83.5 -99.5 t-31.5 -124.5q0 -73 34 -133.5t92.5 -103.5t136 -66.5t165.5 -23.5q34 0 90 5t125.5 23t146.5 54.5t152 99.5t143.5 157t120.5 228q54 138 84.5 262.5t45.5 224.5t18.5 170.5t3.5 100.5v20q0 16 10.5 27.5t27.5 11.5q25 0 35 -25q3 -7 17.5 -47t38 -103.5t54 -146.5 t64.5 -176.5t70 -193.5t70.5 -197t65.5 -187t56 -164q11 80 24 169.5t27.5 181t29 179.5t29 165t26.5 138t22 98q22 88 63 164.5t99.5 133.5t134 89.5t167.5 32.5q35 0 50.5 -8t15.5 -31v-5q-2 -15 -13 -24t-25 -9q-2 0 -7 0.5t-23 0.5q-19 0 -48.5 -4t-65 -16.5t-74 -36.5 t-75.5 -64.5t-70 -100t-56 -143.5q-12 -42 -27.5 -120.5t-33 -176.5t-35 -209t-33 -218t-28.5 -203.5t-20 -165.5q-2 -13 -11.5 -23.5t-23.5 -10.5t-24.5 7t-14.5 21q-13 48 -41 133t-64.5 191.5t-79.5 226.5t-85.5 237.5t-82 225t-69.5 189.5q-5 -56 -15.5 -124.5t-28 -147 t-43.5 -166t-62 -181.5q-56 -144 -131.5 -246t-158.5 -170t-168.5 -107.5t-160.5 -59.5t-135 -25.5t-92 -5.5q-110 0 -202.5 29t-160 82.5t-105 128t-37.5 164.5z" />
<glyph unicode="O" horiz-adv-x="1584" d="M60 639q0 119 28.5 225.5t84 198t136.5 165t187 126.5q8 4 18 4q14 0 26 -10t12 -27q0 -11 -6.5 -20.5t-17.5 -14.5q-6 -3 -37.5 -18.5t-75 -47.5t-93 -81.5t-91 -120.5t-69 -165t-27.5 -214q0 -110 23.5 -194t62.5 -147t89.5 -107t104 -73t106.5 -46t97.5 -25t75.5 -10 t41 -2q124 0 237 39t203 120.5t151.5 207.5t83.5 300q-65 -29 -135.5 -45.5t-147.5 -16.5q-106 0 -206 27.5t-177 83t-124 138.5t-47 194q0 90 31.5 161.5t85.5 122t125 77t149 26.5q64 0 128.5 -15t124 -46.5t111 -79.5t90 -115t60.5 -152.5t22 -191.5v-35q18 10 37.5 25 t37.5 31t32.5 30.5t22.5 25.5q6 7 16 7q17 0 27.5 -12.5t10.5 -26.5q0 -10 -4 -17q-12 -16 -30.5 -35.5t-43 -39.5t-53.5 -40.5t-60 -38.5q-17 -197 -82.5 -343.5t-167 -244.5t-232 -146.5t-277.5 -48.5q-80 0 -161.5 17t-156.5 52.5t-140 90t-113 130t-75.5 172 t-27.5 216.5zM649 1083q0 -72 30.5 -138.5t90.5 -118t149.5 -82t208.5 -30.5q81 0 154.5 20t139.5 54q3 39 3 78q0 142 -41.5 243t-108 165t-149.5 93.5t-166 29.5q-64 0 -120.5 -21t-99 -61t-67 -98.5t-24.5 -133.5z" />
<glyph unicode="P" horiz-adv-x="1913" d="M100 834q0 93 38.5 179.5t108 162t166.5 138t215 107t253 69t280 24.5q159 0 292 -36t228.5 -104t148.5 -165.5t53 -221.5q0 -121 -46 -216.5t-130 -162t-201 -102t-258 -35.5q-17 0 -29.5 9.5t-12.5 28.5q0 15 11 26t27 11q126 0 230 29t178 85.5t115 138.5t41 188 q0 108 -47.5 192t-133 142t-204 88t-260.5 30q-134 0 -259.5 -22t-235.5 -62t-200.5 -96t-155 -123t-100.5 -143.5t-36 -158.5q0 -72 25 -126t66.5 -90.5t95.5 -54.5t113 -18q70 0 124.5 15t92 33t57.5 33.5t22 17.5q11 11 26 11t26.5 -11.5t11.5 -26.5q0 -17 -12 -27 q-2 -2 -25.5 -21t-68 -41.5t-108.5 -40.5t-146 -18q-75 0 -143.5 25t-120 72.5t-82 115t-30.5 152.5zM281 181q0 14 10.5 25.5t27.5 11.5q10 0 18.5 -5.5t14.5 -13.5q64 -89 145 -133.5t184 -44.5q118 0 192.5 43.5t117 119t58 176.5t15.5 215v127q0 67 6 138.5t27.5 140 t62 130t109.5 108.5q4 2 10 4t10 2q15 0 26.5 -10.5t11.5 -27.5q0 -10 -5.5 -18t-13.5 -15q-56 -44 -89.5 -95t-51 -109.5t-23 -124.5t-5.5 -138v-126q0 -124 -22 -235.5t-74.5 -195.5t-140.5 -133.5t-221 -49.5q-60 0 -117.5 14.5t-108.5 42t-94 67.5t-74 90q-2 4 -4 9.5 t-2 10.5z" />
<glyph unicode="Q" horiz-adv-x="1749" d="M100 201q0 42 20 73t50.5 53.5t67 37t69.5 23.5q-81 83 -122 183t-41 214q0 99 28.5 190t79 169.5t121.5 142.5t155.5 109.5t180.5 70t197 24.5t193.5 -24t172 -67.5t144 -104t110.5 -135t71 -159.5t25 -177q0 -88 -20.5 -165t-56 -143t-82 -121.5t-98 -100.5t-106 -80 t-104.5 -60q54 -34 105.5 -68.5t101 -66.5t98 -60t95.5 -49q60 -27 119 -37t113 -10t101.5 7.5t82 16.5t55 17l20.5 8q7 3 15 3q15 0 26.5 -10.5t11.5 -27.5q0 -11 -5.5 -20t-16.5 -14q-3 -1 -26 -10t-61.5 -19t-90 -18.5t-111.5 -8.5q-61 0 -128 12t-136 43 q-54 24 -108.5 56t-110.5 68t-113 74t-116 74q-149 -66 -289.5 -96.5t-266.5 -30.5q-94 0 -161.5 11.5t-114.5 29.5t-75 41t-43.5 47t-20.5 46t-5 39zM175 201q0 -24 15.5 -49t55 -45.5t106.5 -33.5t170 -13q39 0 90.5 4t112 15t129.5 30.5t144 51.5q-60 39 -118.5 68 t-118.5 49.5t-124 33t-135 18.5q29 -20 53.5 -29.5t31.5 -12.5q25 -11 25 -34q0 -17 -11 -26.5t-26 -9.5q-11 0 -24 5q-2 0 -16 6t-38 18.5t-55 32t-66 46.5q-26 0 -60.5 -7.5t-65.5 -22.5t-53 -38.5t-22 -56.5zM219 788q0 -68 15.5 -125.5t41 -105.5t58.5 -86t68 -68 q13 1 26.5 1.5t27.5 0.5q45 0 98 -6t114 -20q113 -26 217.5 -76t198.5 -106q91 43 174.5 102.5t147.5 137.5t102 175t38 214q0 122 -49 229.5t-135 188t-203 127t-253 46.5q-92 0 -178 -22.5t-162.5 -63t-140 -97.5t-109.5 -127t-71.5 -151t-25.5 -168z" />
<glyph unicode="R" horiz-adv-x="2073" d="M100 834q0 95 39 182.5t110 163.5t170 137.5t218.5 105.5t256.5 68t283 24q149 0 273.5 -29.5t214.5 -85t140 -136t50 -182.5q0 -135 -77.5 -245t-227.5 -183q55 -47 86.5 -109.5t47 -126.5t20 -122t6.5 -97q2 -57 10.5 -92.5t24 -55.5t38 -27.5t54.5 -7.5q45 0 83 21.5 t68.5 53.5t54 69.5t39.5 70t24.5 54t8.5 22.5q10 25 35 25q17 0 27.5 -11.5t10.5 -26.5q0 -5 -2 -13q-1 -4 -11.5 -30.5t-30.5 -64t-50 -80.5t-69.5 -79.5t-89 -60.5t-109.5 -24q-53 0 -88.5 17t-58 49.5t-33 79t-12.5 106.5q-1 25 -3 59.5t-7.5 73t-15.5 79.5t-28 80 t-45 74t-66 61q-77 -26 -159.5 -40.5t-170.5 -15.5v-30q0 -123 -24.5 -230.5t-79.5 -187t-142 -125t-212 -45.5q-62 0 -122.5 16.5t-113 45.5t-94 68.5t-65.5 85.5q-5 8 -5 18q0 14 10.5 25.5t27.5 11.5q22 0 33 -19q22 -39 57 -72t78.5 -56.5t93 -36.5t100.5 -13 q103 0 176 36.5t119 104t67 162t21 211.5v39q-33 11 -53 31t-20 49t19 51t54 36q0 23 1 45.5t3 44.5q6 72 22.5 129t39 100t46.5 73t45 49.5t35 28.5t16 10q7 4 17 4q15 0 26.5 -10.5t11.5 -27.5q0 -22 -19 -33q-3 -2 -26.5 -19t-51.5 -55t-54 -100.5t-33 -154.5 q-2 -16 -2.5 -32t-1.5 -32q18 2 37.5 3.5t41.5 1.5q72 0 139 -16t123 -46q145 58 222 154t77 214q0 88 -44 156.5t-123.5 115.5t-190 72t-242.5 25q-115 0 -234.5 -17.5t-231 -52.5t-209.5 -87t-171 -119.5t-115 -150.5t-42 -180q0 -72 25 -126.5t66.5 -91t95.5 -55 t113 -18.5q70 0 123 14t89 30.5t54.5 31t20.5 16.5q7 5 16 11.5t19 6.5q15 0 26 -10.5t11 -26.5t-11 -26q-2 -2 -25.5 -21.5t-67.5 -41.5t-107.5 -40t-145.5 -18q-76 0 -144.5 25t-120.5 72t-82.5 114.5t-30.5 153.5zM1138 639q61 0 125.5 7t119.5 21q-17 5 -33 10 t-34.5 8.5t-41 6t-51.5 2.5q-52 0 -85 -6v-1v-48z" />
<glyph unicode="S" horiz-adv-x="1681" d="M100 937q0 94 42.5 172.5t116 141.5t172 109.5t210.5 77.5t232 46.5t236 15.5q145 0 252.5 -17.5t184 -45t125.5 -62.5t79 -69q71 -83 71 -189q0 -35 -7 -67q-3 -14 -13 -22t-22 -8q-18 0 -29 11.5t-11 26.5t3 29.5t3 28.5q0 73 -45 131t-127.5 97.5t-200.5 60.5t-263 21 q-111 0 -223.5 -14.5t-216 -42t-193.5 -69t-156.5 -96t-104.5 -121t-38 -145.5q0 -61 26.5 -107.5t72.5 -81t108.5 -59t135.5 -41t152 -27t159 -17.5l154 -13q115 -10 206 -21t160 -28q115 -29 170 -83t55 -144q0 -87 -48 -153t-131 -111t-194 -68t-238 -23 q-138 0 -242.5 18.5t-175 41t-107.5 41.5t-40 21q-18 10 -18 32q0 17 12 27.5t26 10.5q11 0 20 -6q1 0 34.5 -17.5t100 -38.5t164.5 -38t228 -17q129 0 228 21t166.5 58.5t102 88t34.5 109.5q0 35 -12.5 60.5t-34.5 44t-52.5 31.5t-66.5 22q-38 10 -81.5 17t-89.5 12 t-92.5 9t-91.5 8l-154 13q-182 15 -317.5 46.5t-225.5 81t-135 118.5t-45 161z" />
<glyph unicode="T" horiz-adv-x="1797" d="M40 1063q0 102 39 184.5t108 141.5t163 91t204 32q80 0 161 -14t164.5 -37t169.5 -51t174.5 -56.5t180 -53.5t186.5 -41q25 31 49.5 55t44 39.5t32.5 24t15 9.5q10 5 18 5q14 0 26.5 -10.5t12.5 -27.5q0 -21 -19 -32q-1 -1 -27.5 -19t-62.5 -56q75 -9 153 -9 q76 0 138.5 10.5t112 29t86 43.5t60.5 55q6 7 14 11.5t17 4.5q16 0 26.5 -12t10.5 -26t-7 -22q-24 -32 -64 -62.5t-97 -54.5t-131 -38.5t-165 -14.5q-52 0 -104 4.5t-104 12.5q-23 -33 -42.5 -74t-31.5 -90q-21 -84 -23.5 -178t-4 -191.5t-9.5 -194t-38 -186.5 q-23 -68 -61.5 -126t-94 -100.5t-127 -67t-160.5 -24.5q-146 0 -264 58t-205 183q-3 5 -8 14t-5 18q0 14 10 27t28 13q11 0 20 -5.5t14 -13.5q73 -112 171 -165.5t238 -53.5q74 0 133 18.5t104.5 53t78.5 84.5t55 114q24 70 30.5 161.5t8.5 191t7.5 199.5t27.5 189 q11 47 29 87t38 74q-134 27 -266.5 68.5t-259 80t-244 66.5t-221.5 28q-95 0 -175.5 -27t-139 -76t-91 -118t-32.5 -153q0 -61 21.5 -112t59.5 -88.5t90 -58.5t114 -21q65 0 116 19.5t90 48.5t66.5 63t45 63.5t26.5 48.5l8 20q4 11 14 18t22 7q17 0 27.5 -11.5t10.5 -26.5 q0 -3 -0.5 -5.5t-1.5 -5.5q-1 -2 -11 -26.5t-31 -59t-54 -74.5t-80 -74.5t-108.5 -57t-140.5 -22.5q-76 0 -141.5 27t-114 74t-76 112t-27.5 142z" />
<glyph unicode="U" horiz-adv-x="2034" d="M60 1001q0 97 41 178.5t110 141t160 92.5t191 33q84 0 150 -25t112.5 -72.5t71 -115.5t24.5 -154q0 -93 -19.5 -194t-42.5 -202.5t-42.5 -200t-19.5 -187.5q0 -63 11.5 -115t38.5 -89t70.5 -57.5t107.5 -20.5q43 0 91.5 18t101 64t109 125t115.5 202q43 90 79.5 194 t66 207.5t52 200t37.5 171t23 119.5t8 47q3 14 13 22.5t24 8.5q17 0 27.5 -11t10.5 -25q0 -4 -5.5 -43t-14.5 -101t-20.5 -143.5t-23 -170.5t-23 -181t-20.5 -176.5t-14.5 -156t-5.5 -119.5q0 -129 44.5 -191.5t116.5 -62.5q50 0 91.5 33t74 80t54.5 97t34 85q4 12 14 19 t22 7q17 0 27.5 -12t10.5 -26q0 -4 -2 -12q-4 -11 -15.5 -40.5t-30.5 -68t-46 -80t-62 -76t-78.5 -57t-95.5 -22.5q-57 0 -101 22.5t-74 64.5t-45.5 102.5t-15.5 137.5q0 64 9 165t23 218q-58 -180 -127 -313t-144 -221t-155 -131t-159 -43q-86 0 -144 27.5t-93.5 75 t-51 112t-15.5 139.5q0 88 19 188t42.5 202t42.5 203t19 192q0 140 -72 216.5t-209 76.5q-86 0 -163.5 -27.5t-136 -77t-93 -117.5t-34.5 -149q0 -56 13 -96.5t32.5 -68.5t42 -45t43 -26t34.5 -12t16 -3q15 -2 24 -13t9 -25q0 -16 -11.5 -26.5t-26.5 -10.5q-2 0 -10 1t-10 2 q-39 10 -80.5 31.5t-75 60t-55 95t-21.5 136.5z" />
<glyph unicode="V" horiz-adv-x="2119" d="M80 976q0 86 37 169t109.5 148t179 104.5t246.5 39.5q181 0 311.5 -78.5t215 -221.5t125 -344.5t40.5 -447.5q0 -69 -3 -142.5t-9 -149.5q174 136 313.5 289t237 309.5t149.5 312t52 296.5q0 82 -17.5 153t-50.5 122.5t-79.5 81t-104.5 29.5h-19q-17 0 -28.5 10t-11.5 27 q0 24 17.5 31.5t39.5 7.5q73 0 134 -34t104 -95t67 -144t24 -180q0 -158 -54.5 -324.5t-161 -335t-264 -335.5t-362.5 -326q-5 -4 -13 -9t-19 -5q-19 0 -28 12.5t-9 29.5q0 7 1.5 29t3.5 54t5 70.5t5 78t3.5 76.5t1.5 66v12q0 212 -33 392q-34 186 -108 322t-190.5 212.5 t-281.5 76.5q-123 0 -216.5 -33.5t-156.5 -88.5t-95 -124.5t-32 -141.5q0 -64 21.5 -114.5t59 -86t88.5 -54t110 -18.5q50 0 91 11t70 24.5t45.5 25t18.5 13.5q5 5 11.5 6.5t12.5 1.5q15 0 26 -9.5t11 -25.5q0 -19 -13 -29q-2 -2 -22 -16.5t-55.5 -31t-85.5 -30.5t-111 -14 q-75 0 -140 25t-112 71t-74 109.5t-27 140.5z" />
<glyph unicode="W" horiz-adv-x="2851" d="M80 887q0 100 38.5 189t106.5 155.5t160.5 105t201.5 38.5q141 0 238 -50.5t160.5 -135t98 -195t50.5 -230.5t19 -241.5t3 -228.5v-43t-0.5 -46t-1 -43.5t-0.5 -33.5l670 1240q9 19 32 19q17 0 27.5 -11.5t10.5 -26.5q0 -5 -6 -36.5t-14.5 -83.5t-18.5 -120.5 t-18.5 -147.5t-14.5 -164.5t-6 -170.5q0 -143 15 -253.5t49 -186.5t89.5 -115t136.5 -39q73 0 139 31.5t123 86.5t106 129t88.5 159.5t70 177.5t51 183t31 177t10.5 158q0 130 -29.5 239.5t-94.5 178.5q-10 10 -10 25q0 16 11.5 27t26.5 11q17 0 27 -11q38 -41 65.5 -92.5 t45 -112t26 -127.5t8.5 -139q0 -110 -21 -239.5t-62 -260t-100.5 -252.5t-137 -215.5t-171.5 -150t-203 -56.5q-103 0 -173 46.5t-112.5 134t-61 212.5t-18.5 282q0 65 4.5 134t11 135t14 127t14.5 110l-639 -1186q-11 -20 -33 -20q-18 0 -28 11.5t-10 27.5q0 2 1 41.5 t1 106.5q1 85 1 181v27q0 83 -3 168q-3 99 -13 197t-31 187.5t-55 166.5t-87 133.5t-126 88.5t-172 32q-97 0 -177 -33.5t-137.5 -90t-89 -132t-31.5 -159.5q0 -73 25.5 -134.5t69.5 -106.5t102.5 -70.5t124.5 -25.5q49 0 90 13.5t70 29.5t45 29.5t17 13.5q11 11 27 11 q15 0 26 -10.5t11 -25.5t-11 -26q-2 -2 -22.5 -19.5t-56.5 -37.5t-85.5 -36t-109.5 -16q-83 0 -155.5 31t-126.5 86t-85.5 130.5t-31.5 163.5z" />
<glyph unicode="X" horiz-adv-x="2011" d="M80 964q0 71 23 136t63.5 122t95 103.5t118 80t133 51.5t139.5 18q107 0 188.5 -26t144 -73t111 -114.5t91 -149.5t82.5 -178t87 -201q198 200 365 398t301 393q11 16 31 16q17 0 27.5 -11.5t10.5 -25.5t-7 -22q-139 -202 -313 -408t-382 -414q35 -82 67.5 -158 t66.5 -142.5t73 -121.5t87.5 -95.5t110.5 -65.5t142 -30q16 -1 27 -11.5t11 -26.5q0 -15 -11 -27t-27 -10q-89 7 -158 32t-123.5 65t-97.5 95t-80.5 122.5t-72.5 147t-73 169.5q-168 -164 -349.5 -323t-379.5 -313q-13 -10 -21.5 -17t-14.5 -11t-11 -5.5t-11 -1.5 q-15 0 -26.5 11.5t-11.5 26.5q0 10 7 21q2 3 3.5 4.5t5.5 5t11 9l21 16.5q202 157 388 320t357 331q-2 3 -2.5 6.5t-2.5 6.5q-43 97 -80 187.5t-75.5 169.5t-82.5 144.5t-101 112t-130.5 72.5t-170.5 26q-56 0 -114.5 -15t-113.5 -42.5t-104.5 -66.5t-86.5 -87.5 t-58.5 -105.5t-21.5 -119q0 -55 17 -100.5t47 -78.5t70.5 -51t88.5 -18q52 0 94 15.5t71.5 34t46 34.5t17.5 16q11 11 27 11q15 0 26 -11.5t11 -26.5q0 -16 -11 -27q-3 -2 -23.5 -21.5t-57.5 -41.5t-87.5 -40t-113.5 -18t-117.5 24t-94.5 67t-63 102t-23 129z" />
<glyph unicode="Y" horiz-adv-x="2076" d="M80 883q0 126 42.5 230.5t115.5 179.5t171.5 116.5t209.5 41.5q93 0 166.5 -32.5t123.5 -89t76.5 -133.5t26.5 -166q0 -33 -3 -67.5t-11 -70.5q-15 -77 -33.5 -157t-34.5 -158t-26.5 -152t-10.5 -139q0 -58 11.5 -107.5t37.5 -86t68 -57t104 -20.5q113 0 220.5 101 t207.5 302q38 76 71 165t60 178t48.5 171t36 145.5t22.5 102.5t8 40q2 14 12.5 22.5t23.5 8.5q17 0 27.5 -11.5t10.5 -25.5q0 -4 -5 -36.5t-13 -85t-18.5 -121.5t-21.5 -145q-8 -57 -16.5 -130.5t-15.5 -151.5t-11.5 -155t-4.5 -141q0 -54 3 -112.5t8 -116.5q41 17 83.5 30 t79.5 22.5t65 14.5t39 6q20 2 31 -9.5t11 -28.5q0 -32 -39 -38q-2 0 -25.5 -4t-60 -13t-83.5 -23.5t-96 -35.5q4 -54 6 -107.5t2 -105.5q0 -105 -16 -205t-54 -178.5t-101 -126.5t-156 -48q-54 0 -97 19.5t-73 53t-46 78.5t-16 96q0 67 28 143t86 152.5t147 148t211 128.5 q-5 63 -8.5 132.5t-3.5 134.5q0 33 2 75.5t6 91.5t9.5 103t11.5 110q-59 -170 -128 -300t-144.5 -217.5t-157.5 -132.5t-167 -45q-75 0 -130 24.5t-92 69t-55 107.5t-18 141q0 104 22 222.5t49 240.5q16 73 32 147t16 140q0 73 -21 136t-61.5 109t-99.5 72.5t-135 26.5 q-96 0 -180.5 -36.5t-147.5 -101.5t-100 -154t-37 -194q0 -63 15 -125.5t46.5 -115t80.5 -89.5t117 -49q14 -2 23.5 -13t9.5 -25q0 -15 -11 -26.5t-26 -11.5q-11 0 -40 8t-65.5 27t-76.5 51.5t-72.5 82.5t-54 118.5t-21.5 160.5zM1297 -584q0 -36 10.5 -67t30.5 -54.5 t49 -36.5t65 -13q54 0 93.5 23t68 62t46 89t28 103.5t14 107t3.5 99.5q0 43 -2 87.5t-4 89.5q-96 -44 -170.5 -105t-126 -127.5t-78.5 -133.5t-27 -124z" />
<glyph unicode="Z" horiz-adv-x="1865" d="M60 1083q0 91 40.5 165t111.5 126t166.5 80.5t205.5 28.5q71 0 158 -12t185.5 -30t206 -39.5t219.5 -40.5t225.5 -33t225.5 -17h22q12 0 22 -7t15 -18q2 -8 2 -13q0 -20 -15 -30q-97 -75 -206.5 -159.5t-223 -174t-228 -180t-221.5 -177t-203.5 -166.5t-174.5 -146.5 t-134 -118t-82 -81.5q46 7 116.5 19t167.5 22.5t219.5 18.5t271.5 8q140 0 298.5 -11.5t339.5 -40.5q14 -2 23 -12t9 -24q0 -17 -11 -28.5t-27 -11.5q-4 0 -9 1q-178 29 -332.5 40.5t-291.5 11.5q-120 0 -226 -6t-195 -14t-160 -17.5t-121 -16.5q-15 -2 -31 -5t-31 -5 t-27.5 -3.5t-19.5 -1.5q-24 0 -43 12.5t-19 38.5q0 14 6.5 29t23.5 32q31 34 80.5 81.5t131.5 118.5q47 41 114 96.5t146.5 120.5t167.5 135.5t178 142t177 141t165 130.5t142.5 111.5t108.5 84.5q-107 7 -216.5 22.5t-215.5 34.5t-207 39t-191.5 36.5t-168.5 27t-138 10.5 q-94 0 -175.5 -23t-142 -66t-95 -103t-34.5 -133q0 -50 17 -95t51.5 -79t85 -53.5t118.5 -19.5q66 0 130 22t119 65q11 8 23 8q15 0 26.5 -10.5t11.5 -26.5q0 -19 -14 -30q-65 -51 -141.5 -77t-154.5 -26q-87 0 -152 26.5t-108.5 70.5t-65 102.5t-21.5 122.5z" />
<glyph unicode="[" horiz-adv-x="705" d="M200 -181.5q0 33.5 1 93.5t2.5 143.5t3.5 185t5.5 217t8.5 240.5q7 187 12 345t9 273.5t6 181t2 67.5q0 15 11 25.5t26 10.5l16.5 0.5t42 1t57.5 2t63 4.5q34 3 59.5 8t43.5 10t29.5 9t17.5 4q12 0 22 -6.5t15 -17.5q2 -8 2 -13q0 -25 -24 -36q-12 -5 -25.5 -10t-32 -9.5 t-43.5 -8t-58 -6.5q-41 -4 -81 -5t-67 -2q-1 -27 -3.5 -106t-5.5 -190.5t-7.5 -247.5t-8.5 -278t-8 -280.5t-7 -256.5t-5.5 -205.5t-2.5 -126.5q45 13 89.5 21t77.5 8q35 0 51.5 -7.5t16.5 -31.5q0 -16 -11 -26.5t-26 -10.5q-3 0 -11.5 0.5t-17.5 0.5q-12 0 -29 -1.5 t-35 -4.5q-54 -9 -87.5 -23t-55.5 -14q-15 0 -26.5 10t-11.5 28v34.5z" />
<glyph unicode="\" horiz-adv-x="1000" d="M54 1398q0 14 10 26.5t27 12.5q22 0 33 -19l817 -1399q5 -8 5 -20q0 -14 -10 -25.5t-27 -11.5q-22 0 -33 19l-817 1399q-5 7 -5 18z" />
<glyph unicode="]" horiz-adv-x="705" d="M50 -219q0 25 24 36q12 5 25.5 10t32 9.5t43.5 8t58 6.5q41 4 81 5t67 2q1 27 3.5 106t5.5 190.5t7.5 247.5t8.5 278t8 280.5t7 256.5t5.5 205.5t2.5 126.5q-45 -13 -89.5 -21t-77.5 -8q-35 0 -51.5 7.5t-16.5 31.5q0 16 11 26.5t26 10.5q3 0 11.5 -0.5t17.5 -0.5 q12 0 29 1.5t35 4.5q54 9 88.5 23t54.5 14q15 0 26.5 -10t11.5 -28v-34.5t-1 -93.5t-2.5 -143.5t-3.5 -185t-5.5 -217.5t-8.5 -240q-7 -187 -12 -345t-9 -273.5t-6 -181.5t-2 -67q0 -15 -11 -25.5t-26 -10.5l-16.5 -0.5t-42 -1t-57.5 -2t-63 -4.5q-35 -3 -60 -8t-43 -10 t-29.5 -9t-17.5 -4q-12 0 -22 6.5t-15 17.5q-2 8 -2 13z" />
<glyph unicode="^" horiz-adv-x="626" d="M100 1154q0 12 7 20l182 252q10 13 27 13t26 -14l178 -252q6 -9 6 -19q0 -13 -9.5 -23t-23.5 -10q-17 0 -27 13l-152 216l-154 -216q-10 -13 -26 -13q-14 0 -24 10t-10 23z" />
<glyph unicode="_" horiz-adv-x="620" d="M0 -175q0 16 9.5 27t26.5 12h544q16 1 28 -9.5t12 -26.5t-9.5 -27t-26.5 -12h-544q-15 0 -27.5 9.5t-12.5 26.5z" />
<glyph unicode="`" horiz-adv-x="500" d="M137 768q0 14 10 24t23 10q12 0 23 -9l160 -152q10 -10 10 -24q0 -13 -9.5 -23t-23.5 -10q-13 0 -23 9l-160 152q-10 9 -10 23z" />
<glyph unicode="a" horiz-adv-x="704" d="M20 170q0 78 26.5 137.5t67.5 99.5t90.5 60t95.5 20q31 0 57 -8.5t44.5 -18.5t28.5 -18.5t11 -9.5q11 -13 11 -27q0 -15 -11 -26.5t-26 -11.5q-16 0 -27 11q-2 2 -9 7.5t-19 11.5t-28.5 10.5t-37.5 4.5q-31 0 -66 -14t-64 -43.5t-48.5 -74t-19.5 -105.5q0 -19 4 -38.5 t14 -35.5t27 -26t42 -10q18 0 41.5 12t45 37t39 63t24.5 90q2 14 13 23.5t26 9.5q14 0 24.5 -11t11.5 -25q1 -19 4 -53.5t13.5 -68.5t31.5 -59t58 -25q24 0 47.5 13t46 34.5t43 49t37.5 55.5t30 54t22 45q5 11 14.5 17t20.5 6q17 0 27.5 -12.5t10.5 -26.5q0 -7 -3 -14 q-4 -8 -16.5 -33.5t-32 -58.5t-45.5 -69t-58 -66t-69 -49.5t-78 -19.5q-58 0 -97.5 37t-57.5 93q-34 -57 -81 -90.5t-94 -33.5q-37 0 -67 13.5t-51 38t-32.5 57.5t-11.5 72z" />
<glyph unicode="b" horiz-adv-x="775" d="M20 744q0 155 9 268.5t24.5 193t36 129t43.5 77t47 37.5t47 10q37 0 65.5 -22t48 -61.5t29.5 -95.5t10 -123q0 -107 -23 -221t-59.5 -227.5t-81.5 -223t-89 -207.5q6 -49 18 -93.5t31 -79t45 -55t60 -20.5t64 19.5t52 51t34.5 71.5t12.5 82q0 28 -5.5 56.5t-17 51 t-28.5 36.5t-41 14q-18 0 -28 -7.5t-15 -17t-6 -18.5t-1 -12q0 -14 6 -28t23 -25q17 -12 17 -33q0 -17 -11.5 -27t-25.5 -10q-20 0 -35.5 12t-26.5 30.5t-17 39.5t-6 39q0 29 10 53.5t27.5 42t40 27t47.5 9.5q43 0 74.5 -20t52.5 -53t31 -75t10 -85q0 -25 -3 -49 q4 -8 13 -21t24 -25t36 -21t49 -9q24 0 49.5 18.5t49 46t43.5 59t33 58.5q5 10 14 15.5t20 5.5q17 0 27.5 -12t10.5 -27q0 -6 -4 -16q-3 -6 -13 -24.5t-26 -43t-38 -52t-48 -50.5t-56 -38t-62 -15q-52 0 -88 18.5t-59 41.5q-16 -35 -39 -64t-51 -50.5t-59.5 -33.5t-64.5 -12 q-61 0 -104 36t-71.5 96.5t-44.5 140.5t-24.5 168t-10.5 178t-2 171zM97 728q0 -46 1 -93.5t2.5 -90.5t3.5 -79t4 -59q34 84 69 176.5t63 188.5t46 194t18 193q0 36 -3.5 75.5t-12.5 72.5t-24.5 55t-39.5 22q-8 0 -20.5 -10.5t-26.5 -37t-28 -73.5t-25.5 -119.5t-19 -174.5 t-7.5 -240z" />
<glyph unicode="c" horiz-adv-x="586" d="M40 230q0 60 17 112.5t46.5 91.5t68.5 61.5t83 22.5q33 0 60 -11.5t45.5 -30.5t29 -42t10.5 -46q0 -22 -5.5 -41t-14 -33.5t-19.5 -23t-22 -8.5q-17 0 -27.5 11t-10.5 27q0 8 3.5 14t8 12.5t8 16t3.5 24.5q0 21 -19.5 38t-49.5 17q-28 0 -53.5 -17t-44.5 -45.5t-30.5 -67 t-11.5 -81.5q0 -41 10 -78t30 -65.5t50.5 -45.5t72.5 -17q54 0 100 19.5t84 49.5t67 65.5t49.5 67t32 55t13.5 29.5q4 10 13.5 15.5t20.5 5.5q17 0 27.5 -12t10.5 -27q0 -6 -4 -16q-6 -11 -20.5 -40t-39 -65.5t-58.5 -75.5t-78 -71.5t-98.5 -53.5t-118.5 -21 q-57 0 -101 20.5t-75 58t-47 88.5t-16 113z" />
<glyph unicode="d" horiz-adv-x="748" d="M20 172q0 69 24 127t62 99.5t84.5 64.5t92.5 23q15 0 26 -10.5t11 -26.5q0 -14 -9 -25t-24 -13q-30 -4 -64 -19t-62.5 -43.5t-47 -72.5t-18.5 -105q0 -50 20.5 -78t59.5 -28q16 0 34 8.5t38.5 33.5t45 71t54.5 121q-17 88 -31 203t-14 257q0 62 4 129.5t13 132t24 122.5 t36.5 102t50.5 69.5t66 25.5q33 0 56 -18t37.5 -50t21.5 -77t7 -99q0 -116 -20 -232t-49.5 -222t-62.5 -196t-60 -155q49 -231 142 -231q36 0 69 26.5t61.5 65t50.5 81.5t36 75q10 24 35 24q16 0 27 -12t11 -26q0 -8 -3 -14q-7 -17 -20.5 -45.5t-33 -61t-43.5 -66.5t-53 -61 t-61.5 -44.5t-68.5 -17.5q-67 0 -115 46.5t-83 153.5q-48 -102 -97 -148t-106 -46q-30 0 -58 9.5t-49 31.5t-34 56.5t-13 84.5zM377 761q0 -88 7 -176t16 -157q29 77 55 158.5t45.5 166.5t31 171.5t11.5 172.5q0 25 -1.5 54t-7 54.5t-14.5 42.5t-24 17q-25 0 -46.5 -44 t-37.5 -115.5t-25.5 -162t-9.5 -182.5z" />
<glyph unicode="e" horiz-adv-x="523" d="M40 255q0 51 12.5 94t36 75t56 50t71.5 18q23 0 45.5 -9.5t40.5 -27t29 -42.5t11 -57q0 -41 -14 -77t-38.5 -67t-58.5 -57t-73 -45q21 -29 54 -46.5t81 -17.5q49 0 89 23.5t73 61.5t59 85t47 94q5 11 14 16.5t20 5.5q17 0 27.5 -12t10.5 -26q0 -5 -1 -8.5t-3 -7.5 q-69 -152 -150.5 -229t-184.5 -79q-66 0 -114 25.5t-79 66t-46 91.5t-15 102zM116 251q0 -18 3.5 -38t8.5 -38q31 13 56.5 33t43.5 44t28 50.5t10 53.5q0 30 -15 45.5t-35 15.5q-27 0 -46 -15t-31 -39t-17.5 -53.5t-5.5 -58.5z" />
<glyph unicode="f" horiz-adv-x="455" d="M40 -244.5q0 82.5 0.5 177t1 198t1.5 207.5t2 204.5t3 190.5q3 172 12 307t29 228t54.5 141.5t87.5 48.5q42 0 71 -23.5t47 -63t26 -92.5t8 -111q0 -122 -21 -236t-57 -221t-84.5 -209t-103.5 -201v-88.5v-95t-0.5 -91t-0.5 -75.5q74 33 134.5 76t108 90.5t81 97 t53.5 94.5q9 22 34 22q17 0 27.5 -11.5t10.5 -25.5q0 -8 -3 -15q-22 -49 -56 -101.5t-82.5 -103t-113.5 -97.5t-149 -86q54 -56 94 -124.5t66.5 -142.5t40 -149.5t13.5 -144.5q0 -63 -11.5 -118.5t-34 -96.5t-54.5 -64.5t-73 -23.5q-60 0 -93 44.5t-48.5 123t-18 185 t-2.5 231.5v144.5zM115 -389q0 -93 1 -184t9.5 -163.5t26 -117t50.5 -44.5q30 0 49 27t29.5 64t14.5 75.5t4 62.5q0 61 -11.5 128t-35 132.5t-57.5 126.5t-79 110q0 -63 -0.5 -117.5t-0.5 -99.5zM119 455q41 77 75.5 162.5t59.5 176.5t39 186t14 191q0 48 -4.5 87t-14 66.5 t-24 43t-33.5 15.5q-20 0 -35 -24t-26 -64t-18.5 -92t-12.5 -108.5t-8 -113t-4.5 -106t-2 -87.5t-0.5 -57q-1 -40 -1.5 -71t-1.5 -61t-1.5 -64t-0.5 -80z" />
<glyph unicode="g" horiz-adv-x="623" d="M20 170q0 78 26.5 137.5t67.5 99.5t90.5 60t95.5 20q31 0 57 -8t44.5 -18t28.5 -19t11 -10q11 -12 11 -27t-11 -26.5t-26 -11.5q-14 0 -27 11q-4 3 -10.5 8.5t-17 11.5t-25 10t-34.5 4q-30 0 -66 -13.5t-67 -42.5t-52 -74.5t-21 -109.5q0 -48 21 -77.5t65 -29.5 q21 0 44.5 12t45.5 37t38.5 63t23.5 90q2 14 13 23.5t26 9.5q17 0 26.5 -12t9.5 -27q0 -1 -1 -30.5t-2 -78.5t-2.5 -113.5t-2.5 -136.5q188 245 261 407q5 11 13.5 16.5t19.5 5.5q17 0 28 -11.5t11 -26.5q0 -7 -3 -14q-44 -100 -125 -223t-205 -278q0 -63 1 -126t1 -138 t-3.5 -148.5t-12.5 -140t-24.5 -123t-40 -98t-59 -65t-81.5 -23.5q-67 0 -103 51t-36 145q0 50 9.5 108.5t27.5 120.5t43.5 125.5t56.5 123.5t67.5 115t77.5 100q1 70 1.5 139t2.5 127q-30 -38 -71.5 -60t-82.5 -22q-35 0 -63.5 13.5t-48.5 38t-31 57.5t-11 72zM118 -896 q0 -37 6.5 -59t16 -34t21 -16t21.5 -4q31 0 54 25t39 66.5t26 95.5t15 111.5t7 114.5t2 105v86t-2 88q-47 -65 -85 -141.5t-65 -154.5t-41.5 -151.5t-14.5 -131.5z" />
<glyph unicode="h" horiz-adv-x="769" d="M41 68v63q0 189 0.5 360.5t5 319t15 267t31.5 204t53.5 130.5t81.5 46q42 0 71 -23t47 -62.5t26 -92t8 -110.5q0 -118 -21.5 -231.5t-57.5 -221.5t-84 -210.5t-101 -199.5v-43v-50v-47v-35l1 -47q16 34 37 73.5t45 81t51 82.5t56 77q29 35 58.5 50.5t55.5 15.5 t45.5 -10.5t32 -28.5t19.5 -42t6 -52q0 -23 -4.5 -61.5t-4.5 -80.5q0 -24 3 -47.5t9 -42t19 -30t34 -11.5q24 0 48 13.5t47 36t44 50t38 55t30 53t21 42.5q10 23 35 23q17 0 27 -12t10 -26q0 -8 -3 -15q-4 -8 -15.5 -33t-31 -58t-45.5 -69t-57.5 -66.5t-68 -50t-76.5 -19.5 q-46 0 -74 19.5t-43.5 49.5t-21 67t-5.5 72q0 18 1.5 38.5t3.5 40.5t3.5 37.5t1.5 29.5q0 31 -8.5 42t-19.5 11q-16 0 -36.5 -18.5t-43 -48.5t-45 -67.5t-43.5 -74.5t-38 -70.5t-28 -55.5q-21 -42 -42.5 -56.5t-38.5 -14.5q-31 0 -47.5 24.5t-16.5 59.5zM117 454 q42 92 76.5 179.5t59 174.5t38.5 176.5t14 186.5q0 16 -1.5 51t-9 71t-23 63t-43.5 27q-22 0 -38 -29.5t-28 -80t-20 -117.5t-13 -142t-7.5 -154t-3.5 -153.5t-1 -139.5v-113z" />
<glyph unicode="i" horiz-adv-x="430" d="M19 785q0 19 7 35.5t19.5 29t29 19.5t35.5 7t35.5 -7t29 -19.5t19.5 -29t7 -35.5q0 -38 -26.5 -64.5t-64.5 -26.5t-64.5 26.5t-26.5 64.5zM39 199q0 144 18 287q2 14 12.5 24.5t27.5 10.5q15 0 25 -11.5t10 -26.5q0 -6 -2.5 -36t-6 -71.5t-6 -88t-2.5 -85.5 q0 -53 10.5 -85.5t27 -50.5t35 -24t35.5 -6q28 0 58 20t61.5 56t63.5 86.5t63 112.5q5 10 14 15.5t20 5.5q16 0 26.5 -12t10.5 -26q0 -10 -4 -17q-12 -23 -30 -56t-41 -68t-50.5 -69.5t-58.5 -62t-65 -44.5t-69 -17q-45 0 -79 19t-57.5 51t-35 75.5t-11.5 93.5zM76 785 q0 -14 10 -24t24 -10t24.5 10t10.5 24t-10.5 24.5t-24.5 10.5t-24 -10.5t-10 -24.5z" />
<glyph unicode="j" horiz-adv-x="340" d="M-265 -754q0 62 16.5 135.5t53 155.5t94.5 169.5t140 177.5q0 86 1 171.5t3.5 164t7 147t10.5 121.5q2 15 12.5 24t25.5 9t26 -11t11 -27q0 -6 -3.5 -39t-7.5 -97t-7.5 -158.5t-3.5 -223.5q37 40 76 84.5t75 89t66 88t47 82.5q9 22 34 22q17 0 27.5 -11.5t10.5 -25.5 q0 -8 -3 -15q-23 -52 -63 -108t-86.5 -111.5t-95 -108t-88.5 -97.5q1 -80 2.5 -157t1.5 -146q0 -275 -54 -408t-161 -133q-37 0 -68 16t-53 46t-34.5 74t-12.5 100zM-190 -754q0 -28 4 -56.5t14.5 -52t28.5 -38t46 -14.5q11 0 26 5t30.5 21.5t30.5 47.5t27 83.5t19 129.5 t7 185q0 51 -1 102t-2 111q-62 -75 -105.5 -148t-71.5 -140t-40.5 -127t-12.5 -109zM28 785q0 19 7 35.5t19.5 29t29 19.5t35.5 7t35.5 -7t29 -19.5t19.5 -29t7 -35.5q0 -38 -26.5 -64.5t-64.5 -26.5t-64.5 26.5t-26.5 64.5zM84 785q0 -14 10.5 -24t24.5 -10t24 10t10 24 t-10 24.5t-24 10.5t-24.5 -10.5t-10.5 -24.5z" />
<glyph unicode="k" horiz-adv-x="715" d="M40 18q0 6 0.5 46t1.5 104.5t2.5 148t2.5 177t3 192.5t3 193t2.5 178.5t2.5 150t1.5 107t0.5 49.5q0 16 12 26.5t26 10.5q16 0 27 -10.5t11 -27.5q0 -2 -0.5 -39.5t-1.5 -100.5t-2.5 -147t-2.5 -178.5t-3 -194.5t-3 -195t-2.5 -181t-2.5 -152q16 51 41 107.5t59 104.5 t76.5 79t94.5 31q29 0 54 -10.5t43.5 -29t29 -43.5t10.5 -54q0 -45 -20 -82.5t-53 -67t-75.5 -51.5t-87.5 -36q17 -38 56 -60.5t88 -22.5q15 0 49 4.5t78.5 30t94.5 80.5t97 155q5 11 14 16.5t20 5.5q17 0 27.5 -12t10.5 -26q0 -6 -4 -16q-35 -73 -78 -130.5t-93 -98 t-104.5 -62t-111.5 -21.5q-45 0 -84.5 14t-68 37.5t-45 53t-16.5 60.5q0 4 1 11t5.5 15.5t13 16t23.5 12.5q41 12 75.5 29.5t59.5 39.5t39 48.5t14 57.5q0 27 -18 44t-44 17q-27 0 -53 -18.5t-50.5 -49t-46.5 -70t-40.5 -82.5t-32.5 -85.5t-23 -78.5q-3 -11 -6.5 -24 t-10.5 -24.5t-17 -19t-26 -7.5q-15 0 -29 12.5t-14 42.5z" />
<glyph unicode="l" horiz-adv-x="501" d="M30 684q0 84 5.5 174t17.5 176t30.5 163t44 135t58.5 92t75 34q33 0 59.5 -15.5t44.5 -50.5t28 -91t10 -137q0 -100 -21 -206.5t-57 -214.5t-85 -215.5t-105 -209.5q25 -127 67 -199.5t101 -72.5q40 0 77 31.5t68 74.5t54.5 87.5t36.5 71.5q5 10 14 15.5t20 5.5 q17 0 27.5 -12t10.5 -27q0 -6 -4 -16q-11 -23 -27.5 -54.5t-37.5 -65.5t-47 -67.5t-56.5 -60t-65 -43t-73.5 -16.5q-60 0 -103 37t-73 97t-48.5 136.5t-28.5 156t-13.5 154.5t-3.5 133zM106 679q0 -64 3 -123t8 -113q42 81 80 172.5t67 185t46.5 186t17.5 176.5 q0 118 -19 169t-51 51q-21 0 -40.5 -29t-36.5 -79t-31 -118t-23.5 -146t-15 -163t-5.5 -169z" />
<glyph unicode="m" horiz-adv-x="1309" d="M34 294q0 7 3 15q45 107 86 157.5t80 50.5q23 0 38.5 -10.5t24.5 -27t13 -37.5t4 -41q0 -89 -4.5 -163t-9.5 -149q15 30 38.5 74.5t49 89.5t50 85t41.5 61q29 35 60 50t57 15t44.5 -11t30.5 -29.5t18 -43t6 -52.5q0 -16 -1.5 -42t-3 -56t-3 -62t-2.5 -60q15 30 34 66.5 t38.5 72.5t37.5 67.5t33 51.5q43 59 80.5 79t66.5 20q34 0 56 -12.5t34.5 -32t17.5 -43.5t5 -46q0 -34 -5 -71t-5 -88q0 -21 2 -42t8.5 -37t20.5 -26t38 -10q26 0 51 13.5t48 35.5t43.5 50t37.5 56t30 53.5t21 43.5q5 11 14 17t20 6q17 0 27.5 -12.5t10.5 -26.5q0 -7 -3 -14 q-4 -8 -16 -33.5t-32 -58t-46.5 -68.5t-58.5 -66.5t-69 -50t-78 -19.5q-44 0 -71.5 15.5t-44 41.5t-22.5 60t-6 71q0 49 5 90.5t5 64.5q0 25 -4.5 38t-11 18.5t-12.5 6t-9 0.5q-24 0 -50.5 -26.5t-54.5 -70.5t-57.5 -100t-59.5 -114q-17 -32 -28.5 -53t-22 -33t-20.5 -17 t-22 -5q-26 0 -39.5 18t-13.5 47q0 15 1 40t2 55t3 62t3 61.5t2 52.5t1 35q0 26 -9 37.5t-21 11.5q-11 0 -24.5 -8t-31.5 -31q-14 -18 -35.5 -52.5t-45.5 -76.5t-47.5 -86t-40.5 -79q-21 -42 -42 -57.5t-41 -15.5q-29 0 -43 17.5t-14 46.5q0 3 1.5 36t3.5 80.5t4.5 101.5 t4.5 101q1 25 -2 46t-8 25q-8 -2 -31.5 -37t-59.5 -122q-5 -11 -15 -17t-21 -6q-17 0 -27 11.5t-10 26.5z" />
<glyph unicode="n" horiz-adv-x="911" d="M34 294q0 7 3 15q45 107 84.5 157.5t78.5 50.5q23 0 39 -11.5t25.5 -30.5t14 -42t4.5 -47q0 -18 -2.5 -56t-6.5 -81.5t-7.5 -86.5t-6.5 -72q16 33 37 72.5t45 80t50.5 80.5t55.5 76q29 35 58.5 50.5t55.5 15.5q52 0 77 -38t25 -94q0 -13 -1.5 -31.5t-3 -39.5t-3 -42.5 t-1.5 -40.5q0 -24 2.5 -46t9.5 -38.5t20 -26t34 -9.5q38 0 74 29.5t66.5 70t53 82.5t33.5 68q5 11 14.5 17t20.5 6q17 0 27.5 -12.5t10.5 -26.5q0 -7 -3 -14q-4 -8 -16 -33t-31.5 -57.5t-45.5 -69t-57.5 -66.5t-68 -50t-76.5 -20q-45 0 -73 17.5t-44 46t-21.5 63t-5.5 69.5 q0 15 1.5 34t4 40t4 42t1.5 40q0 32 -10 43.5t-18 11.5q-16 0 -36.5 -18.5t-43 -48.5t-46 -67.5t-44 -74.5t-38 -70.5t-27.5 -55.5q-20 -42 -40 -56.5t-41 -14.5q-29 0 -46.5 17.5t-17.5 49.5q0 7 2 27.5t5 49t6 61.5t6 65.5t5 60.5t2 47q0 25 -2 48t-8 28q-9 -3 -32 -37.5 t-59 -121.5q-5 -11 -15 -17t-21 -6q-17 0 -27 11.5t-10 26.5z" />
<glyph unicode="o" horiz-adv-x="647" d="M20 198q0 64 23 111.5t53 79t60 47t45 15.5q17 0 25.5 -9t8.5 -24q0 -17 -10.5 -25.5t-26.5 -16.5t-34 -22.5t-33.5 -36.5t-25.5 -52t-10 -67q0 -33 10 -61.5t29 -49t45 -32t58 -11.5q57 0 94.5 26.5t57.5 67.5q-59 31 -97 88t-38 128q0 57 27.5 93t72.5 36q27 0 51 -13 t42.5 -41t29.5 -72t11 -105q0 -32 -8 -67q6 -1 12 -1h13q34 0 61 8t49 24t39.5 41t33.5 58q3 6 13 11.5t20 5.5q13 0 24.5 -10.5t11.5 -27.5q0 -8 -4 -17.5t-8 -17.5q-17 -30 -39.5 -57.5t-53 -48t-68.5 -32.5q-35 -11 -78 -11h-7q-25 0 -44 4q-15 -30 -36 -55.5 t-48.5 -44.5t-61.5 -30t-74 -11q-47 0 -86 16.5t-68 46t-45 71t-16 91.5zM328 362q0 -19 5 -40t15.5 -41.5t26 -39t36.5 -31.5q3 21 3 41q0 27 -4 55t-11.5 51.5t-18.5 38t-26 14.5q-6 0 -16 -9t-10 -39z" />
<glyph unicode="p" horiz-adv-x="723" d="M-180 -813q0 85 21 197t59.5 237.5t91.5 257.5t117 257q0 35 0.5 69t0.5 66q-13 -15 -31 -15q-17 0 -27 12t-10 26q0 7 3 15q24 55 37 104.5t19.5 87t7.5 59.5t1 23q0 15 11 26t27 11q15 0 26 -10.5t11 -26.5v-307q23 39 46 77t48.5 68t55 48.5t65.5 18.5q34 0 62 -16 t48 -44t30.5 -66.5t10.5 -82.5q0 -92 -33 -157t-81 -99h4q59 0 107.5 26.5t87.5 68t70 92.5t55 99q5 11 14.5 17t20.5 6q17 0 27 -12t10 -26q0 -8 -3 -15q-26 -58 -62 -116.5t-84 -105.5t-108 -76.5t-133 -29.5q-53 0 -103 16.5t-88 51.5q-14 11 -24 23.5t-16 23.5 q-2 2 -2 4q-6 9 -6 19q0 13 9 24q1 2 2 2.5t2 1.5q10 9 22 10h3q5 0 7 -1q1 0 1.5 -0.5t1.5 -0.5q3 0 7 -2q1 -1 2 -1q9 -6 15 -15q7 -12 16 -22q8 -8 19 -14.5t25 -6.5q25 0 50 15t45 43t32.5 68t12.5 89q0 36 -7.5 61.5t-19 41.5t-24.5 23.5t-25 7.5q-27 0 -54.5 -28 t-54.5 -71t-53.5 -95t-53.5 -101q-2 -162 -5.5 -309t-12 -273t-23.5 -228t-41 -174.5t-64 -111.5t-93 -39q-17 0 -39 7t-41 28.5t-32 61.5t-13 107zM-106 -828q0 -17 2 -37t8 -37t17 -28.5t29 -11.5q33 0 57 41.5t40.5 112t27.5 162t17.5 191.5t9.5 201.5t5 191.5 q-49 -110 -88.5 -221t-67 -214t-42.5 -193t-15 -158z" />
<glyph unicode="q" horiz-adv-x="623" d="M20 170q0 78 26.5 137.5t67.5 99.5t90.5 60t95.5 20q31 0 57 -8.5t44 -18.5t28.5 -18.5t11.5 -9.5q11 -10 11 -27q0 -15 -10.5 -26.5t-27.5 -11.5q-9 0 -14.5 3t-11.5 8q-10 8 -29.5 21t-57.5 13q-30 0 -66 -13.5t-67 -42.5t-52 -74.5t-21 -109.5q0 -46 20.5 -76.5 t65.5 -30.5q22 0 48.5 14.5t51 43.5t44 72t27.5 100q2 14 13 23.5t25 9.5q16 0 26.5 -11.5t10.5 -26.5q0 -2 -2.5 -34.5t-6.5 -86t-9 -123.5t-9 -148q42 55 81 110t72.5 108t61 102t46.5 91q5 11 13.5 16.5t19.5 5.5q17 0 28 -11.5t11 -26.5q0 -7 -3 -14q-22 -49 -54 -105.5 t-71.5 -117.5t-85 -124t-94.5 -124q43 -50 80.5 -124t64.5 -159t42.5 -173t15.5 -165q0 -87 -17 -139t-41 -80t-50 -36.5t-44 -8.5q-55 0 -86.5 34.5t-48 101t-21 164.5t-4.5 226q0 84 1.5 170t4.5 169t7 159.5t9 141.5q-32 -48 -71.5 -74t-87.5 -26q-36 0 -65.5 14 t-50.5 38.5t-32 57.5t-11 71zM391 -389q0 -129 1 -240.5t8.5 -194t25 -130t49.5 -47.5q26 0 41.5 22.5t23.5 53.5t10.5 63.5t2.5 52.5q0 67 -12.5 142t-34 148t-51 137.5t-62.5 109.5q-1 -31 -1.5 -60t-0.5 -57z" />
<glyph unicode="r" horiz-adv-x="621" d="M-37 472q0 17 9.5 46t25.5 57t36 48.5t40 20.5q23 0 37.5 -17t22.5 -41.5t12 -51.5t3 -47q17 0 33.5 0.5t31.5 0.5q57 0 87 -25t30 -82q0 -23 -3 -48t-7 -51.5t-7 -52.5t-3 -51q0 -36 10 -59.5t25 -37.5t32 -19.5t31 -5.5q43 0 81 28t70 67.5t57.5 83.5t42.5 77 q5 9 14 14t19 5q18 0 28 -11.5t10 -25.5q0 -10 -4 -18q-23 -41 -53.5 -92.5t-69.5 -96.5t-87.5 -76t-106.5 -31q-36 0 -68 13.5t-55.5 39t-37.5 63t-14 84.5q0 50 10 99.5t10 94.5q0 19 -8.5 28.5t-37.5 9.5h-30.5t-35.5 -1q-4 -27 -10 -50.5t-11.5 -41t-9.5 -28.5t-5 -12 q-10 -23 -35 -23q-14 0 -26 10.5t-12 26.5q0 6 2 9t6 12t10 30t15 65q-17 0 -35 1t-33.5 7t-25.5 19t-10 36zM32 485h44q0 7 -0.5 18.5t-2 22.5t-4 19t-5.5 8t-7.5 -7.5t-9.5 -18t-9 -22.5t-6 -20z" />
<glyph unicode="s" horiz-adv-x="520" d="M15 72q0 15 11.5 26.5t26.5 11.5q16 0 27 -11q1 -2 7 -6.5t14.5 -10t20 -9.5t23.5 -4q24 0 40.5 10t26.5 24.5t14.5 31t4.5 28.5q0 25 -8 50t-20.5 50t-27 51.5t-26.5 55.5q-6 -16 -14.5 -36t-19.5 -42q-9 -17 -18.5 -26.5t-24.5 -9.5q-17 0 -27 10.5t-10 24.5q0 5 1 8.5 t5 11.5q26 50 38.5 87.5t20.5 78.5q-7 23 -10 39t-3 33q0 33 14 53.5t39 20.5q23 0 36.5 -20t13.5 -49q0 -16 -3 -32t-8 -40q23 -57 46 -101t41 -80.5t29.5 -68.5t11.5 -64q0 -42 -17 -80t-56 -64q5 -1 10 -1h10q57 0 105 26t86.5 67.5t68.5 92t52 100.5q10 23 28 23 q17 0 26.5 -12t9.5 -26q0 -8 -3 -15q-11 -27 -28.5 -61.5t-42 -71t-56.5 -71.5t-71.5 -62.5t-86.5 -44t-103 -16.5q-67 0 -124.5 23.5t-93.5 77.5q-6 9 -6 19z" />
<glyph unicode="t" horiz-adv-x="478" d="M-363 1001q0 16 11 25.5t27 9.5h376q10 36 23.5 66t31 52t39 34.5t47.5 12.5q25 0 43.5 -12.5t31.5 -34.5t20.5 -52t11.5 -66h511q16 0 27 -9.5t11 -25.5t-11 -25.5t-27 -9.5h-507v-11q0 -61 -9 -130t-24.5 -137.5t-35 -133.5t-40 -120t-40.5 -95.5t-36 -60.5 q13 -46 31 -85.5t40.5 -69t48.5 -46.5t56 -17q35 0 69.5 29.5t64 70t52 82t32.5 66.5q10 24 35 24q17 0 27.5 -12t10.5 -26q0 -7 -3 -14t-14.5 -32t-30 -58t-43 -69.5t-55 -66.5t-65.5 -50t-74 -20q-69 0 -124 45t-93.5 126t-58.5 192t-20 243q0 33 1 77.5t4 94t9 102 t16 102.5h-359q-16 0 -27 9.5t-11 25.5zM79 590q0 -73 4 -122.5t12 -89.5q30 66 54.5 142.5t42 154.5t27 153t9.5 138h-118q-14 -62 -22.5 -153.5t-8.5 -222.5zM111 305v1v-1zM128 1036h96q-5 42 -14.5 66t-21.5 24q-9 0 -26 -19.5t-34 -70.5z" />
<glyph unicode="u" horiz-adv-x="717" d="M30 185q0 70 13.5 124t29.5 90.5t30 55.5l14 19q5 6 12.5 9t15.5 3q16 0 26.5 -11.5t10.5 -26.5q0 -6 -2.5 -12t-5.5 -12q-5 -9 -16 -27.5t-23 -48.5t-21 -70.5t-9 -92.5q0 -59 23.5 -89.5t66.5 -30.5q18 0 41.5 11.5t46 35.5t39.5 61t22 87l15 172q2 15 13 25t26 10 q17 0 27 -12.5t10 -28.5l-13 -166q-2 -21 1.5 -55t14.5 -67t33 -56.5t58 -23.5q26 0 51 13.5t48 35.5t42.5 49.5t36 55.5t28.5 53.5t20 43.5q5 11 14 17t20 6q18 0 28 -12t10 -26q0 -8 -3 -15q-4 -8 -15.5 -33.5t-30 -58t-44.5 -68.5t-58 -66.5t-69.5 -50t-80.5 -19.5 q-59 0 -98 33.5t-58 95.5q-35 -57 -81.5 -90t-93.5 -33q-38 0 -68 14t-52 39.5t-33.5 61.5t-11.5 81z" />
<glyph unicode="v" horiz-adv-x="678" d="M38 328q0 66 11.5 100t14.5 39q5 9 13.5 14t19.5 5q17 0 27 -11.5t10 -25.5q0 -10 -4 -17q-1 -2 -9 -27t-8 -75q0 -59 12 -109t29 -86t35.5 -56.5t30.5 -20.5q8 0 23.5 15t33 41t36 62t34 78.5t25 90t9.5 96.5q0 10 -0.5 19.5t-0.5 19.5q0 17 10.5 28.5t27.5 11.5 q13 0 23.5 -8t13.5 -22q0 1 4 -16t13.5 -43.5t24 -57.5t35 -57.5t47.5 -44.5t62 -18q19 0 33 8t23 18t13.5 19t4.5 10q4 11 13.5 17.5t21.5 6.5q16 0 27 -11.5t11 -26.5q0 -7 -3 -14q-6 -14 -17.5 -32t-29.5 -34t-42.5 -26.5t-54.5 -10.5q-35 0 -65 12.5t-54.5 32t-44.5 44 t-34 49.5q-15 -70 -43 -130.5t-59.5 -105.5t-63.5 -71t-55 -28q-26 0 -57.5 26t-60 72.5t-47.5 110.5t-19 139z" />
<glyph unicode="w" horiz-adv-x="949" d="M30 185q0 75 13.5 129.5t30 89.5t30.5 52l14 18q5 6 12.5 9t15.5 3q16 0 26.5 -11.5t10.5 -26.5q0 -11 -8 -24q-4 -6 -15.5 -23t-23.5 -46t-21.5 -71t-9.5 -99q0 -59 24 -89.5t67 -30.5q21 0 46 11.5t47 35.5t38 61t20 87l13 172q1 15 12.5 25t26.5 10q17 0 27 -12.5 t10 -28.5l-11 -165q-1 -17 -1 -32q0 -33 4 -59q6 -38 21.5 -62.5t37.5 -36t49 -11.5q36 0 61 21t40 57t21.5 83.5t6.5 100.5q0 63 -7 105t-7 56q0 15 11 26.5t27 11.5q14 0 24 -8.5t13 -22.5q1 -4 6 -23t14 -45.5t23.5 -56t35 -54.5t47 -41.5t60.5 -16.5q19 0 32.5 7.5 t22.5 17.5t13.5 19l5.5 11q5 11 14.5 17.5t20.5 6.5q17 0 27.5 -12.5t10.5 -26.5q0 -12 -10.5 -32t-29.5 -38.5t-46.5 -32t-60.5 -13.5q-29 0 -54 8.5t-46.5 22.5t-39.5 32t-33 38q-3 -52 -14.5 -104.5t-34.5 -94.5t-61 -68.5t-94 -26.5q-35 0 -61.5 10.5t-46 28t-32.5 40 t-22 47.5q-35 -58 -82.5 -89.5t-94.5 -31.5q-38 0 -68.5 14t-52 39.5t-33.5 61.5t-12 81z" />
<glyph unicode="x" horiz-adv-x="753" d="M37 294q0 9 4 16l109 228q5 9 14 15t20 6q16 0 26 -10.5t12 -25.5q1 -14 7.5 -44t18 -68.5t27 -82.5t36.5 -87q120 195 265 373q10 13 29 13q16 0 27 -11t11 -26q0 -14 -9 -24q-154 -190 -281 -400q35 -52 77 -86t95 -34q47 0 89 27t76.5 66.5t60 85t39.5 82.5 q10 25 35 25q17 0 27.5 -11.5t10.5 -26.5q0 -5 -2 -13q1 2 -9 -20t-30 -56.5t-49 -75.5t-66.5 -76.5t-83.5 -59t-99 -23.5q-66 0 -118.5 35t-94.5 89q-17 -30 -33 -60l-32 -60q-11 -21 -34 -21q-17 0 -27.5 12t-10.5 26q0 8 5 18q20 39 41 78t44 77q-34 59 -58 120.5 t-38 115.5l-59 -122q-11 -22 -34 -22q-17 0 -27.5 12t-10.5 26z" />
<glyph unicode="y" horiz-adv-x="629" d="M30 180q0 65 12.5 118.5t27 92t26.5 59t12 19.5q11 17 31 17q17 0 27.5 -11.5t10.5 -26.5q0 -11 -6 -20q1 1 -9.5 -16.5t-23 -50.5t-23 -79t-10.5 -101t20 -86t65 -31q57 0 103 84.5t78 245.5q2 13 12 21.5t24 8.5q16 0 27 -11t11 -27q0 -3 -4 -35.5t-9.5 -86.5 t-11.5 -125.5t-10 -152.5q35 35 71 71.5t70 76.5t63.5 83.5t52.5 92.5q5 11 14 16.5t20 5.5q17 0 27.5 -12t10.5 -27q0 -8 -3 -15q-31 -65 -71 -119t-84 -102.5t-89 -94t-86 -91.5q-2 -35 -2 -69.5t2 -69.5q4 -69 4 -147q0 -64 -4 -128t-13 -122.5t-24.5 -109.5t-39.5 -88.5 t-56 -59t-75 -21.5q-71 0 -109 49t-38 137q0 48 10.5 103t29.5 113.5t45.5 118.5t57.5 117t66 108.5t71 93.5q2 48 4.5 99.5t5.5 95.5q-26 -46 -64.5 -74t-84.5 -28q-76 0 -119 51t-43 140zM126 -758q0 -52 17 -81.5t54 -29.5q33 0 58.5 32.5t43 92.5t26.5 145.5t9 191.5 q0 43 -1.5 87t-2.5 94q-45 -65 -82.5 -137t-64.5 -143t-42 -136t-15 -116z" />
<glyph unicode="z" horiz-adv-x="735" d="M36 294q0 9 4 16q59 121 136 188t161 67q34 0 65.5 -12t55.5 -34.5t38 -55t14 -74.5q0 -35 -9.5 -67.5t-25.5 -63t-37 -58.5t-43 -54q27 -12 44.5 -34t29 -49t17.5 -56t10 -56q38 41 79 87t79 93t69.5 92.5t49.5 85.5q5 11 14 16.5t20 5.5q17 0 27.5 -11.5t10.5 -25.5 q0 -8 -3 -15q-22 -50 -62 -107.5t-87 -115t-96 -110.5t-90 -94q6 -81 6 -194q0 -121 -15 -222.5t-44 -175t-72 -114.5t-99 -41q-28 0 -53 13t-43.5 37t-29 57t-10.5 74q0 61 14.5 129t47.5 142t87 154.5t133 167.5q-4 43 -10.5 80t-16.5 64t-23.5 42t-32.5 15q-6 0 -14 -2 q-23 -27 -41.5 -42t-33.5 -23t-25.5 -10t-15.5 -2q-17 0 -32.5 9.5t-15.5 35.5q0 9 6.5 23t21.5 29.5t39.5 29t59.5 20.5q66 71 103 130.5t37 111.5q0 45 -28 72t-71 27q-60 0 -120 -56t-108 -155q-11 -22 -35 -22q-17 0 -27 12t-10 26zM222 -707q0 -51 18 -82t44 -31 q35 0 63.5 36t48.5 98.5t31 147.5t11 183q0 26 -0.5 58.5t-1.5 68.5q-63 -77 -104 -145t-65.5 -128t-34.5 -111.5t-10 -94.5z" />
<glyph unicode="{" horiz-adv-x="835" d="M180 694q0 17 11 27.5t26 10.5q6 0 13 -2.5t32 -2.5q24 0 49 8t45 23.5t33 37.5t13 50q0 25 -8 61t-17.5 83.5t-17.5 107t-8 132.5q0 96 30 161.5t73 106t91 58t84 17.5q32 0 58 -7t44.5 -15t29 -15t11.5 -8q13 -12 13 -29q0 -15 -10 -27t-27 -12q-8 0 -13.5 2.5 t-10.5 6.5q-8 6 -29.5 17t-63.5 11q-27 0 -62 -13.5t-67 -44.5t-54 -82.5t-22 -127.5q0 -65 8 -122t17.5 -105.5t17.5 -87.5t8 -67q0 -37 -12 -66.5t-31 -52t-41 -37.5t-42 -22q21 -15 41.5 -35t36.5 -44.5t26 -54.5t10 -65q0 -53 -12.5 -118t-27 -132t-27 -131t-12.5 -115 q0 -26 6.5 -40.5t15.5 -22t19 -9t17 -1.5q16 0 27 6.5t19 14.5t16 14.5t20 6.5q17 0 27.5 -12t10.5 -26q0 -18 -12.5 -33t-31 -25.5t-39.5 -16t-38 -5.5q-28 0 -52.5 10t-42.5 29t-28 47t-10 64q0 46 12.5 110t27.5 131.5t27.5 132.5t12.5 115q0 34 -13.5 62t-33.5 49.5 t-43 37t-43.5 25.5t-34.5 15t-15 5q-13 4 -20 14t-7 22z" />
<glyph unicode="|" horiz-adv-x="500" d="M189 1465q0 16 10 27.5t26 11.5t27.5 -9.5t11.5 -26.5q0 -2 1.5 -45t4 -112.5t5.5 -157.5t5.5 -179.5t5 -178.5t3.5 -154q1 -46 1.5 -100t1 -111.5t0.5 -116.5v-116v-128t-0.5 -105t-0.5 -72v-28q0 -15 -11 -26t-26 -11q-16 0 -27 10.5t-11 27.5v23.5t0.5 61.5t0.5 91 v112v124.5t-0.5 128t-1.5 123.5t-2 110q-1 67 -3.5 154t-5 178.5t-5.5 179.5t-5 157.5t-3.5 112.5t-1.5 44z" />
<glyph unicode="}" horiz-adv-x="835" d="M50 -101q0 15 10 27t27 12q8 0 13.5 -2.5t10.5 -6.5q8 -6 29.5 -17t63.5 -11q27 0 62 13.5t67 44.5t54 82.5t22 127.5q0 65 -8 122t-17.5 105.5t-17.5 87t-8 67.5q0 37 12 66.5t31 52t41 37t42 22.5q-21 15 -41.5 35t-36.5 44.5t-26 54.5t-10 65q0 53 12.5 118t27 132 t27 131t12.5 115q0 26 -6.5 40.5t-15.5 22t-19 9t-17 1.5q-17 0 -27.5 -6.5t-18.5 -14.5t-16 -14.5t-20 -6.5q-17 0 -27.5 12t-10.5 26q0 18 12.5 32.5t31 25t39.5 16.5t38 6q28 0 52.5 -10t42.5 -29t28 -47t10 -64q0 -31 -6 -70t-15 -82.5t-19 -89t-19 -89.5t-15 -84.5 t-6 -73.5q0 -35 13.5 -62.5t33.5 -49t43 -37t43.5 -25.5t34.5 -15t15 -5q13 -4 20 -14t7 -22q0 -17 -11 -27.5t-26 -10.5q-6 0 -13 2.5t-32 2.5q-24 0 -49 -8t-45 -23.5t-33 -37.5t-13 -50q0 -26 8 -61.5t17.5 -83t17.5 -107t8 -132.5q0 -96 -30 -161.5t-73 -106t-91 -58 t-84 -17.5q-32 0 -58 6.5t-44.5 15t-29 15.5t-11.5 8q-13 12 -13 29z" />
<glyph unicode="~" d="M70 586q0 46 13.5 83.5t37 64.5t53.5 42t63 15q43 0 73.5 -16.5t52.5 -40.5t39.5 -53t34.5 -53t37.5 -40.5t48.5 -16.5q25 0 41 10t25 25t12.5 31.5t3.5 30.5q0 15 -7 26.5t-15 22t-15 20t-7 20.5q0 16 11 27t26 11q17 0 32 -13.5t26 -33t17.5 -41t6.5 -37.5 q0 -33 -11.5 -64.5t-33.5 -56t-54 -39t-72 -14.5t-68 16.5t-48.5 40.5t-36.5 53t-33 53t-37 40.5t-49 16.5q-11 0 -26.5 -5.5t-29.5 -20t-24.5 -39.5t-10.5 -64q0 -16 1.5 -27.5t1.5 -16.5q0 -15 -10.5 -26.5t-27.5 -11.5q-24 0 -32.5 17.5t-8.5 63.5z" />
<glyph unicode="&#xa1;" horiz-adv-x="535" d="M199 -540l34 1133q1 15 11.5 25.5t26.5 10.5h1q16 0 26.5 -11.5t9.5 -27.5l-33 -1132q-1 -16 -12 -27t-27 -10t-26.5 12t-10.5 27zM226 836q0 23 15.5 38.5t38.5 15.5t38.5 -15.5t15.5 -38.5t-15.5 -38.5t-38.5 -15.5t-38.5 15.5t-15.5 38.5z" />
<glyph unicode="&#xa2;" horiz-adv-x="959" d="M61 668q-1 82 32 153.5t89 126.5t129.5 90t154.5 46l13 298q1 16 12.5 26.5t27.5 9.5q15 -1 26 -12t10 -27l-13 -290q67 -2 125.5 -19t102 -47t69 -71.5t25.5 -91.5q0 -49 -22.5 -92.5t-61 -75.5t-89.5 -51t-108 -19q-47 0 -84 12t-62 33.5t-38 50.5t-13 63q0 28 8.5 51 t19 39t20 25.5l10.5 10.5q5 5 11.5 6.5t12.5 1.5q15 0 26.5 -10t11.5 -27t-12 -29q-8 -8 -20.5 -23t-12.5 -45q0 -27 12 -43t30.5 -25t40 -12t40.5 -3q43 0 80 13.5t65 36t44 51.5t16 60q0 35 -20.5 63.5t-56 49t-82 31.5t-98.5 11q-32 0 -73.5 -7.5t-85.5 -24.5 t-86.5 -43.5t-76 -65t-54 -89.5t-20.5 -116q0 -84 34.5 -140t87 -89t116 -47t120.5 -14t110.5 16t98.5 41.5t80 58.5t56 66q11 17 32 17q17 0 27 -12t10 -26q0 -5 -1 -9.5t-4 -9.5q-29 -47 -73 -86t-97 -68t-111.5 -46t-115.5 -18l-11 -276q-1 -15 -12 -25.5t-26 -10.5h-2 q-16 1 -26.5 12.5t-9.5 27.5l12 275q-73 8 -140 33.5t-118 70.5t-81.5 109t-30.5 150z" />
<glyph unicode="&#xa3;" horiz-adv-x="971" d="M70 391q0 33 15 56.5t37.5 38t49.5 21t51 6.5q34 0 64 -7t56 -20q4 19 4 47q0 23 -4.5 51.5t-10.5 58.5l-147 -1q-16 0 -27 9.5t-11 25.5t10.5 26t26.5 10l131 1q-9 39 -15.5 75.5t-6.5 65.5q0 75 24.5 131t64.5 93.5t91.5 56t106.5 18.5q51 0 92 -14.5t70.5 -39 t45 -57.5t15.5 -70q0 -24 -5 -49.5t-15 -46.5t-23.5 -34t-31.5 -13q-14 0 -25.5 10t-11.5 27q0 13 5.5 20.5t12.5 16.5t12.5 22.5t5.5 38.5q0 19 -9 40t-27.5 37.5t-46.5 27.5t-65 11q-48 0 -87 -16t-66.5 -46t-42.5 -72.5t-15 -94.5q0 -30 6.5 -64.5t15.5 -72.5l176 3 q15 0 26.5 -10t11.5 -26q0 -15 -10 -25.5t-27 -10.5l-161 -2q6 -29 10 -59.5t4 -60.5q0 -44 -10 -80q39 -29 75 -62.5t73 -62.5t78.5 -48.5t92.5 -19.5q39 0 64 9t40.5 21.5t24 26t13.5 23.5q5 8 13.5 12.5t18.5 4.5q17 0 27.5 -10t10.5 -24q0 -8 -7 -30t-29.5 -45.5 t-64.5 -41.5t-111 -18q-59 0 -106.5 19.5t-88.5 49t-78 64t-74 63.5q-26 -42 -67.5 -68t-101.5 -26q-14 0 -38 3.5t-47 15.5t-40.5 33.5t-17.5 57.5zM145 394q0 -24 20.5 -33t46.5 -9q32 0 60.5 16t47.5 48q-23 12 -48 19.5t-53 7.5q-10 0 -23 -2.5t-24 -8t-19 -15t-8 -23.5 z" />
<glyph unicode="&#xa4;" horiz-adv-x="528" d="M50 562q0 16 14 27l79 59q-11 25 -11 53q0 30 13 59l-67 59q-11 8 -11 24q0 14 10 24t23 10q11 0 21 -8l67 -59q17 12 36.5 19t42.5 7q24 0 46 -8.5t40 -22.5l72 56q10 7 20 7q15 0 26 -13q7 -11 7 -20q0 -16 -13 -26l-73 -56q11 -25 11 -52q0 -33 -16 -63l64 -55 q12 -11 12 -26q0 -10 -8 -20q-11 -12 -25 -12q-12 0 -22 8l-65 56q-17 -11 -36 -17t-40 -6q-24 0 -45.5 7.5t-38.5 21.5l-80 -59q-8 -7 -20 -7q-14 0 -23.5 9.5t-9.5 23.5zM198 701q0 -24 12 -40q1 -1 1.5 -1t1.5 -1l2 -4q21 -23 52 -23t49 20l6 6q15 20 15 43q0 20 -11 37 q-2 2 -3.5 4.5t-3.5 4.5q-21 23 -52 23q-33 0 -52 -24l-2 -2q-1 -1 -1 -2q-14 -17 -14 -41z" />
<glyph unicode="&#xa5;" horiz-adv-x="1170" d="M50 940q0 64 23 119t62 96t91.5 64.5t111.5 23.5q51 0 90.5 -18t67.5 -49t42.5 -73.5t14.5 -90.5q0 -30 -4.5 -60t-10 -60t-10 -61t-4.5 -62q0 -57 22.5 -90.5t70.5 -33.5q22 0 46.5 10.5t48.5 29.5t45.5 45t36.5 57q34 69 54 122.5t31.5 93t17 66.5t10.5 43.5t12 23.5 t22 7q17 0 27.5 -11.5t10.5 -26.5q0 -4 -4 -33t-10 -72t-12.5 -96t-12.5 -105t-10 -98.5t-4 -76.5v-61q44 4 68.5 6t37 3t15.5 1.5t4 0.5q14 0 25.5 -9.5t11.5 -26.5q0 -14 -9.5 -23.5t-24.5 -11.5l-125 -12q1 -26 2 -48.5t3 -39.5q5 0 14 0.5t19 1t19.5 0.5h15.5 q13 0 28.5 -1t29 -5.5t22 -13t8.5 -22.5q0 -11 -7 -20.5t-24 -9.5t-36.5 2t-35.5 2q-13 0 -25 -0.5t-24 -1.5v-29q0 -118 -49 -180t-134 -62q-59 0 -96 36t-37 94q0 30 11 60t38 57.5t73 49.5t115 35q-1 17 -2.5 39.5t-2.5 48.5l-137 -12q-17 -2 -29 8t-12 27q0 15 10 25 t24 12q42 4 76.5 7t64.5 5q-1 18 -1 33.5v27.5q0 26 3 71.5t8 92.5q-20 -46 -47 -84.5t-59 -66t-67 -43t-70 -15.5q-49 0 -81.5 18t-52 46.5t-27.5 64.5t-8 72q0 31 4.5 61t10 60t10 59t4.5 59q0 22 -5.5 49.5t-20.5 51.5t-42.5 40.5t-70.5 16.5q-24 0 -60 -9.5t-70.5 -35 t-59 -69.5t-24.5 -112q0 -57 16 -90.5t36.5 -51.5t38.5 -23.5t23 -6.5q14 -2 23 -12.5t9 -24.5q0 -17 -12 -27.5t-26 -10.5q-22 0 -53.5 13.5t-60 43t-49 75.5t-20.5 111zM697 199q0 -24 18.5 -43.5t44.5 -19.5q44 0 73 38t29 122v30q-36 -5 -66 -16.5t-52 -28t-34.5 -37.5 t-12.5 -45z" />
<glyph unicode="&#xa6;" horiz-adv-x="500" d="M212 -100.5q0 33.5 0.5 88t0.5 125.5v147q0 77 -0.5 152.5t-0.5 140.5q0 16 11 27t26 11t26.5 -10t11.5 -27v-104.5t0.5 -113t0.5 -114.5v-109v-249q0 -15 -11 -26t-27 -11t-27 11t-11 27v34.5zM212 775v34.5t0.5 88t0.5 125.5v147q0 77 -0.5 152.5t-0.5 140.5 q0 16 11 27t26 11t26.5 -10t11.5 -27v-104.5t0.5 -113t0.5 -114.5v-109v-249q0 -15 -11 -26t-27 -11t-27 11t-11 27z" />
<glyph unicode="&#xa7;" horiz-adv-x="1591" d="M100 707q0 109 75 201q-75 71 -75 176q0 77 34.5 141.5t93.5 115t139 88.5t170.5 63t187.5 37.5t191 12.5q135 0 242 -17.5t181 -55.5t113 -97.5t39 -143.5q0 -27 -6 -55q-3 -13 -13 -21.5t-23 -8.5q-17 0 -27.5 11t-10.5 25q0 12 2.5 24.5t2.5 23.5q0 124 -124.5 181.5 t-376.5 57.5q-82 0 -168.5 -10.5t-168.5 -31.5t-155 -52.5t-128 -74t-87 -95.5t-32 -117q0 -50 26.5 -87.5t71 -65.5t102 -47.5t119.5 -32t123.5 -20t114.5 -11.5q125 -10 228 -23t176.5 -38.5t114 -69t40.5 -113.5q0 -69 -35 -117t-104 -83q67 -29 103 -75t36 -117 q0 -47 -24.5 -94t-82 -85.5t-152 -62.5t-234.5 -24q-111 0 -195.5 15t-141.5 33t-87 33.5t-32 17.5q-18 13 -18 32q0 17 11.5 27t25.5 10q10 0 21 -6q1 0 27.5 -14t79 -30t130 -29.5t179.5 -13.5q96 0 173 13t131 37.5t83 60.5t29 81q0 42 -21.5 71t-58.5 48t-85.5 30 t-102.5 17.5t-110.5 9.5t-108.5 6q-310 18 -469 105.5t-159 233.5zM176 708q0 -50 26.5 -88t71 -66.5t102 -48.5t119.5 -32.5t123.5 -19.5t114.5 -9q94 -5 173.5 -13t145.5 -23q78 29 121.5 67.5t43.5 101.5q0 34 -21 58.5t-56.5 42t-83.5 28.5t-102.5 18.5t-112.5 12 t-113 9.5q-171 14 -292.5 42.5t-198.5 74.5q-61 -73 -61 -155z" />
<glyph unicode="&#xa8;" horiz-adv-x="500" d="M106 674q0 22 15 37t36 15q22 0 37 -15t15 -37q0 -21 -15 -36t-37 -15q-21 0 -36 15t-15 36zM291 674q0 22 15 37t36 15q23 0 38 -15t15 -37q0 -21 -15 -36t-38 -15q-21 0 -36 15t-15 36z" />
<glyph unicode="&#xa9;" horiz-adv-x="1597" d="M80 553q0 114 33.5 222.5t93.5 204t141 176t177 138t201.5 90t213.5 32.5q124 0 229.5 -43.5t183 -121t121 -183t43.5 -228.5q0 -112 -32 -219.5t-89.5 -203t-137 -175.5t-175 -138.5t-204 -91t-222.5 -32.5q-123 0 -228.5 43.5t-183 120t-121.5 181.5t-44 228zM155 557 q0 -108 37 -200t103 -159t158.5 -105t203.5 -38q102 0 200.5 30t185.5 83t160.5 127t126.5 161t82.5 185t29.5 200q0 108 -37 200t-104 158.5t-159 104t-201 37.5q-97 0 -193 -29.5t-183.5 -82t-162.5 -125t-130 -159.5t-86 -185.5t-31 -202.5zM494 560q0 49 17.5 102 t47.5 103t71.5 95t89 79t100 53.5t104.5 19.5q27 0 52.5 -7.5t44.5 -22t30.5 -36.5t11.5 -52q0 -24 -6.5 -48t-15 -43.5t-17 -34.5t-11.5 -21q-11 -19 -33 -19q-16 0 -26.5 10.5t-10.5 25.5q0 10 6.5 23.5t14.5 27.5q9 17 16.5 33t7.5 31q0 8 -1.5 18.5t-7.5 19.5t-18.5 15 t-34.5 6q-41 0 -84 -16.5t-82.5 -44.5t-74.5 -65.5t-61.5 -79t-41.5 -86t-15 -85.5q0 -34 10.5 -62.5t29.5 -49t46 -32t59 -11.5q25 0 50 5t48.5 12.5t44.5 16.5t39 17q17 8 25 12.5t16 4.5q14 0 26 -10t12 -27q0 -22 -23 -35q-7 -4 -28 -15.5t-51 -23.5t-67.5 -21.5 t-77.5 -9.5q-47 0 -89 15t-74 44.5t-50.5 72t-18.5 96.5z" />
<glyph unicode="&#xaa;" horiz-adv-x="475" d="M30 938q0 14 9.5 23.5t23.5 9.5h344q14 0 23.5 -9.5t9.5 -23.5t-9.5 -23.5t-23.5 -9.5h-344q-14 0 -23.5 9.5t-9.5 23.5zM35 1198q0 58 20 102t51 74t68 45t71 15q29 0 51 -8t36.5 -18.5t22 -22.5t7.5 -19q0 -14 -10.5 -23t-24.5 -9q-8 0 -16 5t-17.5 11t-21 11t-25.5 5 q-21 0 -46.5 -9.5t-47.5 -29.5t-36.5 -51.5t-14.5 -75.5q0 -32 13.5 -52.5t42.5 -20.5q13 0 29.5 8t32 25t27.5 43.5t17 63.5q2 13 10.5 22t21.5 9q15 0 24.5 -9.5t10.5 -22.5q6 -72 20.5 -108t46.5 -36q4 0 6.5 1t6.5 1q13 0 23.5 -9t10.5 -24q0 -21 -12.5 -29t-34.5 -8 q-38 0 -69 26t-45 64q-28 -48 -62 -66.5t-64 -18.5q-28 0 -50.5 10.5t-38.5 29.5t-25 44t-9 55z" />
<glyph unicode="&#xab;" horiz-adv-x="898" d="M150 219q0 22 21 33q63 32 119 78.5t98 90t67 74.5t25 32q5 8 13.5 11.5t16.5 3.5q17 0 27.5 -11.5t10.5 -25.5q0 -13 -7 -23q-2 -3 -24 -30.5t-59 -67t-87.5 -84.5t-108.5 -82q48 -29 93.5 -59.5t92.5 -63.5q12 -9 29.5 -21t33 -24.5t26.5 -25.5t11 -23q0 -14 -11 -24.5 t-27 -10.5q-11 0 -21 7q-84 58 -161 111.5t-159 100.5q-19 11 -19 34zM450 219q0 22 21 33q63 32 119 78.5t98 90t67 74.5t25 32q5 8 13.5 11.5t16.5 3.5q17 0 27.5 -11.5t10.5 -25.5q0 -13 -7 -23q-2 -3 -24 -30.5t-59 -67t-87.5 -84.5t-108.5 -82q48 -29 93.5 -59.5 t92.5 -63.5q12 -9 29.5 -21t33 -24.5t26.5 -25.5t11 -23q0 -14 -11 -24.5t-27 -10.5q-11 0 -21 7q-84 58 -161 111.5t-159 100.5q-19 11 -19 34z" />
<glyph unicode="&#xac;" d="M71 699q0 15 10 26t27 12l513 16q14 0 26 -9.5t12 -26.5v-3l-11 -227q-1 -15 -11.5 -25.5t-25.5 -10.5q-17 0 -28 11.5t-10 28.5l9 186l-472 -15q-15 -1 -27 10t-12 27z" />
<glyph unicode="&#xad;" d="M240 327q0 16 9.5 27.5t26.5 12.5l344 18q16 1 27.5 -9t12.5 -26q0 -16 -9.5 -27.5t-26.5 -12.5l-344 -18q-15 -1 -27.5 8.5t-12.5 26.5z" />
<glyph unicode="&#xae;" horiz-adv-x="1006" d="M80 934q0 67 19.5 130t54.5 119.5t82.5 103.5t103.5 80.5t118 52.5t125 19q74 0 137 -26t108.5 -71.5t71.5 -108.5t26 -136q0 -98 -41 -189t-110.5 -161t-160.5 -111.5t-191 -41.5q-73 0 -136 25.5t-109 71t-72 108t-26 135.5zM155 937q0 -58 19.5 -107t55 -85t85 -56 t108.5 -20q84 0 161 35.5t136.5 95t95 137t35.5 161.5q0 58 -20 106.5t-55.5 84t-84.5 55.5t-107 20q-80 0 -157 -35t-137.5 -94t-97.5 -136t-37 -162zM312 822l31 351q2 15 13 25t26 10q16 0 26 -12t10 -26q0 -29 -3 -58.5t-5 -72.5q28 63 57.5 103.5t58.5 64t57.5 32.5 t53.5 9q19 0 38 -6.5t33 -20.5t23 -35t9 -51q0 -14 -9 -24.5t-26 -10.5q-23 0 -29 11.5t-9 25t-9.5 25t-28.5 11.5q-41 0 -76 -29t-65 -79t-56 -118t-49 -146q-3 -9 -12 -15t-20 -6q-16 0 -27.5 11t-11.5 31z" />
<glyph unicode="&#xaf;" horiz-adv-x="500" d="M91 670q0 14 9 23.5t23 10.5l253 10q14 1 24 -9t10 -23q0 -14 -9 -23.5t-23 -10.5l-252 -10q-13 -1 -24 8.5t-11 23.5z" />
<glyph unicode="&#xb0;" horiz-adv-x="348" d="M30 1296q0 29 11.5 55t31 45.5t45.5 31t55 11.5q30 0 56.5 -11.5t46 -31t31 -45.5t11.5 -55t-11.5 -55t-31 -45.5t-46 -31t-56.5 -11.5q-29 0 -55 11.5t-45.5 31t-31 45.5t-11.5 55zM96 1296q0 -32 22.5 -54.5t54.5 -22.5q33 0 56 22.5t23 54.5q0 33 -23 55t-56 22 q-32 0 -54.5 -22t-22.5 -55z" />
<glyph unicode="&#xb1;" d="M69 649q0 16 9.5 27.5t26.5 12.5l243 12q3 40 6.5 86t7.5 100q1 15 12 25t25 10q18 0 28.5 -12t10.5 -28l-14 -177l225 12q16 1 27.5 -9t12.5 -26q0 -16 -9.5 -27.5t-26.5 -12.5l-234 -12l-14 -184q-2 -15 -12.5 -25t-25.5 -10t-26 11t-11 26q0 1 3 42.5t10 135.5 l-234 -12q-15 -1 -27.5 8.5t-12.5 26.5zM75 299q0 16 9.5 27.5t26.5 12.5l524 28q16 1 27.5 -9t12.5 -26q0 -16 -9.5 -27.5t-26.5 -12.5l-524 -28q-15 -1 -27.5 8.5t-12.5 26.5z" />
<glyph unicode="&#xb2;" horiz-adv-x="696" d="M50 979q0 15 6.5 29.5t18.5 26t29.5 18.5t40.5 7q33 0 73.5 -14t88.5 -32q35 20 65 46.5t52 56.5t34.5 62.5t12.5 64.5q0 60 -36.5 96.5t-104.5 36.5q-29 0 -57.5 -9t-50.5 -25t-35.5 -38t-13.5 -48q0 -20 3 -32.5t6.5 -20t6.5 -12t3 -10.5q0 -13 -8 -23t-22 -10 q-12 0 -21.5 9t-16.5 24t-11 34.5t-4 40.5q0 42 19.5 75.5t51 57.5t71 37t79.5 13q45 0 82.5 -13.5t64.5 -39t42.5 -61t15.5 -78.5q0 -72 -39.5 -139t-114.5 -121q31 -11 58.5 -18.5t47.5 -7.5q33 0 57.5 7t40.5 16t24 16.5l8 7.5q10 12 26 12q14 0 23.5 -8.5t9.5 -21.5 t-7 -21l-12.5 -12.5t-34 -24.5t-56 -23.5t-79.5 -10.5q-38 0 -86 13t-90 34q-46 -23 -88.5 -34.5t-76.5 -11.5q-25 0 -43 7t-30 18t-17.5 25t-5.5 29zM113 978q0 -11 12.5 -13.5t23.5 -2.5q15 0 34.5 4t36.5 12q-17 8 -37.5 13.5t-34.5 5.5q-35 0 -35 -19z" />
<glyph unicode="&#xb3;" horiz-adv-x="513" d="M50 984q0 12 9.5 21t23.5 9q15 0 24 -10l9.5 -8t28 -17.5t45.5 -17.5t63 -8q72 0 108.5 30t36.5 79q0 41 -29.5 63.5t-73.5 33.5q-23 -8 -49.5 -13t-55.5 -5q-32 0 -44 13t-12 28q0 5 2.5 13t10.5 15.5t24 12.5t43 5q16 0 37.5 -1.5t42.5 -5.5q21 7 36 17.5t24 22.5 t13 24t4 22q0 31 -22 50t-66 19q-38 0 -68 -13t-50 -28q-24 -18 -42 -41q-11 -14 -27 -14q-15 0 -24 9.5t-9 21.5q0 10 6 19q1 1 15.5 18.5t41.5 37.5t67 36.5t91 16.5q48 0 77.5 -15t46 -36t22.5 -44t6 -39q0 -28 -17.5 -57t-52.5 -49q42 -20 69.5 -55t27.5 -83 q0 -47 -20.5 -79.5t-51.5 -53t-68 -30t-71 -9.5q-47 0 -83 11t-60 24.5t-37 25l-13 11.5q-9 10 -9 23z" />
<glyph unicode="&#xb4;" horiz-adv-x="500" d="M137 617q0 14 10 24l160 152q10 9 23 9t23 -10t10 -24t-10 -23l-160 -152q-11 -9 -23 -9q-14 0 -23.5 10t-9.5 23z" />
<glyph unicode="&#xb5;" horiz-adv-x="775" d="M50 -332q0 135 5.5 238t12.5 176.5t14.5 119.5t10.5 67q8 49 20.5 87.5t24.5 64.5t20.5 39.5l8.5 13.5q10 12 28 12q15 0 26 -11.5t11 -26.5q0 -10 -9 -24q-5 -9 -15 -28t-20 -48.5t-17.5 -70t-7.5 -92.5q0 -59 23 -89.5t65 -30.5q16 0 39.5 11.5t45 35.5t38.5 61t21 87 l14 172q2 15 13 25t26 10q17 0 27 -12.5t9 -28.5q-1 -11 -3 -40t-4.5 -60.5t-4 -56.5t-1.5 -27q0 -24 4.5 -56t16.5 -60.5t32.5 -48t52.5 -19.5t59.5 20t55.5 47q12 12 26 12q15 0 26 -12.5t11 -27.5q0 -11 -7 -19q-33 -42 -77 -68.5t-95 -26.5q-58 0 -96.5 33.5t-57.5 95.5 q-33 -57 -79.5 -90t-92.5 -33q-71 0 -114 51q-5 -69 -8 -162.5t-3 -209.5q0 -16 -10.5 -27t-26.5 -11t-27 11t-11 27z" />
<glyph unicode="&#xb6;" horiz-adv-x="1480" d="M60 865q0 118 52.5 212t139.5 158.5t200 99t233 34.5q106 0 208.5 -23.5t199 -65.5t185.5 -100.5t169 -128.5q13 -10 13 -28q0 -15 -10.5 -26.5t-27.5 -11.5q-14 0 -24 9q-30 26 -60 49.5t-61 45.5q-3 -17 -8.5 -65.5t-11.5 -120t-11.5 -162t-8.5 -191.5q-1 -29 -1 -60 v-62q0 -69 1 -135t2.5 -117.5t2.5 -83.5t1 -33q0 -16 -10.5 -27.5t-26.5 -12.5t-27 10t-12 27l-1 31.5t-2.5 82t-2.5 115.5t-1 133q0 64 2.5 133.5t6 138.5t8.5 134t9.5 119t8.5 94.5t7 61.5q2 18 18 28q-131 83 -265 125t-269 42q-104 0 -203 -28t-176.5 -83t-124.5 -135 t-47 -183q0 -98 34.5 -168.5t94 -116t139.5 -67t172 -21.5q68 0 105.5 10.5t38.5 10.5q7 3 14 3q14 0 26 -10.5t12 -27.5q0 -11 -6.5 -20.5t-17.5 -14.5q-2 0 -14 -4.5t-34 -9t-53.5 -8.5t-70.5 -4q-96 0 -188.5 25t-165 79t-117 139t-44.5 205zM789 411q0 52 3.5 122.5 t9 147t12 153.5t13.5 143.5t13.5 116t10.5 71.5q4 20 13.5 26t23.5 6q17 0 27.5 -11.5t10.5 -26.5v-5q-1 -2 -5.5 -35.5t-11.5 -89.5t-15 -129.5t-14.5 -155t-11 -165.5t-4.5 -162q0 -83 2.5 -157.5t5.5 -131t5.5 -90t2.5 -34.5v-4q0 -14 -9.5 -25.5t-24.5 -11.5 q-17 0 -28 9t-13 26q0 1 -2.5 34t-5.5 89.5t-5.5 131t-2.5 158.5z" />
<glyph unicode="&#xb7;" horiz-adv-x="368" d="M130 699q0 22 15.5 37.5t38.5 15.5t38.5 -15.5t15.5 -37.5q0 -23 -15.5 -38.5t-38.5 -15.5t-38.5 15.5t-15.5 38.5z" />
<glyph unicode="&#xb8;" horiz-adv-x="500" d="M115 -279q0 15 10.5 23.5t23.5 8.5q8 0 16 -5.5t18.5 -12t25 -12t34.5 -5.5q30 0 52 15.5t22 47.5q0 18 -6.5 30t-16 19.5t-21.5 10.5t-22 3q-17 0 -28 -3t-18 -3q-13 0 -21.5 7.5t-8.5 21.5q0 8 2 14.5t4 12.5l33 87q8 23 33 23q14 0 23 -9t9 -22q0 -6 -3 -15t-5 -13 l-14 -39q23 0 46 -7.5t41 -23.5t29.5 -39.5t11.5 -55.5q0 -24 -9 -46.5t-27 -40.5t-44.5 -29t-60.5 -11q-20 0 -43 4.5t-42 13.5t-31.5 21.5t-12.5 28.5z" />
<glyph unicode="&#xb9;" horiz-adv-x="296" d="M20 1203q0 17 15 28q1 0 14 9t31 25t38 37t34 47q0 48 10 69t37 21q14 0 24.5 -10.5t10.5 -29.5q0 -14 -5 -32t-13 -34v-71.5v-83.5t-0.5 -84.5t-0.5 -74.5v-53.5v-21.5q0 -14 -8.5 -23.5t-22.5 -9.5t-23.5 9.5t-9.5 23.5v30t0.5 72.5t0.5 96v101.5q-30 -30 -54.5 -47.5 t-26.5 -19.5q-8 -5 -18 -5q-13 0 -23 8.5t-10 22.5z" />
<glyph unicode="&#xba;" horiz-adv-x="417" d="M30 938q0 14 9.5 23.5t23.5 9.5h291q14 0 23.5 -9.5t9.5 -23.5t-9.5 -23.5t-23.5 -9.5h-291q-14 0 -23.5 9.5t-9.5 23.5zM35 1227q0 13 1.5 30t6.5 32t14 25.5t24 10.5q16 0 24.5 -11t8.5 -24q0 -12 -5 -29l-4 -16t-2 -16q0 -51 26 -82t68 -31q26 0 48 10.5t38.5 30 t26 46t9.5 58.5q0 13 -3.5 31.5t-12.5 35t-25.5 28t-43.5 11.5q-24 0 -36.5 -10t-20.5 -22q-6 -8 -13 -15t-19 -7q-16 0 -25 10t-9 23q0 16 12 32t30.5 28.5t40.5 20t43 7.5q33 0 60.5 -14.5t47.5 -38.5t31 -55.5t11 -65.5q0 -44 -13.5 -82t-38.5 -66.5t-60 -45t-77 -16.5 q-33 0 -62.5 12t-52 34.5t-35.5 55.5t-13 75z" />
<glyph unicode="&#xbb;" horiz-adv-x="898" d="M150 1q0 10 11 23t26.5 25.5t33 24.5t29.5 21q47 33 92.5 63.5t93.5 59.5q-59 37 -109 82t-87 84.5t-59 67t-24 30.5q-7 10 -7 23q0 14 10.5 25.5t27.5 11.5q19 0 30 -15q0 -1 25 -32t67 -74.5t98 -90t119 -78.5q21 -11 21 -33q0 -23 -19 -34q-83 -47 -159.5 -100.5 t-160.5 -111.5q-10 -7 -21 -7q-16 0 -27 10.5t-11 24.5zM450 1q0 10 11 23t26.5 25.5t33 24.5t29.5 21q47 33 92.5 63.5t93.5 59.5q-59 37 -109 82t-87 84.5t-59 67t-24 30.5q-7 10 -7 23q0 14 10.5 25.5t27.5 11.5q19 0 30 -15q0 -1 25 -32t67 -74.5t98 -90t119 -78.5 q21 -11 21 -33q0 -23 -19 -34q-83 -47 -159.5 -100.5t-160.5 -111.5q-10 -7 -21 -7q-16 0 -27 10.5t-11 24.5z" />
<glyph unicode="&#xbc;" horiz-adv-x="1046" d="M80 128q0 12 7 20l759 1018q5 7 12 10t15 3q14 0 23 -10t9 -23q0 -11 -6 -20l-759 -1018q-10 -13 -27 -13q-14 0 -23.5 10t-9.5 23zM111 959q0 17 15 28q1 0 14 9t31 25t38 37t34 47q0 48 10 69t37 21q14 0 24.5 -10.5t10.5 -29.5q0 -14 -5 -32t-13 -34v-71.5v-83.5 t-0.5 -84.5t-0.5 -74.5v-53.5v-21.5q0 -14 -8.5 -23.5t-22.5 -9.5t-23.5 9.5t-9.5 23.5v30t0.5 72.5t0.5 96v101.5q-30 -30 -54.5 -47.5t-26.5 -19.5q-8 -5 -18 -5q-13 0 -23 8.5t-10 22.5zM399 261q0 20 18 30q1 0 33.5 18.5t83 54.5t112.5 88.5t122 121.5q2 25 8.5 39.5 t14 22.5t15 10.5t12.5 2.5q17 0 31 -10.5t14 -31.5q0 -17 -11.5 -32t-22.5 -28q-2 -36 -3.5 -100.5t-3.5 -139.5q51 0 81.5 -1.5t31.5 -1.5q14 -1 22.5 -10.5t8.5 -23.5q-1 -15 -11 -22t-24 -7q-1 0 -30 1.5t-80 1.5q1 -30 0 -60.5t-1 -60.5q0 -14 -9.5 -23.5t-23.5 -9.5 t-22.5 9.5t-8.5 23.5q0 21 0.5 52.5t0.5 69.5q-105 -1 -165 -3.5t-92.5 -5.5t-45.5 -5t-23 -2q-12 0 -22 9t-10 23zM554 302q53 3 107 4t97 2q1 41 1.5 87.5t2.5 83.5q-27 -27 -55 -52t-55 -48t-52 -42.5t-46 -34.5z" />
<glyph unicode="&#xbd;" horiz-adv-x="1189" d="M80 128q0 12 7 20l759 1018q5 7 12 10t15 3q14 0 23 -10t9 -23q0 -11 -6 -20l-759 -1018q-10 -13 -27 -13q-14 0 -23.5 10t-9.5 23zM111 959q0 17 15 28q1 0 14 9t31 25t38 37t34 47q0 48 10 69t37 21q14 0 24.5 -10.5t10.5 -29.5q0 -14 -5 -32t-13 -34v-71.5v-83.5 t-0.5 -84.5t-0.5 -74.5v-53.5v-21.5q0 -14 -8.5 -23.5t-22.5 -9.5t-23.5 9.5t-9.5 23.5v30t0.5 72.5t0.5 96v101.5q-30 -30 -54.5 -47.5t-26.5 -19.5q-8 -5 -18 -5q-13 0 -23 8.5t-10 22.5zM523 186q0 15 6.5 29.5t18.5 26t29.5 18.5t40.5 7q33 0 73.5 -14t88.5 -32 q35 20 65 46.5t52 56.5t34.5 62.5t12.5 64.5q0 60 -36.5 96.5t-104.5 36.5q-29 0 -57.5 -9t-50.5 -25t-35.5 -38t-13.5 -48q0 -20 3 -32.5t6.5 -20t6.5 -12t3 -10.5q0 -13 -8 -23t-22 -10q-12 0 -21.5 9t-16.5 24t-11 34.5t-4 40.5q0 42 19.5 75.5t51 57.5t71 37t79.5 13 q45 0 82.5 -13.5t64.5 -39t42.5 -61t15.5 -78.5q0 -72 -39.5 -139t-114.5 -121q31 -11 58.5 -18.5t47.5 -7.5q33 0 57.5 7t40.5 16t24 16.5l8 7.5q10 12 26 12q14 0 23.5 -8.5t9.5 -21.5t-7 -21l-12.5 -12.5t-34 -24.5t-56 -23.5t-79.5 -10.5q-38 0 -86 13t-90 34 q-46 -23 -88.5 -34.5t-76.5 -11.5q-25 0 -43 7t-30 18t-17.5 25t-5.5 29zM586 185q0 -11 12.5 -13.5t23.5 -2.5q15 0 34.5 4t36.5 12q-17 8 -37.5 13.5t-34.5 5.5q-35 0 -35 -19z" />
<glyph unicode="&#xbe;" horiz-adv-x="1176" d="M100 745q0 12 9.5 20.5t23.5 8.5t24 -12l9.5 -8t28 -17.5t45.5 -17t63 -7.5q72 0 110 31t38 80q0 20 -8.5 36t-23 28t-33.5 20.5t-41 14.5q-23 -8 -46 -13t-52 -5q-32 0 -45 12t-13 27q0 5 3 12.5t11 14.5t23.5 12t41.5 5q11 0 33 -1.5t43 -5.5q21 7 36 17.5t24.5 23 t14 25t4.5 22.5q0 31 -23 51t-67 20q-38 0 -68.5 -13t-51.5 -29q-25 -18 -44 -42q-11 -14 -25 -14q-15 0 -23 9.5t-8 21.5q0 10 6 19q1 1 15.5 18.5t41.5 37.5t67 36.5t91 16.5q46 0 75.5 -15t46.5 -36t23.5 -44t6.5 -39q0 -28 -17.5 -57t-52.5 -49q42 -20 69.5 -55 t27.5 -83q0 -47 -20.5 -79.5t-51.5 -53t-68 -30t-71 -9.5q-47 0 -83 11t-60 24.5t-37 25l-13 11.5q-9 10 -9 23zM210 128q0 12 7 20l759 1018q5 7 12 10t15 3q14 0 23 -10t9 -23q0 -11 -6 -20l-759 -1018q-10 -13 -27 -13q-14 0 -23.5 10t-9.5 23zM529 261q0 20 18 30 q1 0 33.5 18.5t83 54.5t112.5 88.5t122 121.5q2 25 8.5 39.5t14 22.5t15 10.5t12.5 2.5q17 0 31 -10.5t14 -31.5q0 -17 -11.5 -32t-22.5 -28q-2 -36 -3.5 -100.5t-3.5 -139.5q51 0 81.5 -1.5t31.5 -1.5q14 -1 22.5 -10.5t8.5 -23.5q-1 -15 -11 -22t-24 -7q-1 0 -30 1.5 t-80 1.5q1 -30 0 -60.5t-1 -60.5q0 -14 -9.5 -23.5t-23.5 -9.5t-22.5 9.5t-8.5 23.5q0 21 0.5 52.5t0.5 69.5q-105 -1 -165 -3.5t-92.5 -5.5t-45.5 -5t-23 -2q-12 0 -22 9t-10 23zM684 302q53 3 107 4t97 2q1 41 1.5 87.5t2.5 83.5q-27 -27 -55 -52t-55 -48t-52 -42.5 t-46 -34.5z" />
<glyph unicode="&#xbf;" horiz-adv-x="1388" d="M0 -124q0 81 33 158t96 131q53 45 118.5 82t134.5 69.5t137 63.5t126 65t102 73t64 88q10 23 35 23q16 0 26.5 -11.5t10.5 -25.5q0 -8 -3 -15q-27 -61 -76 -106.5t-110.5 -81.5t-131.5 -66t-138.5 -61t-131.5 -66t-111 -80t-76.5 -103.5t-28.5 -137.5q0 -83 33 -147 t88.5 -111.5t128.5 -80.5t153 -53t162.5 -29t156.5 -9q133 0 242.5 24.5t188 71t121.5 113.5t43 152q0 63 -23.5 112t-64 83t-94 51.5t-114.5 17.5q-48 0 -93.5 -12t-80.5 -35q-9 -6 -20 -6q-15 0 -26.5 10.5t-11.5 27.5q0 22 26 39t62.5 28.5t76.5 17.5t69 6 q86 0 154.5 -26.5t116 -72.5t73 -108.5t25.5 -134.5q0 -101 -48.5 -181.5t-136.5 -136.5t-211.5 -86.5t-272.5 -30.5q-218 0 -370 43t-247.5 114.5t-138.5 162.5t-43 187zM808 836q0 23 15.5 38.5t38.5 15.5t38.5 -15.5t15.5 -38.5t-15.5 -38.5t-38.5 -15.5t-38.5 15.5 t-15.5 38.5z" />
<glyph unicode="&#xc0;" horiz-adv-x="2165" d="M-100 115q0 16 11 27t26 11q17 0 28 -12q2 -2 24 -20.5t65.5 -39.5t110.5 -38t159 -17q126 0 241 34t217.5 88.5t191 124.5t160.5 142q-71 -6 -141 -9t-138 -3q-134 0 -255 15t-213 50.5t-146.5 94.5t-54.5 147q0 40 16.5 80t39.5 72.5t48 53t43 20.5q14 0 26 -10t12 -27 q0 -9 -4 -17.5t-12 -13.5q-2 -2 -17 -14t-32 -32.5t-31 -49t-14 -61.5q0 -57 39.5 -100.5t115 -73t185.5 -44.5t251 -15q81 0 171 5t190 15q48 53 85 100t63 84q43 61 90 130t93.5 140t91 140.5t83.5 131t70 112t51 83.5q6 27 18 49.5t39 22.5q15 0 29 -12.5t14 -31.5 q0 -14 -10 -30t-19 -27q-3 -19 -9.5 -81t-13 -151.5t-11 -197t-4.5 -217.5v-81t2 -81q150 19 219 26.5t73 7.5q13 0 25.5 -10.5t12.5 -27.5q0 -14 -9.5 -24.5t-24.5 -12.5q-18 -2 -42 -5t-59 -7t-82 -9.5t-110 -13.5q3 -82 9.5 -157.5t16 -140.5t22.5 -117t30 -85 q4 -7 4 -17q0 -15 -10.5 -26t-27.5 -11q-11 0 -19.5 5t-13.5 15q-19 37 -33.5 92.5t-25 123.5t-17 146.5t-10.5 162.5q-75 -10 -168.5 -22t-213.5 -28q-84 -12 -171 -21q-214 -233 -450.5 -353.5t-474.5 -120.5q-106 0 -183.5 20.5t-128 46t-76 47.5t-27.5 24q-10 10 -10 26 zM1323 510q22 2 43.5 5t44.5 6q118 16 214.5 28.5t174.5 22.5q-1 43 -1.5 86t-0.5 87q0 141 5 269.5t14 223.5q-40 -63 -88.5 -139.5t-100.5 -156t-105 -157.5t-101 -146q-24 -34 -49 -66t-50 -63zM1754 1753q0 14 10 24t23 10q12 0 23 -9l160 -152q10 -10 10 -24 q0 -13 -9.5 -23t-23.5 -10q-13 0 -23 9l-160 152q-10 9 -10 23z" />
<glyph unicode="&#xc1;" horiz-adv-x="2165" d="M-100 115q0 16 11 27t26 11q17 0 28 -12q2 -2 24 -20.5t65.5 -39.5t110.5 -38t159 -17q126 0 241 34t217.5 88.5t191 124.5t160.5 142q-71 -6 -141 -9t-138 -3q-134 0 -255 15t-213 50.5t-146.5 94.5t-54.5 147q0 40 16.5 80t39.5 72.5t48 53t43 20.5q14 0 26 -10t12 -27 q0 -9 -4 -17.5t-12 -13.5q-2 -2 -17 -14t-32 -32.5t-31 -49t-14 -61.5q0 -57 39.5 -100.5t115 -73t185.5 -44.5t251 -15q81 0 171 5t190 15q48 53 85 100t63 84q43 61 90 130t93.5 140t91 140.5t83.5 131t70 112t51 83.5q6 27 18 49.5t39 22.5q15 0 29 -12.5t14 -31.5 q0 -14 -10 -30t-19 -27q-3 -19 -9.5 -81t-13 -151.5t-11 -197t-4.5 -217.5v-81t2 -81q150 19 219 26.5t73 7.5q13 0 25.5 -10.5t12.5 -27.5q0 -14 -9.5 -24.5t-24.5 -12.5q-18 -2 -42 -5t-59 -7t-82 -9.5t-110 -13.5q3 -82 9.5 -157.5t16 -140.5t22.5 -117t30 -85 q4 -7 4 -17q0 -15 -10.5 -26t-27.5 -11q-11 0 -19.5 5t-13.5 15q-19 37 -33.5 92.5t-25 123.5t-17 146.5t-10.5 162.5q-75 -10 -168.5 -22t-213.5 -28q-84 -12 -171 -21q-214 -233 -450.5 -353.5t-474.5 -120.5q-106 0 -183.5 20.5t-128 46t-76 47.5t-27.5 24q-10 10 -10 26 zM1323 510q22 2 43.5 5t44.5 6q118 16 214.5 28.5t174.5 22.5q-1 43 -1.5 86t-0.5 87q0 141 5 269.5t14 223.5q-40 -63 -88.5 -139.5t-100.5 -156t-105 -157.5t-101 -146q-24 -34 -49 -66t-50 -63zM1834 1602q0 14 10 24l160 152q10 9 23 9t23 -10t10 -24t-10 -23l-160 -152 q-11 -9 -23 -9q-14 0 -23.5 10t-9.5 23z" />
<glyph unicode="&#xc2;" horiz-adv-x="2165" d="M-100 115q0 16 11 27t26 11q17 0 28 -12q2 -2 24 -20.5t65.5 -39.5t110.5 -38t159 -17q126 0 241 34t217.5 88.5t191 124.5t160.5 142q-71 -6 -141 -9t-138 -3q-134 0 -255 15t-213 50.5t-146.5 94.5t-54.5 147q0 40 16.5 80t39.5 72.5t48 53t43 20.5q14 0 26 -10t12 -27 q0 -9 -4 -17.5t-12 -13.5q-2 -2 -17 -14t-32 -32.5t-31 -49t-14 -61.5q0 -57 39.5 -100.5t115 -73t185.5 -44.5t251 -15q81 0 171 5t190 15q48 53 85 100t63 84q43 61 90 130t93.5 140t91 140.5t83.5 131t70 112t51 83.5q6 27 18 49.5t39 22.5q15 0 29 -12.5t14 -31.5 q0 -14 -10 -30t-19 -27q-3 -19 -9.5 -81t-13 -151.5t-11 -197t-4.5 -217.5v-81t2 -81q150 19 219 26.5t73 7.5q13 0 25.5 -10.5t12.5 -27.5q0 -14 -9.5 -24.5t-24.5 -12.5q-18 -2 -42 -5t-59 -7t-82 -9.5t-110 -13.5q3 -82 9.5 -157.5t16 -140.5t22.5 -117t30 -85 q4 -7 4 -17q0 -15 -10.5 -26t-27.5 -11q-11 0 -19.5 5t-13.5 15q-19 37 -33.5 92.5t-25 123.5t-17 146.5t-10.5 162.5q-75 -10 -168.5 -22t-213.5 -28q-84 -12 -171 -21q-214 -233 -450.5 -353.5t-474.5 -120.5q-106 0 -183.5 20.5t-128 46t-76 47.5t-27.5 24q-10 10 -10 26 zM1323 510q22 2 43.5 5t44.5 6q118 16 214.5 28.5t174.5 22.5q-1 43 -1.5 86t-0.5 87q0 141 5 269.5t14 223.5q-40 -63 -88.5 -139.5t-100.5 -156t-105 -157.5t-101 -146q-24 -34 -49 -66t-50 -63zM1760 1602q0 12 7 20l112 152q10 13 27 13t26 -14l108 -152q6 -9 6 -19 q0 -13 -9.5 -23t-23.5 -10q-17 0 -27 13l-82 116l-84 -116q-10 -13 -26 -13q-14 0 -24 10t-10 23z" />
<glyph unicode="&#xc3;" horiz-adv-x="2165" d="M-100 115q0 16 11 27t26 11q17 0 28 -12q2 -2 24 -20.5t65.5 -39.5t110.5 -38t159 -17q126 0 241 34t217.5 88.5t191 124.5t160.5 142q-71 -6 -141 -9t-138 -3q-134 0 -255 15t-213 50.5t-146.5 94.5t-54.5 147q0 40 16.5 80t39.5 72.5t48 53t43 20.5q14 0 26 -10t12 -27 q0 -9 -4 -17.5t-12 -13.5q-2 -2 -17 -14t-32 -32.5t-31 -49t-14 -61.5q0 -57 39.5 -100.5t115 -73t185.5 -44.5t251 -15q81 0 171 5t190 15q48 53 85 100t63 84q43 61 90 130t93.5 140t91 140.5t83.5 131t70 112t51 83.5q6 27 18 49.5t39 22.5q15 0 29 -12.5t14 -31.5 q0 -14 -10 -30t-19 -27q-3 -19 -9.5 -81t-13 -151.5t-11 -197t-4.5 -217.5v-81t2 -81q150 19 219 26.5t73 7.5q13 0 25.5 -10.5t12.5 -27.5q0 -14 -9.5 -24.5t-24.5 -12.5q-18 -2 -42 -5t-59 -7t-82 -9.5t-110 -13.5q3 -82 9.5 -157.5t16 -140.5t22.5 -117t30 -85 q4 -7 4 -17q0 -15 -10.5 -26t-27.5 -11q-11 0 -19.5 5t-13.5 15q-19 37 -33.5 92.5t-25 123.5t-17 146.5t-10.5 162.5q-75 -10 -168.5 -22t-213.5 -28q-84 -12 -171 -21q-214 -233 -450.5 -353.5t-474.5 -120.5q-106 0 -183.5 20.5t-128 46t-76 47.5t-27.5 24q-10 10 -10 26 zM1323 510q22 2 43.5 5t44.5 6q118 16 214.5 28.5t174.5 22.5q-1 43 -1.5 86t-0.5 87q0 141 5 269.5t14 223.5q-40 -63 -88.5 -139.5t-100.5 -156t-105 -157.5t-101 -146q-24 -34 -49 -66t-50 -63zM1737 1657q0 16 6.5 32.5t18.5 29t30 20.5t42 8q21 0 36 -6.5t27 -16 t20.5 -21.5t15.5 -22q10 -14 18.5 -24t20.5 -10q16 0 20 8.5t4 13.5q0 12 -4 22.5t-8 19.5q-7 12 -7 20q0 12 10 22t26 10q19 0 37 -23t18 -69q0 -18 -7.5 -34t-20.5 -28t-31.5 -19t-40.5 -7q-20 0 -35 6t-26.5 16t-19.5 21t-15 22q-9 14 -17.5 24t-20.5 10q-9 0 -14.5 -3.5 t-7.5 -7.5t-2.5 -8.5t-0.5 -5.5q0 -10 2.5 -17.5t6.5 -15.5q2 -4 3 -8t1 -9q0 -13 -10 -22.5t-26 -9.5q-8 0 -17 3.5t-16 12.5t-11.5 25t-4.5 41z" />
<glyph unicode="&#xc4;" horiz-adv-x="2165" d="M-100 115q0 16 11 27t26 11q17 0 28 -12q2 -2 24 -20.5t65.5 -39.5t110.5 -38t159 -17q126 0 241 34t217.5 88.5t191 124.5t160.5 142q-71 -6 -141 -9t-138 -3q-134 0 -255 15t-213 50.5t-146.5 94.5t-54.5 147q0 40 16.5 80t39.5 72.5t48 53t43 20.5q14 0 26 -10t12 -27 q0 -9 -4 -17.5t-12 -13.5q-2 -2 -17 -14t-32 -32.5t-31 -49t-14 -61.5q0 -57 39.5 -100.5t115 -73t185.5 -44.5t251 -15q81 0 171 5t190 15q48 53 85 100t63 84q43 61 90 130t93.5 140t91 140.5t83.5 131t70 112t51 83.5q6 27 18 49.5t39 22.5q15 0 29 -12.5t14 -31.5 q0 -14 -10 -30t-19 -27q-3 -19 -9.5 -81t-13 -151.5t-11 -197t-4.5 -217.5v-81t2 -81q150 19 219 26.5t73 7.5q13 0 25.5 -10.5t12.5 -27.5q0 -14 -9.5 -24.5t-24.5 -12.5q-18 -2 -42 -5t-59 -7t-82 -9.5t-110 -13.5q3 -82 9.5 -157.5t16 -140.5t22.5 -117t30 -85 q4 -7 4 -17q0 -15 -10.5 -26t-27.5 -11q-11 0 -19.5 5t-13.5 15q-19 37 -33.5 92.5t-25 123.5t-17 146.5t-10.5 162.5q-75 -10 -168.5 -22t-213.5 -28q-84 -12 -171 -21q-214 -233 -450.5 -353.5t-474.5 -120.5q-106 0 -183.5 20.5t-128 46t-76 47.5t-27.5 24q-10 10 -10 26 zM1323 510q22 2 43.5 5t44.5 6q118 16 214.5 28.5t174.5 22.5q-1 43 -1.5 86t-0.5 87q0 141 5 269.5t14 223.5q-40 -63 -88.5 -139.5t-100.5 -156t-105 -157.5t-101 -146q-24 -34 -49 -66t-50 -63zM1761 1659q0 22 15 37t36 15q22 0 37 -15t15 -37q0 -21 -15 -36t-37 -15 q-21 0 -36 15t-15 36zM1946 1659q0 22 15 37t36 15q23 0 38 -15t15 -37q0 -21 -15 -36t-38 -15q-21 0 -36 15t-15 36z" />
<glyph unicode="&#xc5;" horiz-adv-x="2165" d="M-100 115q0 16 11 27t26 11q17 0 28 -12q2 -2 24 -20.5t65.5 -39.5t110.5 -38t159 -17q126 0 241 34t217.5 88.5t191 124.5t160.5 142q-71 -6 -141 -9t-138 -3q-134 0 -255 15t-213 50.5t-146.5 94.5t-54.5 147q0 40 16.5 80t39.5 72.5t48 53t43 20.5q14 0 26 -10t12 -27 q0 -9 -4 -17.5t-12 -13.5q-2 -2 -17 -14t-32 -32.5t-31 -49t-14 -61.5q0 -57 39.5 -100.5t115 -73t185.5 -44.5t251 -15q81 0 171 5t190 15q48 53 85 100t63 84q43 61 90 130t93.5 140t91 140.5t83.5 131t70 112t51 83.5q6 27 18 49.5t39 22.5q15 0 29 -12.5t14 -31.5 q0 -14 -10 -30t-19 -27q-3 -19 -9.5 -81t-13 -151.5t-11 -197t-4.5 -217.5v-81t2 -81q150 19 219 26.5t73 7.5q13 0 25.5 -10.5t12.5 -27.5q0 -14 -9.5 -24.5t-24.5 -12.5q-18 -2 -42 -5t-59 -7t-82 -9.5t-110 -13.5q3 -82 9.5 -157.5t16 -140.5t22.5 -117t30 -85 q4 -7 4 -17q0 -15 -10.5 -26t-27.5 -11q-11 0 -19.5 5t-13.5 15q-19 37 -33.5 92.5t-25 123.5t-17 146.5t-10.5 162.5q-75 -10 -168.5 -22t-213.5 -28q-84 -12 -171 -21q-214 -233 -450.5 -353.5t-474.5 -120.5q-106 0 -183.5 20.5t-128 46t-76 47.5t-27.5 24q-10 10 -10 26 zM1323 510q22 2 43.5 5t44.5 6q118 16 214.5 28.5t174.5 22.5q-1 43 -1.5 86t-0.5 87q0 141 5 269.5t14 223.5q-40 -63 -88.5 -139.5t-100.5 -156t-105 -157.5t-101 -146q-24 -34 -49 -66t-50 -63zM1761 1702q0 29 11.5 55t31 45.5t45.5 31t55 11.5q30 0 56.5 -11.5t46 -31 t31 -45.5t11.5 -55t-11.5 -55t-31 -45.5t-46 -31t-56.5 -11.5q-29 0 -55 11.5t-45.5 31t-31 45.5t-11.5 55zM1827 1702q0 -32 22.5 -54.5t54.5 -22.5q33 0 56 22.5t23 54.5q0 33 -23 55t-56 22q-32 0 -54.5 -22t-22.5 -55z" />
<glyph unicode="&#xc6;" horiz-adv-x="3448" d="M-100 115q0 16 11 27t26 11q17 0 28 -12q2 -2 24 -20.5t65.5 -39.5t110.5 -38t159 -17q126 0 241 34t217.5 88.5t191 124.5t160.5 142q-71 -6 -141 -9t-138 -3q-134 0 -255 15t-213 50.5t-146.5 94.5t-54.5 147q0 40 16.5 80t39.5 72.5t48 53t43 20.5q14 0 26 -10t12 -27 q0 -9 -4 -17.5t-12 -13.5q-2 -2 -17 -14t-32 -32.5t-31 -49t-14 -61.5q0 -57 39.5 -100.5t115 -73t185.5 -44.5t251 -15q81 0 171 5t190 15q48 53 85 100t63 84q43 61 90 130t93.5 140t91 140.5t83.5 131t70 112t51 83.5q6 27 18 49.5t39 22.5q15 0 29 -12.5t14 -31.5 q0 -14 -10 -30t-19 -27q-3 -19 -9.5 -81t-13 -151.5t-11 -197t-4.5 -217.5v-100q81 125 260 191q-57 53 -85 117t-28 133q0 86 39.5 159t109.5 126t166.5 82.5t211.5 29.5q116 0 202.5 -22t148 -55t101 -72t62.5 -73t32 -57.5t10 -26.5q1 -4 1 -11q0 -14 -10.5 -25.5 t-27.5 -11.5q-12 0 -21.5 7.5t-13.5 20.5q0 2 -8 21.5t-28 47.5t-54.5 59.5t-88.5 59t-129 45.5t-176 18q-116 0 -201.5 -29t-141 -75.5t-82.5 -103.5t-27 -112q0 -65 32 -124t92 -101q54 14 106 22t98 12.5t83.5 6t61.5 1.5q44 0 81 -6.5t63.5 -19t41.5 -32t15 -44.5 t-15 -45t-41.5 -34t-63.5 -21.5t-81 -7.5q-48 0 -97 6t-95.5 17t-89.5 27.5t-78 37.5q-159 -48 -241 -138.5t-82 -223.5q0 -72 25.5 -129.5t70.5 -101.5t105.5 -75.5t129.5 -51.5t144 -29.5t149 -9.5q48 0 93 3.5t87 10.5q126 20 221.5 58.5t165 84t115.5 93t73.5 87 t39 64.5t11.5 26q4 12 13.5 18.5t21.5 6.5q16 0 27 -11t11 -26q0 -4 -2 -12q-1 -4 -14 -34t-43.5 -74t-80.5 -97t-126 -103.5t-180 -92t-241 -63.5q-92 -15 -193 -15q-85 0 -170 12t-163 37t-145.5 63.5t-116.5 91.5q8 -46 18.5 -82.5t24.5 -62.5q4 -7 4 -17 q0 -15 -10.5 -26t-27.5 -11q-11 0 -19.5 5t-13.5 15q-19 37 -33.5 92.5t-25 123.5t-17 146.5t-10.5 161.5q-75 -9 -168.5 -21t-213.5 -28q-84 -12 -171 -21q-214 -233 -450.5 -353.5t-474.5 -120.5q-106 0 -183.5 20.5t-128 46t-76 47.5t-27.5 24q-10 10 -10 26zM1323 510 q22 2 43.5 5t44.5 6q118 16 214.5 28.5t174.5 22.5q-1 44 -1.5 86.5t-0.5 86.5q0 141 5 269.5t14 223.5q-40 -63 -88.5 -139.5t-100.5 -156t-105 -157.5t-101 -146q-24 -34 -49 -66t-50 -63zM2314 810q52 -19 119.5 -30.5t136.5 -11.5q63 0 93 10t30 22q0 8 -13 14 t-33.5 9.5t-46.5 5t-53 1.5q-59 0 -112 -3.5t-121 -16.5z" />
<glyph unicode="&#xc7;" horiz-adv-x="1739" d="M60 647q0 117 34.5 222t96.5 194.5t147 161.5t186 122.5t213 77.5t229 27q129 0 242.5 -30.5t198.5 -86t134.5 -133t49.5 -172.5q0 -88 -41 -167.5t-112.5 -139.5t-167 -95t-203.5 -35q-87 0 -154 21.5t-112 59.5t-68 89t-23 110q0 49 15.5 89.5t34 69.5t35 45.5 l18.5 18.5q5 5 11.5 6.5t12.5 1.5q16 0 27 -10t11 -26q0 -18 -13 -30q-2 -1 -14 -13.5t-26 -34t-25.5 -51.5t-11.5 -66q0 -57 25.5 -96t66.5 -63.5t91 -35t100 -10.5q93 0 174.5 30t142.5 80t96 115t35 136q0 78 -44 142.5t-119 110t-175.5 70.5t-214.5 25 q-86 0 -180.5 -20.5t-186.5 -61.5t-175.5 -102t-146.5 -142.5t-100.5 -182.5t-37.5 -221q0 -109 30.5 -197t84.5 -156.5t126.5 -118.5t156 -82.5t174.5 -48t181 -15.5q120 0 231 33.5t205.5 88t167.5 122.5t116 137q5 9 14 13.5t19 4.5q17 0 27 -11.5t10 -25.5q0 -5 -1 -10 t-4 -10q-47 -76 -126 -150t-181 -133t-221.5 -96t-247.5 -38v-1q0 -6 -3 -15t-5 -13l-14 -39q23 0 46 -7.5t41 -23.5t29.5 -39.5t11.5 -55.5q0 -24 -9 -46.5t-27 -40.5t-44.5 -29t-60.5 -11q-20 0 -43 4.5t-42 13.5t-31.5 21.5t-12.5 28.5q0 15 10.5 23.5t23.5 8.5 q8 0 16 -5.5t18.5 -12t25 -12t34.5 -5.5q30 0 52 15.5t22 47.5q0 18 -6.5 30t-16 19.5t-21.5 10.5t-22 3q-17 0 -28 -3t-18 -3q-13 0 -21.5 7.5t-8.5 21.5q0 8 2 14.5t4 12.5l31 82q-96 5 -190.5 26.5t-180.5 60t-159 95.5t-126.5 132t-84 169t-30.5 208z" />
<glyph unicode="&#xc8;" horiz-adv-x="1698" d="M60 416q0 147 81.5 253t241.5 165q-57 53 -85 117t-28 133q0 86 39.5 159t109.5 126t166.5 82.5t211.5 29.5q116 0 202.5 -22t148 -55t101 -72t62.5 -73t32 -57.5t10 -26.5q1 -4 1 -11q0 -14 -10.5 -25.5t-27.5 -11.5q-12 0 -21.5 7.5t-13.5 20.5q0 2 -8 21.5t-28 47.5 t-54.5 59.5t-88.5 59t-129 45.5t-176 18q-116 0 -201.5 -29t-141 -75.5t-82.5 -103.5t-27 -112q0 -65 32 -124t92 -101q54 14 106 22t98 12.5t83.5 6t61.5 1.5q44 0 81 -6.5t63.5 -19t41.5 -32t15 -44.5t-15 -45t-41.5 -34t-63.5 -21.5t-81 -7.5q-48 0 -97 6t-95.5 17 t-89.5 27.5t-78 37.5q-159 -48 -241 -138.5t-82 -223.5q0 -72 25.5 -129.5t70.5 -101.5t105.5 -75.5t129.5 -51.5t144 -29.5t149 -9.5q48 0 93 3.5t87 10.5q126 20 221.5 58.5t165 84t115.5 93t73.5 87t39 64.5t11.5 26q4 12 13.5 18.5t21.5 6.5q16 0 27 -11t11 -26 q0 -4 -2 -12q-1 -4 -14 -34t-43.5 -74t-80.5 -97t-126 -103.5t-180 -92t-241 -63.5q-92 -15 -193 -15q-84 0 -168.5 11.5t-162 36t-144.5 62.5t-116.5 90t-78 119.5t-28.5 150.5zM564 810q52 -19 119.5 -30.5t136.5 -11.5q63 0 93 10t30 22q0 8 -13 14t-33.5 9.5t-46.5 5 t-53 1.5q-59 0 -112 -3.5t-121 -16.5zM656 1745q0 14 10 24t23 10q12 0 23 -9l160 -152q10 -10 10 -24q0 -13 -9.5 -23t-23.5 -10q-13 0 -23 9l-160 152q-10 9 -10 23z" />
<glyph unicode="&#xc9;" horiz-adv-x="1698" d="M60 416q0 147 81.5 253t241.5 165q-57 53 -85 117t-28 133q0 86 39.5 159t109.5 126t166.5 82.5t211.5 29.5q116 0 202.5 -22t148 -55t101 -72t62.5 -73t32 -57.5t10 -26.5q1 -4 1 -11q0 -14 -10.5 -25.5t-27.5 -11.5q-12 0 -21.5 7.5t-13.5 20.5q0 2 -8 21.5t-28 47.5 t-54.5 59.5t-88.5 59t-129 45.5t-176 18q-116 0 -201.5 -29t-141 -75.5t-82.5 -103.5t-27 -112q0 -65 32 -124t92 -101q54 14 106 22t98 12.5t83.5 6t61.5 1.5q44 0 81 -6.5t63.5 -19t41.5 -32t15 -44.5t-15 -45t-41.5 -34t-63.5 -21.5t-81 -7.5q-48 0 -97 6t-95.5 17 t-89.5 27.5t-78 37.5q-159 -48 -241 -138.5t-82 -223.5q0 -72 25.5 -129.5t70.5 -101.5t105.5 -75.5t129.5 -51.5t144 -29.5t149 -9.5q48 0 93 3.5t87 10.5q126 20 221.5 58.5t165 84t115.5 93t73.5 87t39 64.5t11.5 26q4 12 13.5 18.5t21.5 6.5q16 0 27 -11t11 -26 q0 -4 -2 -12q-1 -4 -14 -34t-43.5 -74t-80.5 -97t-126 -103.5t-180 -92t-241 -63.5q-92 -15 -193 -15q-84 0 -168.5 11.5t-162 36t-144.5 62.5t-116.5 90t-78 119.5t-28.5 150.5zM564 810q52 -19 119.5 -30.5t136.5 -11.5q63 0 93 10t30 22q0 8 -13 14t-33.5 9.5t-46.5 5 t-53 1.5q-59 0 -112 -3.5t-121 -16.5zM736 1594q0 14 10 24l160 152q10 9 23 9t23 -10t10 -24t-10 -23l-160 -152q-11 -9 -23 -9q-14 0 -23.5 10t-9.5 23z" />
<glyph unicode="&#xca;" horiz-adv-x="1698" d="M60 416q0 147 81.5 253t241.5 165q-57 53 -85 117t-28 133q0 86 39.5 159t109.5 126t166.5 82.5t211.5 29.5q116 0 202.5 -22t148 -55t101 -72t62.5 -73t32 -57.5t10 -26.5q1 -4 1 -11q0 -14 -10.5 -25.5t-27.5 -11.5q-12 0 -21.5 7.5t-13.5 20.5q0 2 -8 21.5t-28 47.5 t-54.5 59.5t-88.5 59t-129 45.5t-176 18q-116 0 -201.5 -29t-141 -75.5t-82.5 -103.5t-27 -112q0 -65 32 -124t92 -101q54 14 106 22t98 12.5t83.5 6t61.5 1.5q44 0 81 -6.5t63.5 -19t41.5 -32t15 -44.5t-15 -45t-41.5 -34t-63.5 -21.5t-81 -7.5q-48 0 -97 6t-95.5 17 t-89.5 27.5t-78 37.5q-159 -48 -241 -138.5t-82 -223.5q0 -72 25.5 -129.5t70.5 -101.5t105.5 -75.5t129.5 -51.5t144 -29.5t149 -9.5q48 0 93 3.5t87 10.5q126 20 221.5 58.5t165 84t115.5 93t73.5 87t39 64.5t11.5 26q4 12 13.5 18.5t21.5 6.5q16 0 27 -11t11 -26 q0 -4 -2 -12q-1 -4 -14 -34t-43.5 -74t-80.5 -97t-126 -103.5t-180 -92t-241 -63.5q-92 -15 -193 -15q-84 0 -168.5 11.5t-162 36t-144.5 62.5t-116.5 90t-78 119.5t-28.5 150.5zM564 810q52 -19 119.5 -30.5t136.5 -11.5q63 0 93 10t30 22q0 8 -13 14t-33.5 9.5t-46.5 5 t-53 1.5q-59 0 -112 -3.5t-121 -16.5zM662 1594q0 12 7 20l112 152q10 13 27 13t26 -14l108 -152q6 -9 6 -19q0 -13 -9.5 -23t-23.5 -10q-17 0 -27 13l-82 116l-84 -116q-10 -13 -26 -13q-14 0 -24 10t-10 23z" />
<glyph unicode="&#xcb;" horiz-adv-x="1698" d="M60 416q0 147 81.5 253t241.5 165q-57 53 -85 117t-28 133q0 86 39.5 159t109.5 126t166.5 82.5t211.5 29.5q116 0 202.5 -22t148 -55t101 -72t62.5 -73t32 -57.5t10 -26.5q1 -4 1 -11q0 -14 -10.5 -25.5t-27.5 -11.5q-12 0 -21.5 7.5t-13.5 20.5q0 2 -8 21.5t-28 47.5 t-54.5 59.5t-88.5 59t-129 45.5t-176 18q-116 0 -201.5 -29t-141 -75.5t-82.5 -103.5t-27 -112q0 -65 32 -124t92 -101q54 14 106 22t98 12.5t83.5 6t61.5 1.5q44 0 81 -6.5t63.5 -19t41.5 -32t15 -44.5t-15 -45t-41.5 -34t-63.5 -21.5t-81 -7.5q-48 0 -97 6t-95.5 17 t-89.5 27.5t-78 37.5q-159 -48 -241 -138.5t-82 -223.5q0 -72 25.5 -129.5t70.5 -101.5t105.5 -75.5t129.5 -51.5t144 -29.5t149 -9.5q48 0 93 3.5t87 10.5q126 20 221.5 58.5t165 84t115.5 93t73.5 87t39 64.5t11.5 26q4 12 13.5 18.5t21.5 6.5q16 0 27 -11t11 -26 q0 -4 -2 -12q-1 -4 -14 -34t-43.5 -74t-80.5 -97t-126 -103.5t-180 -92t-241 -63.5q-92 -15 -193 -15q-84 0 -168.5 11.5t-162 36t-144.5 62.5t-116.5 90t-78 119.5t-28.5 150.5zM564 810q52 -19 119.5 -30.5t136.5 -11.5q63 0 93 10t30 22q0 8 -13 14t-33.5 9.5t-46.5 5 t-53 1.5q-59 0 -112 -3.5t-121 -16.5zM663 1651q0 22 15 37t36 15q22 0 37 -15t15 -37q0 -21 -15 -36t-37 -15q-21 0 -36 15t-15 36zM848 1651q0 22 15 37t36 15q23 0 38 -15t15 -37q0 -21 -15 -36t-38 -15q-21 0 -36 15t-15 36z" />
<glyph unicode="&#xcc;" horiz-adv-x="1300" d="M5 296q0 78 33 144.5t89 116t130.5 77.5t158.5 28q13 0 26.5 -0.5t24.5 -4t18.5 -12t7.5 -23.5q0 -16 -11.5 -26.5t-26.5 -10.5q-10 0 -19.5 0.5t-19.5 0.5q-68 0 -129 -22t-107 -61t-73 -92t-27 -115q0 -55 20 -98t54 -75.5t78.5 -55.5t93.5 -37t99.5 -20.5t96.5 -6.5 q127 0 219 36t155.5 101t102.5 155.5t61 200t29.5 234t8.5 257.5q1 64 5 125.5t11 111.5q-40 -21 -88 -41t-96.5 -41.5t-94.5 -46t-81.5 -54t-57 -66t-21.5 -81.5q0 -41 14 -71.5t35 -51.5t46 -34.5t46.5 -21t37 -11t17.5 -3.5q17 -5 23 -13.5t6 -20.5q0 -17 -10 -27.5 t-25 -10.5q-2 0 -8.5 0.5t-8.5 1.5q-33 7 -76 24.5t-81.5 49t-65 79.5t-26.5 117q0 61 30 108t78.5 84t108 66t118.5 54.5t111 49.5t85 52q28 121 65 178t75 57q24 0 42 -21t18 -52q0 -42 -33.5 -93.5t-96.5 -107.5q-11 -56 -19 -127.5t-8 -162.5q0 -140 -9 -273t-34 -250 t-70.5 -215t-119 -168.5t-178.5 -110t-249 -39.5q-120 0 -214 28t-159.5 77.5t-100 116t-34.5 144.5zM1119 1814q0 14 10 24t23 10q12 0 23 -9l160 -152q10 -10 10 -24q0 -13 -9.5 -23t-23.5 -10q-13 0 -23 9l-160 152q-10 9 -10 23z" />
<glyph unicode="&#xcd;" horiz-adv-x="1300" d="M5 296q0 78 33 144.5t89 116t130.5 77.5t158.5 28q13 0 26.5 -0.5t24.5 -4t18.5 -12t7.5 -23.5q0 -16 -11.5 -26.5t-26.5 -10.5q-10 0 -19.5 0.5t-19.5 0.5q-68 0 -129 -22t-107 -61t-73 -92t-27 -115q0 -55 20 -98t54 -75.5t78.5 -55.5t93.5 -37t99.5 -20.5t96.5 -6.5 q127 0 219 36t155.5 101t102.5 155.5t61 200t29.5 234t8.5 257.5q1 64 5 125.5t11 111.5q-40 -21 -88 -41t-96.5 -41.5t-94.5 -46t-81.5 -54t-57 -66t-21.5 -81.5q0 -41 14 -71.5t35 -51.5t46 -34.5t46.5 -21t37 -11t17.5 -3.5q17 -5 23 -13.5t6 -20.5q0 -17 -10 -27.5 t-25 -10.5q-2 0 -8.5 0.5t-8.5 1.5q-33 7 -76 24.5t-81.5 49t-65 79.5t-26.5 117q0 61 30 108t78.5 84t108 66t118.5 54.5t111 49.5t85 52q28 121 65 178t75 57q24 0 42 -21t18 -52q0 -42 -33.5 -93.5t-96.5 -107.5q-11 -56 -19 -127.5t-8 -162.5q0 -140 -9 -273t-34 -250 t-70.5 -215t-119 -168.5t-178.5 -110t-249 -39.5q-120 0 -214 28t-159.5 77.5t-100 116t-34.5 144.5zM1199 1663q0 14 10 24l160 152q10 9 23 9t23 -10t10 -24t-10 -23l-160 -152q-11 -9 -23 -9q-14 0 -23.5 10t-9.5 23z" />
<glyph unicode="&#xce;" horiz-adv-x="1300" d="M5 296q0 78 33 144.5t89 116t130.5 77.5t158.5 28q13 0 26.5 -0.5t24.5 -4t18.5 -12t7.5 -23.5q0 -16 -11.5 -26.5t-26.5 -10.5q-10 0 -19.5 0.5t-19.5 0.5q-68 0 -129 -22t-107 -61t-73 -92t-27 -115q0 -55 20 -98t54 -75.5t78.5 -55.5t93.5 -37t99.5 -20.5t96.5 -6.5 q127 0 219 36t155.5 101t102.5 155.5t61 200t29.5 234t8.5 257.5q1 64 5 125.5t11 111.5q-40 -21 -88 -41t-96.5 -41.5t-94.5 -46t-81.5 -54t-57 -66t-21.5 -81.5q0 -41 14 -71.5t35 -51.5t46 -34.5t46.5 -21t37 -11t17.5 -3.5q17 -5 23 -13.5t6 -20.5q0 -17 -10 -27.5 t-25 -10.5q-2 0 -8.5 0.5t-8.5 1.5q-33 7 -76 24.5t-81.5 49t-65 79.5t-26.5 117q0 61 30 108t78.5 84t108 66t118.5 54.5t111 49.5t85 52q28 121 65 178t75 57q24 0 42 -21t18 -52q0 -42 -33.5 -93.5t-96.5 -107.5q-11 -56 -19 -127.5t-8 -162.5q0 -140 -9 -273t-34 -250 t-70.5 -215t-119 -168.5t-178.5 -110t-249 -39.5q-120 0 -214 28t-159.5 77.5t-100 116t-34.5 144.5zM1125 1663q0 12 7 20l112 152q10 13 27 13t26 -14l108 -152q6 -9 6 -19q0 -13 -9.5 -23t-23.5 -10q-17 0 -27 13l-82 116l-84 -116q-10 -13 -26 -13q-14 0 -24 10t-10 23z " />
<glyph unicode="&#xcf;" horiz-adv-x="1300" d="M5 296q0 78 33 144.5t89 116t130.5 77.5t158.5 28q13 0 26.5 -0.5t24.5 -4t18.5 -12t7.5 -23.5q0 -16 -11.5 -26.5t-26.5 -10.5q-10 0 -19.5 0.5t-19.5 0.5q-68 0 -129 -22t-107 -61t-73 -92t-27 -115q0 -55 20 -98t54 -75.5t78.5 -55.5t93.5 -37t99.5 -20.5t96.5 -6.5 q127 0 219 36t155.5 101t102.5 155.5t61 200t29.5 234t8.5 257.5q1 64 5 125.5t11 111.5q-40 -21 -88 -41t-96.5 -41.5t-94.5 -46t-81.5 -54t-57 -66t-21.5 -81.5q0 -41 14 -71.5t35 -51.5t46 -34.5t46.5 -21t37 -11t17.5 -3.5q17 -5 23 -13.5t6 -20.5q0 -17 -10 -27.5 t-25 -10.5q-2 0 -8.5 0.5t-8.5 1.5q-33 7 -76 24.5t-81.5 49t-65 79.5t-26.5 117q0 61 30 108t78.5 84t108 66t118.5 54.5t111 49.5t85 52q28 121 65 178t75 57q24 0 42 -21t18 -52q0 -42 -33.5 -93.5t-96.5 -107.5q-11 -56 -19 -127.5t-8 -162.5q0 -140 -9 -273t-34 -250 t-70.5 -215t-119 -168.5t-178.5 -110t-249 -39.5q-120 0 -214 28t-159.5 77.5t-100 116t-34.5 144.5zM1126 1720q0 22 15 37t36 15q22 0 37 -15t15 -37q0 -21 -15 -36t-37 -15q-21 0 -36 15t-15 36zM1311 1720q0 22 15 37t36 15q23 0 38 -15t15 -37q0 -21 -15 -36t-38 -15 q-21 0 -36 15t-15 36z" />
<glyph unicode="&#xd0;" horiz-adv-x="2094" d="M60 182q0 39 19.5 73t55 60t85 41t108.5 15q174 0 412 -128q44 55 72 124q25 63 41 127.5t27 130.5h-48t-41.5 -0.5t-42 -1t-49.5 -0.5q-14 0 -25.5 9.5t-11.5 24.5q0 16 9 27t26 11l196 2q13 79 28 154.5t40.5 142.5t66.5 123t107 95q10 5 18 5q14 0 26.5 -10t12.5 -28 q0 -21 -19 -32q-53 -31 -86.5 -77.5t-55.5 -104.5t-35 -125t-25 -140q0 -1 -0.5 -1.5t-0.5 -1.5l347 4q16 0 27.5 -9t12.5 -25q0 -16 -9.5 -27t-26.5 -11q-133 -2 -219.5 -2.5t-143.5 -0.5q-9 -54 -21 -110t-29.5 -110.5t-42.5 -105.5t-59 -95q2 -1 2.5 -1.5t2.5 -1.5 q127 -76 264 -115t268 -39q142 0 254.5 47t190.5 126.5t119 185.5t41 224q0 120 -40 223.5t-109.5 188.5t-165 151t-206 110.5t-232 68t-243.5 23.5q-164 0 -299.5 -27.5t-233 -80.5t-151.5 -130t-54 -175q0 -56 16.5 -99t42 -74.5t55.5 -53.5t56 -35.5t44.5 -19.5t21.5 -7 q13 -3 20.5 -13.5t7.5 -23.5q0 -17 -12 -26t-26 -9q-20 0 -50 9.5t-63.5 29t-67 49t-60.5 69.5t-43.5 91t-16.5 113q0 113 57.5 203.5t162.5 153.5t251.5 97t325.5 34q123 0 251 -22.5t249 -68.5t228 -115.5t187 -162.5t126.5 -210t46.5 -259t-50 -263t-140 -209t-215 -138 t-275 -50q-71 0 -147 10.5t-152 32.5t-149.5 54.5t-140.5 77.5q-79 -78 -182.5 -121.5t-218.5 -43.5q-62 0 -116 14t-93.5 40t-62 63t-22.5 82zM135 181q0 -22 13.5 -44t41 -39t68.5 -28t96 -11q94 0 179.5 33.5t152.5 93.5q-104 55 -193 83t-163 28q-42 0 -77.5 -9.5 t-61.5 -25.5t-41 -37t-15 -44z" />
<glyph unicode="&#xd1;" horiz-adv-x="2310" d="M30 382q0 81 36.5 151.5t98 122.5t141 82t165.5 30q71 0 127.5 -14t100 -35.5t75 -46.5t52 -47.5t31 -38.5t12.5 -19q4 -8 4 -18q0 -14 -10.5 -26t-27.5 -12q-22 0 -33 20q-1 3 -19.5 28.5t-57 55.5t-99.5 54.5t-148 24.5q-71 0 -138.5 -24t-119.5 -66t-83.5 -99.5 t-31.5 -124.5q0 -73 34 -133.5t92.5 -103.5t136 -66.5t165.5 -23.5q34 0 90 5t125.5 23t146.5 54.5t152 99.5t143.5 157t120.5 228q54 138 84.5 262.5t45.5 224.5t18.5 170.5t3.5 100.5v20q0 16 10.5 27.5t27.5 11.5q25 0 35 -25q3 -7 17.5 -47t38 -103.5t54 -146.5 t64.5 -176.5t70 -193.5t70.5 -197t65.5 -187t56 -164q11 80 24 169.5t27.5 181t29 179.5t29 165t26.5 138t22 98q22 88 63 164.5t99.5 133.5t134 89.5t167.5 32.5q35 0 50.5 -8t15.5 -31v-5q-2 -15 -13 -24t-25 -9q-2 0 -7 0.5t-23 0.5q-19 0 -48.5 -4t-65 -16.5t-74 -36.5 t-75.5 -64.5t-70 -100t-56 -143.5q-12 -42 -27.5 -120.5t-33 -176.5t-35 -209t-33 -218t-28.5 -203.5t-20 -165.5q-2 -13 -11.5 -23.5t-23.5 -10.5t-24.5 7t-14.5 21q-13 48 -41 133t-64.5 191.5t-79.5 226.5t-85.5 237.5t-82 225t-69.5 189.5q-5 -56 -15.5 -124.5t-28 -147 t-43.5 -166t-62 -181.5q-56 -144 -131.5 -246t-158.5 -170t-168.5 -107.5t-160.5 -59.5t-135 -25.5t-92 -5.5q-110 0 -202.5 29t-160 82.5t-105 128t-37.5 164.5zM1764 1598q0 16 6.5 32.5t18.5 29t30 20.5t42 8q21 0 36 -6.5t27 -16t20.5 -21.5t15.5 -22q10 -14 18.5 -24 t20.5 -10q16 0 20 8.5t4 13.5q0 12 -4 22.5t-8 19.5q-7 12 -7 20q0 12 10 22t26 10q19 0 37 -23t18 -69q0 -18 -7.5 -34t-20.5 -28t-31.5 -19t-40.5 -7q-20 0 -35 6t-26.5 16t-19.5 21t-15 22q-9 14 -17.5 24t-20.5 10q-9 0 -14.5 -3.5t-7.5 -7.5t-2.5 -8.5t-0.5 -5.5 q0 -10 2.5 -17.5t6.5 -15.5q2 -4 3 -8t1 -9q0 -13 -10 -22.5t-26 -9.5q-8 0 -17 3.5t-16 12.5t-11.5 25t-4.5 41z" />
<glyph unicode="&#xd2;" horiz-adv-x="1584" d="M60 639q0 119 28.5 225.5t84 198t136.5 165t187 126.5q8 4 18 4q14 0 26 -10t12 -27q0 -11 -6.5 -20.5t-17.5 -14.5q-6 -3 -37.5 -18.5t-75 -47.5t-93 -81.5t-91 -120.5t-69 -165t-27.5 -214q0 -110 23.5 -194t62.5 -147t89.5 -107t104 -73t106.5 -46t97.5 -25t75.5 -10 t41 -2q124 0 237 39t203 120.5t151.5 207.5t83.5 300q-65 -29 -135.5 -45.5t-147.5 -16.5q-106 0 -206 27.5t-177 83t-124 138.5t-47 194q0 90 31.5 161.5t85.5 122t125 77t149 26.5q64 0 128.5 -15t124 -46.5t111 -79.5t90 -115t60.5 -152.5t22 -191.5v-35q18 10 37.5 25 t37.5 31t32.5 30.5t22.5 25.5q6 7 16 7q17 0 27.5 -12.5t10.5 -26.5q0 -10 -4 -17q-12 -16 -30.5 -35.5t-43 -39.5t-53.5 -40.5t-60 -38.5q-17 -197 -82.5 -343.5t-167 -244.5t-232 -146.5t-277.5 -48.5q-80 0 -161.5 17t-156.5 52.5t-140 90t-113 130t-75.5 172 t-27.5 216.5zM649 1083q0 -72 30.5 -138.5t90.5 -118t149.5 -82t208.5 -30.5q81 0 154.5 20t139.5 54q3 39 3 78q0 142 -41.5 243t-108 165t-149.5 93.5t-166 29.5q-64 0 -120.5 -21t-99 -61t-67 -98.5t-24.5 -133.5zM809 1739q0 14 10 24t23 10q12 0 23 -9l160 -152 q10 -10 10 -24q0 -13 -9.5 -23t-23.5 -10q-13 0 -23 9l-160 152q-10 9 -10 23z" />
<glyph unicode="&#xd3;" horiz-adv-x="1584" d="M60 639q0 119 28.5 225.5t84 198t136.5 165t187 126.5q8 4 18 4q14 0 26 -10t12 -27q0 -11 -6.5 -20.5t-17.5 -14.5q-6 -3 -37.5 -18.5t-75 -47.5t-93 -81.5t-91 -120.5t-69 -165t-27.5 -214q0 -110 23.5 -194t62.5 -147t89.5 -107t104 -73t106.5 -46t97.5 -25t75.5 -10 t41 -2q124 0 237 39t203 120.5t151.5 207.5t83.5 300q-65 -29 -135.5 -45.5t-147.5 -16.5q-106 0 -206 27.5t-177 83t-124 138.5t-47 194q0 90 31.5 161.5t85.5 122t125 77t149 26.5q64 0 128.5 -15t124 -46.5t111 -79.5t90 -115t60.5 -152.5t22 -191.5v-35q18 10 37.5 25 t37.5 31t32.5 30.5t22.5 25.5q6 7 16 7q17 0 27.5 -12.5t10.5 -26.5q0 -10 -4 -17q-12 -16 -30.5 -35.5t-43 -39.5t-53.5 -40.5t-60 -38.5q-17 -197 -82.5 -343.5t-167 -244.5t-232 -146.5t-277.5 -48.5q-80 0 -161.5 17t-156.5 52.5t-140 90t-113 130t-75.5 172 t-27.5 216.5zM649 1083q0 -72 30.5 -138.5t90.5 -118t149.5 -82t208.5 -30.5q81 0 154.5 20t139.5 54q3 39 3 78q0 142 -41.5 243t-108 165t-149.5 93.5t-166 29.5q-64 0 -120.5 -21t-99 -61t-67 -98.5t-24.5 -133.5zM889 1588q0 14 10 24l160 152q10 9 23 9t23 -10t10 -24 t-10 -23l-160 -152q-11 -9 -23 -9q-14 0 -23.5 10t-9.5 23z" />
<glyph unicode="&#xd4;" horiz-adv-x="1584" d="M60 639q0 119 28.5 225.5t84 198t136.5 165t187 126.5q8 4 18 4q14 0 26 -10t12 -27q0 -11 -6.5 -20.5t-17.5 -14.5q-6 -3 -37.5 -18.5t-75 -47.5t-93 -81.5t-91 -120.5t-69 -165t-27.5 -214q0 -110 23.5 -194t62.5 -147t89.5 -107t104 -73t106.5 -46t97.5 -25t75.5 -10 t41 -2q124 0 237 39t203 120.5t151.5 207.5t83.5 300q-65 -29 -135.5 -45.5t-147.5 -16.5q-106 0 -206 27.5t-177 83t-124 138.5t-47 194q0 90 31.5 161.5t85.5 122t125 77t149 26.5q64 0 128.5 -15t124 -46.5t111 -79.5t90 -115t60.5 -152.5t22 -191.5v-35q18 10 37.5 25 t37.5 31t32.5 30.5t22.5 25.5q6 7 16 7q17 0 27.5 -12.5t10.5 -26.5q0 -10 -4 -17q-12 -16 -30.5 -35.5t-43 -39.5t-53.5 -40.5t-60 -38.5q-17 -197 -82.5 -343.5t-167 -244.5t-232 -146.5t-277.5 -48.5q-80 0 -161.5 17t-156.5 52.5t-140 90t-113 130t-75.5 172 t-27.5 216.5zM649 1083q0 -72 30.5 -138.5t90.5 -118t149.5 -82t208.5 -30.5q81 0 154.5 20t139.5 54q3 39 3 78q0 142 -41.5 243t-108 165t-149.5 93.5t-166 29.5q-64 0 -120.5 -21t-99 -61t-67 -98.5t-24.5 -133.5zM815 1588q0 12 7 20l112 152q10 13 27 13t26 -14 l108 -152q6 -9 6 -19q0 -13 -9.5 -23t-23.5 -10q-17 0 -27 13l-82 116l-84 -116q-10 -13 -26 -13q-14 0 -24 10t-10 23z" />
<glyph unicode="&#xd5;" horiz-adv-x="1584" d="M60 639q0 119 28.5 225.5t84 198t136.5 165t187 126.5q8 4 18 4q14 0 26 -10t12 -27q0 -11 -6.5 -20.5t-17.5 -14.5q-6 -3 -37.5 -18.5t-75 -47.5t-93 -81.5t-91 -120.5t-69 -165t-27.5 -214q0 -110 23.5 -194t62.5 -147t89.5 -107t104 -73t106.5 -46t97.5 -25t75.5 -10 t41 -2q124 0 237 39t203 120.5t151.5 207.5t83.5 300q-65 -29 -135.5 -45.5t-147.5 -16.5q-106 0 -206 27.5t-177 83t-124 138.5t-47 194q0 90 31.5 161.5t85.5 122t125 77t149 26.5q64 0 128.5 -15t124 -46.5t111 -79.5t90 -115t60.5 -152.5t22 -191.5v-35q18 10 37.5 25 t37.5 31t32.5 30.5t22.5 25.5q6 7 16 7q17 0 27.5 -12.5t10.5 -26.5q0 -10 -4 -17q-12 -16 -30.5 -35.5t-43 -39.5t-53.5 -40.5t-60 -38.5q-17 -197 -82.5 -343.5t-167 -244.5t-232 -146.5t-277.5 -48.5q-80 0 -161.5 17t-156.5 52.5t-140 90t-113 130t-75.5 172 t-27.5 216.5zM649 1083q0 -72 30.5 -138.5t90.5 -118t149.5 -82t208.5 -30.5q81 0 154.5 20t139.5 54q3 39 3 78q0 142 -41.5 243t-108 165t-149.5 93.5t-166 29.5q-64 0 -120.5 -21t-99 -61t-67 -98.5t-24.5 -133.5zM792 1643q0 16 6.5 32.5t18.5 29t30 20.5t42 8 q21 0 36 -6.5t27 -16t20.5 -21.5t15.5 -22q10 -14 18.5 -24t20.5 -10q16 0 20 8.5t4 13.5q0 12 -4 22.5t-8 19.5q-7 12 -7 20q0 12 10 22t26 10q19 0 37 -23t18 -69q0 -18 -7.5 -34t-20.5 -28t-31.5 -19t-40.5 -7q-20 0 -35 6t-26.5 16t-19.5 21t-15 22q-9 14 -17.5 24 t-20.5 10q-9 0 -14.5 -3.5t-7.5 -7.5t-2.5 -8.5t-0.5 -5.5q0 -10 2.5 -17.5t6.5 -15.5q2 -4 3 -8t1 -9q0 -13 -10 -22.5t-26 -9.5q-8 0 -17 3.5t-16 12.5t-11.5 25t-4.5 41z" />
<glyph unicode="&#xd6;" horiz-adv-x="1584" d="M60 639q0 119 28.5 225.5t84 198t136.5 165t187 126.5q8 4 18 4q14 0 26 -10t12 -27q0 -11 -6.5 -20.5t-17.5 -14.5q-6 -3 -37.5 -18.5t-75 -47.5t-93 -81.5t-91 -120.5t-69 -165t-27.5 -214q0 -110 23.5 -194t62.5 -147t89.5 -107t104 -73t106.5 -46t97.5 -25t75.5 -10 t41 -2q124 0 237 39t203 120.5t151.5 207.5t83.5 300q-65 -29 -135.5 -45.5t-147.5 -16.5q-106 0 -206 27.5t-177 83t-124 138.5t-47 194q0 90 31.5 161.5t85.5 122t125 77t149 26.5q64 0 128.5 -15t124 -46.5t111 -79.5t90 -115t60.5 -152.5t22 -191.5v-35q18 10 37.5 25 t37.5 31t32.5 30.5t22.5 25.5q6 7 16 7q17 0 27.5 -12.5t10.5 -26.5q0 -10 -4 -17q-12 -16 -30.5 -35.5t-43 -39.5t-53.5 -40.5t-60 -38.5q-17 -197 -82.5 -343.5t-167 -244.5t-232 -146.5t-277.5 -48.5q-80 0 -161.5 17t-156.5 52.5t-140 90t-113 130t-75.5 172 t-27.5 216.5zM649 1083q0 -72 30.5 -138.5t90.5 -118t149.5 -82t208.5 -30.5q81 0 154.5 20t139.5 54q3 39 3 78q0 142 -41.5 243t-108 165t-149.5 93.5t-166 29.5q-64 0 -120.5 -21t-99 -61t-67 -98.5t-24.5 -133.5zM816 1645q0 22 15 37t36 15q22 0 37 -15t15 -37 q0 -21 -15 -36t-37 -15q-21 0 -36 15t-15 36zM1001 1645q0 22 15 37t36 15q23 0 38 -15t15 -37q0 -21 -15 -36t-38 -15q-21 0 -36 15t-15 36z" />
<glyph unicode="&#xd7;" d="M127.5 382.5q-1.5 15.5 9.5 27.5l190 208q-42 45 -88 93t-94 99q-11 11 -11 25.5t10 25.5q12 14 28.5 13.5t27.5 -11.5l177 -190l181 198q11 12 26.5 13.5t26.5 -9.5t12.5 -26.5t-9.5 -27.5l-185 -203l180 -191q10 -11 10.5 -25.5t-9.5 -25.5q-11 -11 -26.5 -12t-26.5 9 l-13.5 14t-37 39t-56.5 60t-72 77l-185 -203q-11 -11 -26.5 -13t-26.5 9t-12.5 26.5z" />
<glyph unicode="&#xd8;" horiz-adv-x="1584" d="M60 639q0 119 28.5 225.5t84 198t136.5 165t187 126.5q8 4 18 4q14 0 26 -10t12 -27q0 -11 -6.5 -20.5t-17.5 -14.5q-6 -3 -37.5 -18.5t-75 -47.5t-93 -81.5t-91 -120.5t-69 -165t-27.5 -214q0 -116 26 -203t68.5 -151t97 -107.5t111.5 -71.5l358 612q-50 27 -91 63.5 t-70 82t-45.5 100.5t-16.5 119q0 90 31.5 161.5t85.5 122t125 77t149 26.5q60 0 121.5 -13.5t118.5 -41.5l58 99q11 19 32 19q17 0 27.5 -12.5t10.5 -26.5q0 -8 -5 -18l-58 -100q50 -35 92.5 -83t73 -111t48 -140.5t17.5 -171.5v-35q18 10 37.5 25t37.5 31t32.5 30.5 t22.5 25.5q6 7 16 7q17 0 27.5 -12.5t10.5 -26.5q0 -10 -4 -17q-12 -16 -30.5 -35.5t-43 -39.5t-53.5 -40.5t-60 -38.5q-17 -197 -82.5 -343.5t-167 -244.5t-232 -146.5t-277.5 -48.5q-67 0 -134.5 11.5t-131.5 35.5l-63 -107q-11 -19 -32 -19q-17 0 -27.5 12t-10.5 26 q0 11 5 19l59 100q-72 37 -134 91.5t-107.5 129t-71.5 169t-26 210.5zM508 77q41 -15 78.5 -23t68 -12.5t51.5 -5.5t29 -1q124 0 237 39t203 120.5t151.5 207.5t83.5 300q-65 -29 -135.5 -45.5t-147.5 -16.5q-69 0 -135.5 11.5t-126.5 34.5zM649 1083q0 -90 46 -169.5 t138 -131.5l333 568q-50 24 -102 35.5t-104 11.5q-64 0 -120.5 -21t-99 -61t-67 -98.5t-24.5 -133.5zM902 751q48 -18 104 -27.5t122 -9.5q81 0 154.5 20t139.5 54q3 39 3 78q0 82 -14.5 150.5t-41 123.5t-62 97.5t-77.5 73.5z" />
<glyph unicode="&#xd9;" horiz-adv-x="2034" d="M60 1001q0 97 41 178.5t110 141t160 92.5t191 33q84 0 150 -25t112.5 -72.5t71 -115.5t24.5 -154q0 -93 -19.5 -194t-42.5 -202.5t-42.5 -200t-19.5 -187.5q0 -63 11.5 -115t38.5 -89t70.5 -57.5t107.5 -20.5q43 0 91.5 18t101 64t109 125t115.5 202q43 90 79.5 194 t66 207.5t52 200t37.5 171t23 119.5t8 47q3 14 13 22.5t24 8.5q17 0 27.5 -11t10.5 -25q0 -4 -5.5 -43t-14.5 -101t-20.5 -143.5t-23 -170.5t-23 -181t-20.5 -176.5t-14.5 -156t-5.5 -119.5q0 -129 44.5 -191.5t116.5 -62.5q50 0 91.5 33t74 80t54.5 97t34 85q4 12 14 19 t22 7q17 0 27.5 -12t10.5 -26q0 -4 -2 -12q-4 -11 -15.5 -40.5t-30.5 -68t-46 -80t-62 -76t-78.5 -57t-95.5 -22.5q-57 0 -101 22.5t-74 64.5t-45.5 102.5t-15.5 137.5q0 64 9 165t23 218q-58 -180 -127 -313t-144 -221t-155 -131t-159 -43q-86 0 -144 27.5t-93.5 75 t-51 112t-15.5 139.5q0 88 19 188t42.5 202t42.5 203t19 192q0 140 -72 216.5t-209 76.5q-86 0 -163.5 -27.5t-136 -77t-93 -117.5t-34.5 -149q0 -56 13 -96.5t32.5 -68.5t42 -45t43 -26t34.5 -12t16 -3q15 -2 24 -13t9 -25q0 -16 -11.5 -26.5t-26.5 -10.5q-2 0 -10 1t-10 2 q-39 10 -80.5 31.5t-75 60t-55 95t-21.5 136.5zM1144 1661q0 14 10 24t23 10q12 0 23 -9l160 -152q10 -10 10 -24q0 -13 -9.5 -23t-23.5 -10q-13 0 -23 9l-160 152q-10 9 -10 23z" />
<glyph unicode="&#xda;" horiz-adv-x="2034" d="M60 1001q0 97 41 178.5t110 141t160 92.5t191 33q84 0 150 -25t112.5 -72.5t71 -115.5t24.5 -154q0 -93 -19.5 -194t-42.5 -202.5t-42.5 -200t-19.5 -187.5q0 -63 11.5 -115t38.5 -89t70.5 -57.5t107.5 -20.5q43 0 91.5 18t101 64t109 125t115.5 202q43 90 79.5 194 t66 207.5t52 200t37.5 171t23 119.5t8 47q3 14 13 22.5t24 8.5q17 0 27.5 -11t10.5 -25q0 -4 -5.5 -43t-14.5 -101t-20.5 -143.5t-23 -170.5t-23 -181t-20.5 -176.5t-14.5 -156t-5.5 -119.5q0 -129 44.5 -191.5t116.5 -62.5q50 0 91.5 33t74 80t54.5 97t34 85q4 12 14 19 t22 7q17 0 27.5 -12t10.5 -26q0 -4 -2 -12q-4 -11 -15.5 -40.5t-30.5 -68t-46 -80t-62 -76t-78.5 -57t-95.5 -22.5q-57 0 -101 22.5t-74 64.5t-45.5 102.5t-15.5 137.5q0 64 9 165t23 218q-58 -180 -127 -313t-144 -221t-155 -131t-159 -43q-86 0 -144 27.5t-93.5 75 t-51 112t-15.5 139.5q0 88 19 188t42.5 202t42.5 203t19 192q0 140 -72 216.5t-209 76.5q-86 0 -163.5 -27.5t-136 -77t-93 -117.5t-34.5 -149q0 -56 13 -96.5t32.5 -68.5t42 -45t43 -26t34.5 -12t16 -3q15 -2 24 -13t9 -25q0 -16 -11.5 -26.5t-26.5 -10.5q-2 0 -10 1t-10 2 q-39 10 -80.5 31.5t-75 60t-55 95t-21.5 136.5zM1224 1510q0 14 10 24l160 152q10 9 23 9t23 -10t10 -24t-10 -23l-160 -152q-11 -9 -23 -9q-14 0 -23.5 10t-9.5 23z" />
<glyph unicode="&#xdb;" horiz-adv-x="2034" d="M60 1001q0 97 41 178.5t110 141t160 92.5t191 33q84 0 150 -25t112.5 -72.5t71 -115.5t24.5 -154q0 -93 -19.5 -194t-42.5 -202.5t-42.5 -200t-19.5 -187.5q0 -63 11.5 -115t38.5 -89t70.5 -57.5t107.5 -20.5q43 0 91.5 18t101 64t109 125t115.5 202q43 90 79.5 194 t66 207.5t52 200t37.5 171t23 119.5t8 47q3 14 13 22.5t24 8.5q17 0 27.5 -11t10.5 -25q0 -4 -5.5 -43t-14.5 -101t-20.5 -143.5t-23 -170.5t-23 -181t-20.5 -176.5t-14.5 -156t-5.5 -119.5q0 -129 44.5 -191.5t116.5 -62.5q50 0 91.5 33t74 80t54.5 97t34 85q4 12 14 19 t22 7q17 0 27.5 -12t10.5 -26q0 -4 -2 -12q-4 -11 -15.5 -40.5t-30.5 -68t-46 -80t-62 -76t-78.5 -57t-95.5 -22.5q-57 0 -101 22.5t-74 64.5t-45.5 102.5t-15.5 137.5q0 64 9 165t23 218q-58 -180 -127 -313t-144 -221t-155 -131t-159 -43q-86 0 -144 27.5t-93.5 75 t-51 112t-15.5 139.5q0 88 19 188t42.5 202t42.5 203t19 192q0 140 -72 216.5t-209 76.5q-86 0 -163.5 -27.5t-136 -77t-93 -117.5t-34.5 -149q0 -56 13 -96.5t32.5 -68.5t42 -45t43 -26t34.5 -12t16 -3q15 -2 24 -13t9 -25q0 -16 -11.5 -26.5t-26.5 -10.5q-2 0 -10 1t-10 2 q-39 10 -80.5 31.5t-75 60t-55 95t-21.5 136.5zM1150 1510q0 12 7 20l112 152q10 13 27 13t26 -14l108 -152q6 -9 6 -19q0 -13 -9.5 -23t-23.5 -10q-17 0 -27 13l-82 116l-84 -116q-10 -13 -26 -13q-14 0 -24 10t-10 23z" />
<glyph unicode="&#xdc;" horiz-adv-x="2034" d="M60 1001q0 97 41 178.5t110 141t160 92.5t191 33q84 0 150 -25t112.5 -72.5t71 -115.5t24.5 -154q0 -93 -19.5 -194t-42.5 -202.5t-42.5 -200t-19.5 -187.5q0 -63 11.5 -115t38.5 -89t70.5 -57.5t107.5 -20.5q43 0 91.5 18t101 64t109 125t115.5 202q43 90 79.5 194 t66 207.5t52 200t37.5 171t23 119.5t8 47q3 14 13 22.5t24 8.5q17 0 27.5 -11t10.5 -25q0 -4 -5.5 -43t-14.5 -101t-20.5 -143.5t-23 -170.5t-23 -181t-20.5 -176.5t-14.5 -156t-5.5 -119.5q0 -129 44.5 -191.5t116.5 -62.5q50 0 91.5 33t74 80t54.5 97t34 85q4 12 14 19 t22 7q17 0 27.5 -12t10.5 -26q0 -4 -2 -12q-4 -11 -15.5 -40.5t-30.5 -68t-46 -80t-62 -76t-78.5 -57t-95.5 -22.5q-57 0 -101 22.5t-74 64.5t-45.5 102.5t-15.5 137.5q0 64 9 165t23 218q-58 -180 -127 -313t-144 -221t-155 -131t-159 -43q-86 0 -144 27.5t-93.5 75 t-51 112t-15.5 139.5q0 88 19 188t42.5 202t42.5 203t19 192q0 140 -72 216.5t-209 76.5q-86 0 -163.5 -27.5t-136 -77t-93 -117.5t-34.5 -149q0 -56 13 -96.5t32.5 -68.5t42 -45t43 -26t34.5 -12t16 -3q15 -2 24 -13t9 -25q0 -16 -11.5 -26.5t-26.5 -10.5q-2 0 -10 1t-10 2 q-39 10 -80.5 31.5t-75 60t-55 95t-21.5 136.5zM1151 1567q0 22 15 37t36 15q22 0 37 -15t15 -37q0 -21 -15 -36t-37 -15q-21 0 -36 15t-15 36zM1336 1567q0 22 15 37t36 15q23 0 38 -15t15 -37q0 -21 -15 -36t-38 -15q-21 0 -36 15t-15 36z" />
<glyph unicode="&#xdd;" horiz-adv-x="2076" d="M80 883q0 126 42.5 230.5t115.5 179.5t171.5 116.5t209.5 41.5q93 0 166.5 -32.5t123.5 -89t76.5 -133.5t26.5 -166q0 -33 -3 -67.5t-11 -70.5q-15 -77 -33.5 -157t-34.5 -158t-26.5 -152t-10.5 -139q0 -58 11.5 -107.5t37.5 -86t68 -57t104 -20.5q113 0 220.5 101 t207.5 302q38 76 71 165t60 178t48.5 171t36 145.5t22.5 102.5t8 40q2 14 12.5 22.5t23.5 8.5q17 0 27.5 -11.5t10.5 -25.5q0 -4 -5 -36.5t-13 -85t-18.5 -121.5t-21.5 -145q-8 -57 -16.5 -130.5t-15.5 -151.5t-11.5 -155t-4.5 -141q0 -54 3 -112.5t8 -116.5q41 17 83.5 30 t79.5 22.5t65 14.5t39 6q20 2 31 -9.5t11 -28.5q0 -32 -39 -38q-2 0 -25.5 -4t-60 -13t-83.5 -23.5t-96 -35.5q4 -54 6 -107.5t2 -105.5q0 -105 -16 -205t-54 -178.5t-101 -126.5t-156 -48q-54 0 -97 19.5t-73 53t-46 78.5t-16 96q0 67 28 143t86 152.5t147 148t211 128.5 q-5 63 -8.5 132.5t-3.5 134.5q0 33 2 75.5t6 91.5t9.5 103t11.5 110q-59 -170 -128 -300t-144.5 -217.5t-157.5 -132.5t-167 -45q-75 0 -130 24.5t-92 69t-55 107.5t-18 141q0 104 22 222.5t49 240.5q16 73 32 147t16 140q0 73 -21 136t-61.5 109t-99.5 72.5t-135 26.5 q-96 0 -180.5 -36.5t-147.5 -101.5t-100 -154t-37 -194q0 -63 15 -125.5t46.5 -115t80.5 -89.5t117 -49q14 -2 23.5 -13t9.5 -25q0 -15 -11 -26.5t-26 -11.5q-11 0 -40 8t-65.5 27t-76.5 51.5t-72.5 82.5t-54 118.5t-21.5 160.5zM1297 -584q0 -36 10.5 -67t30.5 -54.5 t49 -36.5t65 -13q54 0 93.5 23t68 62t46 89t28 103.5t14 107t3.5 99.5q0 43 -2 87.5t-4 89.5q-96 -44 -170.5 -105t-126 -127.5t-78.5 -133.5t-27 -124zM1325 1450q0 14 10 24l160 152q10 9 23 9t23 -10t10 -24t-10 -23l-160 -152q-11 -9 -23 -9q-14 0 -23.5 10t-9.5 23z " />
<glyph unicode="&#xde;" horiz-adv-x="1913" d="M90 644q0 90 36 173.5t101.5 157.5t157 135.5t203 107t239.5 73t267 32.5q22 59 50 100t53.5 67t44 38t20.5 13q8 4 18 4q23 0 33 -19q4 -8 4 -18q0 -22 -19 -33q-45 -26 -74.5 -65t-48.5 -87q154 -3 282.5 -40t221 -104.5t143.5 -164t51 -217.5t-46 -216.5t-130 -162 t-201 -102t-258 -35.5q-17 0 -29.5 9.5t-12.5 28.5q0 15 11 26t27 11q126 0 230 29t178 85.5t115 138.5t41 188q0 108 -47.5 192t-133 142t-204 88t-260.5 30h-1q-16 -66 -20 -134t-4 -131q0 -45 0.5 -91t0.5 -94q0 -102 -3.5 -205t-18.5 -197.5t-44 -176.5t-80 -142.5 t-127 -95.5t-185 -35q-62 0 -122.5 16.5t-113 45.5t-94 68.5t-65.5 85.5q-5 8 -5 18q0 14 10.5 25.5t27.5 11.5q22 0 33 -19q19 -37 54 -70t79.5 -57.5t94.5 -38t101 -11.5q61 3 113 16.5t94 45t75 84t55 133.5t33.5 193t11.5 263v122t0.5 112t1.5 93.5t3 67.5q3 49 14 95 q-125 -6 -241 -32t-217 -67t-183.5 -96t-141 -119.5t-91 -138t-32.5 -150.5q0 -72 25 -126t66.5 -90.5t95.5 -54.5t113 -18q70 0 124.5 15t92 33t57.5 33.5t22 17.5q11 11 26 11t26.5 -11.5t11.5 -26.5q0 -17 -12 -27q-2 -2 -25.5 -21t-68 -41.5t-108.5 -40.5t-146 -18 q-75 0 -143.5 25t-120 72.5t-82 115t-30.5 152.5z" />
<glyph unicode="&#xdf;" horiz-adv-x="678" d="M40 -600q0 105 0.5 227t1 248.5t1 252t1.5 238.5t2 207.5t2 159.5q3 172 11.5 307t29 228t57 141.5t96.5 48.5q145 0 145 -234q0 -74 -15.5 -171t-49.5 -220q-6 -23 -15.5 -55t-18.5 -67t-15.5 -71t-6.5 -66q0 -29 14.5 -58.5t37 -60t48 -63.5t48 -68.5t37 -74 t14.5 -80.5q0 -47 -20 -84t-49 -60q64 0 113 26t87 67t67 91.5t53 99.5q5 11 13.5 16.5t19.5 5.5q17 0 28 -11.5t11 -26.5q0 -7 -3 -14q-26 -59 -63.5 -117.5t-86 -105t-108.5 -75.5t-132 -29q-66 0 -123.5 23.5t-92.5 77.5q-6 9 -6 19q0 15 11 25t27 10t27 -11q1 -2 7 -6.5 t14.5 -10t19.5 -9.5t24 -4q19 0 35.5 8.5t27.5 22.5t17.5 32.5t6.5 39.5q0 35 -15 67.5t-37 64t-48 63.5t-48 65.5t-37 69t-15 75.5q0 56 14.5 117t31.5 117q44 149 60 252.5t16 164.5q0 53 -6 84t-15.5 47.5t-22.5 21.5t-27 5q-15 0 -28 -10t-23.5 -32t-19.5 -57.5 t-17 -86.5q-8 -49 -13 -106t-8 -117.5t-5 -122t-3 -120.5q-1 -65 -2 -159.5t-2 -207t-2 -238t-1.5 -252t-0.5 -248t-0.5 -226.5t-0.5 -188.5v-132.5q0 -16 -10.5 -27t-26.5 -11t-27 11t-11 27v132.5v188.5z" />
<glyph unicode="&#xe0;" horiz-adv-x="704" d="M20 170q0 78 26.5 137.5t67.5 99.5t90.5 60t95.5 20q31 0 57 -8.5t44.5 -18.5t28.5 -18.5t11 -9.5q11 -13 11 -27q0 -15 -11 -26.5t-26 -11.5q-16 0 -27 11q-2 2 -9 7.5t-19 11.5t-28.5 10.5t-37.5 4.5q-31 0 -66 -14t-64 -43.5t-48.5 -74t-19.5 -105.5q0 -19 4 -38.5 t14 -35.5t27 -26t42 -10q18 0 41.5 12t45 37t39 63t24.5 90q2 14 13 23.5t26 9.5q14 0 24.5 -11t11.5 -25q1 -19 4 -53.5t13.5 -68.5t31.5 -59t58 -25q24 0 47.5 13t46 34.5t43 49t37.5 55.5t30 54t22 45q5 11 14.5 17t20.5 6q17 0 27.5 -12.5t10.5 -26.5q0 -7 -3 -14 q-4 -8 -16.5 -33.5t-32 -58.5t-45.5 -69t-58 -66t-69 -49.5t-78 -19.5q-58 0 -97.5 37t-57.5 93q-34 -57 -81 -90.5t-94 -33.5q-37 0 -67 13.5t-51 38t-32.5 57.5t-11.5 72zM132 768q0 14 10 24t23 10q12 0 23 -9l160 -152q10 -10 10 -24q0 -13 -9.5 -23t-23.5 -10 q-13 0 -23 9l-160 152q-10 9 -10 23z" />
<glyph unicode="&#xe1;" horiz-adv-x="704" d="M20 170q0 78 26.5 137.5t67.5 99.5t90.5 60t95.5 20q31 0 57 -8.5t44.5 -18.5t28.5 -18.5t11 -9.5q11 -13 11 -27q0 -15 -11 -26.5t-26 -11.5q-16 0 -27 11q-2 2 -9 7.5t-19 11.5t-28.5 10.5t-37.5 4.5q-31 0 -66 -14t-64 -43.5t-48.5 -74t-19.5 -105.5q0 -19 4 -38.5 t14 -35.5t27 -26t42 -10q18 0 41.5 12t45 37t39 63t24.5 90q2 14 13 23.5t26 9.5q14 0 24.5 -11t11.5 -25q1 -19 4 -53.5t13.5 -68.5t31.5 -59t58 -25q24 0 47.5 13t46 34.5t43 49t37.5 55.5t30 54t22 45q5 11 14.5 17t20.5 6q17 0 27.5 -12.5t10.5 -26.5q0 -7 -3 -14 q-4 -8 -16.5 -33.5t-32 -58.5t-45.5 -69t-58 -66t-69 -49.5t-78 -19.5q-58 0 -97.5 37t-57.5 93q-34 -57 -81 -90.5t-94 -33.5q-37 0 -67 13.5t-51 38t-32.5 57.5t-11.5 72zM211 617q0 14 10 24l160 152q10 9 23 9t23 -10t10 -24t-10 -23l-160 -152q-11 -9 -23 -9 q-14 0 -23.5 10t-9.5 23z" />
<glyph unicode="&#xe2;" horiz-adv-x="704" d="M20 170q0 78 26.5 137.5t67.5 99.5t90.5 60t95.5 20q31 0 57 -8.5t44.5 -18.5t28.5 -18.5t11 -9.5q11 -13 11 -27q0 -15 -11 -26.5t-26 -11.5q-16 0 -27 11q-2 2 -9 7.5t-19 11.5t-28.5 10.5t-37.5 4.5q-31 0 -66 -14t-64 -43.5t-48.5 -74t-19.5 -105.5q0 -19 4 -38.5 t14 -35.5t27 -26t42 -10q18 0 41.5 12t45 37t39 63t24.5 90q2 14 13 23.5t26 9.5q14 0 24.5 -11t11.5 -25q1 -19 4 -53.5t13.5 -68.5t31.5 -59t58 -25q24 0 47.5 13t46 34.5t43 49t37.5 55.5t30 54t22 45q5 11 14.5 17t20.5 6q17 0 27.5 -12.5t10.5 -26.5q0 -7 -3 -14 q-4 -8 -16.5 -33.5t-32 -58.5t-45.5 -69t-58 -66t-69 -49.5t-78 -19.5q-58 0 -97.5 37t-57.5 93q-34 -57 -81 -90.5t-94 -33.5q-37 0 -67 13.5t-51 38t-32.5 57.5t-11.5 72zM137 617q0 12 7 20l112 152q10 13 27 13t26 -14l108 -152q6 -9 6 -19q0 -13 -9.5 -23t-23.5 -10 q-17 0 -27 13l-82 116l-84 -116q-10 -13 -26 -13q-14 0 -24 10t-10 23z" />
<glyph unicode="&#xe3;" horiz-adv-x="704" d="M20 170q0 78 26.5 137.5t67.5 99.5t90.5 60t95.5 20q31 0 57 -8.5t44.5 -18.5t28.5 -18.5t11 -9.5q11 -13 11 -27q0 -15 -11 -26.5t-26 -11.5q-16 0 -27 11q-2 2 -9 7.5t-19 11.5t-28.5 10.5t-37.5 4.5q-31 0 -66 -14t-64 -43.5t-48.5 -74t-19.5 -105.5q0 -19 4 -38.5 t14 -35.5t27 -26t42 -10q18 0 41.5 12t45 37t39 63t24.5 90q2 14 13 23.5t26 9.5q14 0 24.5 -11t11.5 -25q1 -19 4 -53.5t13.5 -68.5t31.5 -59t58 -25q24 0 47.5 13t46 34.5t43 49t37.5 55.5t30 54t22 45q5 11 14.5 17t20.5 6q17 0 27.5 -12.5t10.5 -26.5q0 -7 -3 -14 q-4 -8 -16.5 -33.5t-32 -58.5t-45.5 -69t-58 -66t-69 -49.5t-78 -19.5q-58 0 -97.5 37t-57.5 93q-34 -57 -81 -90.5t-94 -33.5q-37 0 -67 13.5t-51 38t-32.5 57.5t-11.5 72zM114 672q0 16 6.5 32.5t18.5 29t30 20.5t42 8q21 0 36 -6.5t27 -16t20.5 -21.5t15.5 -22 q10 -14 18.5 -24t20.5 -10q16 0 20 8.5t4 13.5q0 12 -4 22.5t-8 19.5q-7 12 -7 20q0 12 10 22t26 10q19 0 37 -23t18 -69q0 -18 -7.5 -34t-20.5 -28t-31.5 -19t-40.5 -7q-20 0 -35 6t-26.5 16t-19.5 21t-15 22q-9 14 -17.5 24t-20.5 10q-9 0 -14.5 -3.5t-7.5 -7.5t-2.5 -8.5 t-0.5 -5.5q0 -10 2.5 -17.5t6.5 -15.5q2 -4 3 -8t1 -9q0 -13 -10 -22.5t-26 -9.5q-8 0 -17 3.5t-16 12.5t-11.5 25t-4.5 41z" />
<glyph unicode="&#xe4;" horiz-adv-x="704" d="M20 170q0 78 26.5 137.5t67.5 99.5t90.5 60t95.5 20q31 0 57 -8.5t44.5 -18.5t28.5 -18.5t11 -9.5q11 -13 11 -27q0 -15 -11 -26.5t-26 -11.5q-16 0 -27 11q-2 2 -9 7.5t-19 11.5t-28.5 10.5t-37.5 4.5q-31 0 -66 -14t-64 -43.5t-48.5 -74t-19.5 -105.5q0 -19 4 -38.5 t14 -35.5t27 -26t42 -10q18 0 41.5 12t45 37t39 63t24.5 90q2 14 13 23.5t26 9.5q14 0 24.5 -11t11.5 -25q1 -19 4 -53.5t13.5 -68.5t31.5 -59t58 -25q24 0 47.5 13t46 34.5t43 49t37.5 55.5t30 54t22 45q5 11 14.5 17t20.5 6q17 0 27.5 -12.5t10.5 -26.5q0 -7 -3 -14 q-4 -8 -16.5 -33.5t-32 -58.5t-45.5 -69t-58 -66t-69 -49.5t-78 -19.5q-58 0 -97.5 37t-57.5 93q-34 -57 -81 -90.5t-94 -33.5q-37 0 -67 13.5t-51 38t-32.5 57.5t-11.5 72zM138 674q0 22 15 37t36 15q22 0 37 -15t15 -37q0 -21 -15 -36t-37 -15q-21 0 -36 15t-15 36z M323 674q0 22 15 37t36 15q23 0 38 -15t15 -37q0 -21 -15 -36t-38 -15q-21 0 -36 15t-15 36z" />
<glyph unicode="&#xe5;" horiz-adv-x="704" d="M20 170q0 78 26.5 137.5t67.5 99.5t90.5 60t95.5 20q31 0 57 -8.5t44.5 -18.5t28.5 -18.5t11 -9.5q11 -13 11 -27q0 -15 -11 -26.5t-26 -11.5q-16 0 -27 11q-2 2 -9 7.5t-19 11.5t-28.5 10.5t-37.5 4.5q-31 0 -66 -14t-64 -43.5t-48.5 -74t-19.5 -105.5q0 -19 4 -38.5 t14 -35.5t27 -26t42 -10q18 0 41.5 12t45 37t39 63t24.5 90q2 14 13 23.5t26 9.5q14 0 24.5 -11t11.5 -25q1 -19 4 -53.5t13.5 -68.5t31.5 -59t58 -25q24 0 47.5 13t46 34.5t43 49t37.5 55.5t30 54t22 45q5 11 14.5 17t20.5 6q17 0 27.5 -12.5t10.5 -26.5q0 -7 -3 -14 q-4 -8 -16.5 -33.5t-32 -58.5t-45.5 -69t-58 -66t-69 -49.5t-78 -19.5q-58 0 -97.5 37t-57.5 93q-34 -57 -81 -90.5t-94 -33.5q-37 0 -67 13.5t-51 38t-32.5 57.5t-11.5 72zM138 717q0 29 11.5 55t31 45.5t45.5 31t55 11.5q30 0 56.5 -11.5t46 -31t31 -45.5t11.5 -55 t-11.5 -55t-31 -45.5t-46 -31t-56.5 -11.5q-29 0 -55 11.5t-45.5 31t-31 45.5t-11.5 55zM204 717q0 -32 22.5 -54.5t54.5 -22.5q33 0 56 22.5t23 54.5q0 33 -23 55t-56 22q-32 0 -54.5 -22t-22.5 -55z" />
<glyph unicode="&#xe6;" horiz-adv-x="827" d="M20 170q0 78 26.5 137.5t67.5 99.5t90.5 60t95.5 20q40 0 70 -12.5t48 -24.5q20 20 45.5 31t56.5 11q23 0 45.5 -9.5t40.5 -27t29 -42.5t11 -57q0 -41 -14 -77t-38.5 -67t-58.5 -57t-73 -45h10q21 -29 54 -46.5t81 -17.5q44 0 81.5 24.5t69.5 62.5t58.5 85t48.5 92 q5 11 14 16.5t20 5.5q17 0 27.5 -12t10.5 -26q0 -5 -1 -8.5t-3 -7.5q-147 -305 -335 -308q-49 0 -87 14t-66.5 38.5t-47.5 57t-29 69.5q-15 -32 -33.5 -61t-42 -51t-51 -35t-59.5 -13q-37 0 -67 13.5t-51 38t-32.5 57.5t-11.5 72zM96 175q0 -19 4 -38.5t14 -35.5t27 -26 t42 -10q39 0 70 31t53.5 78.5t37 104t21.5 108.5q0 2 0.5 3.5t0.5 3.5q-12 7 -30 12.5t-42 5.5q-31 0 -66 -14t-64 -43.5t-48.5 -74t-19.5 -105.5zM420 251q0 -18 3.5 -38t8.5 -38q31 13 56.5 33t43.5 44t28 50.5t10 53.5q0 30 -15 45.5t-35 15.5q-27 0 -46 -15t-31 -39 t-17.5 -53.5t-5.5 -58.5z" />
<glyph unicode="&#xe7;" horiz-adv-x="586" d="M40 230q0 60 17 112.5t46.5 91.5t68.5 61.5t83 22.5q33 0 60 -11.5t45.5 -30.5t29 -42t10.5 -46q0 -22 -5.5 -41t-14 -33.5t-19.5 -23t-22 -8.5q-17 0 -27.5 11t-10.5 27q0 8 3.5 14t8 12.5t8 16t3.5 24.5q0 21 -19.5 38t-49.5 17q-28 0 -53.5 -17t-44.5 -45.5t-30.5 -67 t-11.5 -81.5q0 -41 10 -78t30 -65.5t50.5 -45.5t72.5 -17q54 0 100 19.5t84 49.5t67 65.5t49.5 67t32 55t13.5 29.5q4 10 13.5 15.5t20.5 5.5q17 0 27.5 -12t10.5 -27q0 -6 -4 -16q-5 -11 -18.5 -37.5t-36 -60t-53 -70.5t-70 -69.5t-88 -56t-106.5 -30.5q-2 -5 -3.5 -10.5 t-2.5 -7.5l-14 -39q23 0 46 -7.5t41 -23.5t29.5 -39.5t11.5 -55.5q0 -24 -9 -46.5t-27 -40.5t-44.5 -29t-60.5 -11q-20 0 -43 4.5t-42 13.5t-31.5 21.5t-12.5 28.5q0 15 10.5 23.5t23.5 8.5q8 0 16 -5.5t18.5 -12t25 -12t34.5 -5.5q30 0 52 15.5t22 47.5q0 18 -6.5 30 t-16 19.5t-21.5 10.5t-22 3q-17 0 -28 -3t-18 -3q-13 0 -21.5 7.5t-8.5 21.5q0 8 2 14.5t4 12.5l25 68q-50 5 -89 27.5t-65.5 59t-40.5 85.5t-14 106z" />
<glyph unicode="&#xe8;" horiz-adv-x="523" d="M40 255q0 51 12.5 94t36 75t56 50t71.5 18q23 0 45.5 -9.5t40.5 -27t29 -42.5t11 -57q0 -41 -14 -77t-38.5 -67t-58.5 -57t-73 -45q21 -29 54 -46.5t81 -17.5q49 0 89 23.5t73 61.5t59 85t47 94q5 11 14 16.5t20 5.5q17 0 27.5 -12t10.5 -26q0 -5 -1 -8.5t-3 -7.5 q-69 -152 -150.5 -229t-184.5 -79q-66 0 -114 25.5t-79 66t-46 91.5t-15 102zM77 774q0 14 10 24t23 10q12 0 23 -9l160 -152q10 -10 10 -24q0 -13 -9.5 -23t-23.5 -10q-13 0 -23 9l-160 152q-10 9 -10 23zM116 251q0 -18 3.5 -38t8.5 -38q31 13 56.5 33t43.5 44t28 50.5 t10 53.5q0 30 -15 45.5t-35 15.5q-27 0 -46 -15t-31 -39t-17.5 -53.5t-5.5 -58.5z" />
<glyph unicode="&#xe9;" horiz-adv-x="523" d="M40 255q0 51 12.5 94t36 75t56 50t71.5 18q23 0 45.5 -9.5t40.5 -27t29 -42.5t11 -57q0 -41 -14 -77t-38.5 -67t-58.5 -57t-73 -45q21 -29 54 -46.5t81 -17.5q49 0 89 23.5t73 61.5t59 85t47 94q5 11 14 16.5t20 5.5q17 0 27.5 -12t10.5 -26q0 -5 -1 -8.5t-3 -7.5 q-69 -152 -150.5 -229t-184.5 -79q-66 0 -114 25.5t-79 66t-46 91.5t-15 102zM116 251q0 -18 3.5 -38t8.5 -38q31 13 56.5 33t43.5 44t28 50.5t10 53.5q0 30 -15 45.5t-35 15.5q-27 0 -46 -15t-31 -39t-17.5 -53.5t-5.5 -58.5zM156 623q0 14 10 24l160 152q10 9 23 9t23 -10 t10 -24t-10 -23l-160 -152q-11 -9 -23 -9q-14 0 -23.5 10t-9.5 23z" />
<glyph unicode="&#xea;" horiz-adv-x="523" d="M40 255q0 51 12.5 94t36 75t56 50t71.5 18q23 0 45.5 -9.5t40.5 -27t29 -42.5t11 -57q0 -41 -14 -77t-38.5 -67t-58.5 -57t-73 -45q21 -29 54 -46.5t81 -17.5q49 0 89 23.5t73 61.5t59 85t47 94q5 11 14 16.5t20 5.5q17 0 27.5 -12t10.5 -26q0 -5 -1 -8.5t-3 -7.5 q-69 -152 -150.5 -229t-184.5 -79q-66 0 -114 25.5t-79 66t-46 91.5t-15 102zM83 623q0 12 7 20l112 152q10 13 27 13t26 -14l108 -152q6 -9 6 -19q0 -13 -9.5 -23t-23.5 -10q-17 0 -27 13l-82 116l-84 -116q-10 -13 -26 -13q-14 0 -24 10t-10 23zM116 251q0 -18 3.5 -38 t8.5 -38q31 13 56.5 33t43.5 44t28 50.5t10 53.5q0 30 -15 45.5t-35 15.5q-27 0 -46 -15t-31 -39t-17.5 -53.5t-5.5 -58.5z" />
<glyph unicode="&#xeb;" horiz-adv-x="523" d="M40 255q0 51 12.5 94t36 75t56 50t71.5 18q23 0 45.5 -9.5t40.5 -27t29 -42.5t11 -57q0 -41 -14 -77t-38.5 -67t-58.5 -57t-73 -45q21 -29 54 -46.5t81 -17.5q49 0 89 23.5t73 61.5t59 85t47 94q5 11 14 16.5t20 5.5q17 0 27.5 -12t10.5 -26q0 -5 -1 -8.5t-3 -7.5 q-69 -152 -150.5 -229t-184.5 -79q-66 0 -114 25.5t-79 66t-46 91.5t-15 102zM84 680q0 22 15 37t36 15q22 0 37 -15t15 -37q0 -21 -15 -36t-37 -15q-21 0 -36 15t-15 36zM116 251q0 -18 3.5 -38t8.5 -38q31 13 56.5 33t43.5 44t28 50.5t10 53.5q0 30 -15 45.5t-35 15.5 q-27 0 -46 -15t-31 -39t-17.5 -53.5t-5.5 -58.5zM269 680q0 22 15 37t36 15q23 0 38 -15t15 -37q0 -21 -15 -36t-38 -15q-21 0 -36 15t-15 36z" />
<glyph unicode="&#xec;" horiz-adv-x="430" d="M-61 768q0 14 10 24t23 10q12 0 23 -9l160 -152q10 -10 10 -24q0 -13 -9.5 -23t-23.5 -10q-13 0 -23 9l-160 152q-10 9 -10 23zM39 199q0 144 18 287q2 14 12.5 24.5t27.5 10.5q15 0 25 -11.5t10 -26.5q0 -6 -2.5 -36t-6 -71.5t-6 -88t-2.5 -85.5q0 -53 10.5 -85.5 t27 -50.5t35 -24t35.5 -6q28 0 58 20t61.5 56t63.5 86.5t63 112.5q5 10 14 15.5t20 5.5q16 0 26.5 -12t10.5 -26q0 -10 -4 -17q-12 -23 -30 -56t-41 -68t-50.5 -69.5t-58.5 -62t-65 -44.5t-69 -17q-45 0 -79 19t-57.5 51t-35 75.5t-11.5 93.5z" />
<glyph unicode="&#xed;" horiz-adv-x="430" d="M39 199q0 144 18 287q2 14 12.5 24.5t27.5 10.5q15 0 25 -11.5t10 -26.5q0 -6 -2.5 -36t-6 -71.5t-6 -88t-2.5 -85.5q0 -53 10.5 -85.5t27 -50.5t35 -24t35.5 -6q28 0 58 20t61.5 56t63.5 86.5t63 112.5q5 10 14 15.5t20 5.5q16 0 26.5 -12t10.5 -26q0 -10 -4 -17 q-12 -23 -30 -56t-41 -68t-50.5 -69.5t-58.5 -62t-65 -44.5t-69 -17q-45 0 -79 19t-57.5 51t-35 75.5t-11.5 93.5zM43 617q0 14 10 24l160 152q10 9 23 9t23 -10t10 -24t-10 -23l-160 -152q-11 -9 -23 -9q-14 0 -23.5 10t-9.5 23z" />
<glyph unicode="&#xee;" horiz-adv-x="430" d="M-43 617q0 12 7 20l112 152q10 13 27 13t26 -14l108 -152q6 -9 6 -19q0 -13 -9.5 -23t-23.5 -10q-17 0 -27 13l-82 116l-84 -116q-10 -13 -26 -13q-14 0 -24 10t-10 23zM39 199q0 144 18 287q2 14 12.5 24.5t27.5 10.5q15 0 25 -11.5t10 -26.5q0 -6 -2.5 -36t-6 -71.5 t-6 -88t-2.5 -85.5q0 -53 10.5 -85.5t27 -50.5t35 -24t35.5 -6q28 0 58 20t61.5 56t63.5 86.5t63 112.5q5 10 14 15.5t20 5.5q16 0 26.5 -12t10.5 -26q0 -10 -4 -17q-12 -23 -30 -56t-41 -68t-50.5 -69.5t-58.5 -62t-65 -44.5t-69 -17q-45 0 -79 19t-57.5 51t-35 75.5 t-11.5 93.5z" />
<glyph unicode="&#xef;" horiz-adv-x="430" d="M-38 674q0 22 15 37t36 15q22 0 37 -15t15 -37q0 -21 -15 -36t-37 -15q-21 0 -36 15t-15 36zM39 199q0 144 18 287q2 14 12.5 24.5t27.5 10.5q15 0 25 -11.5t10 -26.5q0 -6 -2.5 -36t-6 -71.5t-6 -88t-2.5 -85.5q0 -53 10.5 -85.5t27 -50.5t35 -24t35.5 -6q28 0 58 20 t61.5 56t63.5 86.5t63 112.5q5 10 14 15.5t20 5.5q16 0 26.5 -12t10.5 -26q0 -10 -4 -17q-12 -23 -30 -56t-41 -68t-50.5 -69.5t-58.5 -62t-65 -44.5t-69 -17q-45 0 -79 19t-57.5 51t-35 75.5t-11.5 93.5zM147 674q0 22 15 37t36 15q23 0 38 -15t15 -37q0 -21 -15 -36 t-38 -15q-21 0 -36 15t-15 36z" />
<glyph unicode="&#xf0;" horiz-adv-x="600" d="M-4 1005q0 8 2.5 16t16.5 15q1 0 8 4.5t21.5 9t36.5 8.5t53 4q72 0 137 -39t117 -108l161 80q3 1 6.5 2t5.5 1q15 2 25.5 -6.5t12.5 -22.5q2 -11 -3 -21.5t-16 -15.5l-153 -76q48 -84 76 -192t28 -234q0 -43 -6 -94t-19.5 -102t-36 -98t-56 -83t-79 -58t-104.5 -22 q-47 0 -85.5 16.5t-66 46t-43 71t-15.5 91.5q0 64 28.5 116.5t77 92t112 64t134.5 33.5q17 2 25.5 -8t8.5 -25q0 -17 -10 -28.5t-27 -13.5q-68 -7 -119 -30t-85.5 -55t-52 -70.5t-17.5 -75.5q0 -67 36.5 -110.5t100.5 -43.5q40 0 72 17.5t57 47t43 68t29.5 80.5t17 84.5 t5.5 80.5q0 120 -26.5 222t-71.5 178l-147 -72q-3 -2 -10.5 -5.5t-15.5 -4.5q-15 -2 -25 7t-12 22q-2 11 3 21.5t16 15.5l151 75q-41 51 -87 79t-94 28q-27 0 -43.5 -3t-28 -6t-19 -6t-15.5 -3q-15 0 -25 10t-10 25z" />
<glyph unicode="&#xf1;" horiz-adv-x="911" d="M34 294q0 7 3 15q45 107 84.5 157.5t78.5 50.5q23 0 39 -11.5t25.5 -30.5t14 -42t4.5 -47q0 -18 -2.5 -56t-6.5 -81.5t-7.5 -86.5t-6.5 -72q16 33 37 72.5t45 80t50.5 80.5t55.5 76q29 35 58.5 50.5t55.5 15.5q52 0 77 -38t25 -94q0 -13 -1.5 -31.5t-3 -39.5t-3 -42.5 t-1.5 -40.5q0 -24 2.5 -46t9.5 -38.5t20 -26t34 -9.5q38 0 74 29.5t66.5 70t53 82.5t33.5 68q5 11 14.5 17t20.5 6q17 0 27.5 -12.5t10.5 -26.5q0 -7 -3 -14q-4 -8 -16 -33t-31.5 -57.5t-45.5 -69t-57.5 -66.5t-68 -50t-76.5 -20q-45 0 -73 17.5t-44 46t-21.5 63t-5.5 69.5 q0 15 1.5 34t4 40t4 42t1.5 40q0 32 -10 43.5t-18 11.5q-16 0 -36.5 -18.5t-43 -48.5t-46 -67.5t-44 -74.5t-38 -70.5t-27.5 -55.5q-20 -42 -40 -56.5t-41 -14.5q-29 0 -46.5 17.5t-17.5 49.5q0 7 2 27.5t5 49t6 61.5t6 65.5t5 60.5t2 47q0 25 -2 48t-8 28q-9 -3 -32 -37.5 t-59 -121.5q-5 -11 -15 -17t-21 -6q-17 0 -27 11.5t-10 26.5zM251 700q0 16 6.5 32.5t18.5 29t30 20.5t42 8q21 0 36 -6.5t27 -16t20.5 -21.5t15.5 -22q10 -14 18.5 -24t20.5 -10q16 0 20 8.5t4 13.5q0 12 -4 22.5t-8 19.5q-7 12 -7 20q0 12 10 22t26 10q19 0 37 -23t18 -69 q0 -18 -7.5 -34t-20.5 -28t-31.5 -19t-40.5 -7q-20 0 -35 6t-26.5 16t-19.5 21t-15 22q-9 14 -17.5 24t-20.5 10q-9 0 -14.5 -3.5t-7.5 -7.5t-2.5 -8.5t-0.5 -5.5q0 -10 2.5 -17.5t6.5 -15.5q2 -4 3 -8t1 -9q0 -13 -10 -22.5t-26 -9.5q-8 0 -17 3.5t-16 12.5t-11.5 25 t-4.5 41z" />
<glyph unicode="&#xf2;" horiz-adv-x="647" d="M20 198q0 64 23 111.5t53 79t60 47t45 15.5q17 0 25.5 -9t8.5 -24q0 -17 -10.5 -25.5t-26.5 -16.5t-34 -22.5t-33.5 -36.5t-25.5 -52t-10 -67q0 -33 10 -61.5t29 -49t45 -32t58 -11.5q57 0 94.5 26.5t57.5 67.5q-59 31 -97 88t-38 128q0 57 27.5 93t72.5 36q27 0 51 -13 t42.5 -41t29.5 -72t11 -105q0 -32 -8 -67q6 -1 12 -1h13q34 0 61 8t49 24t39.5 41t33.5 58q3 6 13 11.5t20 5.5q13 0 24.5 -10.5t11.5 -27.5q0 -8 -4 -17.5t-8 -17.5q-17 -30 -39.5 -57.5t-53 -48t-68.5 -32.5t-85 -11q-25 0 -44 4q-15 -30 -36 -55.5t-48.5 -44.5t-61.5 -30 t-74 -11q-47 0 -86 16.5t-68 46t-45 71t-16 91.5zM151 764q0 14 10 24t23 10q12 0 23 -9l160 -152q10 -10 10 -24q0 -13 -9.5 -23t-23.5 -10q-13 0 -23 9l-160 152q-10 9 -10 23zM328 362q0 -19 5 -40t15.5 -41.5t26 -39t36.5 -31.5q3 21 3 41q0 27 -4 55t-11.5 51.5 t-18.5 38t-26 14.5q-6 0 -16 -9t-10 -39z" />
<glyph unicode="&#xf3;" horiz-adv-x="647" d="M20 198q0 64 23 111.5t53 79t60 47t45 15.5q17 0 25.5 -9t8.5 -24q0 -17 -10.5 -25.5t-26.5 -16.5t-34 -22.5t-33.5 -36.5t-25.5 -52t-10 -67q0 -33 10 -61.5t29 -49t45 -32t58 -11.5q57 0 94.5 26.5t57.5 67.5q-59 31 -97 88t-38 128q0 57 27.5 93t72.5 36q27 0 51 -13 t42.5 -41t29.5 -72t11 -105q0 -32 -8 -67q6 -1 12 -1h13q34 0 61 8t49 24t39.5 41t33.5 58q3 6 13 11.5t20 5.5q13 0 24.5 -10.5t11.5 -27.5q0 -8 -4 -17.5t-8 -17.5q-17 -30 -39.5 -57.5t-53 -48t-68.5 -32.5t-85 -11q-25 0 -44 4q-15 -30 -36 -55.5t-48.5 -44.5t-61.5 -30 t-74 -11q-47 0 -86 16.5t-68 46t-45 71t-16 91.5zM231 613q0 14 10 24l160 152q10 9 23 9t23 -10t10 -24t-10 -23l-160 -152q-11 -9 -23 -9q-14 0 -23.5 10t-9.5 23zM328 362q0 -19 5 -40t15.5 -41.5t26 -39t36.5 -31.5q3 21 3 41q0 27 -4 55t-11.5 51.5t-18.5 38t-26 14.5 q-6 0 -16 -9t-10 -39z" />
<glyph unicode="&#xf4;" horiz-adv-x="647" d="M20 198q0 64 23 111.5t53 79t60 47t45 15.5q17 0 25.5 -9t8.5 -24q0 -17 -10.5 -25.5t-26.5 -16.5t-34 -22.5t-33.5 -36.5t-25.5 -52t-10 -67q0 -33 10 -61.5t29 -49t45 -32t58 -11.5q57 0 94.5 26.5t57.5 67.5q-59 31 -97 88t-38 128q0 57 27.5 93t72.5 36q27 0 51 -13 t42.5 -41t29.5 -72t11 -105q0 -32 -8 -67q6 -1 12 -1h13q34 0 61 8t49 24t39.5 41t33.5 58q3 6 13 11.5t20 5.5q13 0 24.5 -10.5t11.5 -27.5q0 -8 -4 -17.5t-8 -17.5q-17 -30 -39.5 -57.5t-53 -48t-68.5 -32.5t-85 -11q-25 0 -44 4q-15 -30 -36 -55.5t-48.5 -44.5t-61.5 -30 t-74 -11q-47 0 -86 16.5t-68 46t-45 71t-16 91.5zM157 613q0 12 7 20l112 152q10 13 27 13t26 -14l108 -152q6 -9 6 -19q0 -13 -9.5 -23t-23.5 -10q-17 0 -27 13l-82 116l-84 -116q-10 -13 -26 -13q-14 0 -24 10t-10 23zM328 362q0 -19 5 -40t15.5 -41.5t26 -39t36.5 -31.5 q3 21 3 41q0 27 -4 55t-11.5 51.5t-18.5 38t-26 14.5q-6 0 -16 -9t-10 -39z" />
<glyph unicode="&#xf5;" horiz-adv-x="647" d="M20 198q0 64 23 111.5t53 79t60 47t45 15.5q17 0 25.5 -9t8.5 -24q0 -17 -10.5 -25.5t-26.5 -16.5t-34 -22.5t-33.5 -36.5t-25.5 -52t-10 -67q0 -33 10 -61.5t29 -49t45 -32t58 -11.5q57 0 94.5 26.5t57.5 67.5q-59 31 -97 88t-38 128q0 57 27.5 93t72.5 36q27 0 51 -13 t42.5 -41t29.5 -72t11 -105q0 -32 -8 -67q6 -1 12 -1h13q34 0 61 8t49 24t39.5 41t33.5 58q3 6 13 11.5t20 5.5q13 0 24.5 -10.5t11.5 -27.5q0 -8 -4 -17.5t-8 -17.5q-17 -30 -39.5 -57.5t-53 -48t-68.5 -32.5t-85 -11q-25 0 -44 4q-15 -30 -36 -55.5t-48.5 -44.5t-61.5 -30 t-74 -11q-47 0 -86 16.5t-68 46t-45 71t-16 91.5zM134 668q0 16 6.5 32.5t18.5 29t30 20.5t42 8q21 0 36 -6.5t27 -16t20.5 -21.5t15.5 -22q10 -14 18.5 -24t20.5 -10q16 0 20 8.5t4 13.5q0 12 -4 22.5t-8 19.5q-7 12 -7 20q0 12 10 22t26 10q19 0 37 -23t18 -69 q0 -18 -7.5 -34t-20.5 -28t-31.5 -19t-40.5 -7q-20 0 -35 6t-26.5 16t-19.5 21t-15 22q-9 14 -17.5 24t-20.5 10q-9 0 -14.5 -3.5t-7.5 -7.5t-2.5 -8.5t-0.5 -5.5q0 -10 2.5 -17.5t6.5 -15.5q2 -4 3 -8t1 -9q0 -13 -10 -22.5t-26 -9.5q-8 0 -17 3.5t-16 12.5t-11.5 25 t-4.5 41zM328 362q0 -19 5 -40t15.5 -41.5t26 -39t36.5 -31.5q3 21 3 41q0 27 -4 55t-11.5 51.5t-18.5 38t-26 14.5q-6 0 -16 -9t-10 -39z" />
<glyph unicode="&#xf6;" horiz-adv-x="647" d="M20 198q0 64 23 111.5t53 79t60 47t45 15.5q17 0 25.5 -9t8.5 -24q0 -17 -10.5 -25.5t-26.5 -16.5t-34 -22.5t-33.5 -36.5t-25.5 -52t-10 -67q0 -33 10 -61.5t29 -49t45 -32t58 -11.5q57 0 94.5 26.5t57.5 67.5q-59 31 -97 88t-38 128q0 57 27.5 93t72.5 36q27 0 51 -13 t42.5 -41t29.5 -72t11 -105q0 -32 -8 -67q6 -1 12 -1h13q34 0 61 8t49 24t39.5 41t33.5 58q3 6 13 11.5t20 5.5q13 0 24.5 -10.5t11.5 -27.5q0 -8 -4 -17.5t-8 -17.5q-17 -30 -39.5 -57.5t-53 -48t-68.5 -32.5t-85 -11q-25 0 -44 4q-15 -30 -36 -55.5t-48.5 -44.5t-61.5 -30 t-74 -11q-47 0 -86 16.5t-68 46t-45 71t-16 91.5zM158 670q0 22 15 37t36 15q22 0 37 -15t15 -37q0 -21 -15 -36t-37 -15q-21 0 -36 15t-15 36zM328 362q0 -19 5 -40t15.5 -41.5t26 -39t36.5 -31.5q3 21 3 41q0 27 -4 55t-11.5 51.5t-18.5 38t-26 14.5q-6 0 -16 -9t-10 -39z M343 670q0 22 15 37t36 15q23 0 38 -15t15 -37q0 -21 -15 -36t-38 -15q-21 0 -36 15t-15 36z" />
<glyph unicode="&#xf7;" d="M75 599q0 16 9.5 27.5t26.5 12.5l524 28q16 1 27.5 -9t12.5 -26q0 -16 -9.5 -27.5t-26.5 -12.5l-524 -28q-15 -1 -27.5 8.5t-12.5 26.5zM323 454q0 21 15 36.5t37 15.5q21 0 36.5 -15.5t15.5 -36.5q0 -22 -15.5 -37t-36.5 -15q-22 0 -37 15t-15 37zM333 778q0 21 15 36 t37 15q21 0 36 -15t15 -36q0 -22 -15 -37t-36 -15q-22 0 -37 15t-15 37z" />
<glyph unicode="&#xf8;" horiz-adv-x="647" d="M20 198q0 64 23 111.5t53 79t60 47t45 15.5q17 0 25.5 -9t8.5 -24q0 -17 -10.5 -25.5t-26.5 -16.5t-34 -22.5t-33.5 -36.5t-25.5 -52t-10 -67t12 -67t34 -50l127 194q-14 39 -14 79q0 57 27.5 93t72.5 36q23 0 43 -10l45 69q5 8 12 11t15 3q14 -1 23 -10.5t9 -20.5 q0 -13 -7 -23l-47 -72q19 -28 30 -71.5t11 -106.5q0 -32 -8 -67q6 -1 12 -1h13q34 0 61 8t49 24t39.5 41t33.5 58q3 6 13 11.5t20 5.5q13 0 24.5 -10.5t11.5 -27.5q0 -8 -4 -17.5t-8 -17.5q-17 -30 -39.5 -57.5t-53 -48t-68.5 -32.5t-85 -11q-25 0 -44 4q-15 -30 -36 -55.5 t-48.5 -44.5t-61.5 -30t-74 -11q-41 0 -78 14l-61 -94q-8 -13 -27 -13q-15 1 -23.5 10.5t-8.5 22.5q0 6 2.5 11t5.5 10l55 84q-38 30 -59 76t-21 104zM198 49q20 -5 39 -5q57 0 94.5 26.5t57.5 67.5q-52 28 -86 73zM328 367l28 43h-2q-6 0 -15.5 -8t-10.5 -35zM348 280 q11 -20 26.5 -38t36.5 -32q3 21 3 41q0 26 -3.5 54t-11.5 51z" />
<glyph unicode="&#xf9;" horiz-adv-x="717" d="M30 185q0 70 13.5 124t29.5 90.5t30 55.5l14 19q5 6 12.5 9t15.5 3q16 0 26.5 -11.5t10.5 -26.5q0 -6 -2.5 -12t-5.5 -12q-5 -9 -16 -27.5t-23 -48.5t-21 -70.5t-9 -92.5q0 -59 23.5 -89.5t66.5 -30.5q18 0 41.5 11.5t46 35.5t39.5 61t22 87l15 172q2 15 13 25t26 10 q17 0 27 -12.5t10 -28.5l-13 -166q-2 -21 1.5 -55t14.5 -67t33 -56.5t58 -23.5q26 0 51 13.5t48 35.5t42.5 49.5t36 55.5t28.5 53.5t20 43.5q5 11 14 17t20 6q18 0 28 -12t10 -26q0 -8 -3 -15q-4 -8 -15.5 -33.5t-30 -58t-44.5 -68.5t-58 -66.5t-69.5 -50t-80.5 -19.5 q-59 0 -98 33.5t-58 95.5q-35 -57 -81.5 -90t-93.5 -33q-38 0 -68 14t-52 39.5t-33.5 61.5t-11.5 81zM147 768q0 14 10 24t23 10q12 0 23 -9l160 -152q10 -10 10 -24q0 -13 -9.5 -23t-23.5 -10q-13 0 -23 9l-160 152q-10 9 -10 23z" />
<glyph unicode="&#xfa;" horiz-adv-x="717" d="M30 185q0 70 13.5 124t29.5 90.5t30 55.5l14 19q5 6 12.5 9t15.5 3q16 0 26.5 -11.5t10.5 -26.5q0 -6 -2.5 -12t-5.5 -12q-5 -9 -16 -27.5t-23 -48.5t-21 -70.5t-9 -92.5q0 -59 23.5 -89.5t66.5 -30.5q18 0 41.5 11.5t46 35.5t39.5 61t22 87l15 172q2 15 13 25t26 10 q17 0 27 -12.5t10 -28.5l-13 -166q-2 -21 1.5 -55t14.5 -67t33 -56.5t58 -23.5q26 0 51 13.5t48 35.5t42.5 49.5t36 55.5t28.5 53.5t20 43.5q5 11 14 17t20 6q18 0 28 -12t10 -26q0 -8 -3 -15q-4 -8 -15.5 -33.5t-30 -58t-44.5 -68.5t-58 -66.5t-69.5 -50t-80.5 -19.5 q-59 0 -98 33.5t-58 95.5q-35 -57 -81.5 -90t-93.5 -33q-38 0 -68 14t-52 39.5t-33.5 61.5t-11.5 81zM227 617q0 14 10 24l160 152q10 9 23 9t23 -10t10 -24t-10 -23l-160 -152q-11 -9 -23 -9q-14 0 -23.5 10t-9.5 23z" />
<glyph unicode="&#xfb;" horiz-adv-x="717" d="M30 185q0 70 13.5 124t29.5 90.5t30 55.5l14 19q5 6 12.5 9t15.5 3q16 0 26.5 -11.5t10.5 -26.5q0 -6 -2.5 -12t-5.5 -12q-5 -9 -16 -27.5t-23 -48.5t-21 -70.5t-9 -92.5q0 -59 23.5 -89.5t66.5 -30.5q18 0 41.5 11.5t46 35.5t39.5 61t22 87l15 172q2 15 13 25t26 10 q17 0 27 -12.5t10 -28.5l-13 -166q-2 -21 1.5 -55t14.5 -67t33 -56.5t58 -23.5q26 0 51 13.5t48 35.5t42.5 49.5t36 55.5t28.5 53.5t20 43.5q5 11 14 17t20 6q18 0 28 -12t10 -26q0 -8 -3 -15q-4 -8 -15.5 -33.5t-30 -58t-44.5 -68.5t-58 -66.5t-69.5 -50t-80.5 -19.5 q-59 0 -98 33.5t-58 95.5q-35 -57 -81.5 -90t-93.5 -33q-38 0 -68 14t-52 39.5t-33.5 61.5t-11.5 81zM153 617q0 12 7 20l112 152q10 13 27 13t26 -14l108 -152q6 -9 6 -19q0 -13 -9.5 -23t-23.5 -10q-17 0 -27 13l-82 116l-84 -116q-10 -13 -26 -13q-14 0 -24 10t-10 23z " />
<glyph unicode="&#xfc;" horiz-adv-x="717" d="M30 185q0 70 13.5 124t29.5 90.5t30 55.5l14 19q5 6 12.5 9t15.5 3q16 0 26.5 -11.5t10.5 -26.5q0 -6 -2.5 -12t-5.5 -12q-5 -9 -16 -27.5t-23 -48.5t-21 -70.5t-9 -92.5q0 -59 23.5 -89.5t66.5 -30.5q18 0 41.5 11.5t46 35.5t39.5 61t22 87l15 172q2 15 13 25t26 10 q17 0 27 -12.5t10 -28.5l-13 -166q-2 -21 1.5 -55t14.5 -67t33 -56.5t58 -23.5q26 0 51 13.5t48 35.5t42.5 49.5t36 55.5t28.5 53.5t20 43.5q5 11 14 17t20 6q18 0 28 -12t10 -26q0 -8 -3 -15q-4 -8 -15.5 -33.5t-30 -58t-44.5 -68.5t-58 -66.5t-69.5 -50t-80.5 -19.5 q-59 0 -98 33.5t-58 95.5q-35 -57 -81.5 -90t-93.5 -33q-38 0 -68 14t-52 39.5t-33.5 61.5t-11.5 81zM154 674q0 22 15 37t36 15q22 0 37 -15t15 -37q0 -21 -15 -36t-37 -15q-21 0 -36 15t-15 36zM339 674q0 22 15 37t36 15q23 0 38 -15t15 -37q0 -21 -15 -36t-38 -15 q-21 0 -36 15t-15 36z" />
<glyph unicode="&#xfd;" horiz-adv-x="629" d="M30 180q0 65 12.5 118.5t27 92t26.5 59t12 19.5q11 17 31 17q17 0 27.5 -11.5t10.5 -26.5q0 -11 -6 -20q1 1 -9.5 -16.5t-23 -50.5t-23 -79t-10.5 -101t20 -86t65 -31q57 0 103 84.5t78 245.5q2 13 12 21.5t24 8.5q16 0 27 -11t11 -27q0 -3 -4 -35.5t-9.5 -86.5 t-11.5 -125.5t-10 -152.5q35 35 71 71.5t70 76.5t63.5 83.5t52.5 92.5q5 11 14 16.5t20 5.5q17 0 27.5 -12t10.5 -27q0 -8 -3 -15q-31 -65 -71 -119t-84 -102.5t-89 -94t-86 -91.5q-4 -69 0 -138.5t4 -147.5q0 -64 -4 -128t-13 -122.5t-24.5 -109.5t-39.5 -88.5t-56 -59 t-75 -21.5q-71 0 -109 49t-38 137q0 48 10.5 103t29.5 113.5t45.5 118.5t57.5 117t66 108.5t71 93.5q2 48 4.5 99.5t5.5 95.5q-26 -46 -64.5 -74t-84.5 -28q-76 0 -119 51t-43 140zM126 -758q0 -52 17 -81.5t54 -29.5q33 0 58.5 32.5t43 92.5t26.5 145.5t9 191.5 q0 43 -1.5 87t-2.5 94q-45 -65 -82.5 -137t-64.5 -143t-42 -136t-15 -116zM233 605q0 14 10 24l160 152q10 9 23 9t23 -10t10 -24t-10 -23l-160 -152q-11 -9 -23 -9q-14 0 -23.5 10t-9.5 23z" />
<glyph unicode="&#xfe;" horiz-adv-x="723" d="M-180 -813q0 85 21 197t59.5 237.5t91.5 257.5t117 257q0 35 0.5 69t0.5 66q-13 -15 -31 -15q-17 0 -27 12t-10 26q0 7 3 15q24 55 37 104.5t19.5 87t7.5 59.5t1 23v816q0 16 11 27t27 11q15 0 26 -11t11 -27v-1123q23 39 46 77t48.5 68t55 48.5t65.5 18.5q34 0 62 -16 t48 -44t30.5 -66.5t10.5 -82.5q0 -92 -33 -157t-81 -99h4q59 0 107.5 26.5t87.5 68t70 92.5t55 99q5 11 14.5 17t20.5 6q17 0 27 -12t10 -26q0 -8 -3 -15q-26 -58 -62 -116.5t-84 -105.5t-108 -76.5t-133 -29.5q-53 0 -102 17.5t-89 50.5q-6 6 -14.5 13.5t-16 17t-12.5 19.5 t-5 20q0 14 9.5 26t25.5 12q23 0 37 -20q7 -12 16 -22q8 -8 19 -14.5t25 -6.5q25 0 50 15t45 43t32.5 68t12.5 89q0 36 -7.5 61.5t-19 41.5t-24.5 23.5t-25 7.5q-27 0 -54.5 -28t-54.5 -71t-53.5 -95t-53.5 -101q-2 -162 -5.5 -309t-12 -273t-23.5 -228t-41 -174.5 t-64 -111.5t-93 -39q-17 0 -39 7t-41 28.5t-32 61.5t-13 107zM-106 -828q0 -17 2 -37t8 -37t17 -28.5t29 -11.5q33 0 57 41.5t40.5 112t27.5 162t17.5 191.5t9.5 201.5t5 191.5q-49 -110 -88.5 -221t-67 -214t-42.5 -193t-15 -158z" />
<glyph unicode="&#xff;" horiz-adv-x="629" d="M30 180q0 65 12.5 118.5t27 92t26.5 59t12 19.5q11 17 31 17q17 0 27.5 -11.5t10.5 -26.5q0 -11 -6 -20q1 1 -9.5 -16.5t-23 -50.5t-23 -79t-10.5 -101t20 -86t65 -31q57 0 103 84.5t78 245.5q2 13 12 21.5t24 8.5q16 0 27 -11t11 -27q0 -3 -4 -35.5t-9.5 -86.5 t-11.5 -125.5t-10 -152.5q35 35 71 71.5t70 76.5t63.5 83.5t52.5 92.5q5 11 14 16.5t20 5.5q17 0 27.5 -12t10.5 -27q0 -8 -3 -15q-31 -65 -71 -119t-84 -102.5t-89 -94t-86 -91.5q-4 -69 0 -138.5t4 -147.5q0 -64 -4 -128t-13 -122.5t-24.5 -109.5t-39.5 -88.5t-56 -59 t-75 -21.5q-71 0 -109 49t-38 137q0 48 10.5 103t29.5 113.5t45.5 118.5t57.5 117t66 108.5t71 93.5q2 48 4.5 99.5t5.5 95.5q-26 -46 -64.5 -74t-84.5 -28q-76 0 -119 51t-43 140zM126 -758q0 -52 17 -81.5t54 -29.5q33 0 58.5 32.5t43 92.5t26.5 145.5t9 191.5 q0 43 -1.5 87t-2.5 94q-45 -65 -82.5 -137t-64.5 -143t-42 -136t-15 -116zM160 662q0 22 15 37t36 15q22 0 37 -15t15 -37q0 -21 -15 -36t-37 -15q-21 0 -36 15t-15 36zM345 662q0 22 15 37t36 15q23 0 38 -15t15 -37q0 -21 -15 -36t-38 -15q-21 0 -36 15t-15 36z" />
<glyph unicode="&#x152;" horiz-adv-x="3002" d="M60 639q0 119 28.5 225.5t84 198t136.5 165t187 126.5q8 4 18 4q14 0 26 -10t12 -27q0 -11 -6.5 -20.5t-17.5 -14.5q-6 -3 -37.5 -18.5t-75 -47.5t-93 -81.5t-91 -120.5t-69 -165t-27.5 -214q0 -110 23.5 -194t62.5 -147t89.5 -107t104 -73t106.5 -46t97.5 -25t75.5 -10 t41 -2q124 0 237 39t203 120.5t151.5 207.5t83.5 300q-65 -29 -135.5 -45.5t-147.5 -16.5q-106 0 -206 27.5t-177 83t-124 138.5t-47 194q0 90 31.5 161.5t85.5 122t125 77t149 26.5q64 0 128.5 -15t124 -46.5t111 -79.5t90 -115t60.5 -152.5t22 -191.5q0 -79 -9 -151 q76 70 196 115q-57 53 -85 117t-28 133q0 86 39.5 159t109.5 126t166.5 82.5t211.5 29.5q116 0 202.5 -22t148 -55t101 -72t62.5 -73t32 -57.5t10 -26.5q1 -4 1 -11q0 -14 -10.5 -25.5t-27.5 -11.5q-12 0 -21.5 7.5t-13.5 20.5q0 2 -8 21.5t-28 47.5t-54.5 59.5t-88.5 59 t-129 45.5t-176 18q-116 0 -201.5 -29t-141 -75.5t-82.5 -103.5t-27 -112q0 -65 32 -124t92 -101q54 14 106 22t98 12.5t83.5 6t61.5 1.5q44 0 81 -6.5t63.5 -19t41.5 -32t15 -44.5t-15 -45t-41.5 -34t-63.5 -21.5t-81 -7.5q-48 0 -97 6t-95.5 17t-89.5 27.5t-78 37.5 q-159 -48 -241 -138.5t-82 -223.5q0 -72 25.5 -129.5t70.5 -101.5t105.5 -75.5t129.5 -51.5t144 -29.5t149 -9.5q48 0 93 3.5t87 10.5q126 20 221.5 58.5t165 84t115.5 93t73.5 87t39 64.5t11.5 26q4 12 13.5 18.5t21.5 6.5q16 0 27 -11t11 -26q0 -4 -2 -12q-1 -4 -14 -34 t-43.5 -74t-80.5 -97t-126 -103.5t-180 -92t-241 -63.5q-92 -15 -193 -15q-115 0 -229 22t-209.5 69t-163 119.5t-88.5 174.5q-50 -89 -117 -157.5t-148.5 -116t-175.5 -72t-197 -24.5q-80 0 -161.5 17t-156.5 52.5t-140 90t-113 130t-75.5 172t-27.5 216.5zM649 1083 q0 -72 30.5 -138.5t90.5 -118t149.5 -82t208.5 -30.5q81 0 154.5 20t139.5 54q3 39 3 78q0 142 -41.5 243t-108 165t-149.5 93.5t-166 29.5q-64 0 -120.5 -21t-99 -61t-67 -98.5t-24.5 -133.5zM1868 810q52 -19 119.5 -30.5t136.5 -11.5q63 0 93 10t30 22q0 8 -13 14 t-33.5 9.5t-46.5 5t-53 1.5q-59 0 -112 -3.5t-121 -16.5z" />
<glyph unicode="&#x153;" horiz-adv-x="897" d="M20 208q0 16 2 37t7.5 40t15.5 32.5t27 13.5q14 0 23.5 -7.5t12.5 -17.5q1 31 14 63t36 57t56 41t74 16q50 0 90.5 -23.5t66.5 -63.5q23 45 60 70.5t85 25.5q23 0 45.5 -9.5t40.5 -27t29 -42.5t11 -57q0 -41 -14 -77t-38.5 -67t-58.5 -57t-73 -45q21 -29 54 -46.5 t81 -17.5q49 0 89 23.5t73 61.5t59 85t47 94q5 11 14 16.5t20 5.5q17 0 27.5 -12t10.5 -26q0 -5 -1 -8.5t-3 -7.5q-69 -152 -150.5 -229t-184.5 -79q-83 0 -137 38t-83 95q-15 -28 -36.5 -52t-48.5 -42t-59 -28t-68 -10q-47 0 -86.5 18.5t-68 50.5t-45 75t-16.5 93zM95 208 q0 -33 9 -62.5t27 -51.5t44 -34.5t60 -12.5q42 0 75 18t55.5 46.5t34.5 65t12 74.5q0 20 -5 47t-18.5 51.5t-38 41.5t-63.5 17q-32 0 -52.5 -12.5t-31.5 -30t-15 -34.5t-4 -26q0 -38 22 -61.5t51 -23.5q37 0 75 36q11 11 26 11t26.5 -10.5t11.5 -27.5q0 -16 -12 -28 q-33 -31 -65 -43.5t-61 -12.5q-33 0 -59 12t-45 31.5t-30.5 45t-14.5 51.5q-1 -10 -7.5 -30t-6.5 -47zM490 251q0 -18 3.5 -38t8.5 -38q31 13 56.5 33t43.5 44t28 50.5t10 53.5q0 30 -15 45.5t-35 15.5q-27 0 -46 -15t-31 -39t-17.5 -53.5t-5.5 -58.5z" />
<glyph unicode="&#x178;" horiz-adv-x="2076" d="M80 883q0 126 42.5 230.5t115.5 179.5t171.5 116.5t209.5 41.5q93 0 166.5 -32.5t123.5 -89t76.5 -133.5t26.5 -166q0 -33 -3 -67.5t-11 -70.5q-15 -77 -33.5 -157t-34.5 -158t-26.5 -152t-10.5 -139q0 -58 11.5 -107.5t37.5 -86t68 -57t104 -20.5q113 0 220.5 101 t207.5 302q38 76 71 165t60 178t48.5 171t36 145.5t22.5 102.5t8 40q2 14 12.5 22.5t23.5 8.5q17 0 27.5 -11.5t10.5 -25.5q0 -4 -5 -36.5t-13 -85t-18.5 -121.5t-21.5 -145q-8 -57 -16.5 -130.5t-15.5 -151.5t-11.5 -155t-4.5 -141q0 -54 3 -112.5t8 -116.5q41 17 83.5 30 t79.5 22.5t65 14.5t39 6q20 2 31 -9.5t11 -28.5q0 -32 -39 -38q-2 0 -25.5 -4t-60 -13t-83.5 -23.5t-96 -35.5q4 -54 6 -107.5t2 -105.5q0 -105 -16 -205t-54 -178.5t-101 -126.5t-156 -48q-54 0 -97 19.5t-73 53t-46 78.5t-16 96q0 67 28 143t86 152.5t147 148t211 128.5 q-5 63 -8.5 132.5t-3.5 134.5q0 33 2 75.5t6 91.5t9.5 103t11.5 110q-59 -170 -128 -300t-144.5 -217.5t-157.5 -132.5t-167 -45q-75 0 -130 24.5t-92 69t-55 107.5t-18 141q0 104 22 222.5t49 240.5q16 73 32 147t16 140q0 73 -21 136t-61.5 109t-99.5 72.5t-135 26.5 q-96 0 -180.5 -36.5t-147.5 -101.5t-100 -154t-37 -194q0 -63 15 -125.5t46.5 -115t80.5 -89.5t117 -49q14 -2 23.5 -13t9.5 -25q0 -15 -11 -26.5t-26 -11.5q-11 0 -40 8t-65.5 27t-76.5 51.5t-72.5 82.5t-54 118.5t-21.5 160.5zM1252 1507q0 22 15 37t36 15q22 0 37 -15 t15 -37q0 -21 -15 -36t-37 -15q-21 0 -36 15t-15 36zM1297 -584q0 -36 10.5 -67t30.5 -54.5t49 -36.5t65 -13q54 0 93.5 23t68 62t46 89t28 103.5t14 107t3.5 99.5q0 43 -2 87.5t-4 89.5q-96 -44 -170.5 -105t-126 -127.5t-78.5 -133.5t-27 -124zM1437 1507q0 22 15 37 t36 15q23 0 38 -15t15 -37q0 -21 -15 -36t-38 -15q-21 0 -36 15t-15 36z" />
<glyph unicode="&#x2c6;" horiz-adv-x="500" d="M107 617q0 12 7 20l112 152q10 13 27 13t26 -14l108 -152q6 -9 6 -19q0 -13 -9.5 -23t-23.5 -10q-17 0 -27 13l-82 116l-84 -116q-10 -13 -26 -13q-14 0 -24 10t-10 23z" />
<glyph unicode="&#x2dc;" horiz-adv-x="500" d="M84 672q0 16 6.5 32.5t18.5 29t30 20.5t42 8q21 0 36 -6.5t27 -16t20.5 -21.5t15.5 -22q10 -14 18.5 -24t20.5 -10q16 0 20 8.5t4 13.5q0 12 -4 22.5t-8 19.5q-7 12 -7 20q0 12 10 22t26 10q19 0 37 -23t18 -69q0 -18 -7.5 -34t-20.5 -28t-31.5 -19t-40.5 -7q-20 0 -35 6 t-26.5 16t-19.5 21t-15 22q-9 14 -17.5 24t-20.5 10q-9 0 -14.5 -3.5t-7.5 -7.5t-2.5 -8.5t-0.5 -5.5q0 -10 2.5 -17.5t6.5 -15.5q2 -4 3 -8t1 -9q0 -13 -10 -22.5t-26 -9.5q-8 0 -17 3.5t-16 12.5t-11.5 25t-4.5 41z" />
<glyph unicode="&#x2000;" horiz-adv-x="924" />
<glyph unicode="&#x2001;" horiz-adv-x="1848" />
<glyph unicode="&#x2002;" horiz-adv-x="924" />
<glyph unicode="&#x2003;" horiz-adv-x="1848" />
<glyph unicode="&#x2004;" horiz-adv-x="616" />
<glyph unicode="&#x2005;" horiz-adv-x="462" />
<glyph unicode="&#x2006;" horiz-adv-x="308" />
<glyph unicode="&#x2007;" horiz-adv-x="308" />
<glyph unicode="&#x2008;" horiz-adv-x="231" />
<glyph unicode="&#x2009;" horiz-adv-x="369" />
<glyph unicode="&#x200a;" horiz-adv-x="102" />
<glyph unicode="&#x2010;" d="M240 327q0 16 9.5 27.5t26.5 12.5l344 18q16 1 27.5 -9t12.5 -26q0 -16 -9.5 -27.5t-26.5 -12.5l-344 -18q-15 -1 -27.5 8.5t-12.5 26.5z" />
<glyph unicode="&#x2011;" d="M240 327q0 16 9.5 27.5t26.5 12.5l344 18q16 1 27.5 -9t12.5 -26q0 -16 -9.5 -27.5t-26.5 -12.5l-344 -18q-15 -1 -27.5 8.5t-12.5 26.5z" />
<glyph unicode="&#x2012;" d="M240 327q0 16 9.5 27.5t26.5 12.5l344 18q16 1 27.5 -9t12.5 -26q0 -16 -9.5 -27.5t-26.5 -12.5l-344 -18q-15 -1 -27.5 8.5t-12.5 26.5z" />
<glyph unicode="&#x2013;" horiz-adv-x="1024" d="M241 287q-1 16 9.5 27.5t26.5 12.5l616 31q16 1 27.5 -9.5t12.5 -26.5t-9.5 -27.5t-26.5 -12.5l-618 -31q-15 -1 -26 10t-12 26z" />
<glyph unicode="&#x2014;" horiz-adv-x="2048" d="M241 287q-1 16 9.5 27.5t26.5 12.5l1640 51q16 1 27.5 -9.5t12.5 -26.5t-9.5 -27.5t-26.5 -12.5l-1642 -51q-15 -1 -26 10t-12 26z" />
<glyph unicode="&#x2018;" horiz-adv-x="327" d="M81 1128q-6 154 101 261q10 11 26 11q17 0 27 -11q11 -11 11 -26.5t-11 -26.5q-83 -83 -78 -205q0 -16 -10.5 -27t-26.5 -12q-15 -1 -26.5 9.5t-12.5 26.5z" />
<glyph unicode="&#x2019;" horiz-adv-x="327" d="M81 1129.5q0 15.5 11 26.5q83 85 79 205q-1 16 9.5 27.5t26.5 11.5q15 0 26.5 -10t12.5 -26q6 -153 -100 -261q-13 -11 -27 -11q-16 0 -27 11t-11 26.5z" />
<glyph unicode="&#x201a;" horiz-adv-x="325" d="M80 -198q0 16 11 27q38 39 58.5 89.5t20.5 115.5q0 16 9.5 27.5t26.5 11.5q15 0 26.5 -9.5t12.5 -26.5q0 -72 -21.5 -139.5t-78.5 -121.5q-13 -11 -27 -11t-26 10.5t-12 26.5z" />
<glyph unicode="&#x201c;" horiz-adv-x="497" d="M81 1128q-5 155 101 261q10 11 27 11q16 0 26 -11q11 -11 11 -26.5t-11 -26.5q-83 -83 -78 -205q0 -16 -10.5 -27t-26.5 -12q-15 -1 -26.5 9.5t-12.5 26.5zM251 1128q-5 155 101 261q10 11 27 11q16 0 26 -11q11 -11 11 -26.5t-11 -26.5q-83 -83 -78 -205 q0 -16 -10.5 -27t-26.5 -12q-15 -1 -26.5 9.5t-12.5 26.5z" />
<glyph unicode="&#x201d;" horiz-adv-x="497" d="M81 1129.5q0 15.5 11 26.5q83 85 79 205q-1 16 9.5 27.5t26.5 11.5q15 0 26.5 -10t12.5 -26q6 -153 -100 -261q-13 -11 -27 -11q-16 0 -27 11t-11 26.5zM251 1129.5q0 15.5 11 26.5q83 85 79 205q-1 16 9.5 27.5t26.5 11.5q15 0 26.5 -10t12.5 -26q6 -153 -100 -261 q-13 -11 -27 -11q-16 0 -27 11t-11 26.5z" />
<glyph unicode="&#x201e;" horiz-adv-x="497" d="M81 -197.5q0 15.5 11 26.5q83 85 79 205q-1 16 9.5 27.5t26.5 11.5q15 1 26.5 -9.5t12.5 -26.5q6 -153 -100 -261q-13 -11 -27 -11q-16 0 -27 11t-11 26.5zM251 -197.5q0 15.5 11 26.5q83 85 79 205q-1 16 9.5 27.5t26.5 11.5q15 1 26.5 -9.5t12.5 -26.5 q6 -153 -100 -261q-13 -11 -27 -11q-16 0 -27 11t-11 26.5z" />
<glyph unicode="&#x2022;" horiz-adv-x="500" d="M123 648q0 26 10 48.5t27 39.5t40.5 27t49.5 10t49 -10t40 -27t27 -39.5t10 -48.5t-10 -48.5t-27 -39.5t-40 -27t-49 -10t-49.5 10t-40.5 27t-27 39.5t-10 48.5z" />
<glyph unicode="&#x2026;" horiz-adv-x="1104" d="M130 29q0 22 15.5 37.5t38.5 15.5t38.5 -15.5t15.5 -37.5q0 -23 -15.5 -38.5t-38.5 -15.5t-38.5 15.5t-15.5 38.5zM498 29q0 22 15.5 37.5t38.5 15.5t38.5 -15.5t15.5 -37.5q0 -23 -15.5 -38.5t-38.5 -15.5t-38.5 15.5t-15.5 38.5zM866 29q0 22 15.5 37.5t38.5 15.5 t38.5 -15.5t15.5 -37.5q0 -23 -15.5 -38.5t-38.5 -15.5t-38.5 15.5t-15.5 38.5z" />
<glyph unicode="&#x202f;" horiz-adv-x="369" />
<glyph unicode="&#x2039;" horiz-adv-x="598" d="M150 219q0 22 21 33q63 32 119 78.5t98 90t67 74.5t25 32q5 8 13.5 11.5t16.5 3.5q17 0 27.5 -11.5t10.5 -25.5q0 -13 -7 -23q-2 -3 -24 -30.5t-59 -67t-87.5 -84.5t-108.5 -82q48 -29 93.5 -59.5t92.5 -63.5q12 -9 29.5 -21t33 -24.5t26.5 -25.5t11 -23q0 -14 -11 -24.5 t-27 -10.5q-11 0 -21 7q-84 58 -161 111.5t-159 100.5q-19 11 -19 34z" />
<glyph unicode="&#x203a;" horiz-adv-x="598" d="M150 1q0 10 11 23t26.5 25.5t33 24.5t29.5 21q47 33 92.5 63.5t93.5 59.5q-59 37 -109 82t-87 84.5t-59 67t-24 30.5q-7 10 -7 23q0 14 10.5 25.5t27.5 11.5q19 0 30 -15q0 -1 25 -32t67 -74.5t98 -90t119 -78.5q21 -11 21 -33q0 -23 -19 -34q-83 -47 -159.5 -100.5 t-160.5 -111.5q-10 -7 -21 -7q-16 0 -27 10.5t-11 24.5z" />
<glyph unicode="&#x205f;" horiz-adv-x="462" />
<glyph unicode="&#x20ac;" horiz-adv-x="1095" d="M60 620q0 16 11 27t27 11h80v23q0 28 3 54h-80q-16 0 -27 10.5t-11 26.5t11 27t26 11l99 1q17 48 42 83.5t51 61.5q34 35 76 62t88 46t95 28.5t98 9.5q69 0 129.5 -16.5t105.5 -47t71 -73t26 -93.5q0 -48 -22 -91t-60 -75.5t-89.5 -51.5t-109.5 -19q-26 0 -38 11.5 t-11.5 26t12.5 26t36 11.5q43 0 81 13.5t66 35.5t44 51t16 61q0 35 -20.5 63.5t-56 49t-82.5 31.5t-99 11q-39 0 -91 -11.5t-105 -37t-99 -66.5t-73 -100l271 3q16 0 27 -10.5t11 -26.5t-11 -27t-26 -11l-295 -3q-2 -14 -3 -27.5t-1 -27.5v-11.5t1 -10.5l238 1 q15 0 26.5 -10.5t11.5 -26.5t-10.5 -27t-26.5 -11l-225 -2q19 -55 57.5 -92t86.5 -59.5t101 -32t101 -9.5q57 0 109.5 16t97.5 42t79.5 58.5t54.5 65.5q5 9 14 13.5t19 4.5q17 0 27 -12t10 -26q0 -12 -5 -19q-29 -48 -74.5 -88t-100 -69t-114.5 -45t-118 -16q-33 0 -72 4 t-79 14.5t-80 27.5t-75 44q-92 69 -118 177h-91q-16 0 -27 11t-11 27z" />
<glyph unicode="&#x2122;" horiz-adv-x="1076" d="M30 1258q0 12 8.5 20t19.5 8h139q19 154 85 154q35 0 50 -32t15 -89q0 -9 -0.5 -17t-0.5 -16h544q12 0 20 -8t8 -20t-8 -20t-20 -8h-549q-6 -50 -16 -90.5t-19.5 -69t-16 -43t-5.5 -12.5q-5 -8 -12 -11q14 -32 28 -49.5t33 -17.5q12 0 23 10t20.5 25t19 32t18.5 30 q0 2 2 6q7 18 16 36t19 31.5t21.5 22t25.5 8.5q15 0 24.5 -7.5t15 -19t7.5 -25.5t2 -27l-1 -13q-2 -14 -2 -27.5t-1 -26.5q36 67 61 95.5t54 28.5t42.5 -22t13.5 -52q0 -8 -0.5 -19t-1.5 -24q19 37 35 59.5t29.5 35t25.5 17t24 4.5q19 0 31 -7.5t19 -18.5t9.5 -23.5 t2.5 -23.5q0 -16 -2.5 -28.5t-2.5 -38.5q0 -16 3.5 -27t16.5 -11q18 0 33.5 18.5t29.5 41t27 41.5t26 19q12 0 19.5 -8.5t7.5 -19.5q0 -4 -2 -12q-4 -9 -15.5 -31.5t-29.5 -46t-42.5 -41.5t-53.5 -18q-25 0 -40 9.5t-23.5 23.5t-11 30.5t-2.5 31.5q0 22 2 40t2 27 q0 8 -0.5 11t-1.5 5t-2 1q-6 0 -15.5 -11t-21.5 -29.5t-25 -42t-25 -48.5q-9 -18 -15.5 -28.5t-12.5 -16t-11.5 -7t-11.5 -1.5q-19 0 -27 12t-8 32q0 11 0.5 30.5t1.5 39t1.5 35.5t0.5 22q0 11 -1 12q-5 -2 -14.5 -15.5t-22 -33t-26 -43.5t-24.5 -47q-12 -23 -23.5 -31 t-22.5 -8q-17 0 -28.5 13.5t-11.5 32.5v5q1 6 2 20t1.5 31t1.5 35t2 32v15q-3 -5 -8.5 -18.5t-13.5 -25.5v-2q-3 -8 -14 -30t-28 -45.5t-40 -42t-51 -19.5q-33 0 -59.5 20.5t-45.5 57.5t-29 88.5t-10 112.5v36t1 34h-134q-11 0 -19.5 8t-8.5 20zM248 1164q0 -22 1 -41.5 t3 -36.5q8 25 16 64.5t13 79.5h-32q-1 -15 -1 -31.5v-34.5zM255 1286h33q1 10 1.5 18.5t0.5 15.5q0 23 -2.5 38t-4.5 22q-4 -5 -12.5 -25.5t-15.5 -68.5z" />
<glyph unicode="&#x25fc;" horiz-adv-x="625" d="M0 0v625h625v-625h-625z" />
</font>
</defs>
</svg>
