<?xml version="1.0" standalone="no"?>
<!DOCTYPE svg PUBLIC "-//W3C//DTD SVG 1.1//EN" "http://www.w3.org/Graphics/SVG/1.1/DTD/svg11.dtd" >
<svg>
<metadata>
Created by FontForge 20090914 at Wed May 15 10:56:42 2019
 By www-data
Copyright 1994 NovelFonts! Corporation
</metadata>
<defs>
<font id="Simmissa" horiz-adv-x="656" >
  <font-face 
    font-family="Simmissa"
    font-weight="400"
    font-stretch="normal"
    units-per-em="1000"
    panose-1="0 0 4 0 0 0 0 0 0 0"
    ascent="800"
    descent="-200"
    x-height="343.999"
    cap-height="700"
    bbox="-628.002 -311 1447 921.001"
    underline-thickness="49"
    underline-position="-65"
    unicode-range="U+0020-U+F002"
  />
<missing-glyph horiz-adv-x="500" 
d="M63 0v700h375v-700h-375zM125 63h250v575h-250v-575z" />
    <glyph glyph-name=".notdef" horiz-adv-x="500" 
d="M63 0v700h375v-700h-375zM125 63h250v575h-250v-575z" />
    <glyph glyph-name="space" unicode=" " horiz-adv-x="323" 
 />
    <glyph glyph-name="exclam" unicode="!" horiz-adv-x="399" 
d="M357 520c11.333 0 21.5 -4.33203 30.5 -12.999s13.5 -18.667 13.5 -30c0 -16.667 -10 -38.667 -30 -66c-4.66699 -6.66699 -20.667 -26 -48 -58c-77.333 -90.667 -139 -170.334 -185 -239.001l-5 2c51.333 87.333 98 183.666 140 288.999
c16.667 40.667 26.667 64.334 30 71.001c16 29.333 34 44 54 44zM141 43.001c0 -14 -5.33301 -25.832 -16 -35.499s-23 -14.5 -37 -14.5c-13.333 0 -25.333 4.5 -36 13.5s-16 19.833 -16 32.5c0 15.333 5.33301 28.166 16 38.499s23.667 15.5 39 15.5
c12.667 0 24.167 -5.33301 34.5 -16s15.5 -22 15.5 -34z" />
    <glyph glyph-name="quotedbl" unicode="&#x22;" horiz-adv-x="330" 
d="M266 464c-4.66699 46.667 -9.66699 93.667 -15 141c-6 56 -9 103 -9 141s12.667 57 38 57c20.667 0 31 -20 31 -60c0 -37.333 -2.66699 -84 -8 -140c-5.33301 -46 -10.333 -92.333 -15 -139h-22zM365 464c0 4 -5 51.668 -15 143.001c-6.66699 57.333 -10 105 -10 143
c0 35.333 13 53 39 53c21.333 0 32 -19.333 32 -58c0 -38 -2.66699 -85 -8 -141c-5.33301 -46.667 -10.333 -93.334 -15 -140.001h-23z" />
    <glyph glyph-name="numbersign" unicode="#" horiz-adv-x="809" 
d="M423 484h172l77 226h61l-78 -226h167l-18 -50h-166l-62 -177h168l-18 -50h-166l-77 -222h-60l75 222h-172l-75 -222h-63l78 222h-163l16 50h165l61 177h-164l16 50h165l77 226h61zM516 257l61 177h-171l-62 -177h172z" />
    <glyph glyph-name="dollar" unicode="$" horiz-adv-x="545" 
d="M477 605l-36 -61.999c59.333 -22 89 -55.333 89 -100c0 -29.333 -9 -50 -27 -62c-14.667 -9.33301 -37.667 -14 -69 -14c15.333 34 23 65.333 23 94c0 24 -8.33301 46 -25 66l-119 -187c46.667 -56.667 70 -105.334 70 -146.001c0 -52 -20.333 -94.333 -61 -127
c-38 -31.333 -83.667 -47 -137 -47c-18 0 -39.333 2.33301 -64 7l-40 -64l-16 6l39 64c-67.333 28.667 -101 72 -101 130c0 26 6.83301 48.333 20.5 67s33.167 28 58.5 28c12 0 23.167 -4.16699 33.5 -12.5s15.5 -18.5 15.5 -30.5c0 -30.667 -17 -46 -51 -46
c-7.33301 0 -15 2.33301 -23 7c-4.66699 -12 -7 -25.667 -7 -41c0 -31.333 21 -60 63 -86l140 227c-39.333 51.333 -59 93 -59 125c0 48.667 18.667 86.667 56 114c34 24.667 76.333 37 127 37c16.667 0 31.667 -1.33301 45 -4l38 63zM270 433.001
c0 -23.333 10.333 -50.001 31 -80.001l113 182c-8 4 -19.667 6 -35 6c-31.333 0 -57.333 -10.167 -78 -30.5s-31 -46.166 -31 -77.499zM306 165c0 26.667 -13.333 58.333 -40 95l-135 -217c14 -5.33301 30.667 -8 50 -8c36.667 0 66.667 12.667 90 38s35 56 35 92z" />
    <glyph glyph-name="percent" unicode="%" horiz-adv-x="919" 
d="M211 -14l382.001 493.999l-4 2c-26.667 -24.667 -55.334 -37 -86.001 -37c-20.667 0 -42.667 11 -66 33c0 -58 -22.667 -110.5 -68 -157.5s-96.666 -70.5 -153.999 -70.5c-28 0 -51.5 8.83301 -70.5 26.5s-28.5 40.167 -28.5 67.5c0 55.333 22.333 104.166 67 146.499
s95 63.5 151 63.5c29.333 0 54 -8.66699 74 -26l44.5 -49c15 -16.667 31.833 -25 50.5 -25c24 0 47.667 9.66699 71 29c11.333 8.66699 28.666 26.334 51.999 53.001c16.667 19.333 28.667 29 36 29c10.667 0 16 -5.66699 16 -17c0 -13.333 -70 -103.666 -210 -270.999
l-252 -299zM802.001 202.999c0 -55.333 -23.666 -104.833 -70.999 -148.5s-99 -65.5 -155 -65.5c-28.667 0 -51.834 9 -69.501 27s-26.5 41.333 -26.5 70c0 54.667 22 102.667 66 144s93.667 62 149 62c30.667 0 56.167 -7.33301 76.5 -22s30.5 -37 30.5 -67z
M208.002 258.999c36.667 0 75 32.333 115 97c36 60 54 110.333 54 151c0 10 -2.83301 19.167 -8.5 27.5s-13.5 12.5 -23.5 12.5c-38 0 -77.333 -32 -118 -96c-38 -60 -57 -110.333 -57 -151c0 -27.333 12.667 -41 38 -41zM571.002 -3.00098c36 0 73.668 31.667 113.001 95
c36.667 58 55 106.667 55 146c0 32 -10.333 48 -31 48c-38 0 -77.333 -32 -118 -96c-38.667 -59.333 -58 -109.333 -58 -150c0 -11.333 3.66699 -21.333 11 -30s16.666 -13 27.999 -13z" />
    <glyph glyph-name="ampersand" unicode="&#x26;" horiz-adv-x="845" 
d="M427 97c18.667 12.667 44.667 39.667 78 81c39.333 48.667 67.333 80.667 84 96c33.333 31.333 64.666 47 93.999 47c14.667 0 28 -4.66699 40 -14s18 -21 18 -35c0 -13.333 -5 -24.666 -15 -33.999s-22 -14 -36 -14c-9.33301 0 -17.833 3.33301 -25.5 10
s-11.5 14.667 -11.5 24c0 14 3 26.333 9 37c-28.667 -4 -68.334 -32.667 -119.001 -86l-108 -118c56 -54.667 118.667 -82 188 -82c90 0 164.667 46 224 138h8c-23.333 -54.667 -64.333 -96.334 -123 -125.001c-50.667 -24.667 -108.667 -37 -174 -37
c-64 0 -125.333 19.333 -184 58c-52.667 -38 -105.334 -57 -158.001 -57c-37.333 0 -69 10.667 -95 32c-28.667 22.667 -43 52.334 -43 89.001c0 92 62.333 159.333 187 202c10.667 60.667 32.667 111.667 66 153c38.667 48 86.334 72 143.001 72
c20.667 0 38.334 -4.66699 53.001 -14c17.333 -10.667 26 -25.667 26 -45c0 -35.333 -28 -68.333 -84 -99c-19.333 -10.667 -62.666 -29 -129.999 -55c4.66699 -82.667 34 -157.334 88 -224.001zM450 521c-35.333 0 -63.334 -23.666 -84.001 -70.999
c-15.333 -34.667 -24.333 -74 -27 -118c44.667 17.333 77.334 34.333 98.001 51c31.333 25.333 47 56.666 47 93.999c0 10.667 -3.16699 20.667 -9.5 30s-14.5 14 -24.5 14zM279.999 20.001c25.333 0 53.333 9.66699 84 29c-38 37.333 -64.5 74.5 -79.5 111.5
s-21.833 82.167 -20.5 135.5c-72.667 -31.333 -109 -80 -109 -146c0 -35.333 12 -65.833 36 -91.5s53.667 -38.5 89 -38.5z" />
    <glyph glyph-name="quotesingle" unicode="'" horiz-adv-x="230" 
d="M127 458c48.667 10 84.665 22.667 107.998 38c32.667 20.667 53.667 51.334 63 92.001c-5.33301 -2.66699 -11.666 -4 -18.999 -4c-11.333 0 -21 4 -29 12s-12 17.333 -12 28c0 33.333 17.333 50 52 50c16 0 29 -6.16699 39 -18.5s15 -26.5 15 -42.5
c0 -46.667 -25 -85.667 -75 -117c-43.333 -26.667 -90.666 -41.334 -141.999 -44.001v6z" />
    <glyph glyph-name="parenleft" unicode="(" horiz-adv-x="484" 
d="M656 689c-284.667 -148.667 -472.667 -388.998 -564 -720.998c-18.667 -66.667 -31.667 -159.667 -39 -279h-8c-6 48.667 -9 97.667 -9 147c0 159.333 28.5 295.166 85.5 407.499s149.5 216.166 277.5 311.499c88 65.333 173.667 112 257 140v-6z" />
    <glyph glyph-name="parenright" unicode=")" horiz-adv-x="484" 
d="M-255 -305c142.667 74.667 256 164 340 268c77.333 96 145 224.333 203 385c37.333 102.667 57.333 218.334 60 347.001h8c4.66699 -44.667 7 -93.334 7 -146.001c0 -159.333 -28.167 -295.5 -84.5 -408.5s-148.5 -216.833 -276.5 -311.5
c-85.333 -63.333 -171 -110 -257 -140v6z" />
    <glyph glyph-name="asterisk" unicode="*" horiz-adv-x="390" 
d="M459 697c17.333 0 25.999 -8.66895 25.999 -26.002c0 -14 -13.667 -30 -41 -48l-61 -35l76 -2c36 -4 54 -15.333 54 -34c0 -20 -11.333 -30 -34 -30c-10.667 0 -27.667 6 -51 18l-49 26c30 -57.333 45 -90.666 45 -99.999c0 -21.333 -10.667 -32 -32 -32
c-17.333 0 -27.333 16 -30 48c-0.666992 22 -1 44 -1 66l-1 16l-38 -59c-18.667 -26 -35.667 -39 -51 -39c-7.33301 0 -14.166 2.83301 -20.499 8.5s-9.5 12.167 -9.5 19.5c0 16 33 43.333 99 82c-82.667 0 -124 13.333 -124 40c0 20 11.333 30 34 30
c16.667 0 49 -16.333 97 -49c-28 63.333 -42 101 -42 113c0 17.333 10.667 26 32 26c20 0 30 -29 30 -87c0 -11.333 0.666992 -27.666 2 -48.999l38 59c18.667 25.333 36 38 52 38z" />
    <glyph glyph-name="plus" unicode="+" horiz-adv-x="627" 
d="M334 629v-279h277v-66h-275v-284h-69v283h-275v66h275v280h67z" />
    <glyph glyph-name="comma" unicode="," horiz-adv-x="329" 
d="M-69 -124c50 6.66699 87.334 18 112.001 34c29.333 19.333 50.666 51 63.999 95c-6.66699 -4 -15.667 -6 -27 -6c-10.667 0 -20 4.16699 -28 12.5s-12 17.833 -12 28.5c0 16.667 6 30.167 18 40.5s26.667 15.5 44 15.5c15.333 0 28.333 -6 39 -18s16 -26 16 -42
c0 -51.333 -25.667 -92.333 -77 -123c-40 -24 -89.667 -39 -149 -45v8z" />
    <glyph glyph-name="hyphen" unicode="-" horiz-adv-x="535" 
d="M393 247l-39 -64h-224l39 64h224z" />
    <glyph glyph-name="period" unicode="." horiz-adv-x="321" 
d="M147 49c0 -15.333 -4.83203 -28.5 -14.499 -39.5s-21.834 -16.5 -36.501 -16.5c-15.333 0 -28.5 5.33301 -39.5 16s-16.5 23.667 -16.5 39c0 16 5.16699 29.333 15.5 40s23.833 16 40.5 16c14 0 26 -5.5 36 -16.5s15 -23.833 15 -38.5z" />
    <glyph glyph-name="slash" unicode="/" horiz-adv-x="330" 
d="M393 698l-319 -714h-35l319 714h35z" />
    <glyph glyph-name="zero" unicode="0" 
d="M563 392c0 -88.667 -44.168 -177.667 -132.501 -267s-176.833 -134 -265.5 -134c-39.333 0 -70.333 14 -93 42c-21.333 25.333 -32 58.333 -32 99c0 88 42.833 175.167 128.5 261.5s172.834 129.5 261.501 129.5c39.333 0 71.333 -12 96 -36s37 -55.667 37 -95z
M211.999 17c70.667 0 133 46.668 187 140.001c47.333 82 71 161.333 71 238c0 27.333 -6.33301 51.666 -19 72.999c-14.667 24.667 -35 37 -61 37c-69.333 0 -131.333 -47.333 -186 -142c-48 -83.333 -72 -162.333 -72 -237c0 -26 6.66699 -49.667 20 -71
c15.333 -25.333 35.333 -38 60 -38z" />
    <glyph glyph-name="one" unicode="1" 
d="M536 520l-310 -505l88 4l-3 -11l-198 -8l265 419c-94 -36 -177.333 -66.667 -250 -92v9c162.667 56 297 119.667 403 191z" />
    <glyph glyph-name="two" unicode="2" 
d="M80 70c42 12.667 72.334 19 91.001 19c20.667 0 50.167 -5.5 88.5 -16.5s67.5 -16.5 87.5 -16.5c48 0 94.333 40.667 139 122l7 -3c-25.333 -49.333 -54.666 -90 -87.999 -122c-42.667 -41.333 -86.667 -62 -132 -62c-25.333 0 -60.666 10.5 -105.999 31.5
s-79 31.5 -101 31.5c-25.333 0 -45.333 -10.5 -60 -31.5s-26.667 -31.167 -36 -30.5l-6 3l-4 8c0 25.333 97 81.666 291 168.999c59.333 26.667 102.666 52.667 129.999 78c38.667 36.667 58 81.667 58 135c0 31.333 -9.33301 58.833 -28 82.5s-43.334 35.5 -74.001 35.5
c-32 0 -57.5 -9.66699 -76.5 -29s-28.5 -45 -28.5 -77c0 -16 5.16699 -30.833 15.5 -44.5s23.5 -20.5 39.5 -20.5s30.667 3.33301 44 10c-16.667 -44.667 -46.667 -67 -90 -67c-20 0 -37.667 8.16699 -53 24.5s-23 34.5 -23 54.5c0 48.667 23.333 89.334 70 122.001
c42 30 88.333 45 139 45c43.333 0 79.333 -10.333 108 -31c32.667 -23.333 49 -55.333 49 -96c0 -53.333 -19.667 -98 -59 -134c-29.333 -26.667 -74 -51.667 -134 -75l-144 -52c-30.667 -12.667 -69.334 -32 -116.001 -58z" />
    <glyph glyph-name="three" unicode="3" 
d="M452 173c0 -61.333 -31.6621 -108.333 -94.9951 -141c-50.667 -26 -110.334 -39 -179.001 -39c-45.333 0 -85 9 -119 27c-42.667 22.667 -64 54.667 -64 96c0 26.667 8.16699 50.667 24.5 72s37.833 32 64.5 32c35.333 0 66.333 -12.333 93 -37l-3 -8
c-14 2 -21.667 3 -23 3c-24 0 -42.667 -7.66699 -56 -23s-20 -35.333 -20 -60c0 -26.667 11.667 -48.834 35 -66.501s48.666 -26.5 75.999 -26.5c45.333 0 85.666 16.833 120.999 50.5s53 72.834 53 117.501c0 63.333 -34 95 -102 95c-14.667 0 -31 -1.66699 -49 -5l4 11
c83.333 11.333 137 22 161 32c57.333 23.333 86 64.333 86 123c0 21.333 -7.33301 41.166 -22 59.499s-32.334 27.5 -53.001 27.5c-26 0 -47.167 -7.83301 -63.5 -23.5s-24.5 -36.5 -24.5 -62.5c0 -13.333 4 -25.333 12 -36c9.33301 -12.667 20 -19 32 -19
c8.66699 0 21 4 37 12c-22 -40 -47.667 -60 -77 -60c-20.667 0 -37.667 5.33301 -51 16c-15.333 11.333 -23 27.333 -23 48c0 42.667 21.667 77 65 103c37.333 22.667 78.666 34 123.999 34c34 0 63 -7.33301 87 -22c28.667 -17.333 43 -41.666 43 -72.999
c0 -49.333 -27.667 -87 -83 -113c-28 -13.333 -77 -27 -147 -41c90.667 -2.66699 136 -37 136 -103z" />
    <glyph glyph-name="four" unicode="4" 
d="M532 599l-500 -402h243l184 299l104 14l-196 -313h112l-9 -15h-114l-104 -174l-105 -7l116 181h-267l487 417h49z" />
    <glyph glyph-name="five" unicode="5" 
d="M588 513l2.00098 -6.00098c-56 -54.667 -108.667 -82 -158 -82c-32 0 -62.333 7.66699 -91 23l-135 -157c42 19.333 81.333 29 118 29c39.333 0 72.333 -9.33301 99 -28c30.667 -21.333 46 -50.666 46 -87.999c0 -67.333 -29 -120.666 -87 -159.999
c-50.667 -34.667 -111.334 -52 -182.001 -52c-44 0 -82.333 9.33301 -115 28c-39.333 22.667 -59 54.667 -59 96c0 26.667 8.33301 50.667 25 72s38.334 32 65.001 32c35.333 0 68.333 -14.333 99 -43l-2 -5c-13.333 6 -25.333 9 -36 9c-48 0 -72 -28 -72 -84
c0 -26.667 11.167 -49.5 33.5 -68.5s47.166 -28.5 74.499 -28.5c46 0 86 21 120 63c31.333 39.333 47 82.666 47 129.999c0 72.667 -32.667 109 -98 109c-29.333 0 -66.333 -14.667 -111 -44l-8 8l219 258c40 -26.667 77 -40 111 -40c28 0 59.667 9.66699 95 29z" />
    <glyph glyph-name="six" unicode="6" 
d="M597 651c-72.667 0 -151.333 -40.001 -236 -120.001c-70 -66 -125.667 -138.667 -167 -218l3 -5c48 58 99.667 87 155 87c32.667 0 59.834 -9.66699 81.501 -29s32.5 -45.333 32.5 -78c0 -70 -29.667 -137 -89 -201c-61.333 -65.333 -127 -98 -197 -98
c-40.667 0 -71.667 13.333 -93 40c-19.333 24 -29 57 -29 99c0 86 31.333 172 94 258c58 80.667 132.667 147.167 224 199.5s179.666 78.5 264.999 78.5c35.333 0 65.333 -5.66699 90 -17c32.667 -15.333 49 -38.666 49 -69.999c0 -41.333 -22.333 -67.333 -67 -78
c2 16 3 32 3 48c0 33.333 -11.167 59 -33.5 77s-50.833 27 -85.5 27zM196.001 -0.000976562c55.333 0 101.665 36.001 138.998 108.001c31.333 61.333 47 122.333 47 183c0 22.667 -4.66699 41.667 -14 57c-11.333 18.667 -27.666 28 -48.999 28
c-51.333 0 -96.666 -36.333 -135.999 -109c-34 -63.333 -51 -123 -51 -179c0 -22.667 4.66699 -42.334 14 -59.001c12 -19.333 28.667 -29 50 -29z" />
    <glyph glyph-name="seven" unicode="7" 
d="M220 559h8.00195l-42 -79l5 -1c40.667 32 77.667 48 111 48c20 0 48.333 -6.83301 85 -20.5s64.667 -20.5 84 -20.5c29.333 0 61 13.333 95 40l6 -6l-456 -627l-120 -9l530 593l-3 4c-55.333 -34 -98 -51 -128 -51c-20.667 0 -50.334 7.16699 -89.001 21.5
s-67.667 21.5 -87 21.5c-22.667 0 -40 -8 -52 -24c-4.66699 -5.33301 -12.334 -20 -23.001 -44c-6.66699 -16 -14.667 -24 -24 -24c-10.667 0 -16 4.33301 -16 13s6.66699 19 20 31c30.667 28 62.667 72.667 96 134z" />
    <glyph glyph-name="eight" unicode="8" 
d="M438 597c-35.333 0 -62.5 -11.999 -81.5 -35.999s-28.5 -54 -28.5 -90c0 -34 15.833 -84.667 47.5 -152s47.5 -116.666 47.5 -147.999c0 -56.667 -21.667 -102.334 -65 -137.001c-40.667 -32 -90 -48 -148 -48c-54 0 -97.167 15.167 -129.5 45.5
s-48.5 72.166 -48.5 125.499c0 62 25 108.333 75 139c28 17.333 80.667 35.333 158 54c-12 30 -18 56.667 -18 80c0 52.667 19 95.667 57 129c36 32.667 80.667 49 134 49c44.667 0 83 -12.667 115 -38c34 -27.333 51 -62.666 51 -105.999
c0 -48.667 -18 -89.334 -54 -122.001s-78.667 -49 -128 -49h-8l-1 6c80.667 18 121 69.333 121 154c0 36 -7 67.333 -21 94c-17.333 33.333 -42.333 50 -75 50zM222 -3.99902c33.333 0 62 15.667 86 47c22 29.333 33 61 33 95c0 20 -9.33301 53.667 -28 101l-43 101
c-56 -12 -96.333 -29.667 -121 -53c-29.333 -28 -44 -69 -44 -123c0 -38.667 9.66699 -74.667 29 -108c22 -40 51.333 -60 88 -60z" />
    <glyph glyph-name="nine" unicode="9" 
d="M-67 -201c133.333 0 274.668 109.666 424.001 328.999c14 18.667 33 47.667 57 87l-8 2c-42.667 -68 -97 -102 -163 -102c-32.667 0 -59.5 10.667 -80.5 32s-31.5 48.666 -31.5 81.999c0 67.333 28.833 133.5 86.5 198.5s120.167 97.5 187.5 97.5
c42.667 0 75 -14.333 97 -43c19.333 -25.333 29 -60 29 -104c0 -91.333 -34.667 -184.666 -104 -279.999c-64.667 -89.333 -146.334 -163.666 -245.001 -222.999c-101.333 -60.667 -197.333 -91 -288 -91c-40.667 0 -78 8.66699 -112 26c-42 22 -63 51.333 -63 88
c0 36 17.667 61 53 75c18 -116 71.667 -174 161 -174zM273.002 136.999c54 0 100.333 35.334 139 106.001c33.333 60.667 50 120.334 50 179.001c0 23.333 -4.66699 43.666 -14 60.999c-11.333 21.333 -28 32 -50 32c-52 0 -97 -36 -135 -108c-32 -61.333 -48 -121 -48 -179
c0 -22.667 4 -42.334 12 -59.001c10.667 -21.333 26 -32 46 -32z" />
    <glyph glyph-name="colon" unicode=":" horiz-adv-x="369" 
d="M301 292c0 -16 -4.99902 -29.333 -14.999 -40s-23 -16 -39 -16c-12.667 0 -24.334 5.66699 -35.001 17s-16 23 -16 35c0 16 5.16699 29.333 15.5 40s23.5 16 39.5 16c12.667 0 24.167 -5.5 34.5 -16.5s15.5 -22.833 15.5 -35.5zM146.001 46
c0 -15.333 -5.33301 -28.166 -16 -38.499s-23.667 -15.5 -39 -15.5c-12.667 0 -24.167 5.5 -34.5 16.5s-15.5 22.833 -15.5 35.5c0 14.667 5.16699 27.167 15.5 37.5s23.166 15.5 38.499 15.5c12.667 0 24.334 -5.33301 35.001 -16s16 -22.334 16 -35.001z" />
    <glyph glyph-name="semicolon" unicode=";" horiz-adv-x="369" 
d="M311 295c0 -16.667 -5.16602 -30.501 -15.499 -41.501s-23.833 -16.5 -40.5 -16.5c-12 0 -23 5.83301 -33 17.5s-15 23.834 -15 36.501c0 16 5.16699 29.333 15.5 40s23.833 16 40.5 16c13.333 0 24.666 -5.5 33.999 -16.5s14 -22.833 14 -35.5zM-68.999 -124.001
c54 8 91.334 18.667 112.001 32c27.333 17.333 49.666 49.333 66.999 96c-10 -4 -19.667 -6 -29 -6c-10.667 0 -20 4.33301 -28 13s-12 18.667 -12 30c0 35.333 20 53 60 53c15.333 0 28.5 -6 39.5 -18s16.5 -25.667 16.5 -41c0 -51.333 -26 -92 -78 -122
c-40.667 -24 -90 -38.333 -148 -43v6z" />
    <glyph glyph-name="less" unicode="&#x3c;" horiz-adv-x="680" 
d="M203 318l392 -159v-81l-485 206v69l485 206v-80z" />
    <glyph glyph-name="equal" unicode="=" horiz-adv-x="992" 
d="M905 479v-65h-780v65h780zM905 223v-61h-778v61h778z" />
    <glyph glyph-name="greater" unicode="&#x3e;" horiz-adv-x="680" 
d="M139 78v79l388 160l-388 162v79l487 -206v-69z" />
    <glyph glyph-name="question" unicode="?" horiz-adv-x="451" 
d="M365 398c0 28.667 -9.5 53.833 -28.5 75.5s-42.5 32.5 -70.5 32.5c-34 0 -61.667 -9.66699 -83 -29s-32 -45.666 -32 -78.999c0 -16.667 4.66699 -32.334 14 -47.001c10 -16.667 23 -25 39 -25c14 0 28.667 3.33301 44 10c-12.667 -40.667 -41.334 -61 -86.001 -61
c-19.333 0 -36.166 7.66699 -50.499 23s-21.5 33 -21.5 53c0 50.667 22.667 92.667 68 126c40.667 29.333 87.667 44 141 44c43.333 0 78.333 -10 105 -30c29.333 -22 44 -54 44 -96c0 -54 -21.333 -96.667 -64 -128c-18 -14 -63.333 -36 -136 -66
c-60.667 -25.333 -102.667 -52.333 -126 -81h-9c18.667 27.333 51.667 55.666 99 84.999c54.667 34 89.667 58.667 105 74c32 32.667 48 72.334 48 119.001zM133 44.999c0 -14.667 -5 -26.833 -15 -36.5s-22.333 -14.5 -37 -14.5c-13.333 0 -25.166 4.16699 -35.499 12.5
s-15.5 19.166 -15.5 32.499c0 16 5.16699 29 15.5 39s23.166 15 38.499 15c12 0 23.167 -5.16699 33.5 -15.5s15.5 -21.166 15.5 -32.499z" />
    <glyph glyph-name="at" unicode="@" horiz-adv-x="702" 
d="M148 216c0 65.333 19.9971 126.666 59.9971 183.999c44.667 64 98 96 160 96c56.667 0 94 -31.667 112 -95l22 79h75l-44 -149c-19.333 -68.667 -29 -117 -29 -145c0 -34.667 19.667 -52 59 -52c49.333 0 88.333 26.333 117 79c23.333 43.333 35 92 35 146
c0 92 -32.333 163.333 -97 214c-59.333 46.667 -136.333 70 -231 70c-108.667 0 -199 -36.833 -271 -110.5s-108 -165.167 -108 -274.5c0 -107.333 34.667 -192.666 104 -255.999c67.333 -61.333 155 -92 263 -92c98 0 199.667 31.667 305 95l22 -32
c-109.333 -73.333 -222.666 -110 -339.999 -110s-215.333 35.333 -294 106c-80.667 73.333 -121 168 -121 284c0 128 44.333 232.333 133 313c86 77.333 193.667 116 323 116c100.667 0 184.334 -27 251.001 -81c70.667 -58 106 -136.333 106 -235
c0 -73.333 -18 -138.333 -54 -195c-41.333 -66 -97 -99 -167 -99c-56.667 0 -92 28.333 -106 85c-42 -58 -90 -87 -144 -87c-43.333 0 -77.666 13.5 -102.999 40.5s-38 62.167 -38 105.5zM297.997 122c45.333 0 83.667 28.333 115 85c26.667 48.667 40 97.667 40 147
c0 23.333 -6 43.5 -18 60.5s-29.667 25.5 -53 25.5c-43.333 0 -80.333 -30 -111 -90c-26 -51.333 -39 -101 -39 -149c0 -20 6 -37.667 18 -53c12.667 -17.333 28.667 -26 48 -26z" />
    <glyph glyph-name="A" unicode="A" horiz-adv-x="994" 
d="M1127 703c-79.333 -84 -156.334 -184.331 -231.001 -300.998c-94 -146 -141 -257.333 -141 -334c0 -14 3 -26.667 9 -38c6.66699 -14 16.667 -21 30 -21c34 0 83.333 32.667 148 98c44.667 45.333 86 94 124 146h10c-38.667 -61.333 -85 -117 -139 -167
c-70 -65.333 -131 -98 -183 -98c-27.333 0 -48.333 12 -63 36c-12 20 -18 44.667 -18 74c0 32 7.33301 67 22 105c8 20 23.667 52.667 47 98h-137c-94 -104.667 -157.333 -171.334 -190 -200.001c-84.667 -71.333 -166 -107 -244 -107c-40 0 -74 8.33301 -102 25
c-34.667 20.667 -52 49.667 -52 87c0 50.667 21.667 76 65 76c11.333 0 21.333 -4.33301 30 -13s13 -18.334 13 -29.001c0 -16 -5.33301 -28.667 -16 -38s-24 -13.333 -40 -12c4.66699 -54.667 41.667 -82 111 -82c60 0 127.333 28.667 202 86
c53.333 40 117.333 101.333 192 184c100.667 110.667 153.667 168.667 159 174c126.667 124.667 256.334 211 389.001 259zM613.999 311.002l133 -0.000976562c16 26.667 41.333 66 76 118c59.333 82.667 122.333 157.334 189 224.001
c-117.333 -59.333 -250 -173.333 -398 -342z" />
    <glyph glyph-name="B" unicode="B" horiz-adv-x="1048" 
d="M899 647c22 -12.667 40.666 -31.499 55.999 -56.499s23 -49.833 23 -74.5c0 -52 -23.333 -92.667 -70 -122c-28.667 -18 -75.334 -35.333 -140.001 -52c104 -4 156 -43 156 -117c0 -67.333 -26.167 -123.833 -78.5 -169.5s-112.5 -68.5 -180.5 -68.5
c-29.333 0 -56.333 6.66699 -81 20c-28.667 16.667 -43 38.334 -43 65.001c0 19.333 6.5 34.666 19.5 45.999s29.167 17 48.5 17c15.333 0 29.333 -5.66699 42 -17c-25.333 -22 -38 -44.667 -38 -68c0 -14 4.83301 -26.5 14.5 -37.5s21.5 -16.5 35.5 -16.5
c46.667 0 87 24.667 121 74c30.667 44 46 90.667 46 140c0 46 -10.5 78.667 -31.5 98s-54.833 29 -101.5 29l2 6c61.333 10 106.666 26 135.999 48c38.667 28.667 58 71.667 58 129c0 32 -14 62.667 -42 92c-31.333 -22 -59.666 -55 -84.999 -99l-142 -248
c-49.333 -86.667 -100.666 -152 -153.999 -196c-68 -55.333 -144.667 -83 -230 -83c-44 0 -83 9 -117 27c-42.667 22 -64 53 -64 93c0 20.667 5.83301 38.334 17.5 53.001s27.834 22 48.501 22c10.667 0 20.334 -4.5 29.001 -13.5s13 -19.167 13 -30.5
c0 -20.667 -12 -38 -36 -52v-13c0 -50.667 33 -76 99 -76c75.333 0 146.666 46.333 213.999 139l171 281c70.667 113.333 140.667 185.666 210 216.999c-52.667 37.333 -115.667 56 -189 56c-102 0 -195 -32 -279 -96c-90 -70 -135 -154.333 -135 -253
c0 -39.333 9.33301 -72.333 28 -99c20.667 -31.333 49.667 -47 87 -47c60 0 103 33.667 129 101c19.333 50 27 108.667 23 176h7c2.66699 -14 4 -30.667 4 -50c0 -68.667 -15.333 -125.334 -46 -170.001c-35.333 -52 -85.666 -78 -150.999 -78c-50.667 0 -89.667 16 -117 48
c-26 30 -39 71 -39 123c0 102.667 61.667 190 185 262c106.667 62 215 93 325 93c63.333 0 137 -13.667 221 -41c12 2.66699 36.333 11.667 73 27c30 12 56.667 19 80 21l2 -8c-48.667 -8 -93.334 -25 -134.001 -51z" />
    <glyph glyph-name="C" unicode="C" horiz-adv-x="602" 
d="M475 445c44 0 82.835 17.502 116.502 52.502s50.5 74.5 50.5 118.5c0 46.667 -30.333 70 -91 70c-75.333 0 -158 -38 -248 -114c-78 -66 -137.667 -137.333 -179 -214c-34.667 -64.667 -52 -132.667 -52 -204c0 -47.333 11 -85.333 33 -114c24.667 -32 60 -48 106 -48
c56.667 0 106.667 24.667 150 74c42 47.333 63 99.666 63 156.999c0 23.333 -6.66699 44.333 -20 63s-31.333 28 -54 28c-30.667 0 -58.334 -12.667 -83.001 -38l-61 -72l-4 6c56.667 86 117.667 129 183 129c32.667 0 60 -10 82 -30s33 -46.333 33 -79
c0 -73.333 -35.333 -134.666 -106 -183.999c-64 -44 -134.667 -66 -212 -66c-62.667 0 -112.834 18.167 -150.501 54.5s-56.5 86.166 -56.5 149.499c0 78 32.667 158.333 98 241c60 76 135.5 139.833 226.5 191.5s174.833 77.5 251.5 77.5c40 0 73 -7.33301 99 -22
c32.667 -18 49 -45.333 49 -82c0 -48.667 -19.667 -88.334 -59 -119.001c-36.667 -29.333 -80 -44 -130 -44c-69.333 0 -104 26.667 -104 80c0 12.667 3.33301 29.667 10 51h10c-5.33301 -19.333 -8 -37 -8 -53s5.5 -30 16.5 -42s24.5 -18 40.5 -18z" />
    <glyph glyph-name="D" unicode="D" horiz-adv-x="943" 
d="M954 705l-0.000976562 -6.00098c-65.333 -10 -126.666 -38.667 -183.999 -86c63.333 -63.333 95 -140.333 95 -231c0 -123.333 -53 -221 -159 -293c-92.667 -64 -203.667 -96 -333 -96c-74.667 0 -130.334 7 -167.001 21c-59.333 -10.667 -98.333 -16 -117 -16
c-48.667 0 -73 10.333 -73 31c0 14.667 12.667 22 38 22c21.333 0 70.666 -8.66699 147.999 -26c64.667 11.333 124 56.333 178 135l140 242c62.667 101.333 130.334 175.333 203.001 222c-57.333 47.333 -126.333 71 -207 71c-100 0 -186.667 -32.333 -260 -97
c-75.333 -67.333 -113 -150.666 -113 -249.999c0 -101.333 38 -152 114 -152c105.333 0 166.666 92.333 183.999 277h9c-7.33301 -69.333 -18.333 -122 -33 -158c-21.333 -52 -56.333 -92 -105 -120c-32 -18.667 -65 -28 -99 -28c-44.667 0 -81 16.333 -109 49
c-26 30.667 -39 68.667 -39 114c0 104.667 50.667 194.667 152 270c92.667 68.667 193.334 103 302.001 103c76.667 0 151.667 -23.333 225 -70c40.667 23.333 74.334 39.666 101.001 48.999c30 10.667 66.333 18.334 109 23.001zM221.999 19.999
c47.333 -10 94.667 -15.0029 142 -15.0029c190 0 322.333 98.667 397 296c20 52.667 30 102.667 30 150c0 56.667 -13.667 105.334 -41 146.001c-52 -53.333 -103 -128 -153 -224c-52 -101.333 -93.667 -169.666 -125 -204.999c-60 -67.333 -143.333 -116.666 -250 -147.999
z" />
    <glyph glyph-name="E" unicode="E" horiz-adv-x="634" 
d="M472 692c-40.667 0 -72.999 -15.333 -96.999 -46c-21.333 -26.667 -34 -61.334 -38 -104.001c-4.66699 -46.667 -14.667 -80.334 -30 -101.001c-14 -18 -43 -38 -87 -60c-54.667 -27.333 -94 -54.333 -118 -81c-31.333 -35.333 -47 -79.666 -47 -132.999
c0 -50.667 18.667 -91.334 56 -122.001c35.333 -29.333 78.666 -44 129.999 -44c54.667 0 100 15.333 136 46c38.667 32.667 58 75.667 58 129c0 26.667 -8 47.667 -24 63s-37 23 -63 23c-23.333 0 -44.333 -6.33301 -63 -19l-52 -44l-5 5c40.667 51.333 91.667 77 153 77
c33.333 0 62.333 -8.66699 87 -26c28 -19.333 42 -45 42 -77c0 -65.333 -39 -115.333 -117 -150c-60 -26.667 -127.667 -40 -203 -40c-62 0 -113.333 11.333 -154 34c-51.333 28.667 -77 71.334 -77 128.001c0 50.667 17 92.334 51 125.001
c22.667 21.333 62.334 45 119.001 71c44 20 71.5 37.5 82.5 52.5s17.833 46.167 20.5 93.5l1 18c3.33301 62.667 31 111.334 83 146.001c46 30.667 102.667 46 170 46c39.333 0 72.333 -7.66699 99 -23c33.333 -18.667 50 -46.334 50 -83.001
c0 -45.333 -19.667 -81 -59 -107c-34 -22.667 -74.667 -34 -122 -34c-24.667 0 -46.667 3.66699 -66 11l2 6c21.333 -4.66699 39.666 -7 54.999 -7c36 0 65 11.5 87 34.5s33 52.833 33 89.5c0 68.667 -31 103 -93 103z" />
    <glyph glyph-name="F" unicode="F" horiz-adv-x="791" 
d="M735 387l100.003 -0.000976562c-56.667 -41.333 -97.667 -75.666 -123 -102.999c-28 -30 -58.333 -74.333 -91 -133h-6c24 75.333 51 135 81 179c-39.333 -8 -73.666 -10.333 -102.999 -7c-58 -102 -114.333 -178 -169 -228c-76.667 -70 -162.334 -105 -257.001 -105
c-47.333 0 -91 9.66699 -131 29c-50 24.667 -75 58 -75 100c0 48.667 23.333 73 70 73c11.333 0 20.833 -4.66699 28.5 -14s11.5 -20 11.5 -32c0 -23.333 -11.667 -39.333 -35 -48c8 -64.667 50.667 -97 128 -97c72.667 0 139.667 37.333 201 112c28 34 70 102.667 126 206
h-39v9h46c83.333 150 193.666 245 330.999 285c-86.667 3.33301 -165.334 5 -236.001 5c-124 0 -213 -5 -267 -15c-108.667 -20.667 -180.667 -64.334 -216 -131.001c-7.33301 -14 -11 -30.333 -11 -49c0 -37.333 16.667 -65.666 50 -84.999c27.333 -16 61 -24 101 -24
c73.333 0 131 17.667 173 53c46 38 66.667 92.667 62 164h8l1 -23c2.66699 -64 -20 -119.833 -68 -167.5s-105 -71.5 -171 -71.5c-40.667 0 -78.334 12.333 -113.001 37c-38 27.333 -57 60.333 -57 99c0 28.667 6.33301 54.667 19 78c67.333 124.667 220 187 458 187
c48 0 120 -0.833008 216 -2.5s168 -2.5 216 -2.5c41.333 0 62 -8.33301 62 -25c0 -26.667 -28.667 -40 -86 -40c-12 0 -30 1.16699 -54 3.5s-42 3.5 -54 3.5c-47.333 0 -99.333 -35.333 -156 -106c-37.333 -46 -73.333 -102.333 -108 -169c36 2 61.667 5.33301 77 10
c25.333 8 45.333 23 60 45z" />
    <glyph glyph-name="G" unicode="G" horiz-adv-x="690" 
d="M411 680c0 -10 1.99805 -23.666 5.99805 -40.999c98 47.333 188.333 71 271 71c36 0 67.333 -5.66699 94 -17c36.667 -15.333 55 -38.333 55 -69c0 -76.667 -69.333 -115 -208 -115c-88 0 -154 29.333 -198 88c-44.667 -36 -82.667 -77.667 -114 -125
c-37.333 -56 -56 -108 -56 -156c0 -75.333 29.333 -113 88 -113c41.333 0 77 13 107 39c18.667 16.667 38.667 43.167 60 79.5s36.333 58.166 45 65.499c14.667 12 34 18 58 18c22.667 0 34 -4.33301 34 -13c0 -2 -14 -28 -42 -78c-64.667 -114.667 -118 -191.667 -160 -231
c-67.333 -63.333 -153.666 -95 -258.999 -95c-42 0 -79 9.66699 -111 29c-37.333 22.667 -56 53.667 -56 93c0 22.667 4.66699 41.667 14 57c10.667 18.667 26.667 28 48 28c12.667 0 23.834 -4.16699 33.501 -12.5s14.5 -18.5 14.5 -30.5c0 -26 -11.667 -41.667 -35 -47
c-2 -5.33301 -3 -13.333 -3 -24c0 -56.667 34.667 -85 104 -85c64 0 122.667 30.667 176 92c20 23.333 57.667 81 113 173c-22 -24 -51.333 -43.667 -88 -59s-72 -23 -106 -23c-40.667 0 -72.667 13 -96 39s-35 59.667 -35 101c0 117.333 81 222.333 243 315
c-4.66699 16.667 -7 31.334 -7 44.001c0 50 22.667 82.667 68 98l3 -7c-24 -12.667 -39.667 -23.667 -47 -33c-9.33301 -12.667 -14 -31.334 -14 -56.001zM772.998 641.001c0 38.667 -28 57.999 -84 57.999c-38.667 0 -82.334 -10 -131.001 -30
c-44 -18 -83.333 -40 -118 -66c26 -29.333 49.667 -49.666 71 -60.999c24 -12.667 54.333 -19 91 -19c44.667 0 82.334 8.33301 113.001 25c38.667 21.333 58 52.333 58 93z" />
    <glyph glyph-name="H" unicode="H" horiz-adv-x="1010" 
d="M-32 112c0 18 4.82812 34.8311 14.4951 50.498s23.167 23.5 40.5 23.5c14.667 0 27.167 -4.16699 37.5 -12.5s15.5 -19.833 15.5 -34.5c0 -25.333 -14 -41 -42 -47c4 -62 43.333 -93 118 -93c91.333 0 179 72 263 216l114 196c42 72.667 89.667 129 143 169
c46 34.667 112 68.334 198 101.001c-170.667 -4.66699 -301.667 -18.667 -393 -42c-172.667 -44 -259 -122 -259 -234c0 -28.667 8.5 -51 25.5 -67s39.833 -24 68.5 -24c34.667 0 65 13.5 91 40.5s39 57.5 39 91.5c0 12 -3.66699 32 -11 60l8 4
c8.66699 -36.667 13 -57.667 13 -63c0 -47.333 -19.333 -85.666 -58 -114.999c-36 -27.333 -78.333 -41 -127 -41c-36 0 -67 10.833 -93 32.5s-39 50.5 -39 86.5c0 24 4.66699 46.333 14 67c23.333 51.333 81 96 173 134c72 29.333 145.667 48.333 221 57
c46 5.33301 104 10 174 14c111.333 6 170 9.33301 176 10s18.667 2.33398 38 5.00098c15.333 2 28 3 38 3c24 0 36 -4.66699 36 -14c0 -10 -11.333 -15 -34 -15c-9.33301 0 -23.166 1.33301 -41.499 4s-32.166 4 -41.499 4c-31.333 0 -75 -29.333 -131 -88
c-47.333 -48.667 -82 -92.667 -104 -132l-60 -106h145c48.667 92 111.334 167.667 188.001 227c86.667 67.333 177 101 271 101c85.333 0 128 -17.667 128 -53c0 -10 -3.66699 -19.167 -11 -27.5s-16 -12.5 -26 -12.5c-14 0 -31.667 13.833 -53 41.5
s-44.666 41.5 -69.999 41.5c-60.667 0 -124.667 -35.667 -192 -107c-59.333 -62 -110.333 -139 -153 -231c-41.333 -89.333 -62 -164 -62 -224c0 -57.333 19.667 -86 59 -86c22.667 0 65.334 33.333 128.001 100c19.333 20 58.666 65 117.999 135l7 -4
c-68 -84 -115.667 -139.333 -143 -166c-68.667 -67.333 -128.667 -101 -180 -101c-26 0 -45.667 11.667 -59 35c-11.333 19.333 -17 43 -17 71c0 73.333 20.667 156.666 62 249.999h-146c-62.667 -112.667 -118 -192.667 -166 -240c-75.333 -74 -162.666 -111 -261.999 -111
c-48 0 -89.333 8 -124 24c-44.667 21.333 -67 53.333 -67 96z" />
    <glyph glyph-name="I" unicode="I" horiz-adv-x="789" 
d="M1025 679c-31.333 0 -74.998 -29.333 -130.998 -88c-47.333 -48.667 -82 -92.667 -104 -132c-75.333 -134 -115 -204 -119 -210c-50.667 -80 -102 -140 -154 -180c-66.667 -51.333 -141.334 -77 -224.001 -77c-47.333 0 -88 8.33301 -122 25c-44 21.333 -66 53 -66 95
c0 20.667 5.33301 38.167 16 52.5s26 21.5 46 21.5c12 0 22.667 -4.83301 32 -14.5s14 -20.5 14 -32.5c0 -20.667 -14 -36.334 -42 -47.001c4.66699 -35.333 16.667 -60 36 -74c17.333 -12.667 44.666 -19 81.999 -19c91.333 0 179 72 263 216l114 196
c42 72.667 89.667 129 143 169c46 34.667 112 68.334 198 101.001c-172 -4.66699 -303 -18.667 -393 -42c-172.667 -43.333 -259 -121.333 -259 -234c0 -28.667 8.5 -51 25.5 -67s39.833 -24 68.5 -24c34.667 0 65 13.5 91 40.5s39 57.5 39 91.5c0 14.667 -4 34.667 -12 60
l8 2c8.66699 -20.667 13 -41.334 13 -62.001c0 -46 -19 -84 -57 -114c-34.667 -27.333 -75.667 -41 -123 -41c-38 0 -69.667 10.333 -95 31c-27.333 22 -41 51.333 -41 88c0 24.667 4.66699 47 14 67c24 52 81.667 96.333 173 133c70.667 28.667 144.334 47.667 221.001 57
c45.333 5.33301 103.666 10 174.999 14c96 6 154 9.66699 174 11c5.33301 0.666992 17 2.33398 35 5.00098c14.667 2 26.667 3 36 3c28 0 42 -4.66699 42 -14c0 -10 -11 -15 -33 -15c-9.33301 0 -23.333 1.33301 -42 4s-32.667 4 -42 4z" />
    <glyph glyph-name="J" unicode="J" horiz-adv-x="700" 
d="M-77 -184c0 -29.333 11 -52.668 33 -70.001c20 -16 45 -24 75 -24c48.667 0 94 17.667 136 53c32.667 26.667 66 66.334 100 119.001l76 130l-185 -31c-69.333 -11.333 -121.333 -27 -156 -47c-52.667 -30 -79 -73.333 -79 -130zM905 674.998
c-176 -6.66699 -307 -20.9951 -393 -42.9951c-172.667 -44 -259 -122.333 -259 -235c0 -24.667 7.83301 -46 23.5 -64s35.5 -27 59.5 -27c38.667 0 71.834 12.833 99.501 38.5s41.5 57.5 41.5 95.5c0 12 -3.66699 32 -11 60l7 2c9.33301 -23.333 14 -45 14 -65
c0 -46 -19 -83.667 -57 -113c-35.333 -26.667 -77 -40 -125 -40c-37.333 0 -69 10.667 -95 32s-39 50.333 -39 87c0 24.667 4.33301 46.667 13 66c22.667 51.333 80.334 95.666 173.001 132.999c71.333 29.333 145 48.666 221 57.999c44.667 5.33301 103 10.333 175 15
c92 5.33301 150 9 174 11c54.667 4.66699 79 7 73 7c26.667 0 40 -4.66699 40 -14s-11 -14 -33 -14c8 0 -19.667 2.33301 -83 7c-46.667 -13.333 -95 -46.333 -145 -99c-40.667 -42.667 -76.334 -90.667 -107.001 -144l-212 -370c59.333 16 111 40.333 155 73
c38.667 28 79 68.333 121 121l8 -5c-45.333 -58.667 -88.333 -101.334 -129 -128.001c-28 -18 -82.333 -43.667 -163 -77c-69.333 -106.667 -127.666 -182 -174.999 -226c-76.667 -70 -162.667 -105 -258 -105c-44.667 0 -83.334 8 -116.001 24c-42 20 -63 50.333 -63 91
c0 50 34.667 91.333 104 124c51.333 23.333 124.333 42.666 219 57.999l188 27l197 341c47.333 81.333 96.666 143.333 147.999 186c48 39.333 117.667 76.666 209 111.999z" />
    <glyph glyph-name="K" unicode="K" horiz-adv-x="1047" 
d="M1295 678c-24 0 -56.333 -21.001 -97 -63.001l-83 -95c-53.333 -60 -102.666 -102 -147.999 -126c-48.667 -24.667 -111.667 -39.334 -189 -44.001c56 -24.667 84 -61.667 84 -111c0 -30 -10.667 -66.333 -32 -109s-32 -74 -32 -94c0 -21.333 9.66699 -32 29 -32
c31.333 0 81.333 34.667 150 104c21.333 22.667 65.333 72.334 132 149.001l6 -6c-138.667 -176.667 -248.334 -265 -329.001 -265c-17.333 0 -32.5 7.33301 -45.5 22s-19.5 30.667 -19.5 48c0 32.667 13.667 75.167 41 127.5s41 91.5 41 117.5c0 20 -8 33 -24 39
c-6.66699 2.66699 -21 4 -43 4c-16 0 -24 3.66699 -24 11c0 3.33301 3.33301 5.33301 10 6c4 0.666992 10.667 0.666992 20 0c10 -1.33301 15.333 -2 16 -2c60.667 0 122 28.667 184 86l158 158c65.333 57.333 132 86 200 86c71.333 0 107 -25.333 107 -76
c0 -24 -9.16699 -42 -27.5 -54s-39.833 -17.333 -64.5 -16c14.667 36.667 22 67.334 22 92.001c0 12 -4 22.167 -12 30.5s-18 12.5 -30 12.5zM982 678.999c-32 0 -76.335 -29.3359 -133.002 -88.0029c-46.667 -48.667 -81 -92.667 -103 -132
c-75.333 -134.667 -114.666 -204.667 -117.999 -210c-50 -80 -101.333 -140 -154 -180c-66 -51.333 -140.333 -77 -223 -77c-48 0 -89 8.33301 -123 25c-44 22 -66 54.333 -66 97c0 20.667 5.33301 37.834 16 51.501s26 20.5 46 20.5c12 0 22.667 -5 32 -15
s14 -21.333 14 -34c0 -19.333 -14 -34.333 -42 -45c4 -36 16 -61 36 -75c17.333 -12 45 -18 83 -18c90.667 0 178 72 262 216l114 196c42 72 89.667 128.333 143 169c45.333 34 111 67.667 197 101c-172 -4.66699 -303 -18.667 -393 -42
c-172.667 -43.333 -259 -121.333 -259 -234c0 -28.667 8.5 -51 25.5 -67s39.833 -24 68.5 -24c35.333 0 66 13.5 92 40.5s39 57.833 39 92.5c0 11.333 -3.66699 31 -11 59l7 2c8.66699 -23.333 13 -43.666 13 -60.999c0 -46 -19 -84 -57 -114
c-34.667 -28 -75.667 -42 -123 -42c-38 0 -69.667 10.333 -95 31c-27.333 22.667 -41 52.667 -41 90c0 24 4.33301 45.667 13 65c23.333 52 81 96.333 173 133c71.333 28.667 145.333 47.667 222 57c45.333 5.33301 103.333 10 174 14c98 6 156.333 9.66699 175 11
c6 0.666992 17.667 2.33398 35 5.00098c14.667 2 26.334 3 35.001 3c28.667 0 43 -4.66699 43 -14c0 -10 -11 -15 -33 -15c-9.33301 0 -23.333 1.33301 -42 4s-32.667 4 -42 4z" />
    <glyph glyph-name="L" unicode="L" horiz-adv-x="806" 
d="M300 26c63.333 0 109.001 -4.33398 137.001 -13.001c49.333 -15.333 77.333 -47 84 -95c74 80.667 129.333 139.334 166 176.001c63.333 64 123.333 117.333 180 160l5 -7c-118.667 -100 -235.667 -216 -351 -348c-4.66699 -22.667 -14.667 -41.834 -30 -57.501
s-34.333 -23.5 -57 -23.5c-13.333 0 -20 4.66699 -20 14c0 4.66699 4.33301 10.334 13 17.001s13 19.667 13 39c0 84.667 -48.333 127 -145 127c-22.667 0 -55 -6.83301 -97 -20.5s-74 -20.5 -96 -20.5c-29.333 0 -44 8 -44 24c0 20.667 32.667 31 98 31
c10 0 22 -0.333008 36 -1s22 -1 24 -1c61.333 0 115.333 21 162 63c33.333 31.333 68 79.333 104 144l105 191c-50.667 18.667 -85.334 35 -104.001 49c-34 24.667 -51 56.667 -51 96c0 35.333 10 63.666 30 84.999s47.333 32 82 32c15.333 0 33.333 -3 54 -9l-5 -8
c-16.667 6 -31 9 -43 9c-34 0 -60.5 -9.5 -79.5 -28.5s-28.5 -45.5 -28.5 -79.5c0 -60 50 -105 150 -135c112 178 242 267 390 267c79.333 0 119 -26.667 119 -80c0 -70 -55.333 -124.667 -166 -164c-85.333 -30 -171 -44.333 -257 -43
c-66.667 -119.333 -116 -197.666 -148 -234.999c-58 -67.333 -134.667 -119 -230 -155zM1029 633.999c0 38.667 -21.332 58 -63.999 58c-94.667 0 -189.334 -89 -284.001 -267h8c83.333 0 156.333 14.333 219 43c80.667 38 121 93.333 121 166z" />
    <glyph glyph-name="M" unicode="M" horiz-adv-x="1189" 
d="M1069 698c-51.333 -15.333 -97.3359 -47.6689 -138.003 -97.002c-31.333 -36.667 -62.666 -87.667 -93.999 -153l-71 -157c-28.667 -59.333 -88 -141 -178 -245c57.333 36.667 109 79.334 155 128.001c11.333 12.667 70 84.334 176 215.001
c77.333 96 145.333 166.667 204 212c83.333 64 166.333 96 249 96c50 0 75 -6.33301 75 -19c0 -7.33301 -12 -11 -36 -11c-18.667 0 -44 4 -76 12c-32.667 -7.33301 -68.334 -37.333 -107.001 -90c-28 -38.667 -59 -91.334 -93 -158.001l-66 -138
c-36 -72 -74.333 -128.667 -115 -170c-45.333 -46 -102.666 -83.333 -171.999 -112l63 -1c90 -1.33301 165.333 19.667 226 63c48.667 35.333 99.334 96 152.001 182l7 -5c-44.667 -81.333 -92 -140.666 -142 -177.999c-45.333 -33.333 -101.666 -54.666 -168.999 -63.999
c-41.333 -6 -116.333 -9 -225 -9c-16.667 0 -25 5 -25 15c0 8.66699 7.33301 13 22 13c8.66699 0 20 -1.66699 34 -5c20 -5.33301 31 -8.33301 33 -9c35.333 10.667 71.666 41 108.999 91c28 36 57.667 85 89 147l61 125c62 119.333 154.667 219.666 278 300.999
c-75.333 -20.667 -147.666 -62.667 -216.999 -126c-45.333 -41.333 -102 -106 -170 -194c-75.333 -96.667 -129.333 -161.667 -162 -195c-71.333 -72.667 -149 -129.667 -233 -171l-8 8c54.667 58 101.667 132.667 141 224c52 118 87.333 191.667 106 221
c53.333 84 130.333 159.333 231 226c-96.667 -37.333 -196.667 -116.333 -300 -237l-245 -298c-92.667 -97.333 -182 -146 -268 -146c-38.667 0 -72 8.66699 -100 26c-32.667 20 -49 48.333 -49 85c0 48.667 21.333 73 64 73c10.667 0 20.5 -4.66699 29.5 -14
s13.5 -19.333 13.5 -30c0 -26 -15 -42 -45 -48c3.33301 -53.333 38.333 -80 105 -80c78.667 0 165 54 259 162l262 319c116 123.333 235.333 198 358 224z" />
    <glyph glyph-name="N" unicode="N" horiz-adv-x="969" 
d="M708 141l99.998 212.998c50 98.667 99 174.667 147 228c62.667 71.333 126 107 190 107c25.333 0 47.333 -6.66699 66 -20s28 -32.333 28 -57c0 -32.667 -11.5 -60.167 -34.5 -82.5s-50.833 -34.5 -83.5 -36.5v8c41.333 12.667 62 35.334 62 68.001c0 44 -27 66 -81 66
c-94 0 -184.667 -88.333 -272 -265l-183 -391l-9 2c4 41.333 6 72 6 92c0 59.333 -9.66699 137.666 -29 234.999c-24 120 -38 198 -42 234l-109 -224c-52 -98 -103.667 -172.667 -155 -224c-67.333 -68 -138.333 -102 -213 -102c-35.333 0 -66.666 10 -93.999 30
c-30 21.333 -45 49 -45 83c0 49.333 21.667 74 65 74c11.333 0 21.333 -4.16699 30 -12.5s13 -18.166 13 -29.499c0 -26.667 -13 -41.667 -39 -45c-0.666992 -56 26.666 -84 81.999 -84c71.333 0 141 36.333 209 109c49.333 53.333 94.333 121.333 135 204l65 125
c30.667 58 49.334 99.333 56.001 124c2.66699 12.667 7.33398 30.667 14.001 54c16 42.667 41.333 69.334 76 80.001c-6.66699 -35.333 -10 -68.333 -10 -99c0 -49.333 10 -126.333 30 -231c18.667 -99.333 27 -177 25 -233z" />
    <glyph glyph-name="O" unicode="O" horiz-adv-x="872" 
d="M954 250l1.00195 -8c-51.333 -36 -105 -54 -161 -54c-24.667 0 -49 3.66699 -73 11c-116 -144 -235.667 -216 -359 -216c-50.667 0 -89.334 17.333 -116.001 52c-24 30.667 -36 72 -36 124c0 48 10 97 30 147c82.667 205.333 216.667 322.333 402 351
c32 28 65.333 42 100 42c40 0 70.667 -14.667 92 -44c18 -25.333 27 -59 27 -101c0 -104.667 -44 -220 -132 -346c23.333 -6.66699 45 -10 65 -10c49.333 0 102.666 17.333 159.999 52zM718.002 677c-20.667 0 -41.333 -7 -62 -21c50.667 -8 76 -32.667 76 -74
c0 -17.333 -2 -31.666 -6 -42.999h-10c4 14 6 28.333 6 43c0 37.333 -25 59 -75 65c-37.333 -55.333 -56 -121 -56 -197c0 -104.667 33 -180.334 99 -227.001c62.667 114 94 223.333 94 328c0 30 -4 56 -12 78c-11.333 32 -29.333 48 -54 48zM414.003 3
c49.333 0 102 24.332 158 72.999c44 38.667 82 84.667 114 138c-87.333 48.667 -131 121.667 -131 219c0 76 26.667 147.333 80 214c-90.667 -17.333 -169.667 -82.666 -237 -195.999c-62 -104 -93 -205.333 -93 -304c0 -40.667 7.66699 -73.667 23 -99
c19.333 -30 48 -45 86 -45z" />
    <glyph glyph-name="P" unicode="P" horiz-adv-x="861" 
d="M976 721c-48.667 -10.667 -84.6641 -24.0029 -107.997 -40.0029c30 -11.333 55.667 -29.333 77 -54c22.667 -26.667 34 -55 34 -85c0 -53.333 -21.5 -99.166 -64.5 -137.499s-91.5 -57.5 -145.5 -57.5c-22 0 -42.667 5 -62 15c-23.333 12 -35 28 -35 48
c0 14 6.33301 25 19 33c10.667 7.33301 23.667 11 39 11c9.33301 0 20.666 -3 33.999 -9c-24 -18.667 -36 -38 -36 -58c0 -18.667 9 -28 27 -28c39.333 0 73.666 27.333 102.999 82c26 48 39 93.333 39 136c0 45.333 -16.333 76.666 -49 93.999
c-47.333 -23.333 -100.333 -81.666 -159 -174.999l-115 -200c-48 -81.333 -90 -139 -126 -173c-45.333 -42 -108 -76 -188 -102c46 -8.66699 95 -13 147 -13c221.333 0 386.333 83 495 249l7 -7c-116.667 -174 -265.667 -261 -447 -261c-66 0 -138 8.33301 -216 25
c-66 -10 -120 -15 -162 -15c-80 0 -120 11.333 -120 34c0 15.333 14.333 23 43 23c30.667 0 69.667 -4 117 -12c74 -12 112.667 -18.333 116 -19c68 20 135.667 89.333 203 208l122 214c57.333 100.667 143.666 179.334 258.999 236.001c-32 9.33301 -70.667 14 -116 14
c-155.333 0 -285 -49.667 -389 -149c-30 -28.667 -55 -62.667 -75 -102c-22 -43.333 -33 -84 -33 -122c0 -29.333 5 -54 15 -74c12.667 -26 32.334 -39 59.001 -39c100.667 0 157 77 169 231h7c0 -69.333 -16 -127 -48 -173c-36.667 -52 -88.667 -78 -156 -78
c-80 0 -120 41.667 -120 125c0 75.333 34.667 145 104 209c59.333 54.667 136.666 99.334 231.999 134.001c87.333 31.333 168 47 242 47c38 0 80.333 -5 127 -15c46 20.667 90.667 33 134 37v-7z" />
    <glyph glyph-name="Q" unicode="Q" horiz-adv-x="796" 
d="M844 259l4.99805 -5c-81.333 -94 -139 -154.667 -173 -182c-72 -58.667 -148.333 -88 -229 -88c-68 0 -139.667 16 -215 48c-61.333 -26.667 -119.666 -40 -174.999 -40c-62 0 -93 14.333 -93 43c0 24 21 41 63 51c27.333 6.66699 58.333 10 93 10
c29.333 0 87.333 -8.33301 174 -25c102 43.333 191.333 101 268 173c94.667 89.333 142 179.666 142 270.999c0 48.667 -11 87.334 -33 116.001c-24.667 31.333 -60.667 47 -108 47c-59.333 0 -109.833 -19.5 -151.5 -58.5s-62.5 -88.167 -62.5 -147.5
c0 -38.667 9 -71 27 -97c20.667 -30 49.667 -45 87 -45c28 0 55.667 9.66699 83 29c16.667 12 38.334 32.333 65.001 61l6 -6c-58.667 -69.333 -122.334 -104 -191.001 -104c-38 0 -71 13 -99 39s-42 58 -42 96c0 72.667 34.667 133.667 104 183
c63.333 44.667 133 67 209 67c58.667 0 105.334 -12.667 140.001 -38c39.333 -29.333 59 -72.333 59 -129c0 -73.333 -31 -142.666 -93 -207.999c-42 -44.667 -104.333 -92.167 -187 -142.5s-152 -87.5 -208 -111.5c72 -16.667 129 -25 171 -25c73.333 0 142 22.333 206 67
c42 29.333 94.667 79.666 158 150.999zM21.998 44c0 -25.333 19.667 -38 59 -38s85.333 10.333 138 31c-61.333 28 -110.333 42 -147 42c-33.333 0 -50 -11.667 -50 -35z" />
    <glyph glyph-name="R" unicode="R" horiz-adv-x="997" 
d="M893 670c58.667 -38 88 -80.0029 88 -126.003c0 -61.333 -27 -108.666 -81 -141.999c-42.667 -26.667 -98 -42 -166 -46c52 -28 78 -61.333 78 -100c0 -26.667 -10.333 -63.834 -31 -111.501s-31 -82.167 -31 -103.5c0 -22 9.33301 -33 28 -33c38 0 89 33.333 153 100
c14.667 15.333 56.667 65.333 126 150l7 -8c-74 -90.667 -120.667 -145.334 -140 -164.001c-66 -66 -125.667 -99 -179 -99c-22.667 0 -41.334 6.66699 -56.001 20s-22 31 -22 53c0 32 12.833 76.167 38.5 132.5s38.5 95.833 38.5 118.5c0 26.667 -22.667 42.334 -68 47.001
l2 7c53.333 2.66699 91.333 9 114 19c31.333 14 58 41.333 80 82c15.333 28.667 23 59 23 91c0 34.667 -13.333 66.334 -40 95.001c-54 -28 -113.333 -101.333 -178 -220c-82.667 -152.667 -142.334 -250.667 -179.001 -294c-83.333 -97.333 -181.666 -146 -294.999 -146
c-44.667 0 -83.667 8.66699 -117 26c-42 22 -63 53.333 -63 94c0 20.667 5.16699 38 15.5 52s25.5 21 45.5 21c12 0 22.167 -4.83301 30.5 -14.5s12.5 -20.5 12.5 -32.5c0 -10.667 -4 -20 -12 -28s-17 -12.667 -27 -14v-8c0 -57.333 36.333 -86 109 -86
c55.333 0 105.333 20.667 150 62c32 29.333 65.333 74 100 134l124 213c40 68.667 76.333 119 109 151c36 36.667 87.667 71.334 155 104.001c-52.667 25.333 -113.334 38 -182.001 38c-110 0 -211 -28.667 -303 -86c-106.667 -65.333 -160 -150 -160 -254
c0 -37.333 9 -67.666 27 -90.999c20 -25.333 48 -38 84 -38c40.667 0 79.667 19.333 117 58c34 34.667 56.333 73 67 115c8 30.667 10.333 68 7 112h9c2.66699 -12.667 4 -27.667 4 -45c0 -67.333 -22 -126 -66 -176c-45.333 -52 -101.666 -78 -168.999 -78
c-42.667 0 -78.5 12.667 -107.5 38s-43.5 59.333 -43.5 102c0 110.667 66 200 198 268c108 56 223.333 84 346 84c64 0 134.333 -11 211 -33c34 13.333 73 23.333 117 30l2 -8c-41.333 -8 -74.666 -18.667 -99.999 -32z" />
    <glyph glyph-name="S" unicode="S" horiz-adv-x="744" 
d="M778 687c-71.333 0 -115.333 -44.9971 -132 -134.997l-33 -282c-22.667 -118 -74.667 -200.667 -156 -248c-43.333 -25.333 -96.333 -38 -159 -38c-56.667 0 -106.334 14.667 -149.001 44c-48 33.333 -72 77 -72 131c0 30 6 54.667 18 74
c14.667 22.667 36.334 34 65.001 34c12.667 0 23.667 -4.5 33 -13.5s14 -19.833 14 -32.5c0 -16 -6 -28.833 -18 -38.5s-26.333 -14.834 -43 -15.501c-4.66699 -14 -7 -29.667 -7 -47c0 -42.667 17.667 -75 53 -97c29.333 -19.333 66.333 -29 111 -29
c30 0 55.333 4.66699 76 14c73.333 32.667 119 95.334 137 188.001l28 255c17.333 100 60.666 172 129.999 216c34 21.333 74.667 32 122 32c32.667 0 61.334 -7 86.001 -21c30 -17.333 45 -41 45 -71c0 -64.667 -36.667 -95.334 -110 -92.001
c20.667 33.333 31 64.666 31 93.999c0 19.333 -7 37.166 -21 53.499s-30.333 24.5 -49 24.5z" />
    <glyph glyph-name="T" unicode="T" horiz-adv-x="769" 
d="M54 121c0 47.333 23.3359 71.001 70.0029 71.001c11.333 0 20.833 -4.66699 28.5 -14s11.5 -20 11.5 -32c0 -23.333 -11.667 -39.333 -35 -48c6.66699 -64.667 49 -97 127 -97c80 0 151.333 44 214 132l169 268c79.333 108 173.666 178.667 282.999 212
c-86.667 3.33301 -165.334 5 -236.001 5c-124.667 0 -213.667 -5 -267 -15c-108.667 -20.667 -180.667 -64.334 -216 -131.001c-7.33301 -14 -11 -30.333 -11 -49c0 -37.333 16.667 -65.666 50 -84.999c27.333 -16 61 -24 101 -24c74 0 131.667 17.667 173 53
c44 37.333 64.667 92 62 164h8l1 -23c2.66699 -64 -20 -119.833 -68 -167.5s-105 -71.5 -171 -71.5c-41.333 0 -79 12.667 -113 38c-38 27.333 -57 60.666 -57 99.999c0 28.667 6 54 18 76c68 124.667 221 187 459 187c48 0 119.667 -0.833008 215 -2.5
s166.666 -2.5 213.999 -2.5c42.667 0 64 -8.66699 64 -26c0 -26 -28 -39 -84 -39c-12 0 -30 1.16699 -54 3.5s-41.667 3.5 -53 3.5c-37.333 0 -78.333 -22.333 -123 -67c-32.667 -32 -63 -70.667 -91 -116l-118 -197c-48.667 -74.667 -97.667 -130.334 -147 -167.001
c-64 -46.667 -137 -70 -219 -70c-47.333 0 -91 10 -131 30c-49.333 24.667 -74 58.334 -74 101.001z" />
    <glyph glyph-name="U" unicode="U" horiz-adv-x="1038" 
d="M1165 677l-315 -494.002c-37.333 -58.667 -56 -103.667 -56 -135c0 -9.33301 3 -18 9 -26s13.667 -12 23 -12c41.333 0 95.333 33 162 99c26 26 70.333 76.667 133 152l6 -5c-58.667 -75.333 -106.334 -130.666 -143.001 -165.999c-68 -64.667 -129.667 -97 -185 -97
c-52 0 -78 26 -78 78c0 34.667 13.667 77.334 41 128.001c-119.333 -136.667 -220.333 -205 -303 -205c-51.333 0 -77 23 -77 69c0 39.333 26 100.666 78 183.999l146 218c52 82 78 141.667 78 179c0 34 -21.333 51 -64 51c-62 0 -122.5 -28.667 -181.5 -86
s-88.5 -117 -88.5 -179c0 -17.333 5.33301 -33 16 -47s24.334 -21 41.001 -21c24 0 48 8.66699 72 26c13.333 10 32 28 56 54l8 -4c-47.333 -60 -98 -90 -152 -90c-26 0 -47 7.83301 -63 23.5s-24 36.5 -24 62.5c0 70 42 134.667 126 194c78 54.667 153.667 82 227 82
c29.333 0 54 -6.33301 74 -19c22.667 -15.333 34 -37 34 -65c0 -41.333 -26 -103.666 -78 -186.999l-143 -215c-52 -79.333 -78 -135 -78 -167c0 -11.333 4.16699 -20.5 12.5 -27.5s17.833 -10.5 28.5 -10.5c39.333 0 95 34.333 167 103c54 52 99.667 104.167 137 156.5
s80 117.833 128 196.5l121 202h105z" />
    <glyph glyph-name="V" unicode="V" horiz-adv-x="808" 
d="M617 676c-44 -32 -79.6641 -77.668 -106.997 -137.001c-17.333 -37.333 -36.666 -94.666 -57.999 -171.999c-22 -80.667 -39.667 -137 -53 -169c-29.333 -69.333 -59.333 -125 -90 -167c327.333 200 501.666 387 522.999 561c-18.667 10 -28 23.333 -28 40
c0 16 5.16699 28.833 15.5 38.5s23.833 14.5 40.5 14.5c34 0 51 -24 51 -72c0 -59.333 -26.667 -124 -80 -194c-42.667 -56 -94.334 -106 -155.001 -150c-170.667 -124 -320 -224 -448 -300l-8 8c38.667 57.333 72 135.333 100 234
c37.333 130.667 61.666 209.667 72.999 237c36 86 87.333 154.667 154 206l-156 -44c-72 -22.667 -127 -48 -165 -76c-51.333 -37.333 -77 -81.333 -77 -132c0 -18 5.66699 -34.167 17 -48.5s26 -21.5 44 -21.5c67.333 0 101.666 44.333 102.999 133l10 2
c0.666992 -42.667 -8 -77.334 -26 -104.001c-20.667 -30 -51.667 -45 -93 -45c-31.333 0 -57 8.33301 -77 25s-30 40.334 -30 71.001c0 49.333 27.333 91 82 125c33.333 20.667 83.333 41 150 61l284 85z" />
    <glyph glyph-name="W" unicode="W" horiz-adv-x="1081" 
d="M537 -9c34.667 54.667 65.002 125.333 91.002 212l65 221c-31.333 -46 -84 -106.333 -158 -181c-42.667 -37.333 -104 -95.666 -184 -174.999c-11.333 -15.333 -29.666 -36.666 -54.999 -63.999c-18 -15.333 -35.333 -23 -52 -23c-10.667 0 -16 5 -16 15
c0 4 9.16699 15.5 27.5 34.5s28.833 30.5 31.5 34.5c5.33301 8.66699 12.666 28.334 21.999 59.001l57 202c19.333 67.333 40.666 122.666 63.999 165.999c30 55.333 70.333 108.666 121 159.999c-122.667 -38 -199.667 -64.333 -231 -79
c-96 -46.667 -144 -103.334 -144 -170.001c0 -18.667 6 -35.834 18 -51.501s27.333 -23.5 46 -23.5c65.333 0 98.666 46.667 99.999 140h11c-0.666992 -44.667 -9.66699 -80.667 -27 -108c-21.333 -32.667 -53 -49 -95 -49c-29.333 0 -54 8.33301 -74 25
c-22 18 -33 41.333 -33 70c0 80.667 74.333 144.334 223 191.001l298 94l2 -6c-60.667 -36.667 -108 -102.334 -142 -197.001l-74 -239c-22.667 -58.667 -47.667 -113 -75 -163c198 181.333 313 301 345 359l34 71c20.667 37.333 45.667 72 75 104
c39.333 41.333 74.333 62 105 62c10.667 0 16 -4.66699 16 -14c0 -4 -13.333 -18 -40 -42c-29.333 -26.667 -46.333 -43.667 -51 -51c-22 -34 -42.667 -85.333 -62 -154l-43 -163c-18 -62 -49 -128.667 -93 -200c117.333 71.333 216 146.333 296 225
c110 108 171 211 183 309c-19.333 9.33301 -29 23 -29 41c0 16 5.5 28.667 16.5 38s24.5 14 40.5 14c34.667 0 52 -24 52 -72c0 -59.333 -26.667 -124 -80 -194c-43.333 -56 -95.333 -106 -156 -150c-164.667 -119.333 -304.667 -213.666 -420 -282.999z" />
    <glyph glyph-name="X" unicode="X" horiz-adv-x="860" 
d="M1104 632c0 -14.667 -4.83105 -26.6641 -14.498 -35.9971s-21.834 -14 -36.501 -14c-13.333 0 -24.666 4 -33.999 12c2 10 3 20.333 3 31c0 36 -25 54 -75 54c-66.667 0 -134 -32.667 -202 -98c-60.667 -57.333 -111.667 -130 -153 -218
c-40 -84.667 -60 -159.334 -60 -224.001c0 -32 6.66699 -59.333 20 -82c16 -27.333 39 -41 69 -41c46 0 101.667 30 167 90c45.333 42 89 92 131 150l9 -6c-42.667 -64 -93.334 -120.667 -152.001 -170c-73.333 -61.333 -140 -92 -200 -92c-42 0 -75.333 14.667 -100 44
c-22.667 26.667 -34 61.334 -34 104.001c0 18.667 2 37 6 55c-52 -56.667 -107 -102.667 -165 -138c-71.333 -43.333 -139 -65 -203 -65c-30.667 0 -56.667 5.66699 -78 17c-26.667 14.667 -40 36 -40 64c0 35.333 18 53 54 53c11.333 0 21.666 -4.33301 30.999 -13
s14 -18.334 14 -29.001c0 -16.667 -5.66699 -29.334 -17 -38.001c14 -24.667 39.333 -37 76 -37c68.667 0 138 33.333 208 100c62.667 58.667 115.334 132.667 158.001 222c41.333 87.333 62 164 62 230c0 84.667 -36.333 127 -109 127c-62.667 0 -115.667 -29.667 -159 -89
c-40 -54 -60 -113.333 -60 -178c0 -84 33.667 -126 101 -126c54.667 0 104 47.333 148 142l10 -2c-22.667 -51.333 -47 -89.333 -73 -114c-34 -32 -75.333 -48 -124 -48c-39.333 0 -69.333 11.667 -90 35s-31 54.666 -31 93.999c0 76 33.5 145.667 100.5 209
s138.833 95 215.5 95c104.667 0 157 -56.667 157 -170c0 -12 -0.666992 -24.333 -2 -37c52 56.667 106.667 102.667 164 138c71.333 44.667 137.666 67 198.999 67c27.333 0 51 -4.66699 71 -14c25.333 -12 38 -30 38 -54z" />
    <glyph glyph-name="Y" unicode="Y" horiz-adv-x="931" 
d="M1083 667l-449 -698.998c-114.667 -178 -248.334 -267 -401.001 -267c-52 0 -95.333 8 -130 24c-47.333 21.333 -71 54.666 -71 99.999c0 35.333 11.333 64 34 86s51.667 33 87 33c30.667 0 63.334 -9.33301 98.001 -28v-8c-18.667 6.66699 -34 10 -46 10
c-60.667 0 -91 -32.333 -91 -97c0 -32.667 11.167 -59.167 33.5 -79.5s49.833 -30.5 82.5 -30.5c56.667 0 111 23.333 163 70c33.333 30.667 71.666 78 114.999 142l187 277l-6 3c-38 -51.333 -84.333 -97.333 -139 -138c-66 -50 -124.667 -75 -176 -75
c-50.667 0 -76 21.667 -76 65s26.333 106.666 79 189.999l146 215c52.667 80.667 79 139.334 79 176.001c0 16 -6 28.667 -18 38s-26 14 -42 14c-59.333 0 -120.333 -27.667 -183 -83c-64 -57.333 -96 -115.333 -96 -174c0 -19.333 7.16699 -36.166 21.5 -50.499
s30.833 -21.5 49.5 -21.5c30.667 0 69.334 23.333 116.001 70l8 -5c-48.667 -54.667 -98.334 -82 -149.001 -82c-24.667 0 -46 7.83301 -64 23.5s-27 35.5 -27 59.5c0 73.333 40.667 138.666 122 195.999c74.667 52.667 150.334 79 227.001 79c30.667 0 56.667 -6 78 -18
c26 -14.667 39 -36.334 39 -65.001c0 -38.667 -26.333 -99.334 -79 -182.001l-145 -216c-52.667 -79.333 -79 -135.333 -79 -168c0 -10.667 3.83301 -19.5 11.5 -26.5s16.834 -10.5 27.501 -10.5c43.333 0 100.666 33.667 171.999 101
c58 54.667 103.667 108.334 137 161.001l249 391h105z" />
    <glyph glyph-name="Z" unicode="Z" horiz-adv-x="723" 
d="M105 73l2.00293 -4c50.667 27.333 102.667 41 156 41c28 0 67.167 -9.5 117.5 -28.5s89.166 -28.5 116.499 -28.5c50.667 0 101.667 23.333 153 70c24 22 62 66 114 132l7 -5c-130 -173.333 -243 -260 -339 -260c-33.333 0 -79 13.833 -137 41.5s-100 41.5 -126 41.5
c-28 0 -53.667 -7.66699 -77 -23c-12.667 -8 -28.334 -22 -47.001 -42c-14.667 -15.333 -25 -23 -31 -23c-8 0 -12 4 -12 12c0 9.33301 12.667 23 38 41l53 36l623 532l-3 3c-62.667 -32.667 -116.667 -49 -162 -49c-32 0 -76.333 12.167 -133 36.5
s-98.334 36.5 -125.001 36.5c-34 0 -62.333 -11.833 -85 -35.5s-34 -52.834 -34 -87.501c0 -24 9.16699 -45.667 27.5 -65s39.5 -29 63.5 -29c50 0 92 26.667 126 80l9 -4c-36 -59.333 -80 -89 -132 -89c-29.333 0 -54.333 8.83301 -75 26.5s-31 40.834 -31 69.501
c0 55.333 22.333 100 67 134c41.333 31.333 90.666 47 147.999 47c33.333 0 80.5 -11.333 141.5 -34s107.833 -34 140.5 -34c31.333 0 58.333 7.66699 81 23c10.667 7.33301 25.334 21.333 44.001 42c14 15.333 25.667 23 35 23c10 0 15 -5 15 -15
c0 -4.66699 -16.667 -19 -50 -43c-40.667 -29.333 -61.667 -44.333 -63 -45l-293 -260z" />
    <glyph glyph-name="bracketleft" unicode="[" horiz-adv-x="738" 
d="M851 699l-15 -29h-174l-597 -935h168l-17 -26h-255l646 990h244z" />
    <glyph glyph-name="backslash" unicode="\" horiz-adv-x="712" 
d="M552 -14l-319 714h36l319 -714h-36z" />
    <glyph glyph-name="bracketright" unicode="]" horiz-adv-x="738" 
d="M-87 -293l16 29h174l596 934h-168l17 28h255l-645 -991h-245z" />
    <glyph glyph-name="asciicircum" unicode="^" horiz-adv-x="306" 
d="M223 570c11.333 -49.333 39.001 -104.001 83.001 -164.001v-3c0 -4.66699 -1.66699 -7 -5 -7c-8 0 -24.667 14.333 -50 43c-20 22.667 -35 41.334 -45 56.001c-82.667 -62 -131.334 -93 -146.001 -93l-5 6l3 5c65.333 48.667 116 101 152 157h13z" />
    <glyph glyph-name="underscore" unicode="_" horiz-adv-x="576" 
d="M-70 -107v41h595v-41h-595z" />
    <glyph glyph-name="grave" unicode="`" horiz-adv-x="322" 
d="M340 405c-22.667 0 -52.333 16.667 -89 50s-55 61.333 -55 84c0 24 9.33301 36 28 36c10 0 23 -16.667 39 -50c20.667 -42 31.667 -64 33 -66c16 -12.667 33 -28.667 51 -48c0 -4 -2.33301 -6 -7 -6z" />
    <glyph glyph-name="a" unicode="a" horiz-adv-x="500" 
d="M339 340h97l-99 -151c-46 -74.667 -69 -126 -69 -154c0 -20 8.33301 -30 25 -30c42 0 134.333 84.667 277 254l6 -6c-62 -78.667 -109 -134 -141 -166c-68.667 -66.667 -129 -100 -181 -100c-42.667 0 -64 21.333 -64 64c0 6.66699 0.666992 13.667 2 21
c-50.667 -54.667 -103 -82 -157 -82c-23.333 0 -42.333 10.333 -57 31c-14 18 -21 39 -21 63c0 64.667 30 126.667 90 186s122.333 89 187 89c36 0 62.667 -18.333 80 -55zM93 23c40.667 0 83.999 35.667 129.999 107c42.667 66.667 64 122 64 166
c0 13.333 -3.66699 25.5 -11 36.5s-17.666 16.5 -30.999 16.5c-46.667 0 -91.667 -33.667 -135 -101c-40.667 -62.667 -61 -118.667 -61 -168c0 -14 4 -27 12 -39s18.667 -18 32 -18z" />
    <glyph glyph-name="b" unicode="b" horiz-adv-x="473" 
d="M37 50c0 -30.667 14.9971 -46 44.9971 -46c42.667 0 87.334 32 134.001 96c44.667 60 67 112.333 67 157c0 5.33301 -1 13.833 -3 25.5s-3 20.5 -3 26.5c0 14.667 4.5 27.167 13.5 37.5s20.833 15.5 35.5 15.5c34 0 51 -29.667 51 -89c0 -12.667 -2 -25.667 -6 -39
c26.667 -21.333 54.334 -32 83.001 -32c26.667 0 58.334 19.667 95.001 59l5 -5c-30 -42 -64 -63 -102 -63c-30 0 -58 10 -84 30c-54 -153.333 -150.667 -230 -290 -230c-31.333 0 -57 6.33301 -77 19c-24 15.333 -36 38 -36 68c0 40.667 20 91.667 60 153l284 436l106 6
l-305 -462c-48.667 -74 -73 -128.333 -73 -163z" />
    <glyph glyph-name="c" unicode="c" horiz-adv-x="385" 
d="M232 345c-47.333 0 -90 -28.667 -128 -86c-34.667 -52 -52 -103 -52 -153c0 -27.333 8.16699 -48.833 24.5 -64.5s38.166 -23.5 65.499 -23.5c54.667 0 113.334 28.667 176.001 86c26 24 71.333 74.667 136 152l8 -1c-65.333 -82.667 -119 -142 -161 -178
c-72 -61.333 -143 -92 -213 -92c-36 0 -66.333 9 -91 27c-26.667 20.667 -40 48.667 -40 84c0 63.333 33 123.333 99 180c63.333 55.333 127 83 191 83c24 0 45.333 -4.66699 64 -14c22.667 -12 34 -28.667 34 -50c0 -52.667 -34 -77.667 -102 -75c14 38 21 69 21 93
c0 21.333 -10.667 32 -32 32z" />
    <glyph glyph-name="d" unicode="d" horiz-adv-x="504" 
d="M99 23c40.667 0 84.332 35.667 130.999 107c42.667 66.667 64 122 64 166c0 13.333 -3.66699 25.5 -11 36.5s-17.666 16.5 -30.999 16.5c-46.667 0 -91.667 -33.667 -135 -101c-40 -62.667 -60 -118.667 -60 -168c0 -14 3.33301 -26.333 10 -37
c8 -13.333 18.667 -20 32 -20zM298.998 5c30.667 0 80 35.334 148 106.001c24 25.333 67 74.666 129 147.999l7 -6c-58.667 -76 -105.667 -131.333 -141 -166c-68.667 -66.667 -129 -100 -181 -100c-48 0 -69 28.333 -63 85c-50 -54.667 -102 -82 -156 -82
c-23.333 0 -42.333 10.333 -57 31c-14 18 -21 39 -21 63c0 64 29.667 125.833 89 185.5s121.333 89.5 186 89.5c36 0 63.667 -19.667 83 -59l228 375l106 4l-316 -501c-24.667 -38.667 -38.667 -61.667 -42 -69c-16 -29.333 -24 -54 -24 -74s8.33301 -30 25 -30z" />
    <glyph glyph-name="e" unicode="e" horiz-adv-x="381" 
d="M238 348c-36.667 0 -72.667 -23 -108 -69c-27.333 -35.333 -49 -75.333 -65 -120c46 11.333 88 30 126 56c48.667 32.667 73 69 73 109c0 16 -8.66699 24 -26 24zM149 19c54 0 112.334 28.668 175.001 86.001c30 27.333 75.333 78 136 152l10 -1
c-66.667 -84 -120.334 -143.333 -161.001 -178c-72 -61.333 -143.333 -92 -214 -92c-36.667 0 -67 9 -91 27c-26.667 19.333 -40 47 -40 83c0 63.333 31.333 123 94 179s126 84 190 84c22.667 0 42.334 -4.33301 59.001 -13c21.333 -10.667 32 -26.334 32 -47.001
c0 -40.667 -37.333 -75.667 -112 -105c-26 -10 -81.333 -25.667 -166 -47c-1.33301 -20 -2 -34.333 -2 -43c0 -26.667 8.16699 -47.5 24.5 -62.5s38.166 -22.5 65.499 -22.5z" />
    <glyph glyph-name="f" unicode="f" horiz-adv-x="277" 
d="M476 659c-41.333 0 -92.667 -43.668 -154 -131.001c-8.66699 -12 -47.334 -75 -116.001 -189h250l-9 -16h-251l-193 -327c-58 -98 -115.667 -169 -173 -213c-71.333 -55.333 -157 -83 -257 -83c-49.333 0 -91.666 8.33301 -126.999 25c-46.667 22 -70 55 -70 99
c0 80 60.667 119.333 182 118v-8c-65.333 -11.333 -98 -47.666 -98 -108.999c0 -35.333 11.167 -63.166 33.5 -83.499s50.833 -30.5 85.5 -30.5c108.667 0 210 80 304 240l219 372h-93l9 16h94c65.333 107.333 115 179.666 149 216.999c69.333 76.667 144.333 115 225 115
c29.333 0 54.333 -5 75 -15c26.667 -13.333 40 -33 40 -59c0 -48 -31.333 -72 -94 -72h-7c13.333 28.667 20 55.667 20 81c0 13.333 -4 25.5 -12 36.5s-18.667 16.5 -32 16.5z" />
    <glyph glyph-name="g" unicode="g" horiz-adv-x="508" 
d="M355 342l96 5.99902l-205 -368c110 38 219.667 130 329 276l8 -6c-117.333 -159.333 -231.666 -253.666 -342.999 -282.999c-120 -180 -259 -270 -417 -270c-47.333 0 -87 8.33301 -119 25c-41.333 21.333 -62 53.333 -62 96c0 76.667 45.667 115 137 115
c10 0 25 -0.666992 45 -2v-6c-66 -4.66699 -99 -41 -99 -109c0 -32 10.333 -58.167 31 -78.5s47 -30.5 79 -30.5c56 0 110.333 22.667 163 68c40 35.333 81.667 86.333 125 153l95 158c-50.667 -64 -106.667 -96 -168 -96c-22.667 0 -41.334 9.33301 -56.001 28
s-22 39.334 -22 62.001c0 65.333 30 128.166 90 188.499s123 90.5 189 90.5c42 0 68.667 -20 80 -60zM107 25.999c43.333 0 87 35.333 131 106c40.667 65.333 61 121.333 61 168c0 13.333 -3.66699 25 -11 35s-17.333 15 -30 15c-46 0 -91 -33.333 -135 -100
c-40 -62 -60 -117.667 -60 -167c0 -14 3.66699 -26.333 11 -37c8.66699 -13.333 19.667 -20 33 -20z" />
    <glyph glyph-name="h" unicode="h" horiz-adv-x="478" 
d="M92 167c46 57.333 81.667 97.3359 107 120.003c48.667 43.333 95.334 65 140.001 65c17.333 0 32.666 -5.5 45.999 -16.5s20 -24.833 20 -41.5c0 -30.667 -23.333 -75.667 -70 -135s-70 -100 -70 -122c0 -18 8.66699 -27 26 -27c28 0 74 34 138 102
c40.667 42.667 80.667 90 120 142l8 -4c-32.667 -52.667 -76 -105.334 -130 -158.001c-68 -67.333 -123.333 -101 -166 -101c-18.667 0 -35 6.5 -49 19.5s-21 28.5 -21 46.5c0 34 22.333 79.667 67 137s67 94.666 67 111.999c0 16 -10.667 24 -32 24
c-39.333 0 -94.333 -45.333 -165 -136c-50 -64.667 -92.667 -129.334 -128 -194.001h-96l406 675l105 4z" />
    <glyph glyph-name="i" unicode="i" horiz-adv-x="256" 
d="M314 512c0 -14.667 -5.16699 -27.667 -15.5 -39s-22.833 -17 -37.5 -17c-13.333 0 -24.5 4.5 -33.5 13.5s-13.5 20.167 -13.5 33.5c0 14.667 5.16699 27.334 15.5 38.001s22.833 16 37.5 16c12.667 0 23.667 -4.33301 33 -13s14 -19.334 14 -32.001zM110 335l96 5.00293
c-62.667 -94 -95.667 -144 -99 -150c-46.667 -74.667 -70 -125.334 -70 -152.001c0 -19.333 8 -29 24 -29c31.333 0 80.666 34.667 147.999 104c26 27.333 69.333 76.666 130 147.999l6 -5c-58 -74.667 -105 -129.667 -141 -165
c-69.333 -67.333 -128.666 -101 -177.999 -101c-18 0 -33.833 5.66699 -47.5 17s-20.5 25.666 -20.5 42.999c0 25.333 20.667 73 62 143c4.66699 8 34.667 55.333 90 142z" />
    <glyph glyph-name="j" unicode="j" horiz-adv-x="257" 
d="M308 512c0 -15.333 -5.50098 -27.833 -16.501 -37.5s-24.167 -14.5 -39.5 -14.5c-11.333 0 -21.666 4.5 -30.999 13.5s-14 19.167 -14 30.5c0 15.333 5.33301 28.333 16 39s23.667 16 39 16c12 0 22.667 -4.83301 32 -14.5s14 -20.5 14 -32.5zM324.999 256l7.99805 -6
c-116 -158.667 -230.333 -253 -343 -283c-54 -86 -109.667 -150.333 -167 -193c-70 -51.333 -150.333 -77 -241 -77c-46.667 0 -86.667 8 -120 24c-43.333 20.667 -65 52 -65 94c0 78.667 47.667 118 143 118c16.667 0 29 -0.666992 37 -2v-6
c-66 -2.66699 -99 -38.667 -99 -108c0 -32.667 10.333 -59 31 -79s47.334 -30 80.001 -30c60.667 0 121.334 29.333 182.001 88c45.333 44 87 100.333 125 169l209 375l99 6l-206 -366c108.667 37.333 217.667 129.333 327 276z" />
    <glyph glyph-name="k" unicode="k" horiz-adv-x="474" 
d="M79 160l5.99707 -3c96 128 179.333 192 250 192c46 0 69 -17 69 -51c0 -34.667 -19.667 -62.667 -59 -84c-20.667 -11.333 -55.667 -23.333 -105 -36c26 -16.667 39 -34.667 39 -54c0 -11.333 -3.33301 -27.5 -10 -48.5s-10 -37.167 -10 -48.5c0 -14.667 7 -22 21 -22
c28.667 0 75.334 33 140.001 99c40.667 41.333 81.667 88 123 140h12c-43.333 -61.333 -89.666 -115.333 -138.999 -162c-70 -66 -129.667 -99 -179 -99c-16 0 -29.667 4 -41 12c-13.333 8.66699 -20 20.667 -20 36c0 16 5.66699 40 17 72l28 71
c-28.667 -10 -49.334 -15 -62.001 -15c-12 0 -18 4 -18 12c0 14.667 15.333 22 46 22c4 0 10.333 -1 19 -3s15.334 -3 20.001 -3c20.667 0 40.834 10.167 60.501 30.5s29.5 40.833 29.5 61.5c0 24.667 -11.333 37 -34 37c-58 0 -155.333 -105.333 -292 -316h-92l408 670
l102 6z" />
    <glyph glyph-name="l" unicode="l" horiz-adv-x="262" 
d="M415 678l-312.999 -500c-25.333 -40.667 -39 -63 -41 -67c-16 -29.333 -24 -53.666 -24 -72.999s8 -29 24 -29c30.667 0 80 35 148 105c19.333 19.333 62.666 68.333 129.999 147l7 -5c-60.667 -76.667 -108 -131.667 -142 -165c-68.667 -67.333 -128 -101 -178 -101
c-18 0 -33.833 5.66699 -47.5 17s-20.5 25.666 -20.5 42.999c0 24 20.667 70.333 62 139l290 482z" />
    <glyph glyph-name="m" unicode="m" horiz-adv-x="725" 
d="M570 307c0 15.333 -8.99512 22.999 -26.9951 22.999c-34.667 0 -88.334 -46.333 -161.001 -139c-56 -71.333 -99.333 -135 -130 -191h-98l97 154c46.667 77.333 70 127.333 70 150c0 17.333 -9.33301 26 -28 26c-36.667 0 -91 -46 -163 -138
c-56.667 -71.333 -99.667 -135.333 -129 -192h-97l208 340l110 4l-134 -175l8 -3c43.333 56 78.333 96.333 105 121c48 44 93.667 66 137 66c16 0 30.667 -5.33301 44 -16s20 -24 20 -40c0 -17.333 -7.66699 -39.666 -23 -66.999c-2 -3.33301 -15 -23.666 -39 -60.999l7 -3
c45.333 57.333 79.666 96.666 102.999 117.999c47.333 44.667 91.666 67 132.999 67c15.333 0 29.666 -6.66699 42.999 -20s20 -27.666 20 -42.999c0 -30 -23.667 -75 -71 -135s-71 -99.667 -71 -119c0 -16 8.66699 -24 26 -24c27.333 0 73 34 137 102
c40 42 80.333 89.333 121 142l7 -4c-32.667 -52.667 -75.667 -105.334 -129 -158.001c-68 -67.333 -123.333 -101 -166 -101c-18.667 0 -34.834 6.16699 -48.501 18.5s-20.5 27.5 -20.5 45.5c0 32.667 23.167 78.5 69.5 137.5s69.5 97.167 69.5 114.5z" />
    <glyph glyph-name="n" unicode="n" horiz-adv-x="464" 
d="M331 351c15.333 0 29.5 -6.83105 42.5 -20.498s19.5 -28.167 19.5 -43.5c0 -32 -23.667 -77 -71 -135s-71 -97.333 -71 -118c0 -6.66699 2.83301 -12.334 8.5 -17.001s11.834 -7 18.501 -7c27.333 0 73 34 137 102c40.667 43.333 80.667 90.666 120 141.999l8 -4
c-34.667 -54 -78 -106.667 -130 -158c-68 -67.333 -123 -101 -165 -101c-18.667 0 -34.834 6.16699 -48.501 18.5s-20.5 27.5 -20.5 45.5c0 33.333 23.167 79.5 69.5 138.5s69.5 96.833 69.5 113.5c0 15.333 -9 23 -27 23c-34.667 0 -88.667 -46 -162 -138
c-57.333 -73.333 -100.333 -137.333 -129 -192h-98l209 340l110 4l-134 -175l8 -3c44 57.333 78 97.333 102 120c46 43.333 90.667 65 134 65z" />
    <glyph glyph-name="o" unicode="o" horiz-adv-x="456" 
d="M540 250c-38.667 -41.333 -76.332 -61.999 -112.999 -61.999c-26 0 -47.333 11.667 -64 35c-21.333 -66.667 -54.333 -121.667 -99 -165c-50.667 -48.667 -108.334 -73 -173.001 -73c-36.667 0 -66.334 8.33301 -89.001 25c-26 19.333 -39 46.666 -39 81.999
c0 68.667 29.333 130.167 88 184.5s122.667 81.5 192 81.5c44.667 0 76.667 -14 96 -42l33 -77c12 -28 31.667 -42 59 -42c26.667 0 60.334 19.667 101.001 59zM80.002 -3.99902c46 0 92.333 39.333 139 118c42.667 72.667 64 134 64 184c0 34 -13.333 51 -40 51
c-44.667 0 -90 -39.667 -136 -119c-42.667 -73.333 -64 -134.333 -64 -183c0 -34 12.333 -51 37 -51z" />
    <glyph glyph-name="p" unicode="p" horiz-adv-x="478" 
d="M102 196l5 -6.00098c39.333 50.667 70.333 86.334 93 107.001c42 37.333 83.333 56 124 56c21.333 0 38.666 -7.16699 51.999 -21.5s20 -32.166 20 -53.499c0 -60 -21.667 -115.333 -65 -166c47.333 13.333 87.333 32.333 120 57c18.667 13.333 51.334 43 98.001 89l8 -4
c-44.667 -46.667 -80 -79.334 -106 -98.001c-35.333 -25.333 -79.333 -45.333 -132 -60c-22.667 -30.667 -51.334 -56 -86.001 -76c-37.333 -22.667 -73.666 -34 -108.999 -34c-38.667 0 -58 12.333 -58 37c0 23.333 24 42.333 72 57c36 11.333 70.333 17.333 103 18
c45.333 61.333 68 119.333 68 174c0 12 -4 23.167 -12 33.5s-18 15.5 -30 15.5c-22.667 0 -56.667 -26 -102 -78c-34.667 -39.333 -62.667 -76.333 -84 -111l-268 -441h-104l516 840l101 7zM127 -2.00098c26.667 0 62 30.332 106 90.999
c-27.333 -2.66699 -54 -8.66699 -80 -18c-36 -13.333 -54 -29.666 -54 -48.999c0 -16 9.33301 -24 28 -24z" />
    <glyph glyph-name="q" unicode="q" horiz-adv-x="490" 
d="M351 340l97.999 6.00098l-212 -362c111.333 32 222.333 124 333 276l4 -6c-113.333 -163.333 -228 -258 -344 -284l-161 -278h-104l244 387l-5 2c-52 -59.333 -105 -89 -159 -89c-24.667 0 -44.667 9 -60 27s-23 39.333 -23 64c0 65.333 29 127.166 87 185.499
s120 87.5 186 87.5c46.667 0 76.334 -22.667 89.001 -68zM92.999 25.001c44.667 0 89.668 35.666 135.001 106.999c42 65.333 63 122 63 170c0 12.667 -3.83301 23.667 -11.5 33s-17.834 14 -30.501 14c-46 0 -91.333 -33.333 -136 -100c-40.667 -62 -61 -117.667 -61 -167
c0 -13.333 3.33301 -25.666 10 -36.999c8 -13.333 18.333 -20 31 -20z" />
    <glyph glyph-name="r" unicode="r" horiz-adv-x="392" 
d="M371 200c29.333 0 61 19.666 95 58.999l4 -5c-40 -51.333 -85.333 -77 -136 -77c-24.667 0 -45 5.66699 -61 17c-18.667 13.333 -28 32 -28 56c0 17.333 3.33301 36 10 56c-112 -84 -195.667 -186 -251 -306h-96l199 341l109 5l-128 -179l5 -3
c42 50.667 99 105.334 171 164.001c6 18.667 17 28 33 28h83c-33.333 -50.667 -50 -89 -50 -115c0 -11.333 4 -21 12 -29s17.667 -12 29 -12z" />
    <glyph glyph-name="s" unicode="s" horiz-adv-x="369" 
d="M194 349c-17.333 0 -31.333 -6.16797 -42 -18.501s-16 -27.166 -16 -44.499c0 -20.667 13.667 -50.834 41 -90.501s41 -67.5 41 -83.5c0 -46.667 -28 -81.334 -84 -104.001l1 -7c64.667 16.667 123.667 49.667 177 99c32.667 30.667 76.334 83 131.001 157l6 -6
c-57.333 -81.333 -110.333 -142 -159 -182c-70 -56.667 -144 -85 -222 -85c-36.667 0 -68 7.66699 -94 23c-31.333 18.667 -47 45.334 -47 80.001c0 24.667 6.16699 45.834 18.5 63.501s30.5 26.5 54.5 26.5c10 0 19.333 -4.33301 28 -13s13 -18.334 13 -29.001
c0 -26.667 -13.667 -40 -41 -40c-6 0 -12 1 -18 3c-7.33301 -13.333 -11 -28 -11 -44c0 -18 7.66699 -32.667 23 -44c13.333 -9.33301 29.333 -14 48 -14c26.667 0 49.5 9.16699 68.5 27.5s28.5 40.5 28.5 66.5c0 16.667 -12.833 42.5 -38.5 77.5s-38.5 62.5 -38.5 82.5
c0 35.333 15.333 63 46 83c26.667 16.667 58.667 25 96 25c26 0 49.667 -5.66699 71 -17c24.667 -14 37 -33 37 -57c0 -43.333 -23.333 -65 -70 -65l-21 3c12 26 18 51.333 18 76c0 12.667 -4.33301 24.334 -13 35.001s-19.334 16 -32.001 16z" />
    <glyph glyph-name="t" unicode="t" horiz-adv-x="263" 
d="M26 326l7 15.001h73l74 122l97 5l-75 -127h120l-6 -15h-124l-92 -143c-44 -72 -66 -120 -66 -144c0 -19.333 8.33301 -29 25 -29c31.333 0 80.666 34.667 147.999 104c25.333 26.667 68.333 75.667 129 147l8 -5c-60 -76 -107.333 -131 -142 -165
c-69.333 -67.333 -128.666 -101 -177.999 -101c-18 0 -34 5.66699 -48 17s-21 25.666 -21 42.999c0 23.333 19.667 69.333 59 138l84 138h-72z" />
    <glyph glyph-name="u" unicode="u" horiz-adv-x="485" 
d="M221 124c-65.333 -89.333 -131.332 -134.001 -197.999 -134.001c-16.667 0 -31 6.16699 -43 18.5s-18 26.833 -18 43.5c0 29.333 20 78.333 60 147l89 144h102c-56.667 -83.333 -90 -133 -100 -149c-48 -76 -72 -126 -72 -150c0 -18.667 10.333 -28 31 -28
c61.333 0 153.666 107.667 276.999 323l98 5l-95 -146c-53.333 -87.333 -80 -142 -80 -164c0 -15.333 7.66699 -23 23 -23c40 0 130.333 83.333 271 250l8 -5c-139.333 -176.667 -245 -265 -317 -265c-36 0 -54 19.667 -54 59c0 20.667 6 45.334 18 74.001z" />
    <glyph glyph-name="v" unicode="v" horiz-adv-x="469" 
d="M541 258l7.00098 -4.99902c-35.333 -44 -72.333 -66 -111 -66c-18.667 0 -42 10 -70 30c-23.333 -64 -60.333 -117.333 -111 -160c-55.333 -46.667 -115.333 -70 -180 -70c-30.667 0 -56 7.33301 -76 22c-22 16.667 -33 40 -33 70c0 34.667 16.333 79.667 49 135
c1.33301 2.66699 29 44.667 83 126l103 4c-64 -92 -97.667 -140.667 -101 -146c-43.333 -68.667 -65 -120.334 -65 -155.001c0 -12.667 4 -23.5 12 -32.5s18.333 -13.5 31 -13.5c46 0 92.333 33.667 139 101c43.333 62 65 117.333 65 166c0 4.66699 -0.666992 11.667 -2 21
s-2 16.333 -2 21c0 32.667 16.333 49 49 49c30 0 45 -28.333 45 -85c0 -14 -1 -27.333 -3 -40c29.333 -22 53.666 -33 72.999 -33c31.333 0 64 20.333 98 61z" />
    <glyph glyph-name="w" unicode="w" horiz-adv-x="703" 
d="M219 114c-27.333 -36.667 -50.9961 -63.334 -70.9961 -80.001c-30.667 -26 -62.667 -39 -96 -39c-24.667 0 -44.5 6.66699 -59.5 20s-22.5 32.333 -22.5 57c0 35.333 18 82.333 54 141c6 10 36 53 90 129h101l-102 -139c-43.333 -66 -65 -115.667 -65 -149
c0 -26.667 13 -40 39 -40c35.333 0 84.666 45.667 147.999 137c9.33301 14 48.333 77.667 117 191l100 6l-101 -148c-45.333 -71.333 -68 -122.333 -68 -153c0 -12 3.66699 -23 11 -33s16.666 -15 27.999 -15c43.333 0 88.666 32 135.999 96
c44.667 60.667 67 113.334 67 158.001c0 6 -0.666992 15 -2 27s-2 21 -2 27c0 14 4.66699 25.833 14 35.5s21 14.5 35 14.5c30 0 45 -28.333 45 -85c0 -14 -1 -27.333 -3 -40c29.333 -22 53.666 -33 72.999 -33c31.333 0 64 20.333 98 61l7 -5
c-34 -44.667 -70.667 -67 -110 -67c-16 0 -39.667 10.333 -71 31c-21.333 -60 -57.333 -112.333 -108 -157c-56 -48.667 -114.333 -73 -175 -73c-72.667 0 -109 32.667 -109 98c0 8.66699 0.666992 17.667 2 27z" />
    <glyph glyph-name="x" unicode="x" horiz-adv-x="571" 
d="M566 295c0 -42.667 -30.6689 -63.333 -92.002 -62c8.66699 30 13 54 13 72c0 26.667 -11.333 40 -34 40c-42 0 -84 -31.667 -126 -95c-38 -58.667 -57 -110.667 -57 -156c0 -22.667 7 -40.167 21 -52.5s32 -18.5 54 -18.5c66.667 0 164.334 77 293.001 231l7 -4
c-129.333 -175.333 -248.333 -263 -357 -263c-32.667 0 -56 6.66699 -70 20c-11.333 10 -23 31.667 -35 65c-75.333 -53.333 -139.666 -80 -192.999 -80c-27.333 0 -50 6.33301 -68 19c-20 14.667 -30 35 -30 61c0 44 18.667 66 56 66c11.333 0 21.5 -4.16699 30.5 -12.5
s13.5 -18.166 13.5 -29.499c0 -25.333 -14 -41 -42 -47c1.33301 -30.667 19 -46 53 -46c50 0 100.667 33.333 152 100c48 63.333 72 121 72 173c0 13.333 -4 26.166 -12 38.499s-18.333 18.5 -31 18.5c-32.667 0 -67.334 -27 -104.001 -81l-9 4
c46.667 68.667 92.334 103 137.001 103c58 0 92.333 -27 103 -81c55.333 52.667 109.333 79 162 79c22.667 0 42.667 -4.66699 60 -14c22 -11.333 33 -27.333 33 -48z" />
    <glyph glyph-name="y" unicode="y" horiz-adv-x="490" 
d="M-373 -179c0 38.667 14.3311 68 42.998 88c25.333 16.667 58.333 25 99 25c16 0 30.333 -1.33301 43 -4v-5c-67.333 2 -101 -31.333 -101 -100c0 -35.333 9.66699 -63 29 -83s46.666 -30 81.999 -30c58.667 0 116.334 26 173.001 78
c42.667 39.333 87.334 96.666 134.001 171.999l99 168l-6 2c-72.667 -92 -140 -138 -202 -138c-16.667 0 -31 6 -43 18s-18 26 -18 42c0 31.333 19.333 80.333 58 147l89 141l100 6l-97 -151c-47.333 -76.667 -71 -126 -71 -148c0 -18.667 9 -28 27 -28
c66 0 158.667 107 278 321h93l-199 -353c113.333 34.667 224.333 127 333 277l4 -6c-45.333 -67.333 -94.666 -125 -147.999 -173c-66 -59.333 -131.333 -96 -196 -110l-48 -71c-41.333 -61.333 -96 -110.666 -164 -147.999s-138.667 -56 -212 -56
c-44.667 0 -83.667 8.66699 -117 26c-41.333 21.333 -62 52.333 -62 93z" />
    <glyph glyph-name="z" unicode="z" horiz-adv-x="467" 
d="M101 96l3 -6.00391h16c20.667 0 48.167 -7 82.5 -21s59.166 -21 74.499 -21c39.333 0 87.333 26.667 144 80c28.667 26.667 67.667 70.334 117 131.001l6 -6c-61.333 -74.667 -109.666 -129 -144.999 -163c-70.667 -66.667 -130.667 -100 -180 -100
c-18 0 -43.833 7.66699 -77.5 23s-59.167 23 -76.5 23c-20.667 0 -42 -7.33301 -64 -22s-37 -21.667 -45 -21l-7 10c-0.666992 8.66699 5.66602 16.334 18.999 23.001c43.333 20.667 89 49.334 137 86.001c65.333 50.667 107.333 82 126 94c22 14.667 56 34.667 102 60l-4 5
c-21.333 -3.33301 -34 -5 -38 -5c-15.333 0 -37.5 3.66699 -66.5 11s-50.833 11 -65.5 11c-28 0 -55 -13 -81 -39l-6 5c50.667 61.333 107.667 92 171 92c15.333 0 37.5 -4.5 66.5 -13.5s50.833 -13.5 65.5 -13.5c20 0 35.667 4 47 12c6 4.66699 12.333 12.334 19 23.001
c4.66699 8 9.33398 12 14.001 12c8 0 12 -3.66699 12 -11c0 -10 -122 -96.333 -366 -259z" />
    <glyph glyph-name="braceleft" unicode="{" horiz-adv-x="588" 
d="M539 672c-64 -10.667 -107.334 -30.332 -130.001 -58.999c-18 -22 -27 -58 -27 -108c0 -10.667 0.5 -28.834 1.5 -54.501s1.5 -46.167 1.5 -61.5c0 -60 -21 -103.667 -63 -131c-29.333 -18.667 -78.666 -34 -147.999 -46c70 -8.66699 119.5 -22.5 148.5 -41.5
s47.167 -48.5 54.5 -88.5c4.66699 -25.333 7 -77.333 7 -156c0 -55.333 12 -96.333 36 -123s63.667 -43 119 -49v-28c-59.333 -0.666992 -109 10.333 -149 33c-48.667 27.333 -74 68.666 -76 123.999c-0.666992 18 -0.666992 41.333 0 70c0.666992 38.667 1 62 1 70
c0 60.667 -13.667 102.334 -41 125.001c-20.667 17.333 -63.334 31 -128.001 41v46c60.667 8.66699 103.334 23.667 128.001 45c22 19.333 35 49 39 89c0.666992 8 1 55.667 1 143c0 122 75 184.667 225 188v-28z" />
    <glyph glyph-name="bar" unicode="|" horiz-adv-x="387" 
d="M222 -250v951h42v-951h-42z" />
    <glyph glyph-name="braceright" unicode="}" horiz-adv-x="588" 
d="M380 408c0 -60.667 13.333 -103.002 40 -127.002c22.667 -20.667 65.334 -35.667 128.001 -45v-44c-71.333 -12 -118 -30.333 -140 -55c-18 -20.667 -27 -58.334 -27 -113.001v-44c0.666992 -21.333 1 -38.666 1 -51.999c0 -132.667 -75 -200 -225 -202v28
c62.667 7.33301 105.667 28.333 129 63c18 26.667 27 68 27 124c0 11.333 -0.5 29.5 -1.5 54.5s-1.5 44.167 -1.5 57.5c0 56 22.333 96.667 67 122c28 16 75.333 29 142 39c-72 12.667 -122 28.834 -150 48.501s-45.333 49.834 -52 90.501c-3.33301 20.667 -5 73.667 -5 159
c0 52 -13.333 90.667 -40 116c-22.667 22 -61 38 -115 48v24c143.333 -4 217.666 -59.333 222.999 -166v-126z" />
    <glyph glyph-name="asciitilde" unicode="~" horiz-adv-x="351" 
d="M360 495c15.333 0 27.666 4.33301 36.999 13c6 5.33301 13.667 16.333 23 33h15c-15.333 -60.667 -43 -91 -83 -91c-17.333 0 -40.5 6.16699 -69.5 18.5s-50.167 18.5 -63.5 18.5c-25.333 0 -45.666 -16.333 -60.999 -49h-13c13.333 62.667 40 94 80 94
c18.667 0 43 -6.16699 73 -18.5s50.667 -18.5 62 -18.5z" />
    <glyph glyph-name="nonbreakingspace" unicode="&#xa0;" horiz-adv-x="548" 
 />
    <glyph glyph-name="exclamdown" unicode="&#xa1;" horiz-adv-x="353" 
d="M-33 -188c-11.333 0 -21.667 4.16992 -31 12.5029s-14 18.166 -14 29.499c0 16.667 10 38.667 30 66l49 58c78 93.333 139.667 173.666 185 240.999l6 -4c-44.667 -68.667 -92 -164.334 -142 -287.001l-29 -71c-16 -30 -34 -45 -54 -45zM182.999 288.003
c0 13.333 5.16699 25.332 15.5 35.999s22.5 16 36.5 16c13.333 0 25.5 -4.66699 36.5 -14s16.5 -20.666 16.5 -33.999c0 -14 -5 -26.333 -15 -37s-22 -16 -36 -16s-26.5 4.66699 -37.5 14s-16.5 21 -16.5 35z" />
    <glyph glyph-name="cent" unicode="&#xa2;" horiz-adv-x="465" 
d="M375 479l-49 -91.001c21.333 -2.66699 39.333 -9.66699 54 -21c18 -12.667 27 -28.667 27 -48c0 -47.333 -36 -73 -108 -77c16.667 34.667 25 65.334 25 92.001c0 12 -3.33301 23 -10 33l-163 -301c12.667 -8.66699 29.334 -13 50.001 -13
c36.667 0 88.334 20.667 155.001 62l3 -8c-46.667 -32 -83.334 -54 -110.001 -66c-40.667 -18 -82.334 -27 -125.001 -27l-67 -121l-14 6l60 116c-56 22 -84 58.667 -84 110c0 66.667 32 126 96 178c55.333 44.667 119 73 191 85l51 95zM136 77.999l161 294
c-51.333 -11.333 -94 -39.833 -128 -85.5s-51 -95.167 -51 -148.5c0 -22.667 6 -42.667 18 -60z" />
    <glyph glyph-name="sterling" unicode="&#xa3;" horiz-adv-x="968" 
d="M626 659c6.66699 20 9.99609 34.999 9.99609 44.999c0 13.333 -6.16699 25.166 -18.5 35.499s-25.166 15.5 -38.499 15.5c-31.333 0 -55.333 -13.333 -72 -40c-14.667 -22.667 -22 -50.334 -22 -83.001c0 -65.333 40 -114.666 120 -147.999
c37.333 68.667 81 125.334 131 170.001c62 55.333 125.667 83 191 83c78 0 117 -27.667 117 -83c0 -63.333 -38.333 -113.333 -115 -150c-63.333 -30 -133.333 -45 -210 -45c-11.333 0 -22 0.333008 -32 1l-68 -143h203l-8 -16h-204
c-23.333 -44.667 -49.333 -82.667 -78 -114c-26 -28 -61.333 -58.333 -106 -91c78 -28 145.333 -42 202 -42c59.333 0 108.333 14.333 147 43c42 31.333 65.667 75.666 71 132.999h7c-7.33301 -71.333 -39 -128.666 -95 -171.999c-53.333 -41.333 -117 -62 -191 -62
c-33.333 0 -68.666 7 -105.999 21c-18 6 -50.667 20.667 -98 44c-71.333 -33.333 -136.666 -50 -195.999 -50c-30 0 -58.667 6.33301 -86 19c-33.333 16 -50 37.333 -50 64c0 46.667 38 70 114 70c60.667 0 145 -19.333 253 -58c52.667 54 93.334 119 122.001 195h-277l8 14
h275l73 162c-42.667 10.667 -80 29.334 -112 56.001c-38 32 -57 67.333 -57 106c0 38 11.167 69.333 33.5 94s52.5 37 90.5 37c22 0 42 -5.33301 60 -16c20.667 -12.667 31 -29.667 31 -51c0 -14.667 -3.66699 -30 -11 -46zM920.996 726.999
c-44 0 -90.333 -32.999 -139 -98.999c-34 -44.667 -64.667 -97.667 -92 -159l31 -1c64 -2 120.333 10.667 169 38c57.333 33.333 86 80.666 86 141.999c0 20 -4 37.333 -12 52c-10 18 -24.333 27 -43 27zM55.9961 106c0 -24 17.667 -44 53 -60
c29.333 -14 57.666 -21 84.999 -21c49.333 0 99 15 149 45c-93.333 53.333 -171.666 80 -234.999 80c-34.667 0 -52 -14.667 -52 -44z" />
    <glyph glyph-name="currency" unicode="&#xa4;" horiz-adv-x="437" 
d="M205 385c20 6.66699 35.3311 9.99609 45.998 9.99609c11.333 0 27.333 -3 48 -9s36.334 -9 47.001 -9c32.667 0 61.334 22.667 86.001 68l3 -2c-34 -68.667 -74.333 -103 -121 -103c-15.333 0 -35.5 6 -60.5 18s-43.5 18 -55.5 18
c-14.667 0 -26.334 -5.83301 -35.001 -17.5s-16 -17.5 -22 -17.5l-4 6c0 14.667 54.333 46.334 163 95.001c34 15.333 58.667 30.333 74 45c21.333 20.667 32 46.667 32 78c0 16.667 -5.83301 31.334 -17.5 44.001s-25.5 19 -41.5 19c-16.667 0 -30.5 -5.33301 -41.5 -16
s-16.5 -24.667 -16.5 -42c0 -9.33301 3 -18 9 -26s13.333 -12 22 -12c9.33301 0 17.333 1.66699 24 5c-9.33301 -25.333 -26.333 -38 -51 -38c-11.333 0 -21 4.5 -29 13.5s-12 19.167 -12 30.5c0 26.667 13 49.334 39 68.001c23.333 17.333 49 26 77 26
c24 0 44.333 -5.66699 61 -17c18.667 -13.333 28 -31.666 28 -54.999c0 -42 -22.667 -74.333 -68 -97l-121 -47c-13.333 -6 -34.666 -17.333 -63.999 -34z" />
    <glyph glyph-name="section" unicode="&#xa7;" horiz-adv-x="647" 
d="M545 712c-33.333 0 -60.001 -12.1631 -80.001 -36.4961s-30 -53.5 -30 -87.5c0 -30.667 21.5 -77.334 64.5 -140.001s64.5 -110 64.5 -142c0 -89.333 -58.667 -144.333 -176 -165c4 -18.667 6 -33 6 -43c0 -54.667 -22.333 -96.667 -67 -126
c-39.333 -26 -87.666 -39 -144.999 -39c-44.667 0 -83.334 10.333 -116.001 31c-38 24 -57 57.333 -57 100c0 32 8.66699 57.5 26 76.5s41.666 28.5 72.999 28.5c22 0 38.333 -5 49 -15c-47.333 -26 -71 -61 -71 -105c0 -30.667 10.833 -55.667 32.5 -75
s47.834 -29 78.501 -29c34.667 0 63 13.333 85 40c20.667 24.667 31 54.667 31 90c0 31.333 -20.833 78.166 -62.5 140.499s-62.5 109.833 -62.5 142.5c0 47.333 18 86 54 116c34 28.667 75.333 43 124 43c-3.33301 12.667 -5 27.667 -5 45c0 52.667 17 93 51 121
c31.333 26.667 73.666 40 126.999 40c38.667 0 73.334 -8 104.001 -24c37.333 -20 56 -48 56 -84c0 -30.667 -9.66699 -52.334 -29 -65.001c-15.333 -9.33301 -39.666 -14 -72.999 -14c21.333 25.333 32 54.666 32 87.999c0 22.667 -8.5 43 -25.5 61s-36.5 27 -58.5 27z
M265.999 386.004c0 -24.667 15.332 -62.999 45.999 -114.999l70 -111c68 24 102 63.667 102 119c0 29.333 -37.667 101.666 -113 216.999c-31.333 2 -56.666 -7.83301 -75.999 -29.5s-29 -48.5 -29 -80.5z" />
    <glyph glyph-name="dieresis" unicode="&#xa8;" horiz-adv-x="380" 
d="M273 442c0 -12.667 -4.16699 -23.167 -12.5 -31.5s-18.833 -12.5 -31.5 -12.5s-23 4.16699 -31 12.5s-12 18.833 -12 31.5c0 12 4.16699 22 12.5 30s18.5 12 30.5 12s22.333 -4 31 -12s13 -18 13 -30zM445 442c0 -12.667 -4.16699 -23.167 -12.5 -31.5
s-18.833 -12.5 -31.5 -12.5s-23 4.16699 -31 12.5s-12 18.833 -12 31.5c0 12 4.16699 22 12.5 30s18.5 12 30.5 12s22.333 -4 31 -12s13 -18 13 -30z" />
    <glyph glyph-name="copyright" unicode="&#xa9;" horiz-adv-x="709" 
d="M400 677c-26.667 0 -43.668 -22.999 -51.001 -68.999c-13.333 -81.333 -20.666 -124.333 -21.999 -129c-16.667 -46 -49.334 -69 -98.001 -69c-63.333 0 -95 22.667 -95 68c0 26 11 39 33 39c11.333 0 17 -5.66699 17 -17c0 -14 -8 -21 -24 -21
c-1.33301 -4 -2 -10 -2 -18c0 -14.667 6 -26.334 18 -35.001c10 -8 22.667 -12 38 -12c44.667 0 72.667 23 84 69l21 130c13.333 46 44.666 69 93.999 69c10.667 0 20.834 -3.66699 30.501 -11s14.5 -16 14.5 -26c0 -22.667 -14.333 -34 -43 -34c8 12.667 12 25 12 37
c0 7.33301 -2.66699 14 -8 20s-11.666 9 -18.999 9zM728.999 687.001c-28 -9.33301 -52.3311 -31 -72.998 -65l-48 -100c-20 -40 -40.667 -68 -62 -84c24.667 15.333 56 45.666 94 90.999c44.667 55.333 75.667 90.666 93 105.999c37.333 33.333 74.666 50 111.999 50
c15.333 0 24.333 -2 27 -6l-10 -5l-32 5c-18.667 -4.66699 -38 -25.667 -58 -63l-58 -107c-28 -42 -59.333 -70.333 -94 -85c44.667 0 77.834 6 99.501 18s44.5 37 68.5 75l2 -1c-16.667 -36 -38.667 -61.333 -66 -76c-24.667 -13.333 -57.667 -20 -99 -20
c-30.667 0 -46.667 2 -48 6l8 5l26 -6c19.333 7.33301 38.333 27.333 57 60l56 98c26 40.667 56.333 72.334 91 95.001c-38.667 -10 -87.334 -49.667 -146.001 -119c-64.667 -76 -115.334 -123.333 -152.001 -142l-2 4c20.667 20.667 38.667 48.334 54 83.001
c21.333 47.333 35.333 76 42 86c20.667 32.667 49.334 61.334 86.001 86.001c-34 -12.667 -70.667 -42.334 -110 -89.001l-96 -114c-37.333 -38 -73.333 -57 -108 -57c-13.333 0 -25.333 3.83301 -36 11.5s-16 17.834 -16 30.501c0 19.333 8 29 24 29
c10.667 0 16 -5.33301 16 -16c0 -2 -0.666992 -5.66699 -2 -11l-15 -8c1.33301 -20.667 13.666 -31 36.999 -31c32 0 66 20.667 102 62l100 121c44 47.333 89.333 75.666 136 84.999v-2z" />
    <glyph glyph-name="ordfeminine" unicode="&#xaa;" horiz-adv-x="852" 
d="M706 564l-467 -596h-33l468 596h32zM737 279c0 19.333 -4.66504 37 -13.998 53c-10.667 18.667 -25.334 28 -44.001 28c-20.667 0 -36.667 -7.16699 -48 -21.5s-17 -32.5 -17 -54.5c0 -20.667 9.33301 -50.5 28 -89.5s28 -68.833 28 -89.5
c0 -34 -12.5 -61.167 -37.5 -81.5s-55.167 -30.5 -90.5 -30.5c-29.333 0 -54.333 9 -75 27s-31 41.667 -31 71c0 40.667 14.333 69.667 43 87c7.33301 4.66699 39.333 16 96 34c-6.66699 16.667 -10 32.667 -10 48c0 30.667 10.833 56 32.5 76s48.167 30 79.5 30
c27.333 0 50.666 -7 69.999 -21c20.667 -16 31 -37.333 31 -64c0 -30 -11.333 -55 -34 -75s-49 -29.333 -79 -28l-1 2c48.667 11.333 73 44.333 73 99zM549.002 -1c20.667 0 37.832 9 51.499 27s20.5 37.333 20.5 58c0 12.667 -5.66699 33 -17 61l-26 61
c-65.333 -14.667 -98 -48.667 -98 -102c0 -24.667 5.33301 -47 16 -67c12.667 -25.333 30.334 -38 53.001 -38zM223 623l6.00098 -0.000976562l-25 -47h2c24.667 19.333 47 29 67 29c12 0 28.833 -4.33301 50.5 -13s38.167 -13 49.5 -13c17.333 0 37 8.33301 59 25l3 -4
l-274 -377l-71 -4l318 355l-3 3c-30 -20.667 -55.333 -31 -76 -31c-12.667 0 -30.5 4.33301 -53.5 13s-40.5 13 -52.5 13c-17.333 0 -30.333 -9.33301 -39 -28s-15.334 -28 -20.001 -28c-6.66699 0 -10 3 -10 9s4.33301 12 13 18c16 14.667 34.667 41.334 56 80.001z" />
    <glyph glyph-name="guillemotleft" unicode="&#xab;" horiz-adv-x="538" 
d="M333 321l-149 -158l58 -149l-8 -5l-131 155l225 164zM492 321l-149 -158l58 -149l-8 -5l-132 155l225 164z" />
    <glyph glyph-name="degree" unicode="&#xb0;" horiz-adv-x="441" 
d="M423 440c0 -34.667 -17.6699 -61 -53.0029 -79c-28.667 -14.667 -62.334 -22 -101.001 -22c-25.333 0 -47.333 5 -66 15c-24 12.667 -36 30.667 -36 54c0 16.667 4.83301 30.5 14.5 41.5s22.834 16.5 39.501 16.5s32.667 -7 48 -21l-2 -4
c-1.33301 0 -3.5 0.333008 -6.5 1s-5.5 1 -7.5 1c-27.333 0 -41 -15 -41 -45c0 -16 6.5 -29 19.5 -39s27.5 -15 43.5 -15c26.667 0 49.334 9.66699 68.001 29s28 42.333 28 69c0 32.667 -18.667 49 -56 49c-7.33301 0 -16.666 -0.666992 -27.999 -2l1 6
c44.667 5.33301 75 11.333 91 18c32 13.333 48 36 48 68c0 11.333 -4 22.333 -12 33s-17.667 16 -29 16c-34 0 -51 -16 -51 -48c0 -8 2.83301 -15.167 8.5 -21.5s12.5 -9.5 20.5 -9.5c3.33301 0 9 2.33301 17 7c-12 -22.667 -28.333 -34 -49 -34
c-9.33301 0 -17.666 3.66699 -24.999 11s-11 15.333 -11 24c0 23.333 12 42.666 36 57.999c20.667 13.333 43.334 20 68.001 20c18.667 0 35 -4 49 -12c17.333 -10 26 -23.333 26 -40c0 -27.333 -15.333 -48.666 -46 -63.999c-12.667 -6 -40.334 -14.333 -83.001 -25
c51.333 0 77 -18.667 77 -56z" />
    <glyph glyph-name="plusminus" unicode="&#xb1;" horiz-adv-x="852" 
d="M725 564l-465 -595c-18.667 0 -30 -0.333008 -34 -1l467 596h32zM755 279c0 19.333 -4.33398 36.999 -13.001 52.999c-11.333 18.667 -26 28 -44 28c-21.333 0 -37.666 -7.16699 -48.999 -21.5s-17 -32.5 -17 -54.5c0 -20.667 9.33301 -50.5 28 -89.5
s28 -68.833 28 -89.5c0 -34 -12.5 -61.167 -37.5 -81.5s-54.833 -30.5 -89.5 -30.5c-30 0 -55.167 9 -75.5 27s-30.5 41.667 -30.5 71c0 40.667 14.333 69.667 43 87c7.33301 4.66699 39.333 16 96 34c-7.33301 18.667 -11 34.334 -11 47.001c0 30.667 11 56.167 33 76.5
s48.667 30.5 80 30.5c26.667 0 49.667 -7 69 -21c21.333 -16 32 -37 32 -63c0 -30.667 -11.167 -56 -33.5 -76s-48.833 -29.333 -79.5 -28l-1 2c48 11.333 72 44.333 72 99zM567.999 -1.00098c20 0 36.832 9 50.499 27s20.5 37.333 20.5 58c0 11.333 -14 52 -42 122
c-65.333 -14.667 -98 -48.667 -98 -102c0 -24.667 5.33301 -47 16 -67c12.667 -25.333 30.334 -38 53.001 -38zM338.998 392.999c0 -36.667 -19.3291 -65.002 -57.9961 -85.002c-30.667 -15.333 -66.334 -23 -107.001 -23c-27.333 0 -51 5.33301 -71 16
c-25.333 13.333 -38 32.333 -38 57c0 42 19.333 63 58 63c17.333 0 34.333 -7.66699 51 -23l-2 -4c-6.66699 1.33301 -11.667 2 -15 2c-29.333 0 -44 -16.667 -44 -50c0 -16.667 7 -30 21 -40s29.667 -15 47 -15c29.333 0 53.666 10.333 72.999 31s29 45.667 29 75
c0 33.333 -20.333 50 -61 50c-8.66699 0 -18.334 -0.666992 -29.001 -2l2 7c46 4.66699 78.333 11 97 19c34 14.667 51 39.334 51 74.001c0 12.667 -4.16699 24.5 -12.5 35.5s-18.833 16.5 -31.5 16.5c-16 0 -29 -4.66699 -39 -14s-15 -22 -15 -38
c0 -7.33301 2.66699 -14.5 8 -21.5s11.666 -10.5 18.999 -10.5c8.66699 0 16.334 2 23.001 6c-14.667 -24 -32.334 -36 -53.001 -36c-10 0 -18.833 4 -26.5 12s-11.5 17 -11.5 27c0 25.333 13 46 39 62c22 13.333 46.667 20 74 20c20 0 37.333 -4.33301 52 -13
c17.333 -10.667 26 -25.334 26 -44.001c0 -30 -16.667 -52.667 -50 -68c-15.333 -7.33301 -45 -15.666 -89 -24.999c55.333 -1.33301 83 -21.666 83 -60.999z" />
    <glyph glyph-name="acute" unicode="&#xb4;" horiz-adv-x="322" 
d="M322 570c16 0 24 -10 24 -30c0 -26.667 -17.833 -57.167 -53.5 -91.5s-66.5 -50.833 -92.5 -49.5l-4 7c14.667 12 32 28 52 48c1.33301 2 12 24.333 32 67c14.667 32.667 28.667 49 42 49z" />
    <glyph glyph-name="paragraph" unicode="&#xb6;" horiz-adv-x="852" 
d="M638 564l-468 -596h-31l466 596h33zM365 601l-186.001 -302.001l53 1l-2 -6l-119 -5l158 251c-43.333 -16.667 -92.666 -34.667 -147.999 -54v4c108 40.667 188.333 79.334 241 116.001zM707.999 278.999c0 19.333 -4.33398 37.0039 -13.001 53.0039
c-11.333 18.667 -26 28 -44 28c-21.333 0 -37.666 -7.16699 -48.999 -21.5s-17 -32.5 -17 -54.5c0 -20.667 9.5 -50.834 28.5 -90.501s28.5 -69.5 28.5 -89.5c0 -34.667 -12.667 -61.834 -38 -81.501s-55.666 -29.5 -90.999 -29.5c-30 0 -55 9 -75 27s-30 42 -30 72
c0 40 14.333 68.667 43 86c9.33301 6 41.333 17.333 96 34c-7.33301 18.667 -11 34.667 -11 48c0 30.667 11 56 33 76s48.667 30 80 30c28 0 51.333 -7 70 -21c21.333 -16 32 -37.333 32 -64c0 -30.667 -11.333 -55.834 -34 -75.501s-49.334 -28.834 -80.001 -27.501l-2 2
c48.667 11.333 73 44.333 73 99zM520.998 -0.99707c20.667 0 37.999 9.33301 51.999 28s21 38.667 21 60c0 12.667 -5.66699 32.667 -17 60c-9.33301 19.333 -18.333 39 -27 59c-65.333 -14.667 -98 -48.667 -98 -102c0 -24.667 5.33301 -47 16 -67
c12.667 -25.333 30.334 -38 53.001 -38z" />
    <glyph glyph-name="cedilla" unicode="&#xb8;" horiz-adv-x="296" 
d="M70 0l21.002 0.000976562l-32 -60h14c6.66699 0.666992 11.334 1 14.001 1c48 0 72 -19.667 72 -59c0 -48.667 -32.333 -73 -97 -73c-16 0 -39.667 4 -71 12c-36 9.33301 -54.333 18.666 -55 27.999l5 7c49.333 -16 84.666 -24 105.999 -24c45.333 0 68 16.667 68 50
c0 10.667 -4.33301 19.167 -13 25.5s-18.334 9.5 -29.001 9.5c-4.66699 0 -11.834 -1 -21.501 -3s-17.167 -2.66699 -22.5 -2l-7 6c0 4.66699 16 32 48 82z" />
    <glyph glyph-name="ordmasculine" unicode="&#xba;" horiz-adv-x="447" 
d="M477 564c0 -52 -25.001 -102.499 -75.001 -151.499s-101 -73.5 -153 -73.5c-19.333 0 -35 7.66699 -47 23s-18 32.666 -18 51.999c0 49.333 23.333 98.833 70 148.5s94.334 74.5 143.001 74.5c53.333 0 80 -24.333 80 -73zM279.999 354.001
c41.333 0 76.666 26.668 105.999 80.001c26 46 39 91.333 39 136c0 13.333 -4.16699 26.166 -12.5 38.499s-19.166 18.5 -32.499 18.5c-38.667 0 -73 -26.667 -103 -80c-27.333 -46.667 -41 -90.667 -41 -132c0 -14.667 3.66699 -28 11 -40c8 -14 19 -21 33 -21z" />
    <glyph glyph-name="guillemotright" unicode="&#xbb;" horiz-adv-x="538" 
d="M225 15l150 159l-59 149l8 5l132 -155l-225 -164zM67 15l149 159l-58 149l7 5l132 -155l-225 -164z" />
    <glyph glyph-name="questiondown" unicode="&#xbf;" horiz-adv-x="451" 
d="M45 -65c0 -27.333 9.49805 -52.167 28.498 -74.5s42.167 -33.5 69.5 -33.5c32.667 0 60.334 9.66699 83.001 29s34 45.333 34 78c0 16 -5.16699 32.167 -15.5 48.5s-23.5 24.5 -39.5 24.5c-10 0 -24.333 -3.33301 -43 -10c13.333 40.667 41.333 61 84 61
c20.667 0 38.334 -8 53.001 -24s22 -34.333 22 -55c0 -50 -23.333 -91.333 -70 -124c-42 -28.667 -89.333 -43 -142 -43c-42.667 0 -77 10 -103 30c-29.333 22 -44 54 -44 96c0 54 21.333 96.667 64 128c18.667 14 64 36 136 66c60.667 25.333 102.667 52.333 126 81h9
c-18.667 -26.667 -51.667 -55 -99 -85c-54 -34 -88.667 -58.667 -104 -74c-32.667 -33.333 -49 -73 -49 -119zM276.998 288.999c0 13.333 5.16797 25.167 15.501 35.5s22.5 15.5 36.5 15.5c13.333 0 25.166 -4.33301 35.499 -13s15.5 -19.667 15.5 -33
c0 -14 -4.83301 -26.5 -14.5 -37.5s-21.5 -16.5 -35.5 -16.5c-13.333 0 -25.5 4.83301 -36.5 14.5s-16.5 21.167 -16.5 34.5z" />
    <glyph glyph-name="Agrave" unicode="&#xc0;" horiz-adv-x="994" 
d="M1127 703c-79.333 -84 -156.334 -184.331 -231.001 -300.998c-94 -146 -141 -257.333 -141 -334c0 -14 3 -26.667 9 -38c6.66699 -14 16.667 -21 30 -21c34 0 83.333 32.667 148 98c44.667 45.333 86 94 124 146h10c-38.667 -61.333 -85 -117 -139 -167
c-70 -65.333 -131 -98 -183 -98c-27.333 0 -48.333 12 -63 36c-12 20 -18 44.667 -18 74c0 32 7.33301 67 22 105c8 20 23.667 52.667 47 98h-137c-94 -104.667 -157.333 -171.334 -190 -200.001c-84.667 -71.333 -166 -107 -244 -107c-40 0 -74 8.33301 -102 25
c-34.667 20.667 -52 49.667 -52 87c0 50.667 21.667 76 65 76c11.333 0 21.333 -4.33301 30 -13s13 -18.334 13 -29.001c0 -16 -5.33301 -28.667 -16 -38s-24 -13.333 -40 -12c4.66699 -54.667 41.667 -82 111 -82c60 0 127.333 28.667 202 86
c53.333 40 117.333 101.333 192 184c100.667 110.667 153.667 168.667 159 174c126.667 124.667 256.334 211 389.001 259zM613.999 311.002l133 -0.000976562c16 26.667 41.333 66 76 118c59.333 82.667 122.333 157.334 189 224.001
c-117.333 -59.333 -250 -173.333 -398 -342zM1099 748.001c-24.667 0 -54.833 17 -90.5 51s-53.5 63.333 -53.5 88c0 21.333 9.66699 32 29 32c9.33301 0 22.333 -16.667 39 -50c20 -42.667 30.667 -64.667 32 -66c16 -12.667 33 -29 51 -49c0 -4 -2.33301 -6 -7 -6z" />
    <glyph glyph-name="Aacute" unicode="&#xc1;" horiz-adv-x="994" 
d="M1127 703c-79.333 -84 -156.334 -184.331 -231.001 -300.998c-94 -146 -141 -257.333 -141 -334c0 -14 3 -26.667 9 -38c6.66699 -14 16.667 -21 30 -21c34 0 83.333 32.667 148 98c44.667 45.333 86 94 124 146h10c-38.667 -61.333 -85 -117 -139 -167
c-70 -65.333 -131 -98 -183 -98c-27.333 0 -48.333 12 -63 36c-12 20 -18 44.667 -18 74c0 32 7.33301 67 22 105c8 20 23.667 52.667 47 98h-137c-94 -104.667 -157.333 -171.334 -190 -200.001c-84.667 -71.333 -166 -107 -244 -107c-40 0 -74 8.33301 -102 25
c-34.667 20.667 -52 49.667 -52 87c0 50.667 21.667 76 65 76c11.333 0 21.333 -4.33301 30 -13s13 -18.334 13 -29.001c0 -16 -5.33301 -28.667 -16 -38s-24 -13.333 -40 -12c4.66699 -54.667 41.667 -82 111 -82c60 0 127.333 28.667 202 86
c53.333 40 117.333 101.333 192 184c100.667 110.667 153.667 168.667 159 174c126.667 124.667 256.334 211 389.001 259zM613.999 311.002l133 -0.000976562c16 26.667 41.333 66 76 118c59.333 82.667 122.333 157.334 189 224.001
c-117.333 -59.333 -250 -173.333 -398 -342zM1164 919.001c17.333 0 25.999 -9.99805 25.999 -29.998c0 -26 -18.167 -56.333 -54.5 -91s-67.166 -51.334 -92.499 -50.001l-4 6l52 49c1.33301 1.33301 12 23.666 32 66.999c15.333 32.667 29 49 41 49z" />
    <glyph glyph-name="Acircumflex" unicode="&#xc2;" horiz-adv-x="994" 
d="M1127 703c-79.333 -84 -156.334 -184.331 -231.001 -300.998c-94 -146 -141 -257.333 -141 -334c0 -14 3 -26.667 9 -38c6.66699 -14 16.667 -21 30 -21c34 0 83.333 32.667 148 98c44.667 45.333 86 94 124 146h10c-38.667 -61.333 -85 -117 -139 -167
c-70 -65.333 -131 -98 -183 -98c-27.333 0 -48.333 12 -63 36c-12 20 -18 44.667 -18 74c0 32 7.33301 67 22 105c8 20 23.667 52.667 47 98h-137c-94 -104.667 -157.333 -171.334 -190 -200.001c-84.667 -71.333 -166 -107 -244 -107c-40 0 -74 8.33301 -102 25
c-34.667 20.667 -52 49.667 -52 87c0 50.667 21.667 76 65 76c11.333 0 21.333 -4.33301 30 -13s13 -18.334 13 -29.001c0 -16 -5.33301 -28.667 -16 -38s-24 -13.333 -40 -12c4.66699 -54.667 41.667 -82 111 -82c60 0 127.333 28.667 202 86
c53.333 40 117.333 101.333 192 184c100.667 110.667 153.667 168.667 159 174c126.667 124.667 256.334 211 389.001 259zM613.999 311.002l133 -0.000976562c16 26.667 41.333 66 76 118c59.333 82.667 122.333 157.334 189 224.001
c-117.333 -59.333 -250 -173.333 -398 -342zM1124 921.001c10 -43.333 37 -97.998 81 -163.998l1 -6l-5 -3c-9.33301 1.33301 -26.333 15.666 -51 42.999c-18.667 20.667 -33.667 39 -45 55c-82.667 -62 -131 -93 -145 -93l-5 6l2 5
c66.667 49.333 117.667 101.666 153 156.999h14z" />
    <glyph glyph-name="Atilde" unicode="&#xc3;" horiz-adv-x="994" 
d="M1127 703c-79.333 -84 -156.334 -184.331 -231.001 -300.998c-94 -146 -141 -257.333 -141 -334c0 -14 3 -26.667 9 -38c6.66699 -14 16.667 -21 30 -21c34 0 83.333 32.667 148 98c44.667 45.333 86 94 124 146h10c-38.667 -61.333 -85 -117 -139 -167
c-70 -65.333 -131 -98 -183 -98c-27.333 0 -48.333 12 -63 36c-12 20 -18 44.667 -18 74c0 32 7.33301 67 22 105c8 20 23.667 52.667 47 98h-137c-94 -104.667 -157.333 -171.334 -190 -200.001c-84.667 -71.333 -166 -107 -244 -107c-40 0 -74 8.33301 -102 25
c-34.667 20.667 -52 49.667 -52 87c0 50.667 21.667 76 65 76c11.333 0 21.333 -4.33301 30 -13s13 -18.334 13 -29.001c0 -16 -5.33301 -28.667 -16 -38s-24 -13.333 -40 -12c4.66699 -54.667 41.667 -82 111 -82c60 0 127.333 28.667 202 86
c53.333 40 117.333 101.333 192 184c100.667 110.667 153.667 168.667 159 174c126.667 124.667 256.334 211 389.001 259zM613.999 311.002l133 -0.000976562c16 26.667 41.333 66 76 118c59.333 82.667 122.333 157.334 189 224.001
c-117.333 -59.333 -250 -173.333 -398 -342zM1150 804.001c23.333 0 43 15.667 59 47h16c-16.667 -60.667 -44.334 -91 -83.001 -91c-18 0 -41.333 6 -70 18s-49.667 18 -63 18c-26 0 -46.667 -16 -62 -48h-13c14.667 62.667 41.667 94 81 94
c18.667 0 42.834 -6.33301 72.501 -19s50.5 -19 62.5 -19z" />
    <glyph glyph-name="Adieresis" unicode="&#xc4;" horiz-adv-x="994" 
d="M1127 703c-79.333 -84 -156.334 -184.331 -231.001 -300.998c-94 -146 -141 -257.333 -141 -334c0 -14 3 -26.667 9 -38c6.66699 -14 16.667 -21 30 -21c34 0 83.333 32.667 148 98c44.667 45.333 86 94 124 146h10c-38.667 -61.333 -85 -117 -139 -167
c-70 -65.333 -131 -98 -183 -98c-27.333 0 -48.333 12 -63 36c-12 20 -18 44.667 -18 74c0 32 7.33301 67 22 105c8 20 23.667 52.667 47 98h-137c-94 -104.667 -157.333 -171.334 -190 -200.001c-84.667 -71.333 -166 -107 -244 -107c-40 0 -74 8.33301 -102 25
c-34.667 20.667 -52 49.667 -52 87c0 50.667 21.667 76 65 76c11.333 0 21.333 -4.33301 30 -13s13 -18.334 13 -29.001c0 -16 -5.33301 -28.667 -16 -38s-24 -13.333 -40 -12c4.66699 -54.667 41.667 -82 111 -82c60 0 127.333 28.667 202 86
c53.333 40 117.333 101.333 192 184c100.667 110.667 153.667 168.667 159 174c126.667 124.667 256.334 211 389.001 259zM613.999 311.002l133 -0.000976562c16 26.667 41.333 66 76 118c59.333 82.667 122.333 157.334 189 224.001
c-117.333 -59.333 -250 -173.333 -398 -342zM1044 791.001c0 -12.667 -4.33105 -23 -12.998 -31s-19.334 -12 -32.001 -12c-12 0 -22.167 4 -30.5 12s-12.5 18.333 -12.5 31s4.16699 23 12.5 31s19.166 12 32.499 12c12 0 22.167 -4.16699 30.5 -12.5s12.5 -18.5 12.5 -30.5
zM1216 791.001c0 -12.667 -4.33105 -23 -12.998 -31s-19.334 -12 -32.001 -12c-12 0 -22.167 4 -30.5 12s-12.5 18.333 -12.5 31s4.16699 23 12.5 31s19.166 12 32.499 12c12 0 22.167 -4.16699 30.5 -12.5s12.5 -18.5 12.5 -30.5z" />
    <glyph glyph-name="Aring" unicode="&#xc5;" horiz-adv-x="994" 
d="M1127 703c-79.333 -84 -156.334 -184.331 -231.001 -300.998c-94 -146 -141 -257.333 -141 -334c0 -14 3 -26.667 9 -38c6.66699 -14 16.667 -21 30 -21c34 0 83.333 32.667 148 98c44.667 45.333 86 94 124 146h10c-38.667 -61.333 -85 -117 -139 -167
c-70 -65.333 -131 -98 -183 -98c-27.333 0 -48.333 12 -63 36c-12 20 -18 44.667 -18 74c0 32 7.33301 67 22 105c8 20 23.667 52.667 47 98h-137c-94 -104.667 -157.333 -171.334 -190 -200.001c-84.667 -71.333 -166 -107 -244 -107c-40 0 -74 8.33301 -102 25
c-34.667 20.667 -52 49.667 -52 87c0 50.667 21.667 76 65 76c11.333 0 21.333 -4.33301 30 -13s13 -18.334 13 -29.001c0 -16 -5.33301 -28.667 -16 -38s-24 -13.333 -40 -12c4.66699 -54.667 41.667 -82 111 -82c60 0 127.333 28.667 202 86
c53.333 40 117.333 101.333 192 184c100.667 110.667 153.667 168.667 159 174c126.667 124.667 256.334 211 389.001 259zM613.999 311.002l133 -0.000976562c16 26.667 41.333 66 76 118c59.333 82.667 122.333 157.334 189 224.001
c-117.333 -59.333 -250 -173.333 -398 -342zM1173 834.001c0 -24 -8.16699 -44.333 -24.5 -61s-36.833 -25 -61.5 -25c-24 0 -44.5 8.16699 -61.5 24.5s-25.5 36.5 -25.5 60.5s8 44.5 24 61.5s36 25.5 60 25.5s44.833 -8.33301 62.5 -25s26.5 -37 26.5 -61zM1033 833.001
c0 -14.667 5.16895 -27 15.502 -37s22.833 -15 37.5 -15c15.333 0 28.166 5 38.499 15s15.5 22.333 15.5 37s-5.16699 27.5 -15.5 38.5s-22.833 16.5 -37.5 16.5s-27.334 -5.5 -38.001 -16.5s-16 -23.833 -16 -38.5z" />
    <glyph glyph-name="AE" unicode="&#xc6;" horiz-adv-x="1044" 
d="M784 318c42 3.33301 79.002 9.00098 111.002 17.001l23 37c10.667 14 22.667 21 36 21c8 0 19.5 -0.5 34.5 -1.5s26.167 -1.5 33.5 -1.5c-53.333 -42.667 -89.666 -77 -108.999 -103c-16.667 -22.667 -39.334 -67 -68.001 -133l-8 1c5.33301 48 22 104.333 50 169
c-24 -5.33301 -59.333 -10.666 -106 -15.999c-27.333 -60.667 -53.333 -106 -78 -136c-25.333 -32 -64.333 -67 -117 -105c65.333 -12.667 123 -19 173 -19c82 0 150.333 18.333 205 55c41.333 27.333 91 78.666 149 153.999l6 -6c-49.333 -72 -104.333 -131.667 -165 -179
c-76 -60 -149 -90 -219 -90c-29.333 0 -63.666 5.33301 -102.999 16l-100 32c-54.667 -30.667 -97.667 -46 -129 -46c-9.33301 0 -17.833 3 -25.5 9s-11.5 13.667 -11.5 23c0 36.667 47.333 55 142 55c17.333 0 35 -0.666992 53 -2c26.667 28.667 51 66 73 112
c5.33301 12 22.666 53.333 51.999 124c-16 -0.666992 -40 -1 -72 -1c-39.333 0 -75 1.33301 -107 4l-86 -109c-60 -76 -100.333 -123.333 -121 -142c-51.333 -46 -106.666 -69 -165.999 -69c-26.667 0 -50 6 -70 18c-24 14 -36 33.333 -36 58
c0 15.333 5.16699 28.333 15.5 39s23.166 16 38.499 16c28 0 42 -16.333 42 -49c0 -10.667 -7.33301 -21 -22 -31c6.66699 -19.333 27.334 -29 62.001 -29c39.333 0 80 18 122 54c25.333 21.333 56.333 55 93 101c43.333 58 111.333 142.333 204 253
c56.667 61.333 125 121.666 205 180.999c-84 5.33301 -147.333 8 -190 8c-190.667 0 -322.334 -52 -395.001 -156c-22.667 -32.667 -34 -66.667 -34 -102c0 -22.667 9 -41.334 27 -56.001c16 -14 35.667 -21 59 -21c46 0 88 16 126 48s57 70.333 57 115
c0 16.667 -4.33301 38 -13 64h10c10 -20.667 15 -44.667 15 -72c0 -50 -19 -94.167 -57 -132.5s-82.333 -57.5 -133 -57.5c-30 0 -54.5 9.66699 -73.5 29s-28.5 44 -28.5 74c0 44.667 15.333 87.667 46 129c55.333 74.667 132.666 127.334 231.999 158.001
c75.333 23.333 169.666 35 282.999 35c17.333 0 43.166 -0.833008 77.499 -2.5s59.833 -2.5 76.5 -2.5l87 36.5c58 24.333 104.667 36.5 140 36.5c23.333 0 44 -4.33301 62 -13c22.667 -10.667 34 -26 34 -46c0 -34.667 -22.333 -61 -67 -79
c-33.333 -12.667 -70.666 -19 -111.999 -19c-20 0 -40 1 -60 3c-48.667 -32.667 -85 -70.667 -109 -114zM1184 676.001c0 15.333 -11.667 27.333 -35 36c-18 6 -36.667 9 -56 9c-48.667 0 -116 -22.667 -202 -68c115.333 -14 182.333 -21 201 -21c61.333 0 92 14.667 92 44z
M514.002 318.001c41.333 -2.66699 72.666 -4.00098 93.999 -4.00098c19.333 0 47 0.666992 83 2c36 75.333 67.667 128 95 158c32.667 36.667 83.334 71.334 152.001 104.001l-136 19c-121.333 -92 -217.333 -185 -288 -279zM377.002 17c0 -15.333 10.667 -23 32 -23
c30.667 0 66.667 13.333 108 40c-37.333 8 -66.333 12 -87 12c-35.333 0 -53 -9.66699 -53 -29z" />
    <glyph glyph-name="Ccedilla" unicode="&#xc7;" horiz-adv-x="602" 
d="M173 -77l31.0059 1.99805c18.667 1.33301 34.834 -3 48.501 -13s20.5 -24.333 20.5 -43c0 -50 -32.333 -75 -97 -75c-16 0 -39.667 4 -71 12c-36.667 8.66699 -55 17.667 -55 27c0 4 2.66699 6 8 6c8.66699 0 24.334 -3.66699 47.001 -11s40 -11 52 -11c48 0 72 16 72 48
c0 10.667 -4.33301 19.5 -13 26.5s-18.334 10.5 -29.001 10.5c-4.66699 0 -11.334 -1 -20.001 -3s-15.334 -3 -20.001 -3c-8 0 -12 2.33301 -12 7c0 4 15.667 29.667 47 77c-64.667 1.33301 -115.334 19.5 -152.001 54.5s-55 84.833 -55 149.5c0 78.667 32.333 159 97 241
c60 76 135.333 139.667 226 191s174.667 77 252 77c99.333 0 149 -34.333 149 -103c0 -48.667 -19.667 -88.334 -59 -119.001c-36.667 -29.333 -80 -44 -130 -44c-69.333 0 -104 26.667 -104 80c0 12.667 3.33301 29.667 10 51h10c-5.33301 -19.333 -8 -37 -8 -53
c0 -40 22.333 -60 67 -60c40 0 76.167 18.333 108.5 55s48.5 75.334 48.5 116.001c0 46.667 -30.333 70 -91 70c-76 0 -158.667 -37.667 -248 -113c-76.667 -65.333 -136.334 -137 -179.001 -215c-34.667 -63.333 -52 -131.333 -52 -204
c0 -45.333 10.667 -82.666 32 -111.999c23.333 -33.333 57 -50 101 -50c55.333 0 105.666 22.833 150.999 68.5s68 96.167 68 151.5c0 26.667 -5.33301 49.334 -16 68.001c-13.333 22.667 -32.666 34 -57.999 34c-30.667 0 -58.334 -12.667 -83.001 -38l-61 -72l-4 6
c55.333 86 117.666 129 186.999 129c31.333 0 57.666 -10.333 78.999 -31s32 -46.667 32 -78c0 -70 -32.667 -129 -98 -177c-58 -42.667 -124.333 -66.667 -199 -72z" />
    <glyph glyph-name="Egrave" unicode="&#xc8;" horiz-adv-x="634" 
d="M472 692c-40.667 0 -72.999 -15.333 -96.999 -46c-21.333 -26.667 -34 -61.334 -38 -104.001c-4.66699 -46.667 -14.667 -80.334 -30 -101.001c-14 -18 -43 -38 -87 -60c-54.667 -27.333 -94 -54.333 -118 -81c-31.333 -35.333 -47 -79.666 -47 -132.999
c0 -50.667 18.667 -91.334 56 -122.001c35.333 -29.333 78.666 -44 129.999 -44c54.667 0 100 15.333 136 46c38.667 32.667 58 75.667 58 129c0 26.667 -8 47.667 -24 63s-37 23 -63 23c-23.333 0 -44.333 -6.33301 -63 -19l-52 -44l-5 5c40.667 51.333 91.667 77 153 77
c33.333 0 62.333 -8.66699 87 -26c28 -19.333 42 -45 42 -77c0 -65.333 -39 -115.333 -117 -150c-60 -26.667 -127.667 -40 -203 -40c-62 0 -113.333 11.333 -154 34c-51.333 28.667 -77 71.334 -77 128.001c0 50.667 17 92.334 51 125.001
c22.667 21.333 62.334 45 119.001 71c44 20 71.5 37.5 82.5 52.5s17.833 46.167 20.5 93.5l1 18c3.33301 62.667 31 111.334 83 146.001c46 30.667 102.667 46 170 46c39.333 0 72.333 -7.66699 99 -23c33.333 -18.667 50 -46.334 50 -83.001
c0 -45.333 -19.667 -81 -59 -107c-34 -22.667 -74.667 -34 -122 -34c-24.667 0 -46.667 3.66699 -66 11l2 6c21.333 -4.66699 39.666 -7 54.999 -7c36 0 65 11.5 87 34.5s33 52.833 33 89.5c0 68.667 -31 103 -93 103zM493.001 748c-24.667 0 -54.666 17 -89.999 51
s-53 63.333 -53 88c0 20.667 9.33301 31 28 31c10 0 23 -16.667 39 -50c20 -42 30.667 -63.667 32 -65c16 -12.667 33.333 -29 52 -49c-0.666992 -4 -3.33398 -6 -8.00098 -6z" />
    <glyph glyph-name="Eacute" unicode="&#xc9;" horiz-adv-x="634" 
d="M472 692c-40.667 0 -72.999 -15.333 -96.999 -46c-21.333 -26.667 -34 -61.334 -38 -104.001c-4.66699 -46.667 -14.667 -80.334 -30 -101.001c-14 -18 -43 -38 -87 -60c-54.667 -27.333 -94 -54.333 -118 -81c-31.333 -35.333 -47 -79.666 -47 -132.999
c0 -50.667 18.667 -91.334 56 -122.001c35.333 -29.333 78.666 -44 129.999 -44c54.667 0 100 15.333 136 46c38.667 32.667 58 75.667 58 129c0 26.667 -8 47.667 -24 63s-37 23 -63 23c-23.333 0 -44.333 -6.33301 -63 -19l-52 -44l-5 5c40.667 51.333 91.667 77 153 77
c33.333 0 62.333 -8.66699 87 -26c28 -19.333 42 -45 42 -77c0 -65.333 -39 -115.333 -117 -150c-60 -26.667 -127.667 -40 -203 -40c-62 0 -113.333 11.333 -154 34c-51.333 28.667 -77 71.334 -77 128.001c0 50.667 17 92.334 51 125.001
c22.667 21.333 62.334 45 119.001 71c44 20 71.5 37.5 82.5 52.5s17.833 46.167 20.5 93.5l1 18c3.33301 62.667 31 111.334 83 146.001c46 30.667 102.667 46 170 46c39.333 0 72.333 -7.66699 99 -23c33.333 -18.667 50 -46.334 50 -83.001
c0 -45.333 -19.667 -81 -59 -107c-34 -22.667 -74.667 -34 -122 -34c-24.667 0 -46.667 3.66699 -66 11l2 6c21.333 -4.66699 39.666 -7 54.999 -7c36 0 65 11.5 87 34.5s33 52.833 33 89.5c0 68.667 -31 103 -93 103zM608.001 919
c16.667 0 24.9971 -9.99805 24.9971 -29.998c0 -26 -18.167 -56.333 -54.5 -91s-67.166 -51.334 -92.499 -50.001l-3 6c0.666992 3.33301 8.83398 11.333 24.501 24s24.834 21 27.501 25c1.33301 1.33301 12 23.666 32 66.999c15.333 32.667 29 49 41 49z" />
    <glyph glyph-name="Ecircumflex" unicode="&#xca;" horiz-adv-x="634" 
d="M472 692c-40.667 0 -72.999 -15.333 -96.999 -46c-21.333 -26.667 -34 -61.334 -38 -104.001c-4.66699 -46.667 -14.667 -80.334 -30 -101.001c-14 -18 -43 -38 -87 -60c-54.667 -27.333 -94 -54.333 -118 -81c-31.333 -35.333 -47 -79.666 -47 -132.999
c0 -50.667 18.667 -91.334 56 -122.001c35.333 -29.333 78.666 -44 129.999 -44c54.667 0 100 15.333 136 46c38.667 32.667 58 75.667 58 129c0 26.667 -8 47.667 -24 63s-37 23 -63 23c-23.333 0 -44.333 -6.33301 -63 -19l-52 -44l-5 5c40.667 51.333 91.667 77 153 77
c33.333 0 62.333 -8.66699 87 -26c28 -19.333 42 -45 42 -77c0 -65.333 -39 -115.333 -117 -150c-60 -26.667 -127.667 -40 -203 -40c-62 0 -113.333 11.333 -154 34c-51.333 28.667 -77 71.334 -77 128.001c0 50.667 17 92.334 51 125.001
c22.667 21.333 62.334 45 119.001 71c44 20 71.5 37.5 82.5 52.5s17.833 46.167 20.5 93.5l1 18c3.33301 62.667 31 111.334 83 146.001c46 30.667 102.667 46 170 46c39.333 0 72.333 -7.66699 99 -23c33.333 -18.667 50 -46.334 50 -83.001
c0 -45.333 -19.667 -81 -59 -107c-34 -22.667 -74.667 -34 -122 -34c-24.667 0 -46.667 3.66699 -66 11l2 6c21.333 -4.66699 39.666 -7 54.999 -7c36 0 65 11.5 87 34.5s33 52.833 33 89.5c0 68.667 -31 103 -93 103zM528.001 921c10 -44 37 -98.668 81 -164.001l1 -6
l-5 -3c-9.33301 0.666992 -26.333 14.667 -51 42c-20.667 22.667 -35.667 41.334 -45 56.001c-80 -62 -127 -93 -141 -93c-5.33301 0 -8 2 -8 6l2 5c64.667 48.667 115.667 101 153 157h13z" />
    <glyph glyph-name="Edieresis" unicode="&#xcb;" horiz-adv-x="634" 
d="M472 692c-40.667 0 -72.999 -15.333 -96.999 -46c-21.333 -26.667 -34 -61.334 -38 -104.001c-4.66699 -46.667 -14.667 -80.334 -30 -101.001c-14 -18 -43 -38 -87 -60c-54.667 -27.333 -94 -54.333 -118 -81c-31.333 -35.333 -47 -79.666 -47 -132.999
c0 -50.667 18.667 -91.334 56 -122.001c35.333 -29.333 78.666 -44 129.999 -44c54.667 0 100 15.333 136 46c38.667 32.667 58 75.667 58 129c0 26.667 -8 47.667 -24 63s-37 23 -63 23c-23.333 0 -44.333 -6.33301 -63 -19l-52 -44l-5 5c40.667 51.333 91.667 77 153 77
c33.333 0 62.333 -8.66699 87 -26c28 -19.333 42 -45 42 -77c0 -65.333 -39 -115.333 -117 -150c-60 -26.667 -127.667 -40 -203 -40c-62 0 -113.333 11.333 -154 34c-51.333 28.667 -77 71.334 -77 128.001c0 50.667 17 92.334 51 125.001
c22.667 21.333 62.334 45 119.001 71c44 20 71.5 37.5 82.5 52.5s17.833 46.167 20.5 93.5l1 18c3.33301 62.667 31 111.334 83 146.001c46 30.667 102.667 46 170 46c39.333 0 72.333 -7.66699 99 -23c33.333 -18.667 50 -46.334 50 -83.001
c0 -45.333 -19.667 -81 -59 -107c-34 -22.667 -74.667 -34 -122 -34c-24.667 0 -46.667 3.66699 -66 11l2 6c21.333 -4.66699 39.666 -7 54.999 -7c36 0 65 11.5 87 34.5s33 52.833 33 89.5c0 68.667 -31 103 -93 103zM448.001 791c0 -12 -4.33203 -22.167 -12.999 -30.5
s-19 -12.5 -31 -12.5c-12.667 0 -23.167 4 -31.5 12s-12.5 18.333 -12.5 31s4.16699 23 12.5 31s19.166 12 32.499 12c12 0 22.167 -4.16699 30.5 -12.5s12.5 -18.5 12.5 -30.5zM620.002 791c0 -12 -4.33301 -22.167 -13 -30.5s-19 -12.5 -31 -12.5s-22 4.16699 -30 12.5
s-12 18.5 -12 30.5c0 28.667 14.333 43 43 43c12 0 22.167 -4.16699 30.5 -12.5s12.5 -18.5 12.5 -30.5z" />
    <glyph glyph-name="Igrave" unicode="&#xcc;" horiz-adv-x="789" 
d="M1025 679c-31.333 0 -74.998 -29.333 -130.998 -88c-47.333 -48.667 -82 -92.667 -104 -132c-75.333 -134 -115 -204 -119 -210c-50.667 -80 -102 -140 -154 -180c-66.667 -51.333 -141.334 -77 -224.001 -77c-47.333 0 -88 8.33301 -122 25c-44 21.333 -66 53 -66 95
c0 20.667 5.33301 38.167 16 52.5s26 21.5 46 21.5c12 0 22.667 -4.83301 32 -14.5s14 -20.5 14 -32.5c0 -20.667 -14 -36.334 -42 -47.001c4.66699 -35.333 16.667 -60 36 -74c17.333 -12.667 44.666 -19 81.999 -19c91.333 0 179 72 263 216l114 196
c42 72.667 89.667 129 143 169c46 34.667 112 68.334 198 101.001c-172 -4.66699 -303 -18.667 -393 -42c-172.667 -43.333 -259 -121.333 -259 -234c0 -28.667 8.5 -51 25.5 -67s39.833 -24 68.5 -24c34.667 0 65 13.5 91 40.5s39 57.5 39 91.5c0 14.667 -4 34.667 -12 60
l8 2c8.66699 -20.667 13 -41.334 13 -62.001c0 -46 -19 -84 -57 -114c-34.667 -27.333 -75.667 -41 -123 -41c-38 0 -69.667 10.333 -95 31c-27.333 22 -41 51.333 -41 88c0 24.667 4.66699 47 14 67c24 52 81.667 96.333 173 133c70.667 28.667 144.334 47.667 221.001 57
c45.333 5.33301 103.666 10 174.999 14c96 6 154 9.66699 174 11c5.33301 0.666992 17 2.33398 35 5.00098c14.667 2 26.667 3 36 3c28 0 42 -4.66699 42 -14c0 -10 -11 -15 -33 -15c-9.33301 0 -23.333 1.33301 -42 4s-32.667 4 -42 4zM883.002 748
c-24.667 0 -54.667 17 -90 51s-53 63.333 -53 88c0 20.667 9.33301 31 28 31c9.33301 0 19.333 -11.333 30 -34c22 -44 33.667 -67 35 -69c16.667 -28 35.667 -47 57 -57l1 -4c0 -4 -2.66699 -6 -8 -6z" />
    <glyph glyph-name="Iacute" unicode="&#xcd;" horiz-adv-x="789" 
d="M1025 679c-31.333 0 -74.998 -29.333 -130.998 -88c-47.333 -48.667 -82 -92.667 -104 -132c-75.333 -134 -115 -204 -119 -210c-50.667 -80 -102 -140 -154 -180c-66.667 -51.333 -141.334 -77 -224.001 -77c-47.333 0 -88 8.33301 -122 25c-44 21.333 -66 53 -66 95
c0 20.667 5.33301 38.167 16 52.5s26 21.5 46 21.5c12 0 22.667 -4.83301 32 -14.5s14 -20.5 14 -32.5c0 -20.667 -14 -36.334 -42 -47.001c4.66699 -35.333 16.667 -60 36 -74c17.333 -12.667 44.666 -19 81.999 -19c91.333 0 179 72 263 216l114 196
c42 72.667 89.667 129 143 169c46 34.667 112 68.334 198 101.001c-172 -4.66699 -303 -18.667 -393 -42c-172.667 -43.333 -259 -121.333 -259 -234c0 -28.667 8.5 -51 25.5 -67s39.833 -24 68.5 -24c34.667 0 65 13.5 91 40.5s39 57.5 39 91.5c0 14.667 -4 34.667 -12 60
l8 2c8.66699 -20.667 13 -41.334 13 -62.001c0 -46 -19 -84 -57 -114c-34.667 -27.333 -75.667 -41 -123 -41c-38 0 -69.667 10.333 -95 31c-27.333 22 -41 51.333 -41 88c0 24.667 4.66699 47 14 67c24 52 81.667 96.333 173 133c70.667 28.667 144.334 47.667 221.001 57
c45.333 5.33301 103.666 10 174.999 14c96 6 154 9.66699 174 11c5.33301 0.666992 17 2.33398 35 5.00098c14.667 2 26.667 3 36 3c28 0 42 -4.66699 42 -14c0 -10 -11 -15 -33 -15c-9.33301 0 -23.333 1.33301 -42 4s-32.667 4 -42 4zM1008 919
c16.667 0 24.998 -10 24.998 -30c0 -26 -18 -56.333 -54 -91s-66.667 -51.334 -92 -50.001l-4 6c0.666992 2.66699 8 10.334 22 23.001c16.667 14 26.334 22.667 29.001 26c0.666992 0.666992 11.334 23 32.001 67c15.333 32.667 29.333 49 42 49z" />
    <glyph glyph-name="Icircumflex" unicode="&#xce;" horiz-adv-x="789" 
d="M1025 679c-31.333 0 -74.998 -29.333 -130.998 -88c-47.333 -48.667 -82 -92.667 -104 -132c-75.333 -134 -115 -204 -119 -210c-50.667 -80 -102 -140 -154 -180c-66.667 -51.333 -141.334 -77 -224.001 -77c-47.333 0 -88 8.33301 -122 25c-44 21.333 -66 53 -66 95
c0 20.667 5.33301 38.167 16 52.5s26 21.5 46 21.5c12 0 22.667 -4.83301 32 -14.5s14 -20.5 14 -32.5c0 -20.667 -14 -36.334 -42 -47.001c4.66699 -35.333 16.667 -60 36 -74c17.333 -12.667 44.666 -19 81.999 -19c91.333 0 179 72 263 216l114 196
c42 72.667 89.667 129 143 169c46 34.667 112 68.334 198 101.001c-172 -4.66699 -303 -18.667 -393 -42c-172.667 -43.333 -259 -121.333 -259 -234c0 -28.667 8.5 -51 25.5 -67s39.833 -24 68.5 -24c34.667 0 65 13.5 91 40.5s39 57.5 39 91.5c0 14.667 -4 34.667 -12 60
l8 2c8.66699 -20.667 13 -41.334 13 -62.001c0 -46 -19 -84 -57 -114c-34.667 -27.333 -75.667 -41 -123 -41c-38 0 -69.667 10.333 -95 31c-27.333 22 -41 51.333 -41 88c0 24.667 4.66699 47 14 67c24 52 81.667 96.333 173 133c70.667 28.667 144.334 47.667 221.001 57
c45.333 5.33301 103.666 10 174.999 14c96 6 154 9.66699 174 11c5.33301 0.666992 17 2.33398 35 5.00098c14.667 2 26.667 3 36 3c28 0 42 -4.66699 42 -14c0 -10 -11 -15 -33 -15c-9.33301 0 -23.333 1.33301 -42 4s-32.667 4 -42 4zM918.002 921
c10 -45.333 37.3311 -100 81.998 -164v-3c0 -4 -1.33301 -6 -4 -6c-8 0 -25 14 -51 42c-19.333 21.333 -34.666 40 -45.999 56c-79.333 -62 -127.333 -93 -144 -93l-5 6l3 5c64.667 50 115.334 102.333 152.001 157h13z" />
    <glyph glyph-name="Idieresis" unicode="&#xcf;" horiz-adv-x="789" 
d="M1025 679c-31.333 0 -74.998 -29.333 -130.998 -88c-47.333 -48.667 -82 -92.667 -104 -132c-75.333 -134 -115 -204 -119 -210c-50.667 -80 -102 -140 -154 -180c-66.667 -51.333 -141.334 -77 -224.001 -77c-47.333 0 -88 8.33301 -122 25c-44 21.333 -66 53 -66 95
c0 20.667 5.33301 38.167 16 52.5s26 21.5 46 21.5c12 0 22.667 -4.83301 32 -14.5s14 -20.5 14 -32.5c0 -20.667 -14 -36.334 -42 -47.001c4.66699 -35.333 16.667 -60 36 -74c17.333 -12.667 44.666 -19 81.999 -19c91.333 0 179 72 263 216l114 196
c42 72.667 89.667 129 143 169c46 34.667 112 68.334 198 101.001c-172 -4.66699 -303 -18.667 -393 -42c-172.667 -43.333 -259 -121.333 -259 -234c0 -28.667 8.5 -51 25.5 -67s39.833 -24 68.5 -24c34.667 0 65 13.5 91 40.5s39 57.5 39 91.5c0 14.667 -4 34.667 -12 60
l8 2c8.66699 -20.667 13 -41.334 13 -62.001c0 -46 -19 -84 -57 -114c-34.667 -27.333 -75.667 -41 -123 -41c-38 0 -69.667 10.333 -95 31c-27.333 22 -41 51.333 -41 88c0 24.667 4.66699 47 14 67c24 52 81.667 96.333 173 133c70.667 28.667 144.334 47.667 221.001 57
c45.333 5.33301 103.666 10 174.999 14c96 6 154 9.66699 174 11c5.33301 0.666992 17 2.33398 35 5.00098c14.667 2 26.667 3 36 3c28 0 42 -4.66699 42 -14c0 -10 -11 -15 -33 -15c-9.33301 0 -23.333 1.33301 -42 4s-32.667 4 -42 4zM809.002 791
c0 -12.667 -4.33203 -23 -12.999 -31s-19.334 -12 -32.001 -12c-12 0 -22 4.16699 -30 12.5s-12 18.5 -12 30.5c0 28.667 14.333 43 43 43c12.667 0 23.167 -4 31.5 -12s12.5 -18.333 12.5 -31zM982.003 791c0 -12.667 -4.50098 -23 -13.501 -31s-19.833 -12 -32.5 -12
c-12 0 -22 4.16699 -30 12.5s-12 18.5 -12 30.5c0 28.667 14.333 43 43 43c12.667 0 23.334 -4 32.001 -12s13 -18.333 13 -31z" />
    <glyph glyph-name="Ntilde" unicode="&#xd1;" horiz-adv-x="969" 
d="M708 141l99.998 212.998c50 98.667 99 174.667 147 228c62.667 71.333 126 107 190 107c25.333 0 47.333 -6.66699 66 -20s28 -32.333 28 -57c0 -32.667 -11.5 -60.167 -34.5 -82.5s-50.833 -34.5 -83.5 -36.5v8c41.333 12.667 62 35.334 62 68.001c0 44 -27 66 -81 66
c-94 0 -184.667 -88.333 -272 -265l-183 -391l-9 2c4 41.333 6 72 6 92c0 59.333 -9.66699 137.666 -29 234.999c-24 120 -38 198 -42 234l-109 -224c-52 -98 -103.667 -172.667 -155 -224c-67.333 -68 -138.333 -102 -213 -102c-35.333 0 -66.666 10 -93.999 30
c-30 21.333 -45 49 -45 83c0 49.333 21.667 74 65 74c11.333 0 21.333 -4.16699 30 -12.5s13 -18.166 13 -29.499c0 -26.667 -13 -41.667 -39 -45c-0.666992 -56 26.666 -84 81.999 -84c71.333 0 141 36.333 209 109c49.333 53.333 94.333 121.333 135 204l65 125
c30.667 58 49.334 99.333 56.001 124c2.66699 12.667 7.33398 30.667 14.001 54c16 42.667 41.333 69.334 76 80.001c-6.66699 -35.333 -10 -68.333 -10 -99c0 -49.333 10 -126.333 30 -231c18.667 -99.333 27 -177 25 -233zM1002 804.998c24 0 43.999 15.667 59.999 47h15
c-16.667 -60.667 -44.667 -91 -84 -91c-17.333 0 -40.333 6 -69 18s-49.667 18 -63 18c-26 0 -46.667 -16 -62 -48h-12c13.333 62.667 40 94 80 94c18.667 0 42.834 -6.33301 72.501 -19s50.5 -19 62.5 -19z" />
    <glyph glyph-name="Ograve" unicode="&#xd2;" horiz-adv-x="872" 
d="M954 250l1.00195 -8c-51.333 -36 -105 -54 -161 -54c-24.667 0 -49 3.66699 -73 11c-116 -144 -235.667 -216 -359 -216c-50.667 0 -89.334 17.333 -116.001 52c-24 30.667 -36 72 -36 124c0 48 10 97 30 147c82.667 205.333 216.667 322.333 402 351
c32 28 65.333 42 100 42c40 0 70.667 -14.667 92 -44c18 -25.333 27 -59 27 -101c0 -104.667 -44 -220 -132 -346c23.333 -6.66699 45 -10 65 -10c49.333 0 102.666 17.333 159.999 52zM718.002 677c-20.667 0 -41.333 -7 -62 -21c50.667 -8 76 -32.667 76 -74
c0 -17.333 -2 -31.666 -6 -42.999h-10c4 14 6 28.333 6 43c0 37.333 -25 59 -75 65c-37.333 -55.333 -56 -121 -56 -197c0 -104.667 33 -180.334 99 -227.001c62.667 114 94 223.333 94 328c0 30 -4 56 -12 78c-11.333 32 -29.333 48 -54 48zM414.003 3
c49.333 0 102 24.332 158 72.999c44 38.667 82 84.667 114 138c-87.333 48.667 -131 121.667 -131 219c0 76 26.667 147.333 80 214c-90.667 -17.333 -169.667 -82.666 -237 -195.999c-62 -104 -93 -205.333 -93 -304c0 -40.667 7.66699 -73.667 23 -99
c19.333 -30 48 -45 86 -45zM771.003 747.999c-24 0 -53.667 17.167 -89 51.5s-53 63.5 -53 87.5c0 21.333 9.33301 32 28 32c9.33301 0 19.333 -11.333 30 -34l34 -70c16.667 -28 35.667 -47 57 -57l1 -4c0 -4 -2.66699 -6 -8 -6z" />
    <glyph glyph-name="Oacute" unicode="&#xd3;" horiz-adv-x="872" 
d="M954 250l1.00195 -8c-51.333 -36 -105 -54 -161 -54c-24.667 0 -49 3.66699 -73 11c-116 -144 -235.667 -216 -359 -216c-50.667 0 -89.334 17.333 -116.001 52c-24 30.667 -36 72 -36 124c0 48 10 97 30 147c82.667 205.333 216.667 322.333 402 351
c32 28 65.333 42 100 42c40 0 70.667 -14.667 92 -44c18 -25.333 27 -59 27 -101c0 -104.667 -44 -220 -132 -346c23.333 -6.66699 45 -10 65 -10c49.333 0 102.666 17.333 159.999 52zM718.002 677c-20.667 0 -41.333 -7 -62 -21c50.667 -8 76 -32.667 76 -74
c0 -17.333 -2 -31.666 -6 -42.999h-10c4 14 6 28.333 6 43c0 37.333 -25 59 -75 65c-37.333 -55.333 -56 -121 -56 -197c0 -104.667 33 -180.334 99 -227.001c62.667 114 94 223.333 94 328c0 30 -4 56 -12 78c-11.333 32 -29.333 48 -54 48zM414.003 3
c49.333 0 102 24.332 158 72.999c44 38.667 82 84.667 114 138c-87.333 48.667 -131 121.667 -131 219c0 76 26.667 147.333 80 214c-90.667 -17.333 -169.667 -82.666 -237 -195.999c-62 -104 -93 -205.333 -93 -304c0 -40.667 7.66699 -73.667 23 -99
c19.333 -30 48 -45 86 -45zM828.003 917.999c16.667 0 24.999 -10.3311 24.999 -30.998c0 -24.667 -18.167 -54.334 -54.5 -89.001s-67.166 -51.334 -92.499 -50.001l-4 6c1.33301 3.33301 9.5 11.333 24.5 24s24.167 21 27.5 25c1.33301 2 12 24.333 32 67
c16 32 30 48 42 48z" />
    <glyph glyph-name="Ocircumflex" unicode="&#xd4;" horiz-adv-x="872" 
d="M954 250l1.00195 -8c-51.333 -36 -105 -54 -161 -54c-24.667 0 -49 3.66699 -73 11c-116 -144 -235.667 -216 -359 -216c-50.667 0 -89.334 17.333 -116.001 52c-24 30.667 -36 72 -36 124c0 48 10 97 30 147c82.667 205.333 216.667 322.333 402 351
c32 28 65.333 42 100 42c40 0 70.667 -14.667 92 -44c18 -25.333 27 -59 27 -101c0 -104.667 -44 -220 -132 -346c23.333 -6.66699 45 -10 65 -10c49.333 0 102.666 17.333 159.999 52zM718.002 677c-20.667 0 -41.333 -7 -62 -21c50.667 -8 76 -32.667 76 -74
c0 -17.333 -2 -31.666 -6 -42.999h-10c4 14 6 28.333 6 43c0 37.333 -25 59 -75 65c-37.333 -55.333 -56 -121 -56 -197c0 -104.667 33 -180.334 99 -227.001c62.667 114 94 223.333 94 328c0 30 -4 56 -12 78c-11.333 32 -29.333 48 -54 48zM414.003 3
c49.333 0 102 24.332 158 72.999c44 38.667 82 84.667 114 138c-87.333 48.667 -131 121.667 -131 219c0 76 26.667 147.333 80 214c-90.667 -17.333 -169.667 -82.666 -237 -195.999c-62 -104 -93 -205.333 -93 -304c0 -40.667 7.66699 -73.667 23 -99
c19.333 -30 48 -45 86 -45zM788.003 920.999c10 -44 37 -98.668 81 -164.001v-3c0 -4 -1.66699 -6 -5 -6c-8 0 -24.667 14 -50 42c-20.667 22.667 -35.667 41.334 -45 56.001l-73 -53c-38 -26.667 -62.333 -40 -73 -40l-4 6l2 5c64 48 114.667 100.333 152 157h15z" />
    <glyph glyph-name="Otilde" unicode="&#xd5;" horiz-adv-x="872" 
d="M954 250l1.00195 -8c-51.333 -36 -105 -54 -161 -54c-24.667 0 -49 3.66699 -73 11c-116 -144 -235.667 -216 -359 -216c-50.667 0 -89.334 17.333 -116.001 52c-24 30.667 -36 72 -36 124c0 48 10 97 30 147c82.667 205.333 216.667 322.333 402 351
c32 28 65.333 42 100 42c40 0 70.667 -14.667 92 -44c18 -25.333 27 -59 27 -101c0 -104.667 -44 -220 -132 -346c23.333 -6.66699 45 -10 65 -10c49.333 0 102.666 17.333 159.999 52zM718.002 677c-20.667 0 -41.333 -7 -62 -21c50.667 -8 76 -32.667 76 -74
c0 -17.333 -2 -31.666 -6 -42.999h-10c4 14 6 28.333 6 43c0 37.333 -25 59 -75 65c-37.333 -55.333 -56 -121 -56 -197c0 -104.667 33 -180.334 99 -227.001c62.667 114 94 223.333 94 328c0 30 -4 56 -12 78c-11.333 32 -29.333 48 -54 48zM414.003 3
c49.333 0 102 24.332 158 72.999c44 38.667 82 84.667 114 138c-87.333 48.667 -131 121.667 -131 219c0 76 26.667 147.333 80 214c-90.667 -17.333 -169.667 -82.666 -237 -195.999c-62 -104 -93 -205.333 -93 -304c0 -40.667 7.66699 -73.667 23 -99
c19.333 -30 48 -45 86 -45zM813.003 803.999c23.333 0 43.001 15.667 59.001 47h16c-16.667 -60.667 -44.334 -91 -83.001 -91c-17.333 0 -40.5 6 -69.5 18s-49.833 18 -62.5 18c-25.333 0 -46.333 -16 -63 -48h-12c13.333 62.667 40 94 80 94c18.667 0 43 -6.33301 73 -19
s50.667 -19 62 -19z" />
    <glyph glyph-name="Odieresis" unicode="&#xd6;" horiz-adv-x="872" 
d="M954 250l1.00195 -8c-51.333 -36 -105 -54 -161 -54c-24.667 0 -49 3.66699 -73 11c-116 -144 -235.667 -216 -359 -216c-50.667 0 -89.334 17.333 -116.001 52c-24 30.667 -36 72 -36 124c0 48 10 97 30 147c82.667 205.333 216.667 322.333 402 351
c32 28 65.333 42 100 42c40 0 70.667 -14.667 92 -44c18 -25.333 27 -59 27 -101c0 -104.667 -44 -220 -132 -346c23.333 -6.66699 45 -10 65 -10c49.333 0 102.666 17.333 159.999 52zM718.002 677c-20.667 0 -41.333 -7 -62 -21c50.667 -8 76 -32.667 76 -74
c0 -17.333 -2 -31.666 -6 -42.999h-10c4 14 6 28.333 6 43c0 37.333 -25 59 -75 65c-37.333 -55.333 -56 -121 -56 -197c0 -104.667 33 -180.334 99 -227.001c62.667 114 94 223.333 94 328c0 30 -4 56 -12 78c-11.333 32 -29.333 48 -54 48zM414.003 3
c49.333 0 102 24.332 158 72.999c44 38.667 82 84.667 114 138c-87.333 48.667 -131 121.667 -131 219c0 76 26.667 147.333 80 214c-90.667 -17.333 -169.667 -82.666 -237 -195.999c-62 -104 -93 -205.333 -93 -304c0 -40.667 7.66699 -73.667 23 -99
c19.333 -30 48 -45 86 -45zM668.003 790.999c0 -12 -4.33301 -22.167 -13 -30.5s-19 -12.5 -31 -12.5s-22.167 4 -30.5 12s-12.5 18.333 -12.5 31c0 28.667 14.667 43 44 43c12 0 22.167 -4.16699 30.5 -12.5s12.5 -18.5 12.5 -30.5zM840.003 790.999
c0 -12 -4.33301 -22.167 -13 -30.5s-19 -12.5 -31 -12.5s-22 4 -30 12s-12 18.333 -12 31c0 28.667 14.333 43 43 43c12 0 22.167 -4.16699 30.5 -12.5s12.5 -18.5 12.5 -30.5z" />
    <glyph glyph-name="Oslash" unicode="&#xd8;" horiz-adv-x="872" 
d="M553 421c-0.666992 80.667 26.667 155.999 82 225.999c-90.667 -17.333 -169.667 -82.666 -237 -195.999c-62 -104 -93 -205.333 -93 -304c0 -23.333 7 -55.333 21 -96zM337.001 35.999c20 -22 45.667 -33 77 -33c50 0 102.667 24.333 158 73
c44 38.667 82 84.667 114 138c-70.667 39.333 -113.667 98.333 -129 177zM708.001 636.999c16 -14 24 -32.334 24 -55.001c0 -17.333 -2 -31.666 -6 -42.999h-10c4 14 6 27.667 6 41c0 24 -7 40 -21 48l-111 -180c2.66699 -104.667 36 -179.667 100 -225
c62.667 114 94 223.333 94 328c0 70 -17.667 111.333 -53 124zM711.001 676.998c-17.333 -0.666992 -35.667 -7.66699 -55 -21c16.667 -2.66699 28.667 -6 36 -10zM688 636.998c-8.66699 4 -22.333 7.33301 -41 10c-36.667 -54 -54.667 -108.333 -54 -163zM779.001 785.998
l15.0029 -9l-48 -78c39.333 0 69 -15 89 -45c17.333 -26 26 -59.333 26 -100c0 -104.667 -44 -220 -132 -346c23.333 -6.66699 45 -10 65 -10c49.333 0 102.666 17.333 159.999 52l1 -8c-51.333 -36 -105 -54 -161 -54c-24.667 0 -49 3.66699 -73 11
c-114.667 -144 -234.334 -216 -359.001 -216c-22 0 -39.667 2.33301 -53 7l-48 -77l-16 8l48 76c-55.333 25.333 -83 79.333 -83 162c0 48.667 10 97.667 30 147c83.333 206 217.333 323 402 351c21.333 19.333 48.666 33 81.999 41z" />
    <glyph glyph-name="Ugrave" unicode="&#xd9;" horiz-adv-x="1038" 
d="M1165 677l-315 -494.002c-37.333 -58.667 -56 -103.667 -56 -135c0 -9.33301 3 -18 9 -26s13.667 -12 23 -12c41.333 0 95.333 33 162 99c26 26 70.333 76.667 133 152l6 -5c-58.667 -75.333 -106.334 -130.666 -143.001 -165.999c-68 -64.667 -129.667 -97 -185 -97
c-52 0 -78 26 -78 78c0 34.667 13.667 77.334 41 128.001c-119.333 -136.667 -220.333 -205 -303 -205c-51.333 0 -77 23 -77 69c0 39.333 26 100.666 78 183.999l146 218c52 82 78 141.667 78 179c0 34 -21.333 51 -64 51c-62 0 -122.5 -28.667 -181.5 -86
s-88.5 -117 -88.5 -179c0 -17.333 5.33301 -33 16 -47s24.334 -21 41.001 -21c24 0 48 8.66699 72 26c13.333 10 32 28 56 54l8 -4c-47.333 -60 -98 -90 -152 -90c-26 0 -47 7.83301 -63 23.5s-24 36.5 -24 62.5c0 70 42 134.667 126 194c78 54.667 153.667 82 227 82
c29.333 0 54 -6.33301 74 -19c22.667 -15.333 34 -37 34 -65c0 -41.333 -26 -103.666 -78 -186.999l-143 -215c-52 -79.333 -78 -135 -78 -167c0 -11.333 4.16699 -20.5 12.5 -27.5s17.833 -10.5 28.5 -10.5c39.333 0 95 34.333 167 103c54 52 99.667 104.167 137 156.5
s80 117.833 128 196.5l121 202h105zM954 747.998c-24 0 -53.667 17.167 -89 51.5s-53 63.5 -53 87.5c0 21.333 9.33301 32 28 32c9.33301 0 19.333 -11.333 30 -34l34 -70c16.667 -28 35.667 -47 57 -57l1 -4c0 -4 -2.66699 -6 -8 -6z" />
    <glyph glyph-name="Uacute" unicode="&#xda;" horiz-adv-x="1038" 
d="M1165 677l-315 -494.002c-37.333 -58.667 -56 -103.667 -56 -135c0 -9.33301 3 -18 9 -26s13.667 -12 23 -12c41.333 0 95.333 33 162 99c26 26 70.333 76.667 133 152l6 -5c-58.667 -75.333 -106.334 -130.666 -143.001 -165.999c-68 -64.667 -129.667 -97 -185 -97
c-52 0 -78 26 -78 78c0 34.667 13.667 77.334 41 128.001c-119.333 -136.667 -220.333 -205 -303 -205c-51.333 0 -77 23 -77 69c0 39.333 26 100.666 78 183.999l146 218c52 82 78 141.667 78 179c0 34 -21.333 51 -64 51c-62 0 -122.5 -28.667 -181.5 -86
s-88.5 -117 -88.5 -179c0 -17.333 5.33301 -33 16 -47s24.334 -21 41.001 -21c24 0 48 8.66699 72 26c13.333 10 32 28 56 54l8 -4c-47.333 -60 -98 -90 -152 -90c-26 0 -47 7.83301 -63 23.5s-24 36.5 -24 62.5c0 70 42 134.667 126 194c78 54.667 153.667 82 227 82
c29.333 0 54 -6.33301 74 -19c22.667 -15.333 34 -37 34 -65c0 -41.333 -26 -103.666 -78 -186.999l-143 -215c-52 -79.333 -78 -135 -78 -167c0 -11.333 4.16699 -20.5 12.5 -27.5s17.833 -10.5 28.5 -10.5c39.333 0 95 34.333 167 103c54 52 99.667 104.167 137 156.5
s80 117.833 128 196.5l121 202h105zM1031 917.998c16 0 24 -9.66504 24 -28.998c0 -26 -17.833 -56.333 -53.5 -91s-66.5 -51.334 -92.5 -50.001l-4 6c13.333 12 30.333 28.333 51 49c1.33301 1.33301 12.333 23.666 33 66.999c15.333 32 29.333 48 42 48z" />
    <glyph glyph-name="Ucircumflex" unicode="&#xdb;" horiz-adv-x="1038" 
d="M1165 677l-315 -494.002c-37.333 -58.667 -56 -103.667 -56 -135c0 -9.33301 3 -18 9 -26s13.667 -12 23 -12c41.333 0 95.333 33 162 99c26 26 70.333 76.667 133 152l6 -5c-58.667 -75.333 -106.334 -130.666 -143.001 -165.999c-68 -64.667 -129.667 -97 -185 -97
c-52 0 -78 26 -78 78c0 34.667 13.667 77.334 41 128.001c-119.333 -136.667 -220.333 -205 -303 -205c-51.333 0 -77 23 -77 69c0 39.333 26 100.666 78 183.999l146 218c52 82 78 141.667 78 179c0 34 -21.333 51 -64 51c-62 0 -122.5 -28.667 -181.5 -86
s-88.5 -117 -88.5 -179c0 -17.333 5.33301 -33 16 -47s24.334 -21 41.001 -21c24 0 48 8.66699 72 26c13.333 10 32 28 56 54l8 -4c-47.333 -60 -98 -90 -152 -90c-26 0 -47 7.83301 -63 23.5s-24 36.5 -24 62.5c0 70 42 134.667 126 194c78 54.667 153.667 82 227 82
c29.333 0 54 -6.33301 74 -19c22.667 -15.333 34 -37 34 -65c0 -41.333 -26 -103.666 -78 -186.999l-143 -215c-52 -79.333 -78 -135 -78 -167c0 -11.333 4.16699 -20.5 12.5 -27.5s17.833 -10.5 28.5 -10.5c39.333 0 95 34.333 167 103c54 52 99.667 104.167 137 156.5
s80 117.833 128 196.5l121 202h105zM951 920.998c10.667 -46 37.667 -100.665 81 -163.998l1 -6l-5 -3c-9.33301 1.33301 -26.333 15.666 -51 42.999c-18.667 20.667 -33.667 39 -45 55c-82.667 -62 -131 -93 -145 -93l-5 6l2 5c66.667 49.333 117.667 101.666 153 156.999
h14z" />
    <glyph glyph-name="Udieresis" unicode="&#xdc;" horiz-adv-x="1038" 
d="M1165 677l-315 -494.002c-37.333 -58.667 -56 -103.667 -56 -135c0 -9.33301 3 -18 9 -26s13.667 -12 23 -12c41.333 0 95.333 33 162 99c26 26 70.333 76.667 133 152l6 -5c-58.667 -75.333 -106.334 -130.666 -143.001 -165.999c-68 -64.667 -129.667 -97 -185 -97
c-52 0 -78 26 -78 78c0 34.667 13.667 77.334 41 128.001c-119.333 -136.667 -220.333 -205 -303 -205c-51.333 0 -77 23 -77 69c0 39.333 26 100.666 78 183.999l146 218c52 82 78 141.667 78 179c0 34 -21.333 51 -64 51c-62 0 -122.5 -28.667 -181.5 -86
s-88.5 -117 -88.5 -179c0 -17.333 5.33301 -33 16 -47s24.334 -21 41.001 -21c24 0 48 8.66699 72 26c13.333 10 32 28 56 54l8 -4c-47.333 -60 -98 -90 -152 -90c-26 0 -47 7.83301 -63 23.5s-24 36.5 -24 62.5c0 70 42 134.667 126 194c78 54.667 153.667 82 227 82
c29.333 0 54 -6.33301 74 -19c22.667 -15.333 34 -37 34 -65c0 -41.333 -26 -103.666 -78 -186.999l-143 -215c-52 -79.333 -78 -135 -78 -167c0 -11.333 4.16699 -20.5 12.5 -27.5s17.833 -10.5 28.5 -10.5c39.333 0 95 34.333 167 103c54 52 99.667 104.167 137 156.5
s80 117.833 128 196.5l121 202h105zM891 790.998c0 -12.667 -4.50098 -23 -13.501 -31s-19.833 -12 -32.5 -12c-12 0 -22 4.16699 -30 12.5s-12 18.5 -12 30.5c0 28.667 14.333 43 43 43c12.667 0 23.334 -4 32.001 -12s13 -18.333 13 -31zM1063 790.998
c0 -12.667 -4.50098 -23 -13.501 -31s-19.833 -12 -32.5 -12c-12 0 -22 4.16699 -30 12.5s-12 18.5 -12 30.5c0 28.667 14.333 43 43 43c12.667 0 23.334 -4 32.001 -12s13 -18.333 13 -31z" />
    <glyph glyph-name="germandbls" unicode="&#xdf;" horiz-adv-x="571" 
d="M-565 -99c11.333 0 21.333 -4.16504 30 -12.498s13 -18.166 13 -29.499c0 -26.667 -12 -43.334 -36 -50.001v-15c0 -28.667 12.667 -50.334 38 -65.001c21.333 -12.667 47.333 -19 78 -19c106 0 210.667 83.333 314 250l265 465c112 166.667 230.667 250 356 250
c37.333 0 69.666 -8.33301 96.999 -25c32.667 -20 49 -47.667 49 -83c0 -52.667 -23.667 -91 -71 -115l-130 -50c-47.333 -22 -71 -55.667 -71 -101c0 -20.667 9.33301 -51.334 28 -92.001s28 -70.667 28 -90c0 -26 -7.33301 -48.333 -22 -67
c-9.33301 -12.667 -27.333 -28.334 -54 -47.001c100 30.667 197 114.667 291 252l5 -6c-116 -175.333 -240 -263 -372 -263c-36.667 0 -67.667 8 -93 24c-30 19.333 -45 46.333 -45 81c0 60 32.667 90 98 90c22.667 0 40.334 -16.667 53.001 -50l-11 1
c-26 2.66699 -46.833 -2.66602 -62.5 -15.999s-23.5 -33 -23.5 -59c0 -16.667 6 -30.834 18 -42.501s26.333 -17.5 43 -17.5c29.333 0 53.333 8.33301 72 25s28 39.667 28 69c0 20 -9.5 49.667 -28.5 89s-28.5 69.333 -28.5 90c0 38 24 71 72 99l132 77c48 38 72 88 72 150
c0 18.667 -6.5 34.834 -19.5 48.501s-28.833 20.5 -47.5 20.5c-44.667 0 -94.667 -27.667 -150 -83c-40.667 -40.667 -77 -88 -109 -142l-283 -478c-104 -175.333 -236 -263 -396 -263c-49.333 0 -90.333 8.33301 -123 25c-41.333 22 -62 55.667 -62 101
c0 49.333 19.333 74 58 74z" />
    <glyph glyph-name="agrave" unicode="&#xe0;" horiz-adv-x="500" 
d="M339 340h97l-99 -151c-46 -74.667 -69 -126 -69 -154c0 -20 8.33301 -30 25 -30c42 0 134.333 84.667 277 254l6 -6c-62 -78.667 -109 -134 -141 -166c-68.667 -66.667 -129 -100 -181 -100c-42.667 0 -64 21.333 -64 64c0 6.66699 0.666992 13.667 2 21
c-50.667 -54.667 -103 -82 -157 -82c-23.333 0 -42.333 10.333 -57 31c-14 18 -21 39 -21 63c0 64.667 30 126.667 90 186s122.333 89 187 89c36 0 62.667 -18.333 80 -55zM93 23c40.667 0 83.999 35.667 129.999 107c42.667 66.667 64 122 64 166
c0 13.333 -3.66699 25.5 -11 36.5s-17.666 16.5 -30.999 16.5c-46.667 0 -91.667 -33.667 -135 -101c-40.667 -62.667 -61 -118.667 -61 -168c0 -14 4 -27 12 -39s18.667 -18 32 -18zM287.999 398c-26 1.33301 -56.5 18.6689 -91.5 52.002s-52.5 62.666 -52.5 87.999
c0 20 9.66699 30 29 30c10 0 23 -16.667 39 -50c20 -42.667 30.333 -64.334 31 -65.001c16.667 -14 34 -30 52 -48z" />
    <glyph glyph-name="aacute" unicode="&#xe1;" horiz-adv-x="500" 
d="M339 340h97l-99 -151c-46 -74.667 -69 -126 -69 -154c0 -20 8.33301 -30 25 -30c42 0 134.333 84.667 277 254l6 -6c-62 -78.667 -109 -134 -141 -166c-68.667 -66.667 -129 -100 -181 -100c-42.667 0 -64 21.333 -64 64c0 6.66699 0.666992 13.667 2 21
c-50.667 -54.667 -103 -82 -157 -82c-23.333 0 -42.333 10.333 -57 31c-14 18 -21 39 -21 63c0 64.667 30 126.667 90 186s122.333 89 187 89c36 0 62.667 -18.333 80 -55zM93 23c40.667 0 83.999 35.667 129.999 107c42.667 66.667 64 122 64 166
c0 13.333 -3.66699 25.5 -11 36.5s-17.666 16.5 -30.999 16.5c-46.667 0 -91.667 -33.667 -135 -101c-40.667 -62.667 -61 -118.667 -61 -168c0 -14 4 -27 12 -39s18.667 -18 32 -18zM375.999 569c16.667 0 25 -10.332 25 -30.999c0 -24 -17.667 -53.333 -53 -88
s-65 -52 -89 -52c-4.66699 0 -7.66699 2.33301 -9 7c14 12 31.333 28 52 48c1.33301 1.33301 12 23.666 32 66.999c15.333 32.667 29.333 49 42 49z" />
    <glyph glyph-name="acircumflex" unicode="&#xe2;" horiz-adv-x="500" 
d="M339 340h97l-99 -151c-46 -74.667 -69 -126 -69 -154c0 -20 8.33301 -30 25 -30c42 0 134.333 84.667 277 254l6 -6c-62 -78.667 -109 -134 -141 -166c-68.667 -66.667 -129 -100 -181 -100c-42.667 0 -64 21.333 -64 64c0 6.66699 0.666992 13.667 2 21
c-50.667 -54.667 -103 -82 -157 -82c-23.333 0 -42.333 10.333 -57 31c-14 18 -21 39 -21 63c0 64.667 30 126.667 90 186s122.333 89 187 89c36 0 62.667 -18.333 80 -55zM93 23c40.667 0 83.999 35.667 129.999 107c42.667 66.667 64 122 64 166
c0 13.333 -3.66699 25.5 -11 36.5s-17.666 16.5 -30.999 16.5c-46.667 0 -91.667 -33.667 -135 -101c-40.667 -62.667 -61 -118.667 -61 -168c0 -14 4 -27 12 -39s18.667 -18 32 -18zM340.999 570c10 -44 36.999 -98.668 80.999 -164.001v-3c0 -4 -1.66699 -6 -5 -6
c-8 0 -24.667 14.333 -50 43c-20 22.667 -35 41.334 -45 56.001l-72 -54c-37.333 -26.667 -62 -39.667 -74 -39l-4 6l2 5c62.667 44.667 113.334 96.667 152.001 156h15z" />
    <glyph glyph-name="atilde" unicode="&#xe3;" horiz-adv-x="500" 
d="M339 340h97l-99 -151c-46 -74.667 -69 -126 -69 -154c0 -20 8.33301 -30 25 -30c42 0 134.333 84.667 277 254l6 -6c-62 -78.667 -109 -134 -141 -166c-68.667 -66.667 -129 -100 -181 -100c-42.667 0 -64 21.333 -64 64c0 6.66699 0.666992 13.667 2 21
c-50.667 -54.667 -103 -82 -157 -82c-23.333 0 -42.333 10.333 -57 31c-14 18 -21 39 -21 63c0 64.667 30 126.667 90 186s122.333 89 187 89c36 0 62.667 -18.333 80 -55zM93 23c40.667 0 83.999 35.667 129.999 107c42.667 66.667 64 122 64 166
c0 13.333 -3.66699 25.5 -11 36.5s-17.666 16.5 -30.999 16.5c-46.667 0 -91.667 -33.667 -135 -101c-40.667 -62.667 -61 -118.667 -61 -168c0 -14 4 -27 12 -39s18.667 -18 32 -18zM400.999 454c24 0 44.002 15.667 60.002 47h16c-18 -60 -46 -90 -84 -90
c-17.333 0 -40.333 5.83301 -69 17.5s-49.334 17.5 -62.001 17.5c-26 0 -47.333 -16 -64 -48h-12c13.333 63.333 39.666 95 78.999 95c19.333 0 44 -6.5 74 -19.5s50.667 -19.5 62 -19.5z" />
    <glyph glyph-name="adieresis" unicode="&#xe4;" horiz-adv-x="500" 
d="M339 340h97l-99 -151c-46 -74.667 -69 -126 -69 -154c0 -20 8.33301 -30 25 -30c42 0 134.333 84.667 277 254l6 -6c-62 -78.667 -109 -134 -141 -166c-68.667 -66.667 -129 -100 -181 -100c-42.667 0 -64 21.333 -64 64c0 6.66699 0.666992 13.667 2 21
c-50.667 -54.667 -103 -82 -157 -82c-23.333 0 -42.333 10.333 -57 31c-14 18 -21 39 -21 63c0 64.667 30 126.667 90 186s122.333 89 187 89c36 0 62.667 -18.333 80 -55zM93 23c40.667 0 83.999 35.667 129.999 107c42.667 66.667 64 122 64 166
c0 13.333 -3.66699 25.5 -11 36.5s-17.666 16.5 -30.999 16.5c-46.667 0 -91.667 -33.667 -135 -101c-40.667 -62.667 -61 -118.667 -61 -168c0 -14 4 -27 12 -39s18.667 -18 32 -18zM263.999 442c0 -12.667 -4.16699 -23.167 -12.5 -31.5s-18.833 -12.5 -31.5 -12.5
s-23 4.16699 -31 12.5s-12 18.833 -12 31.5c0 12 4.16699 22 12.5 30s18.5 12 30.5 12s22.333 -4 31 -12s13 -18 13 -30zM435.999 442c0 -12.667 -4.16699 -23.167 -12.5 -31.5s-18.833 -12.5 -31.5 -12.5s-23 4.16699 -31 12.5s-12 18.833 -12 31.5
c0 12 4.16699 22 12.5 30s18.5 12 30.5 12s22.333 -4 31 -12s13 -18 13 -30z" />
    <glyph glyph-name="aring" unicode="&#xe5;" horiz-adv-x="500" 
d="M339 340h97l-99 -151c-46 -74.667 -69 -126 -69 -154c0 -20 8.33301 -30 25 -30c42 0 134.333 84.667 277 254l6 -6c-62 -78.667 -109 -134 -141 -166c-68.667 -66.667 -129 -100 -181 -100c-42.667 0 -64 21.333 -64 64c0 6.66699 0.666992 13.667 2 21
c-50.667 -54.667 -103 -82 -157 -82c-23.333 0 -42.333 10.333 -57 31c-14 18 -21 39 -21 63c0 64.667 30 126.667 90 186s122.333 89 187 89c36 0 62.667 -18.333 80 -55zM93 23c40.667 0 83.999 35.667 129.999 107c42.667 66.667 64 122 64 166
c0 13.333 -3.66699 25.5 -11 36.5s-17.666 16.5 -30.999 16.5c-46.667 0 -91.667 -33.667 -135 -101c-40.667 -62.667 -61 -118.667 -61 -168c0 -14 4 -27 12 -39s18.667 -18 32 -18zM428.999 486c0 -24.667 -8.33203 -45.502 -24.999 -62.502s-37.334 -25.5 -62.001 -25.5
c-24 0 -44.5 8.16699 -61.5 24.5s-25.5 36.5 -25.5 60.5c0 24.667 8.16699 45.334 24.5 62.001s36.833 25 61.5 25c24 0 44.667 -8.16699 62 -24.5s26 -36.166 26 -59.499zM288 482.998c0 -14 5.33301 -26.001 16 -36.001s23.334 -15 38.001 -15
c15.333 0 28.333 4.83301 39 14.5s16 21.834 16 36.501s-5.33301 27.5 -16 38.5s-23.334 16.5 -38.001 16.5s-27.5 -5.5 -38.5 -16.5s-16.5 -23.833 -16.5 -38.5z" />
    <glyph glyph-name="ae" unicode="&#xe6;" horiz-adv-x="667" 
d="M111 27c45.333 0 89.666 33.667 132.999 101c40 62 60 117.333 60 166c0 34.667 -13.667 52 -41 52c-45.333 0 -89.666 -32.667 -132.999 -98c-40 -60 -60 -114.333 -60 -163c0 -38.667 13.667 -58 41 -58zM548 321c0 16.667 -8.33203 25 -24.999 25
c-34.667 0 -70 -23 -106 -69c-28.667 -36 -50.334 -75 -65.001 -117c46 8 88.333 25.333 127 52c46 32 69 68.333 69 109zM255.001 125c-61.333 -87.333 -124.33 -131 -188.997 -131c-58 0 -87 30 -87 90c0 65.333 28.667 127 86 185s118.666 87 183.999 87
c38 0 66.667 -17.333 86 -52l22 36l86 4l-10 -20c41.333 22.667 77.666 34 108.999 34c20.667 0 39 -4.66699 55 -14c18.667 -11.333 28 -26.666 28 -45.999c0 -40.667 -37 -75 -111 -103c-26 -10 -81 -25 -165 -45c-2 -14 -3 -28.333 -3 -43
c0 -26.667 7.83301 -47.667 23.5 -63s36.834 -23 63.501 -23c54 0 112.333 28.667 175 86c28 25.333 73.333 75.666 136 150.999l10 -1c-66.667 -83.333 -120.334 -142.333 -161.001 -177c-72 -61.333 -143 -92 -213 -92c-88.667 0 -130.334 45.667 -125.001 137z" />
    <glyph glyph-name="ccedilla" unicode="&#xe7;" horiz-adv-x="385" 
d="M-43 96c0 63.333 32.667 123.334 98 180.001c63.333 55.333 127.333 83 192 83c24 0 45.333 -4.66699 64 -14c22.667 -12 34 -28.667 34 -50c0 -50 -34 -75 -102 -75c14 38 21 68.667 21 92c0 22 -10.667 33 -32 33c-47.333 0 -90 -28.667 -128 -86
c-34.667 -52 -52 -103 -52 -153c0 -27.333 8 -48.833 24 -64.5s37.667 -23.5 65 -23.5c54.667 0 113.334 28.667 176.001 86c30.667 27.333 76.334 78 137.001 152l8 -1c-66.667 -83.333 -120.334 -142.333 -161.001 -177c-71.333 -61.333 -142 -92 -212 -92l-30 -56l29 1
c47.333 1.33301 71 -18.334 71 -59.001c0 -48.667 -32.333 -73 -97 -73c-16.667 0 -40.334 3.66699 -71.001 11c-35.333 9.33301 -53.666 19 -54.999 29l4 7c10 -1.33301 27 -6 51 -14c21.333 -6.66699 39 -10 53 -10c47.333 0 71 16.667 71 50
c0 10.667 -4.33301 19.334 -13 26.001s-18.334 10 -29.001 10c-5.33301 0 -13 -1 -23 -3s-17.667 -3 -23 -3l-6 7c0.666992 5.33301 16.667 31.333 48 78c-30 -0.666992 -56.167 9.66602 -78.5 30.999s-33.5 47.333 -33.5 78z" />
    <glyph glyph-name="egrave" unicode="&#xe8;" horiz-adv-x="381" 
d="M238 348c-36.667 0 -72.667 -23 -108 -69c-27.333 -35.333 -49 -75.333 -65 -120c46 11.333 88 30 126 56c48.667 32.667 73 69 73 109c0 16 -8.66699 24 -26 24zM149 19c54 0 112.334 28.668 175.001 86.001c30 27.333 75.333 78 136 152l10 -1
c-66.667 -84 -120.334 -143.333 -161.001 -178c-72 -61.333 -143.333 -92 -214 -92c-36.667 0 -67 9 -91 27c-26.667 19.333 -40 47 -40 83c0 63.333 31.333 123 94 179s126 84 190 84c22.667 0 42.334 -4.33301 59.001 -13c21.333 -10.667 32 -26.334 32 -47.001
c0 -40.667 -37.333 -75.667 -112 -105c-26 -10 -81.333 -25.667 -166 -47c-1.33301 -20 -2 -34.333 -2 -43c0 -26.667 8.16699 -47.5 24.5 -62.5s38.166 -22.5 65.499 -22.5zM266.001 398.001c-25.333 1.33301 -55.333 18.668 -90 52.001s-52 62.666 -52 87.999
c0 20 9 30 27 30c10 0 23 -16.667 39 -50c20 -42 30.667 -63.667 32 -65c16 -12.667 33.333 -28.667 52 -48z" />
    <glyph glyph-name="eacute" unicode="&#xe9;" horiz-adv-x="381" 
d="M238 348c-36.667 0 -72.667 -23 -108 -69c-27.333 -35.333 -49 -75.333 -65 -120c46 11.333 88 30 126 56c48.667 32.667 73 69 73 109c0 16 -8.66699 24 -26 24zM149 19c54 0 112.334 28.668 175.001 86.001c30 27.333 75.333 78 136 152l10 -1
c-66.667 -84 -120.334 -143.333 -161.001 -178c-72 -61.333 -143.333 -92 -214 -92c-36.667 0 -67 9 -91 27c-26.667 19.333 -40 47 -40 83c0 63.333 31.333 123 94 179s126 84 190 84c22.667 0 42.334 -4.33301 59.001 -13c21.333 -10.667 32 -26.334 32 -47.001
c0 -40.667 -37.333 -75.667 -112 -105c-26 -10 -81.333 -25.667 -166 -47c-1.33301 -20 -2 -34.333 -2 -43c0 -26.667 8.16699 -47.5 24.5 -62.5s38.166 -22.5 65.499 -22.5zM374.001 568.001c16.667 0 25 -9.33203 25 -27.999c0 -25.333 -17.5 -55.333 -52.5 -90
s-65.167 -52 -90.5 -52c-4.66699 0 -7 2.33301 -7 7c12.667 10.667 29.667 26.667 51 48c1.33301 1.33301 12 23.666 32 66.999c16 32 30 48 42 48z" />
    <glyph glyph-name="ecircumflex" unicode="&#xea;" horiz-adv-x="381" 
d="M238 348c-36.667 0 -72.667 -23 -108 -69c-27.333 -35.333 -49 -75.333 -65 -120c46 11.333 88 30 126 56c48.667 32.667 73 69 73 109c0 16 -8.66699 24 -26 24zM149 19c54 0 112.334 28.668 175.001 86.001c30 27.333 75.333 78 136 152l10 -1
c-66.667 -84 -120.334 -143.333 -161.001 -178c-72 -61.333 -143.333 -92 -214 -92c-36.667 0 -67 9 -91 27c-26.667 19.333 -40 47 -40 83c0 63.333 31.333 123 94 179s126 84 190 84c22.667 0 42.334 -4.33301 59.001 -13c21.333 -10.667 32 -26.334 32 -47.001
c0 -40.667 -37.333 -75.667 -112 -105c-26 -10 -81.333 -25.667 -166 -47c-1.33301 -20 -2 -34.333 -2 -43c0 -26.667 8.16699 -47.5 24.5 -62.5s38.166 -22.5 65.499 -22.5zM309.001 571.001c10 -44 37 -98.668 81 -164.001l1 -5l-5 -4
c-9.33301 1.33301 -26.333 15.666 -51 42.999c-20 22 -35 40.333 -45 55c-82.667 -61.333 -131.334 -91.666 -146.001 -90.999l-3 5c0.666992 4.66699 8 12.667 22 24c10 6.66699 19.667 13.667 29 21c40.667 34.667 75.334 73.334 104.001 116.001h13z" />
    <glyph glyph-name="edieresis" unicode="&#xeb;" horiz-adv-x="381" 
d="M238 348c-36.667 0 -72.667 -23 -108 -69c-27.333 -35.333 -49 -75.333 -65 -120c46 11.333 88 30 126 56c48.667 32.667 73 69 73 109c0 16 -8.66699 24 -26 24zM149 19c54 0 112.334 28.668 175.001 86.001c30 27.333 75.333 78 136 152l10 -1
c-66.667 -84 -120.334 -143.333 -161.001 -178c-72 -61.333 -143.333 -92 -214 -92c-36.667 0 -67 9 -91 27c-26.667 19.333 -40 47 -40 83c0 63.333 31.333 123 94 179s126 84 190 84c22.667 0 42.334 -4.33301 59.001 -13c21.333 -10.667 32 -26.334 32 -47.001
c0 -40.667 -37.333 -75.667 -112 -105c-26 -10 -81.333 -25.667 -166 -47c-1.33301 -20 -2 -34.333 -2 -43c0 -26.667 8.16699 -47.5 24.5 -62.5s38.166 -22.5 65.499 -22.5zM214.001 442.001c0 -12.667 -4.33301 -23.167 -13 -31.5s-19.667 -12.5 -33 -12.5
c-12 0 -22 4.16699 -30 12.5s-12 18.833 -12 31.5c0 12 4.16699 22 12.5 30s18.5 12 30.5 12s22.5 -4 31.5 -12s13.5 -18 13.5 -30zM386.001 442.001c0 -12.667 -4.33203 -23.167 -12.999 -31.5s-19.334 -12.5 -32.001 -12.5s-23 4.16699 -31 12.5s-12 18.833 -12 31.5
c0 28 14.667 42 44 42c12 0 22.333 -4 31 -12s13 -18 13 -30z" />
    <glyph glyph-name="igrave" unicode="&#xec;" horiz-adv-x="256" 
d="M110 335l96 5.00293c-62.667 -94 -95.667 -144 -99 -150c-46.667 -74.667 -70 -125.334 -70 -152.001c0 -19.333 8 -29 24 -29c31.333 0 80.666 34.667 147.999 104c26 27.333 69.333 76.666 130 147.999l6 -5c-58 -74.667 -105 -129.667 -141 -165
c-69.333 -67.333 -128.666 -101 -177.999 -101c-18 0 -33.833 5.66699 -47.5 17s-20.5 25.666 -20.5 42.999c0 25.333 20.667 73 62 143c4.66699 8 34.667 55.333 90 142zM192 398.003c-26 1.33301 -56.334 18.6689 -91.001 52.002s-52 62.666 -52 87.999
c0 20 9.33301 30 28 30c10 0 23 -16.667 39 -50c20.667 -42.667 31.334 -64.334 32.001 -65.001c15.333 -12.667 32.333 -28.667 51 -48z" />
    <glyph glyph-name="iacute" unicode="&#xed;" horiz-adv-x="256" 
d="M110 335l96 5.00293c-62.667 -94 -95.667 -144 -99 -150c-46.667 -74.667 -70 -125.334 -70 -152.001c0 -19.333 8 -29 24 -29c31.333 0 80.666 34.667 147.999 104c26 27.333 69.333 76.666 130 147.999l6 -5c-58 -74.667 -105 -129.667 -141 -165
c-69.333 -67.333 -128.666 -101 -177.999 -101c-18 0 -33.833 5.66699 -47.5 17s-20.5 25.666 -20.5 42.999c0 25.333 20.667 73 62 143c4.66699 8 34.667 55.333 90 142zM290 568.003c17.333 0 26.001 -11.3311 26.001 -33.998s-18.5 -51.334 -55.5 -86.001
s-66.5 -51.334 -88.5 -50.001l-8 7c13.333 11.333 30.666 27.333 51.999 48l32 67c15.333 32 29.333 48 42 48z" />
    <glyph glyph-name="icircumflex" unicode="&#xee;" horiz-adv-x="256" 
d="M110 335l96 5.00293c-62.667 -94 -95.667 -144 -99 -150c-46.667 -74.667 -70 -125.334 -70 -152.001c0 -19.333 8 -29 24 -29c31.333 0 80.666 34.667 147.999 104c26 27.333 69.333 76.666 130 147.999l6 -5c-58 -74.667 -105 -129.667 -141 -165
c-69.333 -67.333 -128.666 -101 -177.999 -101c-18 0 -33.833 5.66699 -47.5 17s-20.5 25.666 -20.5 42.999c0 25.333 20.667 73 62 143c4.66699 8 34.667 55.333 90 142zM234 571.003c11.333 -46 38.666 -100.665 81.999 -163.998v-5l-4 -4
c-9.33301 1.33301 -26.333 15.666 -51 42.999c-20.667 22 -35.667 40.333 -45 55l-72 -53c-38 -26 -62.333 -39 -73 -39l-5 6l3 4c66.667 51.333 117.334 103.666 152.001 156.999h13z" />
    <glyph glyph-name="idieresis" unicode="&#xef;" horiz-adv-x="256" 
d="M110 335l96 5.00293c-62.667 -94 -95.667 -144 -99 -150c-46.667 -74.667 -70 -125.334 -70 -152.001c0 -19.333 8 -29 24 -29c31.333 0 80.666 34.667 147.999 104c26 27.333 69.333 76.666 130 147.999l6 -5c-58 -74.667 -105 -129.667 -141 -165
c-69.333 -67.333 -128.666 -101 -177.999 -101c-18 0 -33.833 5.66699 -47.5 17s-20.5 25.666 -20.5 42.999c0 25.333 20.667 73 62 143c4.66699 8 34.667 55.333 90 142zM139 442.003c0 -12.667 -4.16797 -23.167 -12.501 -31.5s-18.833 -12.5 -31.5 -12.5
s-23.167 4.16699 -31.5 12.5s-12.5 18.833 -12.5 31.5c0 12 4.33301 22 13 30s19.334 12 32.001 12c12 0 22.167 -4 30.5 -12s12.5 -18 12.5 -30zM310.999 442.003c0 -12.667 -4.16797 -23.167 -12.501 -31.5s-18.833 -12.5 -31.5 -12.5s-23.167 4.16699 -31.5 12.5
s-12.5 18.833 -12.5 31.5c0 12 4.33301 22 13 30s19.334 12 32.001 12c12 0 22.167 -4 30.5 -12s12.5 -18 12.5 -30z" />
    <glyph glyph-name="ntilde" unicode="&#xf1;" horiz-adv-x="464" 
d="M331 351c15.333 0 29.5 -6.83105 42.5 -20.498s19.5 -28.167 19.5 -43.5c0 -32 -23.667 -77 -71 -135s-71 -97.333 -71 -118c0 -6.66699 2.83301 -12.334 8.5 -17.001s11.834 -7 18.501 -7c27.333 0 73 34 137 102c40.667 43.333 80.667 90.666 120 141.999l8 -4
c-34.667 -54 -78 -106.667 -130 -158c-68 -67.333 -123 -101 -165 -101c-18.667 0 -34.834 6.16699 -48.501 18.5s-20.5 27.5 -20.5 45.5c0 33.333 23.167 79.5 69.5 138.5s69.5 96.833 69.5 113.5c0 15.333 -9 23 -27 23c-34.667 0 -88.667 -46 -162 -138
c-57.333 -73.333 -100.333 -137.333 -129 -192h-98l209 340l110 4l-134 -175l8 -3c44 57.333 78 97.333 102 120c46 43.333 90.667 65 134 65zM386 454.002c23.333 0 43.0039 15.667 59.0039 47h16c-16.667 -60 -44.667 -90 -84 -90c-16.667 0 -39.334 5.83301 -68.001 17.5
s-49.667 17.5 -63 17.5c-27.333 0 -48.333 -16 -63 -48h-13c13.333 62.667 39.666 94 78.999 94c19.333 0 44.166 -6.33301 74.499 -19s51.166 -19 62.499 -19z" />
    <glyph glyph-name="ograve" unicode="&#xf2;" horiz-adv-x="456" 
d="M540 250c-38.667 -41.333 -76.332 -61.999 -112.999 -61.999c-26 0 -47.333 11.667 -64 35c-21.333 -66.667 -54.333 -121.667 -99 -165c-50.667 -48.667 -108.334 -73 -173.001 -73c-36.667 0 -66.334 8.33301 -89.001 25c-26 19.333 -39 46.666 -39 81.999
c0 68.667 29.333 130.167 88 184.5s122.667 81.5 192 81.5c44.667 0 76.667 -14 96 -42l33 -77c12 -28 31.667 -42 59 -42c26.667 0 60.334 19.667 101.001 59zM80.002 -3.99902c46 0 92.333 39.333 139 118c42.667 72.667 64 134 64 184c0 34 -13.333 51 -40 51
c-44.667 0 -90 -39.667 -136 -119c-42.667 -73.333 -64 -134.333 -64 -183c0 -34 12.333 -51 37 -51zM263.002 398.001c-26 1.33301 -56.333 18.668 -91 52.001s-52 62.666 -52 87.999c0 20 9.33301 30 28 30c10.667 0 23.667 -16.667 39 -50c19.333 -41.333 30 -63 32 -65
c16.667 -14 34 -30 52 -48z" />
    <glyph glyph-name="oacute" unicode="&#xf3;" horiz-adv-x="456" 
d="M540 250c-38.667 -41.333 -76.332 -61.999 -112.999 -61.999c-26 0 -47.333 11.667 -64 35c-21.333 -66.667 -54.333 -121.667 -99 -165c-50.667 -48.667 -108.334 -73 -173.001 -73c-36.667 0 -66.334 8.33301 -89.001 25c-26 19.333 -39 46.666 -39 81.999
c0 68.667 29.333 130.167 88 184.5s122.667 81.5 192 81.5c44.667 0 76.667 -14 96 -42l33 -77c12 -28 31.667 -42 59 -42c26.667 0 60.334 19.667 101.001 59zM80.002 -3.99902c46 0 92.333 39.333 139 118c42.667 72.667 64 134 64 184c0 34 -13.333 51 -40 51
c-44.667 0 -90 -39.667 -136 -119c-42.667 -73.333 -64 -134.333 -64 -183c0 -34 12.333 -51 37 -51zM361.002 568.001c17.333 0 25.999 -10 25.999 -30c0 -24 -18.167 -53.667 -54.5 -89s-66.166 -52.333 -89.499 -51l-7 6c12.667 10.667 30 27 52 49
c1.33301 1.33301 12 23.333 32 66c15.333 32.667 29 49 41 49z" />
    <glyph glyph-name="ocircumflex" unicode="&#xf4;" horiz-adv-x="456" 
d="M540 250c-38.667 -41.333 -76.332 -61.999 -112.999 -61.999c-26 0 -47.333 11.667 -64 35c-21.333 -66.667 -54.333 -121.667 -99 -165c-50.667 -48.667 -108.334 -73 -173.001 -73c-36.667 0 -66.334 8.33301 -89.001 25c-26 19.333 -39 46.666 -39 81.999
c0 68.667 29.333 130.167 88 184.5s122.667 81.5 192 81.5c44.667 0 76.667 -14 96 -42l33 -77c12 -28 31.667 -42 59 -42c26.667 0 60.334 19.667 101.001 59zM80.002 -3.99902c46 0 92.333 39.333 139 118c42.667 72.667 64 134 64 184c0 34 -13.333 51 -40 51
c-44.667 0 -90 -39.667 -136 -119c-42.667 -73.333 -64 -134.333 -64 -183c0 -34 12.333 -51 37 -51zM297.002 571.001c10 -45.333 37.333 -99.999 82 -163.999v-2c0 -4.66699 -1.66699 -7 -5 -7c-8 0 -24.667 14.333 -50 43c-20.667 22 -36 40.333 -46 55l-72 -53
c-37.333 -26.667 -61.333 -39.667 -72 -39l-5 6l2 4c66 51.333 117 103.666 153 156.999h13z" />
    <glyph glyph-name="otilde" unicode="&#xf5;" horiz-adv-x="456" 
d="M540 250c-38.667 -41.333 -76.332 -61.999 -112.999 -61.999c-26 0 -47.333 11.667 -64 35c-21.333 -66.667 -54.333 -121.667 -99 -165c-50.667 -48.667 -108.334 -73 -173.001 -73c-36.667 0 -66.334 8.33301 -89.001 25c-26 19.333 -39 46.666 -39 81.999
c0 68.667 29.333 130.167 88 184.5s122.667 81.5 192 81.5c44.667 0 76.667 -14 96 -42l33 -77c12 -28 31.667 -42 59 -42c26.667 0 60.334 19.667 101.001 59zM80.002 -3.99902c46 0 92.333 39.333 139 118c42.667 72.667 64 134 64 184c0 34 -13.333 51 -40 51
c-44.667 0 -90 -39.667 -136 -119c-42.667 -73.333 -64 -134.333 -64 -183c0 -34 12.333 -51 37 -51zM348.002 454.001c23.333 0 42.6699 15.667 58.0029 47h17c-16.667 -60 -44.667 -90 -84 -90c-17.333 0 -40.333 5.83301 -69 17.5s-49.334 17.5 -62.001 17.5
c-26.667 0 -47.667 -16 -63 -48h-12c13.333 63.333 39.666 95 78.999 95c18.667 0 43.167 -6.5 73.5 -19.5s51.166 -19.5 62.499 -19.5z" />
    <glyph glyph-name="odieresis" unicode="&#xf6;" horiz-adv-x="456" 
d="M540 250c-38.667 -41.333 -76.332 -61.999 -112.999 -61.999c-26 0 -47.333 11.667 -64 35c-21.333 -66.667 -54.333 -121.667 -99 -165c-50.667 -48.667 -108.334 -73 -173.001 -73c-36.667 0 -66.334 8.33301 -89.001 25c-26 19.333 -39 46.666 -39 81.999
c0 68.667 29.333 130.167 88 184.5s122.667 81.5 192 81.5c44.667 0 76.667 -14 96 -42l33 -77c12 -28 31.667 -42 59 -42c26.667 0 60.334 19.667 101.001 59zM80.002 -3.99902c46 0 92.333 39.333 139 118c42.667 72.667 64 134 64 184c0 34 -13.333 51 -40 51
c-44.667 0 -90 -39.667 -136 -119c-42.667 -73.333 -64 -134.333 -64 -183c0 -34 12.333 -51 37 -51zM200.002 442.001c0 -12.667 -4.16699 -23.167 -12.5 -31.5s-18.833 -12.5 -31.5 -12.5c-12 0 -22 4.16699 -30 12.5s-12 18.833 -12 31.5c0 12 4 22 12 30
s18.333 12 31 12c12 0 22.167 -4 30.5 -12s12.5 -18 12.5 -30zM372.002 442.001c0 -12.667 -4.16699 -23.167 -12.5 -31.5s-18.833 -12.5 -31.5 -12.5c-12 0 -22 4.16699 -30 12.5s-12 18.833 -12 31.5c0 12 4 22 12 30s18.333 12 31 12c12 0 22.167 -4 30.5 -12
s12.5 -18 12.5 -30z" />
    <glyph glyph-name="divide" unicode="&#xf7;" horiz-adv-x="343" 
d="M459 601l-463 -593h-35l465 593h33z" />
    <glyph glyph-name="oslash" unicode="&#xf8;" horiz-adv-x="456" 
d="M259 346c-4.66699 2 -10.333 3.00098 -17 3.00098c-44 0 -89 -40 -135 -120c-42.667 -72.667 -64 -133.334 -64 -182.001c0 -16 3.33301 -28.333 10 -37zM68.001 -1.99902c5.33301 -1.33301 9.33301 -2 12 -2c45.333 0 91.333 39.333 138 118
c43.333 72 65 132.667 65 182c0 16 -3.66699 29 -11 39zM430.001 197.001c27.333 0 61.335 19.666 102.002 58.999l8 -6c-37.333 -41.333 -75 -62 -113 -62c-26 0 -47.333 11.667 -64 35c-20.667 -65.333 -53.667 -120 -99 -164c-50.667 -49.333 -107.334 -74 -170.001 -74
c-11.333 0 -22.666 0.666992 -33.999 2l-46 -77l-16 10l44 71c-52.667 14 -79 47.667 -79 101c0 66.667 28.833 127.667 86.5 183s120.167 83 187.5 83c9.33301 0 18.666 -0.666992 27.999 -2l41 68l14 -10l-37 -61c29.333 -7.33301 51 -24.666 65 -51.999
c8.66699 -23.333 18.167 -46.5 28.5 -69.5s28.166 -34.5 53.499 -34.5z" />
    <glyph glyph-name="ugrave" unicode="&#xf9;" horiz-adv-x="485" 
d="M221 124c-65.333 -89.333 -131.332 -134.001 -197.999 -134.001c-16.667 0 -31 6.16699 -43 18.5s-18 26.833 -18 43.5c0 29.333 20 78.333 60 147l89 144h102c-56.667 -83.333 -90 -133 -100 -149c-48 -76 -72 -126 -72 -150c0 -18.667 10.333 -28 31 -28
c61.333 0 153.666 107.667 276.999 323l98 5l-95 -146c-53.333 -87.333 -80 -142 -80 -164c0 -15.333 7.66699 -23 23 -23c40 0 130.333 83.333 271 250l8 -5c-139.333 -176.667 -245 -265 -317 -265c-36 0 -54 19.667 -54 59c0 20.667 6 45.334 18 74.001zM291.001 397.999
c-25.333 1.33301 -55.333 18.668 -90 52.001s-52 62.666 -52 87.999c0 20 9.33301 30 28 30c9.33301 0 22 -16.667 38 -50c20 -41.333 31 -63 33 -65c14.667 -12 31.667 -28 51 -48z" />
    <glyph glyph-name="uacute" unicode="&#xfa;" horiz-adv-x="485" 
d="M221 124c-65.333 -89.333 -131.332 -134.001 -197.999 -134.001c-16.667 0 -31 6.16699 -43 18.5s-18 26.833 -18 43.5c0 29.333 20 78.333 60 147l89 144h102c-56.667 -83.333 -90 -133 -100 -149c-48 -76 -72 -126 -72 -150c0 -18.667 10.333 -28 31 -28
c61.333 0 153.666 107.667 276.999 323l98 5l-95 -146c-53.333 -87.333 -80 -142 -80 -164c0 -15.333 7.66699 -23 23 -23c40 0 130.333 83.333 271 250l8 -5c-139.333 -176.667 -245 -265 -317 -265c-36 0 -54 19.667 -54 59c0 20.667 6 45.334 18 74.001zM409.001 567.999
c16.667 0 25 -9.33301 25 -28c0 -25.333 -17.667 -55.5 -53 -90.5s-65.333 -52.167 -90 -51.5l-7 7c13.333 11.333 30.333 27.333 51 48l32 67c16 32 30 48 42 48z" />
    <glyph glyph-name="ucircumflex" unicode="&#xfb;" horiz-adv-x="485" 
d="M221 124c-65.333 -89.333 -131.332 -134.001 -197.999 -134.001c-16.667 0 -31 6.16699 -43 18.5s-18 26.833 -18 43.5c0 29.333 20 78.333 60 147l89 144h102c-56.667 -83.333 -90 -133 -100 -149c-48 -76 -72 -126 -72 -150c0 -18.667 10.333 -28 31 -28
c61.333 0 153.666 107.667 276.999 323l98 5l-95 -146c-53.333 -87.333 -80 -142 -80 -164c0 -15.333 7.66699 -23 23 -23c40 0 130.333 83.333 271 250l8 -5c-139.333 -176.667 -245 -265 -317 -265c-36 0 -54 19.667 -54 59c0 20.667 6 45.334 18 74.001zM354.001 570.999
c10 -44 37.001 -98.667 81.001 -164l1 -5l-5 -4c-9.33301 1.33301 -26.333 15.666 -51 42.999c-20 22 -35 40.333 -45 55c-82.667 -61.333 -131.334 -91.666 -146.001 -90.999l-4 5c1.33301 4.66699 9 12.667 23 24c10 6.66699 19.667 13.667 29 21
c39.333 33.333 74 72 104 116h13z" />
    <glyph glyph-name="udieresis" unicode="&#xfc;" horiz-adv-x="485" 
d="M221 124c-65.333 -89.333 -131.332 -134.001 -197.999 -134.001c-16.667 0 -31 6.16699 -43 18.5s-18 26.833 -18 43.5c0 29.333 20 78.333 60 147l89 144h102c-56.667 -83.333 -90 -133 -100 -149c-48 -76 -72 -126 -72 -150c0 -18.667 10.333 -28 31 -28
c61.333 0 153.666 107.667 276.999 323l98 5l-95 -146c-53.333 -87.333 -80 -142 -80 -164c0 -15.333 7.66699 -23 23 -23c40 0 130.333 83.333 271 250l8 -5c-139.333 -176.667 -245 -265 -317 -265c-36 0 -54 19.667 -54 59c0 20.667 6 45.334 18 74.001zM268.001 441.999
c0 -29.333 -15 -44 -45 -44c-12 0 -22 4.16699 -30 12.5s-12 18.833 -12 31.5c0 12 4 22 12 30s18.333 12 31 12c12 0 22.333 -4 31 -12s13 -18 13 -30zM440.001 441.999c0 -12.667 -4.16699 -23.167 -12.5 -31.5s-18.833 -12.5 -31.5 -12.5s-23 4.16699 -31 12.5
s-12 18.833 -12 31.5c0 28 14.667 42 44 42c12 0 22.167 -4 30.5 -12s12.5 -18 12.5 -30z" />
    <glyph glyph-name="ydieresis" unicode="&#xff;" horiz-adv-x="490" 
d="M-373 -179c0 38.667 14.3311 68 42.998 88c25.333 16.667 58.333 25 99 25c16 0 30.333 -1.33301 43 -4v-5c-67.333 2 -101 -31.333 -101 -100c0 -35.333 9.66699 -63 29 -83s46.666 -30 81.999 -30c58.667 0 116.334 26 173.001 78
c42.667 39.333 87.334 96.666 134.001 171.999l99 168l-6 2c-72.667 -92 -140 -138 -202 -138c-16.667 0 -31 6 -43 18s-18 26 -18 42c0 31.333 19.333 80.333 58 147l89 141l100 6l-97 -151c-47.333 -76.667 -71 -126 -71 -148c0 -18.667 9 -28 27 -28
c66 0 158.667 107 278 321h93l-199 -353c113.333 34.667 224.333 127 333 277l4 -6c-45.333 -67.333 -94.666 -125 -147.999 -173c-66 -59.333 -131.333 -96 -196 -110l-48 -71c-41.333 -61.333 -96 -110.666 -164 -147.999s-138.667 -56 -212 -56
c-44.667 0 -83.667 8.66699 -117 26c-41.333 21.333 -62 52.333 -62 93zM255.998 442c0 -12.667 -4.16699 -23.167 -12.5 -31.5s-18.833 -12.5 -31.5 -12.5s-23 4.16699 -31 12.5s-12 18.833 -12 31.5c0 28 14.667 42 44 42c12 0 22.167 -4 30.5 -12s12.5 -18 12.5 -30z
M427.998 442c0 -12.667 -4.16699 -23.167 -12.5 -31.5s-18.833 -12.5 -31.5 -12.5c-12 0 -22 4.16699 -30 12.5s-12 18.833 -12 31.5c0 12 4 22 12 30s18.333 12 31 12c12 0 22.167 -4 30.5 -12s12.5 -18 12.5 -30z" />
    <glyph glyph-name="dotlessi" unicode="&#x131;" horiz-adv-x="256" 
d="M110 335l96 5.00293c-62.667 -94 -95.667 -144 -99 -150c-46.667 -74.667 -70 -125.334 -70 -152.001c0 -19.333 8 -29 24 -29c31.333 0 80.666 34.667 147.999 104c26 27.333 69.333 76.666 130 147.999l6 -5c-58 -74.667 -105 -129.667 -141 -165
c-69.333 -67.333 -128.666 -101 -177.999 -101c-18 0 -33.833 5.66699 -47.5 17s-20.5 25.666 -20.5 42.999c0 25.333 20.667 73 62 143c4.66699 8 34.667 55.333 90 142z" />
    <glyph glyph-name="OE" unicode="&#x152;" horiz-adv-x="1153" 
d="M1154 600c0 -48 -20.667 -84.666 -62 -109.999c-34.667 -21.333 -77.667 -32 -129 -32c-20.667 0 -40 2.33301 -58 7l3 8c18.667 -3.33301 35.667 -5 51 -5c40.667 0 71.5 12 92.5 36s31.5 56.333 31.5 97c0 28.667 -8.33301 51.5 -25 68.5s-39.334 25.5 -68.001 25.5
c-48.667 0 -84 -18 -106 -54c-10 -16 -23 -55.333 -39 -118c-14 -53.333 -32.333 -91 -55 -113c-23.333 -66.667 -52 -123.667 -86 -171c-28.667 -40 -72 -87.333 -130 -142c39.333 -65.333 96.333 -98 171 -98c54 0 100 15.667 138 47c40.667 34 61 77.333 61 130
c0 28 -8.5 49.667 -25.5 65s-39.5 23 -67.5 23c-20 0 -40.333 -7.33301 -61 -22c-9.33301 -6.66699 -25.666 -21.334 -48.999 -44.001l-7 5c42 53.333 93 80 153 80c34 0 63.333 -8.33301 88 -25c28.667 -18.667 43 -44.334 43 -77.001c0 -66 -39 -116.667 -117 -152
c-60.667 -27.333 -128.667 -41 -204 -41c-72.667 0 -136.334 21.333 -191.001 64c-49.333 -40.667 -107.333 -61 -174 -61c-51.333 0 -90.666 16.667 -117.999 50c-25.333 30.667 -38 72.334 -38 125.001c0 118 47.667 227.667 143 329c35.333 37.333 74.333 70 117 98
c54 35.333 100.333 53 139 53c64.667 0 97 -32.667 97 -98v-14h-10c0 34 -5 59 -15 75c-13.333 19.333 -36.333 29 -69 29c-54 0 -106.667 -29 -158 -87c-44 -49.333 -80.667 -112.333 -110 -189c-28 -71.333 -42 -133 -42 -185c0 -110.667 37 -166 111 -166
c40 0 79.667 16.667 119 50c-20.667 22 -31 52.333 -31 91c0 44 18.333 84 55 120c24 24 61.333 49.667 112 77l63 31c17.333 9.33301 29.333 20 36 32c8.66699 14.667 15 37.667 19 69c1.33301 10.667 2 24 2 40c0 56.667 -14.667 102.334 -44 137.001
c-32 36 -76 54 -132 54c-68.667 0 -143.667 -39.333 -225 -118l-5 5c78 85.333 162.667 128 254 128c93.333 0 156 -40.333 188 -121c66 64.667 137.333 97 214 97c37.333 0 70 -7.66699 98 -23c34.667 -18.667 52 -45.334 52 -80.001zM570 112.001
c76.667 78.667 131.667 170.334 165 275.001c-58.667 -29.333 -99.667 -56 -123 -80c-33.333 -34.667 -50 -79.334 -50 -134.001c0 -24 2.66699 -44.333 8 -61z" />
    <glyph glyph-name="oe" unicode="&#x153;" horiz-adv-x="673" 
d="M99 -2c44.667 0 90.335 40 137.002 120c43.333 73.333 65 134.333 65 183c0 12.667 -3.83301 24.167 -11.5 34.5s-17.834 15.5 -30.501 15.5c-44.667 0 -90.334 -40 -137.001 -120c-42.667 -72.667 -64 -133.667 -64 -183c0 -12 3.83301 -23.333 11.5 -34
s17.5 -16 29.5 -16zM549.001 323c0 17.333 -7.33301 26 -22 26c-35.333 0 -71.666 -23.333 -108.999 -70c-30.667 -39.333 -52.334 -79 -65.001 -119c47.333 12.667 89 31 125 55c47.333 32.667 71 68.667 71 108zM744.001 258l10.001 -0.999023
c-66.667 -84 -120.667 -143.333 -162 -178c-71.333 -60.667 -142.666 -91 -213.999 -91c-44.667 0 -83.667 20.333 -117 61c-58.667 -39.333 -115 -59 -169 -59c-32.667 0 -60 10 -82 30s-33 46 -33 78c0 65.333 30.667 125.666 92 180.999s125 83 191 83
c42.667 0 81.334 -20.333 116.001 -61c61.333 38 116.666 57 165.999 57c21.333 0 39.666 -4.66699 54.999 -14c18.667 -10.667 28 -26 28 -46c0 -37.333 -37.667 -70.666 -113 -99.999c-8.66699 -3.33301 -63.334 -20 -164.001 -50c-2.66699 -13.333 -4 -28.333 -4 -45
c0 -24.667 8.66699 -44.5 26 -59.5s38.333 -22.5 63 -22.5c54 0 112.333 28.667 175 86c28 25.333 73.333 75.666 136 150.999z" />
    <glyph glyph-name="Ydieresis" unicode="&#x178;" horiz-adv-x="931" 
d="M1083 667l-449 -698.998c-114.667 -178 -248.334 -267 -401.001 -267c-52 0 -95.333 8 -130 24c-47.333 21.333 -71 54.666 -71 99.999c0 35.333 11.333 64 34 86s51.667 33 87 33c30.667 0 63.334 -9.33301 98.001 -28v-8c-18.667 6.66699 -34 10 -46 10
c-60.667 0 -91 -32.333 -91 -97c0 -32.667 11.167 -59.167 33.5 -79.5s49.833 -30.5 82.5 -30.5c56.667 0 111 23.333 163 70c33.333 30.667 71.666 78 114.999 142l187 277l-6 3c-38 -51.333 -84.333 -97.333 -139 -138c-66 -50 -124.667 -75 -176 -75
c-50.667 0 -76 21.667 -76 65s26.333 106.666 79 189.999l146 215c52.667 80.667 79 139.334 79 176.001c0 16 -6 28.667 -18 38s-26 14 -42 14c-59.333 0 -120.333 -27.667 -183 -83c-64 -57.333 -96 -115.333 -96 -174c0 -19.333 7.16699 -36.166 21.5 -50.499
s30.833 -21.5 49.5 -21.5c30.667 0 69.334 23.333 116.001 70l8 -5c-48.667 -54.667 -98.334 -82 -149.001 -82c-24.667 0 -46 7.83301 -64 23.5s-27 35.5 -27 59.5c0 73.333 40.667 138.666 122 195.999c74.667 52.667 150.334 79 227.001 79c30.667 0 56.667 -6 78 -18
c26 -14.667 39 -36.334 39 -65.001c0 -38.667 -26.333 -99.334 -79 -182.001l-145 -216c-52.667 -79.333 -79 -135.333 -79 -168c0 -10.667 3.83301 -19.5 11.5 -26.5s16.834 -10.5 27.501 -10.5c43.333 0 100.666 33.667 171.999 101
c58 54.667 103.667 108.334 137 161.001l249 391h105zM964 919.002c16.667 0 24.9971 -9.99805 24.9971 -29.998c0 -26 -18.167 -56.333 -54.5 -91s-67.166 -51.334 -92.499 -50.001l-3 6c0.666992 3.33301 8.83398 11.333 24.501 24s24.834 21 27.501 25
c1.33301 1.33301 12 23.666 32 66.999c15.333 32.667 29 49 41 49z" />
    <glyph glyph-name="florin" unicode="&#x192;" horiz-adv-x="587" 
d="M544 668c-30.667 0 -65.3311 -47.6641 -103.998 -142.997c-10 -25.333 -31.333 -88.333 -64 -189h145l-6 -18h-146l-65 -204c-37.333 -106.667 -76 -190 -116 -250c-54.667 -81.333 -112.667 -122 -174 -122c-24 0 -45.667 7.33301 -65 22
c-21.333 15.333 -32 34.666 -32 57.999c0 44 31.667 65.333 95 64c-8.66699 -24.667 -13 -48.334 -13 -71.001c0 -12.667 3.33301 -24.334 10 -35.001c7.33301 -13.333 16.666 -20 27.999 -20c34.667 0 67 43.667 97 131l146 427h-144l6 18h146
c90.667 232.667 181 349 271 349c25.333 0 47.666 -5.33301 66.999 -16c22.667 -13.333 34 -32 34 -56c0 -42.667 -29.667 -66 -89 -70c10 34 15 58.333 15 73c0 12 -4 23.667 -12 35s-18 17 -30 17z" />
    <glyph glyph-name="circumflex" unicode="&#x2c6;" horiz-adv-x="306" 
d="M207 921c10 -43.333 36.999 -97.999 80.999 -163.999l1 -6l-5 -3c-9.33301 1.33301 -26.333 15.666 -51 42.999c-19.333 20.667 -34.333 39 -45 55c-79.333 -62 -127.333 -93 -144 -93l-5 6l3 5c64.667 50 115.334 102.333 152.001 157h13z" />
    <glyph glyph-name="caron" unicode="&#x2c7;" horiz-adv-x="306" 
d="M234 398c-10.667 46.667 -37.668 101.333 -81.001 164v2c0 4.66699 1.66699 7 5 7c8 0 24.667 -14 50 -42c21.333 -24 36.333 -43 45 -57c82.667 62.667 131.334 94 146.001 94l5 -6l-3 -6c-63.333 -46 -114 -98 -152 -156h-15z" />
    <glyph glyph-name="macron" unicode="&#x2c9;" horiz-adv-x="316" 
d="M217 441v-44h-256v44h256z" />
    <glyph glyph-name="breve" unicode="&#x2d8;" horiz-adv-x="327" 
d="M-23 522c10.667 -28 21.332 -47.001 31.999 -57.001c13.333 -12 33.666 -18 60.999 -18c35.333 0 85.333 23.667 150 71l9 -4c-15.333 -27.333 -38.666 -52.666 -69.999 -75.999c-35.333 -26.667 -66.666 -40 -93.999 -40c-32 0 -57 10.667 -75 32s-27 48.333 -27 81v8z
" />
    <glyph glyph-name="ring" unicode="&#x2da;" horiz-adv-x="380" 
d="M278 486c0 -24.667 -8.33203 -45.5 -24.999 -62.5s-37.334 -25.5 -62.001 -25.5c-24 0 -44.5 8.16699 -61.5 24.5s-25.5 36.5 -25.5 60.5s8 44.5 24 61.5s36 25.5 60 25.5s45 -8 63 -24s27 -36 27 -60zM137.001 483c0 -14.667 5.16895 -26.834 15.502 -36.501
s22.833 -14.5 37.5 -14.5c15.333 0 28.166 4.83301 38.499 14.5s15.5 21.834 15.5 36.501s-5.16699 27.5 -15.5 38.5s-22.833 16.5 -37.5 16.5s-27.334 -5.33301 -38.001 -16s-16 -23.667 -16 -39z" />
    <glyph glyph-name="tilde" unicode="&#x2dc;" horiz-adv-x="351" 
d="M264 804c24 0 44.001 15.667 60.001 47h16c-16.667 -60.667 -44.334 -91 -83.001 -91c-18 0 -41.5 6 -70.5 18s-49.833 18 -62.5 18c-25.333 0 -46.333 -16 -63 -48h-12c13.333 62.667 40 94 80 94c18.667 0 43 -6.33301 73 -19s50.667 -19 62 -19z" />
    <glyph glyph-name="endash" unicode="&#x2013;" horiz-adv-x="721" 
d="M720 243l-39 -56h-612l39 56h612z" />
    <glyph glyph-name="emdash" unicode="&#x2014;" horiz-adv-x="918" 
d="M919 243l-38 -56h-812l39 56h811z" />
    <glyph glyph-name="quoteleft" unicode="&#x2018;" horiz-adv-x="278" 
d="M426 665c-49.333 -11.333 -86.001 -24.002 -110.001 -38.002c-37.333 -22.667 -58.333 -53.667 -63 -93l13 1c12.667 0.666992 23.834 -2.16602 33.501 -8.49902s14.5 -15.833 14.5 -28.5c0 -34 -17.667 -51 -53 -51c-14.667 0 -27.167 6.33301 -37.5 19
s-15.5 26.334 -15.5 41.001c0 50 25.333 89.333 76 118c32 18 79.333 33.333 142 46v-6z" />
    <glyph glyph-name="quoteright" unicode="&#x2019;" horiz-adv-x="278" 
d="M142 456c114.667 24.667 172.667 68.6689 174 132.002c-5.33301 -1.33301 -10 -2 -14 -2c-30.667 0 -46 12 -46 36c0 34 17.667 51 53 51c14.667 0 27 -5.83301 37 -17.5s15 -24.834 15 -39.501c0 -50.667 -25 -90.334 -75 -119.001c-32 -18.667 -80 -34.667 -144 -48v7z
" />
    <glyph glyph-name="quotedblleft" unicode="&#x201c;" horiz-adv-x="443" 
d="M589 666c-49.333 -11.333 -86.333 -24.334 -111 -39.001c-37.333 -22.667 -58.333 -53.667 -63 -93c5.33301 1.33301 10 2 14 2c31.333 0 47 -12 47 -36c0 -34 -17.667 -51 -53 -51c-14.667 0 -27.167 6.16699 -37.5 18.5s-15.5 25.833 -15.5 40.5
c0 80.667 73 135.334 219 164.001v-6zM424 665.999c-114.667 -24.667 -172.332 -68.667 -172.999 -132c5.33301 1.33301 9.66602 2 12.999 2c31.333 0 47 -12 47 -36c0 -34 -18 -51 -54 -51c-14.667 0 -27 5.83301 -37 17.5s-15 24.834 -15 39.501
c0 81.333 73 136.666 219 165.999v-6z" />
    <glyph glyph-name="quotedblright" unicode="&#x201d;" horiz-adv-x="443" 
d="M138 456c50 11.333 86.999 24.333 110.999 39c36.667 22 57.334 53 62.001 93c-5.33301 -1.33301 -10 -2 -14 -2c-31.333 0 -47 12.333 -47 37c0 33.333 18 50 54 50c14.667 0 27.167 -6.16699 37.5 -18.5s15.5 -25.833 15.5 -40.5c0 -49.333 -25.333 -88.333 -76 -117
c-32 -18.667 -79.667 -34.667 -143 -48v7zM302.999 456c50 11.333 87.332 24.333 111.999 39c36.667 22 57.334 53 62.001 93c-5.33301 -1.33301 -10 -2 -14 -2c-31.333 0 -47 12.333 -47 37c0 33.333 17.667 50 53 50c14.667 0 27.167 -6.16699 37.5 -18.5
s15.5 -25.833 15.5 -40.5c0 -49.333 -25.333 -88.333 -76 -117c-32 -18.667 -79.667 -34.667 -143 -48v7z" />
    <glyph glyph-name="quotedblbase" unicode="&#x201e;" horiz-adv-x="481" 
d="M-70 -120c50 11.333 86.999 24.332 110.999 38.999c37.333 22 58 53 62 93c-5.33301 -1.33301 -10 -2 -14 -2c-31.333 0 -47 12.333 -47 37c0 34 17.667 51 53 51c14.667 0 27.334 -6.16699 38.001 -18.5s16 -25.833 16 -40.5c0 -81.333 -73 -136.666 -219 -165.999v7z
M94.999 -120.001c50 11.333 87 24.332 111 38.999c37.333 22.667 58 53.667 62 93c-4 -1.33301 -8.66699 -2 -14 -2c-30.667 0 -46 12 -46 36c0 34.667 17.667 52 53 52c14.667 0 27.167 -6.16699 37.5 -18.5s15.5 -26.166 15.5 -41.499c0 -80.667 -73 -135.667 -219 -165v7
z" />
    <glyph glyph-name="dagger" unicode="&#x2020;" horiz-adv-x="489" 
d="M571 490l-17.999 -31h-179l-332 -522h-51l289 522h-174l18 31h176l67 125c26.667 49.333 40 74.333 40 75c20 29.333 42 44 66 44c9.33301 0 18.166 -3 26.499 -9s12.5 -13.333 12.5 -22c0 -16.667 -38 -87.667 -114 -213h173z" />
    <glyph glyph-name="daggerdbl" unicode="&#x2021;" horiz-adv-x="219" 
d="M301 266l-4 11c-104 -126.667 -197.667 -217.667 -281 -273l7 -7c97.333 67.333 190 157 278 269z" />
    <glyph glyph-name="bullet" unicode="&#x2022;" horiz-adv-x="286" 
d="M221 289c0 -36 -18.332 -54.001 -54.999 -54.001c-12.667 0 -24.334 5.33301 -35.001 16s-16 22.334 -16 35.001c0 14 5.16699 26.5 15.5 37.5s22.5 16.5 36.5 16.5s26.5 -5 37.5 -15s16.5 -22 16.5 -36z" />
    <glyph glyph-name="ellipsis" unicode="&#x2026;" horiz-adv-x="402" 
d="M434 633l-173 -282l48 2l-2 -6l-111 -5l148 235l-138 -51v5c72.667 20.667 147.667 56 225 106z" />
    <glyph glyph-name="perthousand" unicode="&#x2030;" horiz-adv-x="1257" 
d="M215 -14l381.001 493.999l-4 2c-28.667 -25.333 -57.667 -38 -87 -38c-19.333 0 -41 11.333 -65 34c0 -58 -22.5 -110.5 -67.5 -157.5s-96.5 -70.5 -154.5 -70.5c-27.333 0 -50.666 8.83301 -69.999 26.5s-29 40.167 -29 67.5c0 54.667 22.333 103.334 67 146.001
s94.667 64 150 64c29.333 0 54.333 -8.66699 75 -26l44 -49c15.333 -16.667 32.333 -25 51 -25c23.333 0 46.666 9.66699 69.999 29c11.333 9.33301 28.666 27 51.999 53c17.333 19.333 29.333 29 36 29c10.667 0 16 -5.66699 16 -17c0 -14.667 -75 -112 -225 -292
l-236 -278zM805.001 202.999c0 -55.333 -23.833 -104.835 -71.5 -148.502s-99.167 -65.5 -154.5 -65.5c-28.667 0 -52 9.33301 -70 28s-27 42.334 -27 71.001c0 54 23 102 69 144c44 40.667 93.667 61 149 61c30 0 55 -7.66699 75 -23s30 -37.666 30 -66.999z
M211.001 257.997c37.333 0 75.668 32.333 115.001 97c36 60 54 110 54 150c0 28 -11 42 -33 42c-38 0 -77.333 -32.333 -118 -97c-38 -60 -57 -110.667 -57 -152c0 -11.333 3.66699 -20.833 11 -28.5s16.666 -11.5 27.999 -11.5zM574.003 -3.00293
c36 0 74.001 31.666 114.001 94.999c36.667 58.667 55 107.334 55 146.001c0 32 -10.333 48 -31 48c-38 0 -77.667 -32 -119 -96c-38.667 -59.333 -58 -109.333 -58 -150c0 -11.333 3.66699 -21.333 11 -30s16.666 -13 27.999 -13zM1144 201.996
c0 -55.333 -23.5 -104.667 -70.5 -148s-98.5 -65 -154.5 -65c-28.667 0 -52 9 -70 27s-27 41.333 -27 70c0 54 22.5 102 67.5 144s95.167 63 150.5 63c30 0 54.833 -7.66699 74.5 -23s29.5 -38 29.5 -68zM915.004 -3.00488c35.333 0 72.667 31.666 112 94.999
c36.667 58.667 55 107.334 55 146.001c0 32 -10 48 -30 48c-38 0 -77.667 -32 -119 -96c-38.667 -59.333 -58 -109.333 -58 -150c0 -11.333 3.83301 -21.333 11.5 -30s17.167 -13 28.5 -13z" />
    <glyph glyph-name="guilsinglleft" unicode="&#x2039;" horiz-adv-x="399" 
d="M335 324l-148 -161l58 -149l-7 -5l-133 155l225 164z" />
    <glyph glyph-name="guilsinglright" unicode="&#x203a;" horiz-adv-x="399" 
d="M294 173l-224 -165l-6 6l154 159l-58 151l8 6z" />
    <glyph glyph-name="trademark" unicode="&#x2122;" horiz-adv-x="715" 
d="M468 648c-56 2 -84.333 3.00098 -85 3.00098c-128.667 0 -193 -24.667 -193 -74c0 -28.667 20.333 -43 61 -43c26 0 47.333 7.5 64 22.5s23.667 35.167 21 60.5h4v-16c0 -21.333 -9.16699 -40.5 -27.5 -57.5s-38.5 -25.5 -60.5 -25.5c-16 0 -30.667 4.33301 -44 13
c-15.333 10 -23 23 -23 39c0 67.333 74.333 101 223 101c92.667 0 140.667 -3.66699 144 -11l-1 -9c-6 -6 -15 -9 -27 -9c-4.66699 0 -11.667 0.666992 -21 2s-16.333 2 -21 2c-25.333 0 -51 -20.333 -77 -61l-72 -112c-32 -40.667 -68.667 -61 -110 -61
c-56.667 0 -85 16.333 -85 49c0 18 8.66699 27 26 27c10 0 15 -6 15 -18c0 -9.33301 -4 -15 -12 -17c2 -25.333 16.667 -38 44 -38c32 0 60.667 17 86 51l66 103c30 41.333 65 67.666 105 78.999zM760 682.001c-26.667 -7.33301 -50.332 -29.002 -70.999 -65.002l-44 -90
c-9.33301 -18.667 -32 -49.667 -68 -93c22.667 14 53 44 91 90c46 54.667 78 90 96 106c37.333 34 72.333 51 105 51c13.333 0 23.333 -0.666992 30 -2l5 -4c-2 -3.33301 -7.33301 -5 -16 -5c-7.33301 0 -16 1.66699 -26 5c-18.667 -4 -37.667 -24 -57 -60l-58 -108
c-27.333 -42 -59 -70.667 -95 -86c44 0 77.333 6.16699 100 18.5s44.667 37.166 66 74.499l4 -1c-19.333 -36 -41.666 -61.333 -66.999 -76s-58.333 -22 -99 -22c-30.667 0 -46.667 2.66699 -48 8l8 4l27 -5c17.333 6.66699 35.666 26.334 54.999 59.001l57 98
c27.333 40.667 57.666 72.334 90.999 95.001c-38.667 -10 -87.334 -49.667 -146.001 -119c-64.667 -76.667 -115 -124 -151 -142l-3 4c20.667 20.667 38.667 48.334 54 83.001c22 47.333 36.333 76 43 86c20 32.667 48 61 84 85c-32.667 -12.667 -69 -42 -109 -88l-97 -114
c-37.333 -37.333 -72.666 -56 -105.999 -56c-14 0 -25.667 3.33301 -35 10c-12 7.33301 -18 17.333 -18 30c0 19.333 8.33301 29 25 29c10.667 0 16 -5.33301 16 -16c0 -10 -5.66699 -16.333 -17 -19c1.33301 -20 13 -30 35 -30c31.333 0 65.333 20.333 102 61l101 121
c44 47.333 89.333 76.333 136 87v-4z" />
    <glyph glyph-name="partialdiff" unicode="&#x2202;" horiz-adv-x="852" 
d="M674 564l-468 -596h-31l466 596h33zM401 601l-185.999 -302.001l53 1l-2 -6l-119 -5l159 251c-46.667 -18 -96.334 -36 -149.001 -54v4c108 40.667 188.333 79.334 241 116.001zM732.001 359.999l-300 -241h145l111 180l62 7l-118 -187h67l-4 -10h-69l-63 -104l-63 -4
l71 108h-161l292 251h30z" />
    <glyph glyph-name="summation" unicode="&#x2211;" horiz-adv-x="852" 
d="M683 564l-468 -596h-31l466 596h33zM410 601l-187.001 -302l54 1l-2 -6l-119 -5l160 251l-151 -54v4c58.667 22 100.334 38.667 125.001 50c45.333 20.667 84 42.667 116 66zM455.999 44c26.667 8 46.6709 11.999 60.0039 11.999c10 0 25.333 -3.33301 46 -10
s36.334 -10 47.001 -10c35.333 0 65.333 24 90 72l4 -2c-38 -73.333 -81.333 -110 -130 -110c-16.667 0 -38.334 6.5 -65.001 19.5s-46.334 19.5 -59.001 19.5c-16 0 -28.5 -6.5 -37.5 -19.5s-16.5 -19.167 -22.5 -18.5l-5 7c6 16.667 34.333 36 85 58
c69.333 30.667 113.666 52.667 132.999 66c46 30.667 69 65.667 69 105c0 18.667 -5.5 35.167 -16.5 49.5s-25.5 21.5 -43.5 21.5c-19.333 0 -34.833 -6 -46.5 -18s-17.5 -27.667 -17.5 -47c0 -9.33301 3.16699 -18 9.5 -26s14.166 -12 23.499 -12s18.333 2 27 6
c-10.667 -26.667 -29 -40 -55 -40c-12 0 -22.5 4.83301 -31.5 14.5s-13.5 20.5 -13.5 32.5c0 28.667 13.333 53 40 73c25.333 18 52.666 27 81.999 27c26.667 0 49 -6 67 -18c20.667 -13.333 31 -32.666 31 -57.999c0 -34.667 -17 -64.667 -51 -90
c-22.667 -16.667 -59.667 -35 -111 -55c-58 -22 -94.667 -37.333 -110 -46z" />
    <glyph glyph-name="fraction" unicode="&#x2215;" horiz-adv-x="931" 
d="M1083 667l-449 -698.998c-114.667 -178 -248.334 -267 -401.001 -267c-52 0 -95.333 8 -130 24c-47.333 21.333 -71 54.666 -71 99.999c0 35.333 11.333 64 34 86s51.667 33 87 33c30.667 0 63.334 -9.33301 98.001 -28v-8c-18.667 6.66699 -34 10 -46 10
c-60.667 0 -91 -32.333 -91 -97c0 -32.667 11.167 -59.167 33.5 -79.5s49.833 -30.5 82.5 -30.5c56.667 0 111 23.333 163 70c33.333 30.667 71.666 78 114.999 142l187 277l-6 3c-38 -51.333 -84.333 -97.333 -139 -138c-66 -50 -124.667 -75 -176 -75
c-50.667 0 -76 21.667 -76 65s26.333 106.666 79 189.999l146 215c52.667 80.667 79 139.334 79 176.001c0 16 -6 28.667 -18 38s-26 14 -42 14c-59.333 0 -120.333 -27.667 -183 -83c-64 -57.333 -96 -115.333 -96 -174c0 -19.333 7.16699 -36.166 21.5 -50.499
s30.833 -21.5 49.5 -21.5c30.667 0 69.334 23.333 116.001 70l8 -5c-48.667 -54.667 -98.334 -82 -149.001 -82c-24.667 0 -46 7.83301 -64 23.5s-27 35.5 -27 59.5c0 73.333 40.667 138.666 122 195.999c74.667 52.667 150.334 79 227.001 79c30.667 0 56.667 -6 78 -18
c26 -14.667 39 -36.334 39 -65.001c0 -38.667 -26.333 -99.334 -79 -182.001l-145 -216c-52.667 -79.333 -79 -135.333 -79 -168c0 -10.667 3.83301 -19.5 11.5 -26.5s16.834 -10.5 27.501 -10.5c43.333 0 100.666 33.667 171.999 101
c58 54.667 103.667 108.334 137 161.001l249 391h105zM824 791.002c0 -12.667 -4.33203 -23 -12.999 -31s-19.334 -12 -32.001 -12c-12 0 -22.167 4 -30.5 12s-12.5 18.333 -12.5 31s4.16699 23 12.5 31s18.833 12 31.5 12s23.167 -4.16699 31.5 -12.5
s12.5 -18.5 12.5 -30.5zM996.001 791.002c0 -12.667 -4.33203 -23 -12.999 -31s-19.334 -12 -32.001 -12c-12 0 -22.167 4 -30.5 12s-12.5 18.333 -12.5 31s4.16699 23 12.5 31s18.833 12 31.5 12s23.167 -4.16699 31.5 -12.5s12.5 -18.5 12.5 -30.5z" />
    <glyph glyph-name="periodcentered" unicode="&#x2219;" horiz-adv-x="1000" 
 />
    <glyph glyph-name="radical" unicode="&#x221a;" horiz-adv-x="1000" 
 />
    <glyph glyph-name="infinity" unicode="&#x221e;" horiz-adv-x="490" 
d="M-373 -179c0 38.667 14.3311 68 42.998 88c25.333 16.667 58.333 25 99 25c16 0 30.333 -1.33301 43 -4v-5c-67.333 2 -101 -31.333 -101 -100c0 -35.333 9.66699 -63 29 -83s46.666 -30 81.999 -30c58.667 0 116.334 26 173.001 78
c42.667 39.333 87.334 96.666 134.001 171.999l99 168l-6 2c-72.667 -92 -140 -138 -202 -138c-16.667 0 -31 6 -43 18s-18 26 -18 42c0 31.333 19.333 80.333 58 147l89 141l100 6l-97 -151c-47.333 -76.667 -71 -126 -71 -148c0 -18.667 9 -28 27 -28
c66 0 158.667 107 278 321h93l-199 -353c113.333 34.667 224.333 127 333 277l4 -6c-45.333 -67.333 -94.666 -125 -147.999 -173c-66 -59.333 -131.333 -96 -196 -110l-48 -71c-41.333 -61.333 -96 -110.666 -164 -147.999s-138.667 -56 -212 -56
c-44.667 0 -83.667 8.66699 -117 26c-41.333 21.333 -62 52.333 -62 93zM406.998 568c17.333 0 25.999 -10 25.999 -30c0 -24 -18.167 -53.667 -54.5 -89s-66.166 -52.333 -89.499 -51l-7 7c13.333 10.667 30.333 26.667 51 48l32 66c16 32.667 30 49 42 49z" />
    <glyph glyph-name="integral" unicode="&#x222b;" horiz-adv-x="852" 
d="M745 564l-467 -595h-32l468 595h31zM768 360l-300 -241h146l110 180l63 7l-119 -187h67l-4 -10h-69l-63 -104l-63 -4l71 108h-161l292 251h30zM363 389c0 -36.667 -19 -64.334 -57 -83.001c-30 -15.333 -65.667 -23 -107 -23c-27.333 0 -51 5.33301 -71 16
c-26 14 -39 33.333 -39 58c0 18.667 5.33301 33.667 16 45s25 17 43 17c17.333 0 34 -7.33301 50 -22l-2 -6c-4.66699 2 -10 3 -16 3c-28 0 -42 -16.333 -42 -49c0 -16.667 7 -30.167 21 -40.5s29.667 -15.5 47 -15.5c29.333 0 53.5 10.167 72.5 30.5
s28.5 45.166 28.5 74.499c0 34 -20.333 51 -61 51c-8.66699 0 -18.334 -0.666992 -29.001 -2l2 8c46.667 4.66699 79 10.667 97 18c34.667 14.667 52 39.334 52 74.001c0 13.333 -4.33301 25.333 -13 36s-19.334 16 -32.001 16c-35.333 0 -53 -17.333 -53 -52
c0 -8 2.5 -15.333 7.5 -22s11.167 -10 18.5 -10c4.66699 0 12.334 2 23.001 6c-12.667 -24 -28.667 -36 -48 -36c-28.667 0 -43 13 -43 39c0 24.667 13 45 39 61c22.667 14 47.334 21 74.001 21c20 0 37.667 -4.66699 53 -14c17.333 -11.333 26 -26.333 26 -45
c0 -29.333 -16.667 -51.666 -50 -66.999c-14.667 -6.66699 -44.667 -14.667 -90 -24c55.333 -1.33301 83 -22.333 83 -63z" />
    <glyph glyph-name="notequal" unicode="&#x2260;" horiz-adv-x="852" 
d="M665 564l-468 -596h-30l465 596h33zM392 601l-186 -302l54 1l-3 -6l-119 -5l159 251c-55.333 -21.333 -105 -39.333 -149 -54v4c108 40 188.333 78.667 241 116zM690 105c0 -36 -19.6641 -63.667 -58.9971 -83c-30.667 -15.333 -66.334 -23 -107.001 -23
c-26.667 0 -50 5.66699 -70 17c-25.333 13.333 -38 32 -38 56c0 18 5 33 15 45s23.667 18 41 18c18 0 35.667 -7.33301 53 -22l-1 -6c-10 2 -15.333 3 -16 3c-13.333 0 -24 -4.83301 -32 -14.5s-12 -21.167 -12 -34.5c0 -16.667 7.33301 -30.667 22 -42
c12.667 -10 27.667 -15 45 -15c30.667 0 55.5 10.5 74.5 31.5s28.5 46.833 28.5 77.5c0 32.667 -21.667 49 -65 49c-8 0 -16.667 -0.666992 -26 -2l3 6c47.333 5.33301 79.666 11.666 96.999 18.999c34.667 14.667 52 39.334 52 74.001c0 12.667 -4.16699 24.5 -12.5 35.5
s-18.833 16.5 -31.5 16.5c-36.667 0 -55 -17.333 -55 -52c0 -7.33301 2.66699 -14.666 8 -21.999s11.666 -11 18.999 -11c6.66699 0 14 2.33301 22 7c-12.667 -24 -28 -36 -46 -36c-11.333 0 -21.5 3.66699 -30.5 11s-13.5 16.666 -13.5 27.999c0 24.667 13 45 39 61
c23.333 14 48 21 74 21c20 0 37.667 -4.66699 53 -14c17.333 -11.333 26 -26.333 26 -45c0 -29.333 -16.667 -52 -50 -68c-18.667 -8 -48.667 -15.667 -90 -23c55.333 0 83 -21 83 -63z" />
    <glyph glyph-name="lessequal" unicode="&#x2264;" horiz-adv-x="852" 
d="M741 565l-466 -596h-33l467 596h32zM774 279c0 19.333 -4.66602 36.998 -13.999 52.998c-10.667 18.667 -25 28 -43 28c-44.667 0 -67 -24.667 -67 -74c0 -21.333 9.5 -51.666 28.5 -90.999s28.5 -69.333 28.5 -90c0 -34 -12.5 -61.167 -37.5 -81.5
s-55.167 -30.5 -90.5 -30.5c-29.333 0 -54.333 9 -75 27s-31 41.667 -31 71c0 40.667 14.333 69.667 43 87c7.33301 4 39.333 15.333 96 34c-7.33301 18.667 -11 34.334 -11 47.001c0 30.667 11 56.167 33 76.5s48.667 30.5 80 30.5c27.333 0 50.666 -7 69.999 -21
c20.667 -16 31 -37 31 -63c0 -30.667 -11.167 -56 -33.5 -76s-48.833 -29.333 -79.5 -28l-1 2c48.667 11.333 73 44.333 73 99zM586.001 -1.00195c20.667 0 37.832 9 51.499 27s20.5 37.333 20.5 58c0 11.333 -14 52 -42 122c-66 -14.667 -99 -48.667 -99 -102
c0 -24.667 5.33301 -47 16 -67c12.667 -25.333 30.334 -38 53.001 -38zM427.999 596.998l3.00391 -3.00098c-34.667 -33.333 -66.667 -50 -96 -50c-20 0 -38.667 4.66699 -56 14l-81 -94c28.667 10.667 53.667 16 75 16c22.667 0 41.667 -5.66699 57 -17
c18 -12.667 27 -30 27 -52c0 -40.667 -17.667 -72.667 -53 -96c-30.667 -20.667 -67.334 -31 -110.001 -31c-26.667 0 -49.334 5.66699 -68.001 17c-23.333 13.333 -35 32.333 -35 57c0 18.667 5.33301 34 16 46s25 18 43 18c17.333 0 35.666 -9 54.999 -27l-2 -4
c-6 4 -13 6 -21 6c-28.667 0 -43 -16 -43 -48c0 -17.333 6.66699 -31.666 20 -42.999s29 -17 47 -17c27.333 0 50.666 13 69.999 39c18 23.333 27 49 27 77c0 43.333 -19.667 65 -59 65c-16 0 -37.667 -9 -65 -27l-6 5l133 155c22 -15.333 44.333 -23 67 -23
c16.667 0 35 5.66699 55 17z" />
    <glyph glyph-name="greaterequal" unicode="&#x2265;" horiz-adv-x="852" 
d="M733 564l-469 -596h-30l467 596h32zM719 105c0 -36 -19.665 -63.667 -58.998 -83c-30.667 -15.333 -66.334 -23 -107.001 -23c-26.667 0 -50 5.66699 -70 17c-25.333 13.333 -38 32 -38 56c0 18 5 33 15 45s24 18 42 18c17.333 0 34.666 -7.33301 51.999 -22l-2 -6
c-10 2 -15.333 3 -16 3c-12.667 0 -23 -4.83301 -31 -14.5s-12 -21.167 -12 -34.5c0 -16.667 7 -30.334 21 -41.001s29.667 -16 47 -16c29.333 0 53.666 10.333 72.999 31s29 45.667 29 75c0 34.667 -21 52 -63 52c-7.33301 0 -16.333 -0.666992 -27 -2l2 6
c47.333 5.33301 80 11.666 98 18.999c34 14.667 51 39.667 51 75c0 12.667 -4.16699 24.334 -12.5 35.001s-18.833 16 -31.5 16c-36 0 -54 -17.333 -54 -52c0 -7.33301 2.5 -14.666 7.5 -21.999s11.167 -11 18.5 -11c6 0 13.667 2.33301 23 7
c-12.667 -24 -28.667 -36 -48 -36c-28.667 0 -43 12.667 -43 38s13 46 39 62c22.667 14 47.334 21 74.001 21c20 0 37.667 -4.66699 53 -14c17.333 -11.333 26 -26.333 26 -45c0 -46 -46.333 -76.333 -139 -91c54.667 0 82 -21 82 -63zM112.002 328
c23.333 7.33301 40.333 10.999 51 10.999c12.667 0 31 -3.16699 55 -9.5s42.333 -9.5 55 -9.5c28 0 55.333 24.333 82 73l4 -3c-38 -72.667 -81.333 -109 -130 -109c-16.667 0 -38.667 6.33301 -66 19s-47.333 19 -60 19c-15.333 0 -27.333 -6.33301 -36 -19
s-16.334 -19 -23.001 -19l-5 7c0.666992 16.667 59.334 50.334 176.001 101.001c35.333 15.333 61 30.666 77 45.999c23.333 22 35 49 35 81c0 18.667 -5.5 35.334 -16.5 50.001s-25.833 22 -44.5 22c-42 0 -63 -21.667 -63 -65c0 -9.33301 3 -18 9 -26s13.667 -12 23 -12
s18.333 2 27 6c-10.667 -26.667 -29 -40 -55 -40c-12 0 -22.333 4.66699 -31 14s-13 20 -13 32c0 29.333 13.333 54 40 74c24.667 18.667 52 28 82 28c26 0 48 -6.33301 66 -19c20.667 -14 31 -33.333 31 -58c0 -32 -11.667 -58.667 -35 -80c-18 -16 -45 -31 -81 -45
l-86 -31c-14 -6 -37 -17.667 -69 -35z" />
    <glyph glyph-name="apple" unicode="&#xf000;" horiz-adv-x="1000" 
 />
    <glyph glyph-name="fi" unicode="&#xf001;" horiz-adv-x="544" 
d="M194 323l-193.999 -327.002c-58 -98 -115.667 -169 -173 -213c-71.333 -55.333 -157 -83 -257 -83c-49.333 0 -92 8.33301 -128 25c-46.667 22 -70 55 -70 99c0 78.667 61.333 118 184 118v-8c-66 -10 -99 -47 -99 -111c0 -34.667 11.167 -62 33.5 -82
s50.833 -30 85.5 -30c107.333 0 208.333 80 303 240l220 372h-94l9 16h94c69.333 110.667 119.666 183 150.999 217c70 76.667 144.667 115 224 115c28.667 0 53.667 -5.33301 75 -16c26.667 -13.333 40 -33 40 -59c0 -47.333 -31 -71 -93 -71h-8
c13.333 28.667 20 55.667 20 81c0 13.333 -4.16699 25.5 -12.5 36.5s-19.166 16.5 -32.499 16.5c-41.333 0 -92.333 -43.333 -153 -130c-16.667 -23.333 -55 -86.666 -115 -189.999c26.667 -0.666992 67 -1 121 -1c66 0 122.333 1.66699 169 5l-101 -151
c-47.333 -75.333 -71 -126.666 -71 -153.999c0 -19.333 8 -29 24 -29c30.667 0 80 35 148 105c26.667 28 69.667 77 129 147l7 -5c-61.333 -77.333 -108.333 -132.333 -141 -165c-68.667 -67.333 -128.334 -101 -179.001 -101c-18 0 -33.833 5.66699 -47.5 17
s-20.5 25.666 -20.5 42.999c0 24.667 19.667 70.334 59 137.001l86 136h-193z" />
    <glyph glyph-name="fl" unicode="&#xf002;" horiz-adv-x="549" 
d="M478 659c-43.333 0 -95.667 -43.333 -157 -130c-16 -22 -55 -85.333 -117 -190h194l79 124c34.667 58.667 52 103 52 133c0 16 -4.5 30.5 -13.5 43.5s-21.5 19.5 -37.5 19.5zM324.999 38c0 -19.333 8.66504 -28.999 25.998 -28.999c30 0 79 35 147 105
c26.667 27.333 69.667 76.333 129 147l7 -5c-59.333 -76 -106.333 -130.667 -141 -164c-69.333 -68 -128.666 -102 -177.999 -102c-18 0 -33.833 5.66699 -47.5 17s-20.5 25.666 -20.5 42.999c0 24 19.333 69.667 58 137l83 136h-194l-194 -327
c-58 -98 -115.667 -169 -173 -213c-71.333 -55.333 -157 -83 -257 -83c-49.333 0 -92 8.33301 -128 25c-46.667 22 -70 55 -70 99c0 80 61.333 119.333 184 118v-8c-66 -10 -99 -47 -99 -111c0 -34.667 11.167 -62 33.5 -82s50.833 -30 85.5 -30
c107.333 0 208.333 80 303 240l220 372h-94l9 16h94c68.667 109.333 119.667 182 153 218c71.333 76.667 147.333 115 228 115c36.667 0 66.334 -10.333 89.001 -31l121 29l-309 -492c-25.333 -40 -39 -62.333 -41 -67c-16 -28.667 -24 -53 -24 -73z" />
    <glyph glyph-name=".null" horiz-adv-x="0" 
 />
    <glyph glyph-name="nonmarkingreturn" horiz-adv-x="323" 
 />
    </font>
</defs>
</svg>
