<?xml version="1.0" standalone="no"?>
<!DOCTYPE svg PUBLIC "-//W3C//DTD SVG 1.1//EN" "http://www.w3.org/Graphics/SVG/1.1/DTD/svg11.dtd" >
<svg xmlns="http://www.w3.org/2000/svg" xmlns:xlink="http://www.w3.org/1999/xlink" version="1.1">
<metadata></metadata>
<defs>
<font id="kitten_swash_monolineregular" horiz-adv-x="4194" >
<font-face units-per-em="2048" ascent="1638" descent="-410" />
<missing-glyph horiz-adv-x="550" />
<glyph unicode="&#xfb03;" horiz-adv-x="1660" d="M-131.5 -344q8.5 98 41.5 240.5t87 315.5t122.5 349t146.5 342t157 295t156.5 207t143.5 78q29 0 57.5 -9t53.5 -32q12 -12 12 -31.5t-9.5 -35t-27.5 -21.5t-41 10q-27 16 -45 16q-51 0 -113.5 -71.5t-128 -188t-132 -268.5t-127 -311.5t-113 -315t-89 -283.5t-54 -213 t-11.5 -106q12 -37 49 -29.5t83 46t96 102t92 138.5t69 155t27 149q0 57 -17.5 126t-57.5 133.5t-106.5 117.5t-164.5 84q-20 6 -28.5 21.5t-5.5 32t16 29.5t32 13l887 54q25 0 37 -15.5t12 -35t-11.5 -36t-33.5 -16.5l-662 -45q55 -37 94 -93t64 -120.5t36 -129t11 -120.5 q0 -86 -32.5 -179t-85 -179t-118 -157.5t-130 -116t-123 -53.5t-97.5 32q-27 27 -18.5 125zM513 -296q5 91 35 222t79 290t111.5 320.5t135 313t148.5 269.5t150.5 189.5t140.5 71.5q29 0 57 -9t53 -32q12 -12 12.5 -31.5t-9 -35t-28 -21.5t-40.5 11q-27 16 -45 16 q-51 0 -110.5 -64.5t-121 -170t-123 -241.5t-117 -280.5t-102.5 -286t-78.5 -257t-47 -194.5t-9.5 -99q12 -37 54 -29t95.5 49t113 107.5t108.5 148.5t80.5 170t31.5 172q0 57 -16 119.5t-56 116t-107.5 93.5t-170.5 54q-35 4 -40 19.5t3.5 33t24.5 30.5t27 13q16 0 66 2 t118 7.5t145.5 10.5t149.5 10t130 11t87 11q51 8 68.5 -4.5t16.5 -32t-16.5 -38t-27.5 -20.5q-4 -2 -38 -5t-84 -7t-110.5 -9t-116 -9t-99.5 -8.5t-64 -4.5q111 -74 160 -176t49 -213q0 -92 -38 -192.5t-97.5 -194.5t-133 -173t-146.5 -128t-135.5 -61.5t-100.5 28.5 q-27 27 -22 118zM1239 195q0 102 48 256.5t153 359.5q8 18 29.5 25.5t40 1t27.5 -24.5t-7 -51q-98 -193 -143.5 -334t-45.5 -233q0 -115 56 -115q49 0 125 52t172 175q18 25 37.5 26t32 -12.5t11.5 -38t-22 -51.5q-106 -135 -195.5 -194.5t-160.5 -59.5q-72 0 -115 55.5 t-43 162.5zM1533 967.5q-9 15.5 3 36.5q25 45 45.5 78.5t48.5 78.5q14 23 35 28t39 -1t26.5 -22.5t-1.5 -37.5q-14 -23 -24.5 -39t-20 -31.5t-18.5 -31.5t-21 -39q-14 -29 -38 -37t-44.5 -3t-29.5 20.5z" />
<glyph horiz-adv-x="0" />
<glyph unicode="&#xd;" horiz-adv-x="550" />
<glyph horiz-adv-x="0" />
<glyph horiz-adv-x="0" />
<glyph unicode=" "  horiz-adv-x="550" />
<glyph unicode="&#x09;" horiz-adv-x="550" />
<glyph unicode="&#xa0;" horiz-adv-x="550" />
<glyph unicode="!" horiz-adv-x="493" d="M156 59q-2 31 17.5 53.5t51.5 24.5q31 2 53.5 -17.5t24.5 -51.5q2 -31 -19.5 -53.5t-52.5 -24.5t-52 17t-23 52zM260 395q66 227 133 434q29 88 62.5 181.5t68.5 180.5t72 164t74 132q10 16 29.5 17t35 -8t23.5 -26.5t-2 -35.5q-33 -53 -68 -126t-68.5 -158t-65.5 -175 t-60 -176q-69 -203 -132 -424q-2 -18 -19 -26.5t-36.5 -5.5t-35 15.5t-11.5 36.5z" />
<glyph unicode="&#x22;" horiz-adv-x="739" d="M324.5 952.5q-7.5 18.5 7.5 40.5q47 74 67.5 130.5t32.5 115.5q8 33 25.5 43t36 3t31 -25.5t7.5 -38.5q-16 -76 -44.5 -142.5t-71.5 -138.5q-12 -20 -31.5 -22.5t-36 7t-24 28zM587 952.5q-7 18.5 7 40.5q47 74 67.5 130.5t32.5 115.5q8 33 25.5 43t36 3t31 -25.5 t8.5 -38.5q-16 -76 -45 -142.5t-72 -138.5q-12 -20 -31.5 -22.5t-36 7t-23.5 28z" />
<glyph unicode="#" horiz-adv-x="1214" d="M120 312.5q-3 19.5 5 37t33 19.5q117 12 250 20q115 8 262 15.5t311 9.5q31 -2 50.5 -17.5t26.5 -34t1 -35t-25 -16.5q-164 0 -318.5 -6t-277.5 -14q-143 -8 -270 -21q-18 -4 -31.5 9.5t-16.5 33zM175 631.5q-3 19.5 5 37t33 19.5q117 12 250 21q115 8 262 15t311 9 q31 -2 50.5 -17.5t26.5 -33.5t1 -34.5t-24 -16.5q-164 0 -319 -6.5t-277 -14.5q-143 -8 -271 -20q-18 -4 -31.5 9t-16.5 32.5zM260 23q41 184 88 358q20 74 43 154.5t48.5 159.5t53 152t56.5 134q8 18 26.5 21.5t36 -4t27.5 -22.5t2 -36q-25 -55 -50.5 -126t-50 -147.5 t-47 -155.5t-42.5 -153q-48 -172 -89 -356q-2 -18 -19 -26.5t-36.5 -5.5t-35 15.5t-11.5 37.5zM569 23q41 184 88 358q20 74 43 154.5t48.5 159.5t53 152t56.5 134q8 18 26.5 21.5t36 -4t27.5 -22.5t2 -36q-25 -55 -50.5 -126t-50 -147.5t-47 -155.5t-42.5 -153 q-47 -172 -88 -356q-2 -18 -19.5 -26.5t-37 -5.5t-35 15.5t-11.5 37.5z" />
<glyph unicode="$" horiz-adv-x="1165" d="M35 365q0 98 69.5 182t229.5 131h12q33 0 50.5 -15.5t17.5 -33.5t-16.5 -33.5t-51.5 -20.5q-117 -35 -166 -92t-49 -123q0 -59 36 -118.5t98.5 -106.5t145.5 -76.5t175 -29.5q39 0 91 15t100 48t81 83t33 120q0 74 -46 152.5t-101.5 158.5t-101.5 157t-46 142 q0 55 18.5 105.5t52 89.5t83 61.5t110.5 22.5q49 0 97.5 -18.5t86 -49.5t62 -70.5t24.5 -82.5q0 -39 -21.5 -77t-68.5 -69q-16 -8 -32 -8q-25 0 -41.5 15.5t-16.5 33.5q0 12 12.5 25.5t27 27t26.5 26.5t12 26q0 23 -15.5 44t-39 37.5t-53 26.5t-60.5 10q-78 0 -120 -52 t-42 -124q0 -16 11.5 -42.5t29 -59.5t38 -67t40.5 -62q31 -47 62.5 -94.5t57.5 -96.5t42 -97t16 -93q0 -96 -44 -166t-108.5 -115t-135 -65.5t-121.5 -20.5q-119 0 -220.5 39t-175 101.5t-114.5 140.5t-41 158zM371 -182q0 12 6 22q35 51 77 141.5t86 202t87 236.5t84 248 q94 288 190 620q4 16 18.5 24.5t30.5 8.5q20 0 37 -11.5t17 -33.5v-8q-96 -336 -195 -629q-41 -125 -86 -253t-91 -242.5t-89 -208t-82 -148.5q-12 -18 -35 -18q-20 0 -37.5 14t-17.5 35z" />
<glyph unicode="%" horiz-adv-x="1339" d="M156 838q6 53 30.5 100t61.5 82t85 55.5t99 20.5q53 0 98 -21.5t77 -58.5t47.5 -86t9.5 -105q-6 -53 -31 -100t-63 -82t-86 -55.5t-99 -20.5q-53 0 -98 21.5t-76 58.5t-46 86.5t-9 104.5zM215 -62.5q-2 21.5 16 44.5l64 77q102 125 223 273.5t241 298t230.5 292 t196.5 257.5q29 23 51.5 22.5t35.5 -12.5t13 -32.5t-18 -39.5q-53 -72 -115.5 -141.5t-128.5 -124.5t-131.5 -89t-126.5 -34q-72 0 -128 45t-91 152l98 32q23 -70 54.5 -98.5t66.5 -28.5q45 0 99.5 30t109.5 79t109.5 111.5t101.5 128.5l82 -62q-86 -117 -198 -260 t-232.5 -292.5t-241.5 -298t-223 -273.5l-64 -78q-18 -23 -40.5 -24t-37 11.5t-16.5 34zM258 825q-6 -66 31 -110.5t96 -44.5q66 0 117 49t59 119v-2q6 66 -31.5 111.5t-97.5 45.5q-63 0 -114.5 -49t-59.5 -119zM780 260q6 53 31 100.5t61.5 82t85 55t99.5 20.5 q53 0 98 -21.5t77 -58.5t47 -86t9 -104q-6 -53 -30.5 -100.5t-62.5 -82t-86 -55t-99 -20.5q-53 0 -98.5 21.5t-76 58t-46 86t-9.5 104.5zM883 248q-6 -66 30.5 -111t96.5 -45q66 0 117 49t59 119v-2q6 66 -32 112t-97 46q-63 0 -114.5 -49t-59.5 -119z" />
<glyph unicode="&#x26;" horiz-adv-x="1511" d="M68 256q-4 123 68.5 212t203.5 163q59 35 121.5 61.5t122.5 52.5q45 20 115.5 52t139 70t121 78t58.5 79q2 39 -16.5 66.5t-49 45t-68.5 25.5t-75 8q-41 0 -84 -11t-83 -31.5t-71.5 -50t-46.5 -66.5v2q-12 -31 -12 -66q0 -70 41 -151.5t111 -169.5l-2 2q14 -16 31.5 -38 t33.5 -44q61 -80 142 -181.5t170 -206t181.5 -199.5t176.5 -163q27 -20 28.5 -42.5t-11.5 -38t-35.5 -17.5t-47.5 16q-86 68 -179 165t-185.5 204.5t-175 212t-146.5 188.5q-16 23 -32.5 42.5t-30.5 35.5q-78 100 -125 198.5t-47 186.5q0 27 5 52.5t15 50.5q20 51 63.5 92 t95.5 69.5t109.5 45t110.5 16.5q55 0 114.5 -13.5t107.5 -44t76 -77.5t21 -115q-6 -63 -66.5 -118.5t-139 -102.5t-161.5 -85t-136 -65q-57 -29 -116.5 -53.5t-119.5 -56.5q-47 -29 -88 -59.5t-70.5 -66.5t-46 -74t-14.5 -81q2 -61 32.5 -100t77 -60.5t100.5 -30t105 -12.5 q76 -6 161 16.5t166 65.5t152.5 104.5t124 134.5t79 153.5t18.5 162.5l102 -4q10 -92 -21.5 -184t-91 -176t-142.5 -156t-176 -123t-191.5 -76.5t-188.5 -19.5q-66 6 -137.5 17.5t-130.5 43t-99 88t-42 152.5zM974 654.5q-3 19.5 9 39t41 23.5q49 8 128 18t189 10 q41 0 82 -2t84 -6q31 -2 43.5 -19.5t9 -38t-19.5 -34.5t-45 -10q-43 4 -81 6t-73 2q-98 0 -175 -10.5t-126 -18.5q-31 -8 -47 6.5t-19 34z" />
<glyph unicode="'" horiz-adv-x="342" d="M316.5 1095.5q-7.5 18.5 7.5 41.5q47 74 67.5 130t32.5 115q8 33 25.5 43.5t36 3t30.5 -26t8 -38.5q-16 -76 -44.5 -142.5t-71.5 -138.5q-12 -20 -32 -22t-36 7t-23.5 27.5z" />
<glyph unicode="(" horiz-adv-x="755" d="M231 344q0 180 64.5 361.5t176.5 334t264.5 260t330.5 138.5q29 2 46 -12.5t21.5 -33t-8 -36t-43.5 -21.5q-106 -18 -202.5 -68t-180.5 -124t-151.5 -168t-115.5 -197.5t-73.5 -214t-25.5 -219.5q0 -141 49 -271t160 -227q23 -16 23.5 -37.5t-12.5 -37t-34.5 -19.5 t-42.5 17q-129 115 -187.5 263t-58.5 312z" />
<glyph unicode=")" horiz-adv-x="884" d="M-233.5 -213q-4.5 18 8 35.5t43.5 21.5q160 27 296 124.5t237.5 235.5t158.5 303t57 329q0 141 -49 271t-160 226q-23 16 -23.5 38t12.5 37t34.5 19.5t42.5 -16.5q129 -115 187.5 -263.5t58.5 -311.5q0 -180 -64.5 -361.5t-176.5 -334t-264.5 -260t-330.5 -138.5 q-29 -2 -46 12.5t-21.5 32.5z" />
<glyph unicode="*" horiz-adv-x="1044" d="M229.5 985q-6.5 21 0 39t22.5 28.5t45 -3.5q33 -10 76 -27q37 -14 89 -34.5t118 -49.5q16 -8 20 -26.5t-2 -36t-22.5 -26.5t-43.5 3q-63 27 -114 45t-88 33q-43 14 -76 26q-18 8 -24.5 29zM271 633.5q-1 19.5 24 40.5q20 25 51 59q27 29 65 69t91 89q14 12 32.5 9 t32 -15.5t15.5 -31.5t-19 -40q-47 -47 -85 -86t-64 -68q-31 -33 -56 -59q-14 -14 -35.5 -12t-36 14t-15.5 31.5zM518 905q14 66 24.5 119t18.5 92q8 45 14 80q2 20 21.5 31.5t39 11.5t32 -13.5t4.5 -43.5q-4 -35 -13 -80q-12 -80 -43 -213q-4 -18 -22.5 -28.5t-36.5 -10.5 t-31.5 13.5t-7.5 41.5zM527.5 892.5q7.5 18.5 21.5 29t33.5 8.5t35.5 -27q35 -57 66 -101t53 -77q25 -37 47 -66q12 -16 6 -36.5t-21 -31.5t-35.5 -9t-35.5 28q-23 29 -47 66q-23 33 -53.5 79t-67.5 105q-10 14 -2.5 32.5zM553 887.5q-6 17.5 2 35t37 25.5q66 16 117 31.5 t88 28.5q43 12 77 24q20 6 38 -6t24 -30.5t-2 -36t-39 -23.5q-33 -12 -76 -27q-74 -24 -213 -59q-18 -4 -32.5 8t-20.5 29.5z" />
<glyph unicode="+" horiz-adv-x="956" d="M199 460.5q2 18.5 15 33t38 14.5h160t147 2q78 0 148 2q35 0 47 -15.5t8 -33t-20.5 -32.5t-41.5 -15q-74 -2 -151 -2h-309q-23 0 -33 14t-8 32.5zM373 236q14 66 32.5 143.5t34.5 144.5q18 78 37 156q2 20 21.5 31.5t39 11.5t32 -13.5t3.5 -43.5q-16 -78 -34 -156 q-16 -68 -34 -145.5t-34 -145.5q-4 -18 -22.5 -28.5t-37 -10.5t-31.5 13.5t-7 42.5z" />
<glyph unicode="," horiz-adv-x="491" d="M71 -125.5q-1 19.5 19 37.5q63 57 100 105.5t66 101.5q16 31 36.5 35t36 -7.5t21.5 -33t-4 -39.5q-37 -68 -83 -124t-107 -112q-18 -16 -38 -13t-33 16.5t-14 33z" />
<glyph unicode="-" horiz-adv-x="794" d="M179 456.5q-1 18.5 10.5 33t35.5 14.5h146.5t120.5 2q59 0 108 2q14 2 24.5 -10.5t12.5 -29.5t-6 -32.5t-29 -17.5q-49 -2 -108 -4q-51 -2 -119 -3t-148 -1q-23 0 -35 14t-13 32.5z" />
<glyph unicode="." horiz-adv-x="495" d="M156 59q-2 31 17.5 53.5t51.5 24.5q31 2 53.5 -17.5t24.5 -51.5q2 -31 -19.5 -53.5t-52.5 -24.5t-52 17t-23 52z" />
<glyph unicode="/" horiz-adv-x="1003" d="M134 -28.5q-5 18.5 11 36.5q12 14 48 64.5t88.5 125t118 167t136 191.5t142.5 198.5t137.5 186.5t120.5 157.5t94 111.5q10 12 28.5 10.5t32 -11t19.5 -25t-8 -29.5q-29 -31 -82 -100.5t-122 -161.5t-146.5 -198.5t-154.5 -214t-147.5 -205t-123 -171t-81 -115.5 t-24.5 -36q-14 -18 -33.5 -19.5t-34 9t-19.5 29z" />
<glyph unicode="0" d="M528 166q0 41 29 68.5t68 27.5q18 0 36.5 -7t30.5 -22l-4 -4q-4 -4 -8 -4h-4q-12 0 -23.5 7.5t-27.5 7.5q-31 0 -53.5 -21.5t-22.5 -52.5q0 -35 24.5 -54.5t51.5 -19.5q25 0 47 12v39h-15q-8 0 -13 6.5t-5 12.5v2h53v-72q-14 -16 -49 -20h-18q-31 0 -51.5 13.5 t-30.5 33.5q-8 8 -11.5 21.5t-3.5 25.5zM528 -274q0 16 7 26l6 12q6 6 8 11l127 174h-139v51h215v-25q0 -10 -2 -14l-7 -12l-143 -193q2 0 4 2t8 2h138v-51h-222v17zM705 336v205h71q29 0 47.5 -20.5t18.5 -45.5q0 -12 -6 -24q-6 -16 -21.5 -27.5t-38.5 -11.5h-45v-76h-26z M731 438h45q16 0 26.5 11.5t10.5 25.5q0 17 -10 27q-14 10 -27 10h-45v-74zM737 74v186l115 -2v-20h-92v-60h74v-20h-74v-64h92v-20h-115zM786 0h187v-51h-133v-68h108v-51h-108v-70h133v-51h-187v291zM862 336v205h127v-29h-98v-59h80v-29h-80v-62h98v-26h-127zM874 238v22 h140v-22h-60v-164h-20v164h-60zM926 1716q0 139 63.5 235.5t156.5 157t198.5 87t187.5 26.5q113 0 187.5 -17.5t119.5 -46t63.5 -65.5t18.5 -76q0 -55 -31.5 -101t-103.5 -46q-43 0 -94.5 16.5t-101.5 36t-93 35.5t-67 16q-31 0 -83.5 -20.5t-102.5 -59.5t-87 -96t-37 -131 q0 -51 21.5 -103.5t68.5 -99.5q18 37 55.5 90.5t89.5 101.5t119.5 83t147.5 35q59 0 126 -22.5t142 -76.5q111 -80 199 -139t158.5 -98t128 -57.5t110.5 -18.5q49 0 86 15.5t75 40t86 54t122 56.5q2 6 16.5 33.5t35 58.5t44 54.5t43.5 23.5q14 0 26.5 -17.5t22 -43 t15.5 -54.5t10 -51q53 -14 98 -45t80 -72q10 2 26.5 5t32.5 3q8 0 16.5 -3t14.5 -3q18 -4 19 -16q0 -12 -9.5 -27.5t-20.5 -29t-20.5 -24.5t-11.5 -13q0 -12 2 -23.5t2 -23.5q0 -57 -23.5 -106.5t-64.5 -85.5t-96 -56.5t-119 -20.5q-27 0 -55.5 2t-54.5 17q59 -47 98 -106.5 t61.5 -114t31.5 -92.5t9 -40q0 -16 -16 -16q-2 0 -11.5 -1t-19.5 -2t-20.5 0t-12.5 5q-29 31 -55.5 41t-61 12t-80.5 4t-110 15q-25 4 -55.5 25.5t-48.5 35.5q-14 -23 -11 -51.5t9 -58t8 -54t-12 -37.5h-107q-47 0 -81 17.5t-58.5 46.5t-40.5 64.5t-29 72.5 q-68 -10 -133 -19t-131 -9q-10 0 -22.5 2t-22.5 2q-4 -8 -5 -14.5t-1 -12.5q0 -23 22.5 -42t44 -36.5t31.5 -33t-12 -29.5q-152 -10 -251 42t-153 138q-96 -35 -96 -70q0 -8 4 -14q35 -35 52.5 -60.5t-11.5 -35.5q-33 -10 -76 -13.5t-81 13.5q-47 27 -83 86t-64 134t-45 160 t-28.5 161.5t-16.5 138t-5 92.5q-39 23 -85 55.5t-85 77.5t-65.5 101.5t-26.5 125.5zM983 0h223v-51h-84v-240h-53v240h-86v51zM1032 336v205h74q25 0 42 -17.5t17 -44.5q0 -41 -41 -55l64 -88h-19q-20 0 -24 12l-53 72h-31v-84h-29zM1061 449h45q8 0 12 2l10 6l7 10 q2 4 2 12q0 12 -8.5 22.5t-22.5 10.5h-45v-63zM1130 74v186h115v-22h-92v-64h78v-20h-78v-80h-23zM1163 -291l127 291h47l127 -291h-32q-20 0 -35 23l-17 39h-133l-16 -39q-4 -8 -13.5 -15.5t-21.5 -7.5h-33zM1198 373l6 2q4 4 13 4q8 0 14 -6l4 -2q6 -10 27 -11 q10 0 25.5 8.5t15.5 26.5t-12.5 23.5t-28.5 11.5l-21 10q-35 14 -35 49q0 33 22.5 43.5t39.5 10.5q8 0 17 -3t13 -8l15 -10q4 -4 6 -5t4 -5l-8 -4q-6 -6 -15 -6q-10 0 -16 6t-16 6q-8 0 -13 -2l-12 -4q-8 -6 -8 -19q0 -10 3 -15t15 -9l19 -6q4 -2 9 -4t11 -4l8 -5 q16 -6 23.5 -20t7.5 -31q0 -8 -4 -24q-23 -37 -65 -37q-16 0 -39 9t-23 26q-2 0 -2 4zM1272 -176h84l-37 88q-4 6 -4 10t-2 8q0 -2 -4 -18zM1280 145v115h20v-115q0 -23 15.5 -38t38.5 -15q20 0 37.5 14.5t17.5 38.5v115h21v-115q0 -39 -26 -56t-50 -17q-31 0 -52.5 20.5 t-21.5 52.5zM1354 436q0 43 31.5 75t74.5 32q45 0 75 -32t30 -75q0 -6 -1 -12t-3 -14q-10 -27 -32 -51.5t-69 -24.5q-41 0 -73.5 28.5t-32.5 73.5zM1382 436q0 -23 18.5 -49.5t59.5 -26.5q29 0 52.5 21.5t23.5 54.5t-23 56q-18 23 -53 22q-29 0 -53.5 -21.5t-24.5 -56.5z M1468 74v186h21v-166h84v-20h-105zM1477 0h184v-51h-133v-74h112v-51h-112v-115h-51v291zM1595 74v186h21v-166h84v-20h-105zM1604 336v205h20q14 0 21 -9l98 -137q4 -8 4 -14v160h29v-205h-23l-117 160q-2 2 -4 8v-168h-28zM1679 -145q0 37 13.5 64.5t35 46t48 27.5t51.5 9 q47 0 80 -22.5t49 -51.5q8 -16 13 -33.5t5 -39.5q0 -66 -44 -107t-103 -41q-35 0 -62.5 13.5t-46 35t-29 47t-10.5 52.5zM1733 -145q0 -41 28.5 -68t65.5 -27q61 1 88 58q4 10 6 18t2 19q0 41 -28.5 67.5t-67.5 26.5q-35 0 -64.5 -25.5t-29.5 -68.5zM1788 260h12q4 0 9.5 -3 t7.5 -9l61 -139q0 -4 1 -6.5t1 -4.5v4q0 2 1 3t1 4l62 139q4 12 16 12h10l-80 -186h-20zM1796 336l90 205h27l90 -205h-16q-14 0 -21 12l-14 33h-105l-14 -33q-6 -12 -21 -12h-16zM1860 410h79l-38 86q0 2 -1.5 4t-1.5 6v-6zM1987 74v186h112v-22h-92v-60h76v-20h-76v-64h92 v-20h-112zM2013 0h47q23 0 44.5 -33t43.5 -65l62 -84q8 -16 8 -23v205h53v-291h-49l-139 195q-2 2 -2 3t-2 3l-4 8q-4 4 -4 6l-5 6v-221h-53v291zM2023 336v205h27v-179h90v-26h-117zM2144 74v186h66q25 0 39 -17.5t14 -35.5q0 -16 -7.5 -27.5t-17.5 -19.5q-4 -2 -16 -6 l62 -80h-13q-16 0 -22 10l-51 70h-33v-80h-21zM2165 174h45q10 0 21.5 8t11.5 25q0 12 -10.5 21.5t-22.5 9.5h-45v-64zM2257 416v125h27v-125q0 -23 16 -39.5t39 -16.5q20 0 36.5 15.5t16.5 40.5v125h29v-125q0 -25 -9.5 -40.5t-22.5 -25.5t-27.5 -14t-22.5 -4 q-41 0 -61.5 27.5t-20.5 56.5zM2296 0h223v-51h-86v-240h-53v240h-84v51zM2298 104l4 2q2 2 8 3q10 0 20.5 -8.5t22.5 -8.5q19 0 29 8q12 8 12 25q0 23 -24 33l-15 4q-14 4 -31.5 13t-17.5 38q0 18 15.5 33.5t37.5 15.5q4 0 8.5 -1t8.5 -1l12 -6q4 -4 6 -5t4 -3l10 -8l-6 -5 q-2 -4 -10 -4q-6 0 -10 2l-10 7q-4 0 -6.5 1t-6.5 1q-33 0 -32 -27q0 -16 18 -25l18 -6q4 -4 12.5 -6t14.5 -6l8 -4q18 -18 19 -41q0 -29 -20.5 -41t-43.5 -12q-20 0 -37.5 11t-17.5 21zM2449 373l9 2q4 4 10 4q10 0 16 -6l2 -2q10 -10 29 -11q16 0 28.5 10.5t12.5 24.5 q0 12 -12 25l-29 10l-21 10q-37 14 -36 49q0 29 21.5 41.5t41.5 12.5q16 0 31 -11l14 -10l10 -10l-8 -4q-6 -6 -14 -6q-10 0 -18.5 6t-14.5 6q-10 0 -14 -2l-10 -4q-10 -6 -11 -19q0 -14 21 -24l16 -6q8 -4 10 -4l21 -9q16 -6 23.5 -20t7.5 -31q-1 -12 -7 -24 q-20 -37 -63 -37q-23 0 -35 8t-24 20zM2458 74v186h20v-186h-20zM2521 166q0 43 31 69.5t65 26.5q41 0 69 -29.5t28 -66.5q0 -47 -31 -70.5t-66 -23.5q-40 -1 -67 26q-12 14 -20.5 31.5t-8.5 36.5zM2521 -229q4 2 7 4t7 4l9 2q4 0 5 1t5 1q20 0 31.5 -11.5t31.5 -11.5 q10 0 17 2l16 7q18 14 19 30q0 14 -19 25q-16 10 -35.5 16t-37 15.5t-30 25t-12.5 41.5q0 43 31 61.5t60 18.5q20 0 42.5 -12.5t38.5 -34.5l-10 -8q-16 -10 -31 -10h-6q-8 2 -16 7t-18 5q-37 0 -37 -27q0 -12 8 -17t18 -9l35 -13q35 -10 51 -33q18 -16 19 -51 q0 -45 -34 -68.5t-69 -23.5q-41 0 -63.5 21.5t-32.5 42.5zM2544 166q0 -31 21.5 -52.5t51.5 -21.5q37 0 55.5 23.5t18.5 50.5q0 29 -19.5 51.5t-54.5 22.5q-20 0 -38.5 -10t-28.5 -35q-6 -12 -6 -29zM2619 336v205h127v-29l-98 2v-61h80v-29h-80v-62h98v-26h-127zM2736 -262 q0 12 8.5 22.5t22.5 10.5q14 -1 24 -11q8 -8 9 -22q0 -31 -33 -31q-10 0 -20.5 7t-10.5 24zM2748 74v186h15q10 0 16 -8l96 -135q4 -4 4 -11v154h21v-186h-18l-111 153q-2 0 -1 3t-1 6v-162h-21zM2820 -145q0 55 40 101t108 46q29 0 59.5 -13.5t52.5 -39.5l-10 -12 q-10 -10 -29 -11q-16 0 -33.5 11.5t-39.5 11.5q-18 0 -36 -8.5t-32 -18.5q-12 -14 -20.5 -31.5t-8.5 -35.5q0 -39 29 -67t68 -28q27 0 40 11.5t33 11.5q16 0 29 -12l10 -11q-23 -29 -52.5 -41t-59.5 -12q-68 0 -108 46t-40 102zM2863 436q0 35 25.5 71t79.5 36 q41 0 72.5 -29t31.5 -78q0 -16 -2 -26q-10 -23 -30.5 -49.5t-71.5 -26.5q-41 0 -73 27.5t-32 74.5zM2892 436q0 -23 18.5 -49.5t57.5 -26.5q31 0 54 23t23 53q1 38 -22 56q-23 23 -55 22q-29 0 -52.5 -21.5t-23.5 -56.5zM3017 1346q0 -20 18 -21q25 0 25 21q0 12 -6.5 20 t-12.5 8q-25 0 -24 -18v-10zM3037 74v186h113v-22h-92v-64h77v-20h-77v-80h-21zM3101 -145q0 68 46 107.5t101 39.5q47 0 80 -22.5t49 -51.5q8 -16 13.5 -33.5t5.5 -39.5q0 -12 -6.5 -37t-22.5 -49.5t-45 -43t-74 -18.5q-35 0 -61.5 13.5t-46 34t-29.5 47t-10 53.5z M3111 336v205h20q12 0 21 -9l98 -137q4 -4 4 -7t2 -7v160h29v-205h-25l-116 160q-2 0 -2 8l-2 4v-172h-29zM3154 -145q0 -41 28.5 -68t65.5 -27q33 0 53.5 15.5t34.5 42.5q4 10 6 18t2 19q0 43 -30.5 68.5t-65.5 25.5t-64.5 -26.5t-29.5 -67.5zM3172 74v186h66 q25 0 40 -16.5t15 -36.5q0 -23 -12 -35q-10 -14 -29 -18l60 -80h-13q-16 0 -20 10l-51 70h-35v-80h-21zM3174 1153q0 -8 2 -17.5t7 -13.5q6 0 19 6.5t13 16.5t-13 16t-19 6q-8 0 -9 -6v-8zM3193 174h45q10 0 14 2q10 4 14.5 12.5t4.5 18.5q0 12 -8.5 21.5t-24.5 9.5h-45v-64 zM3226 1251q0 -6 4 -12t8 -6q23 0 22 33q0 8 -6 13t-12 5q-4 0 -10 -6t-6 -18v-9zM3330 166q0 29 24.5 62.5t71.5 33.5q35 0 66 -25.5t31 -70.5q0 -39 -29 -68q-27 -27 -68 -26q-39 0 -67.5 26.5t-28.5 67.5zM3334 336v205h29v-179h88v-26h-117zM3353 166q0 -23 18 -48.5 t55 -25.5q35 0 54.5 22.5t19.5 51.5q0 37 -23.5 55.5t-50.5 18.5q-29 0 -51 -20.5t-22 -53.5zM3422 541h21q16 0 24 -15l49 -65l2 -2v-4v2q0 4 3 4l49 65q6 14 24 15h21l-74 -101q-8 -8 -6 -8l-2 -4v-6v-86h-29v92q-2 2 -2 4l-6 8zM3434 0h52q18 0 30 -14l7 -9q8 -23 16 -44 t18 -44l35 -88q4 -4 4 -18v-2q0 4 2 10t2 10l11 21l59 155q9 15 25 21q4 0 5 1t5 1h53v-291h-53v213q-2 -4 -2 -7t-2 -7q-20 -51 -39 -100.5t-41 -98.5h-49l-76 185q-4 8 -4 14l-4 12v-211h-54v291zM3561 74v186h17q4 0 10 -4t6 -8l64 -144v-4q0 -2 2 -2q0 2 1 4t1 4l63 142 q2 4 6 8q8 4 11 4h16v-186h-20v153l-2 -4v-2v-2l-19 -41q-8 -20 -17.5 -37.5t-13.5 -34.5l-16 -32h-20q-10 16 -17.5 34.5t-15.5 36.5l-33 74v2q0 2 -1 2t-1 2v-151h-21z" />
<glyph unicode="1" d="M528 166q0 41 29 68.5t68 27.5q18 0 36.5 -7t30.5 -22l-4 -4q-4 -4 -8 -4h-4q-12 0 -23.5 7.5t-27.5 7.5q-31 0 -53.5 -21.5t-22.5 -52.5q0 -35 24.5 -54.5t51.5 -19.5q25 0 47 12v39h-15q-8 0 -13 6.5t-5 12.5v2h53v-72q-14 -16 -49 -20h-18q-31 0 -51.5 13.5 t-30.5 33.5q-8 8 -11.5 21.5t-3.5 25.5zM528 -274q0 16 7 26l6 12q6 6 8 11l127 174h-139v51h215v-25q0 -10 -2 -14l-7 -12l-143 -193q2 0 4 2t8 2h138v-51h-222v17zM586 931.5q-6 69.5 2 139.5t32.5 132.5t73.5 107.5q74 68 116 136.5t64.5 125.5t33 100t16.5 62 q8 16 10 53t31 78q0 4 -1 8t-1 8v16.5t2 20.5q0 25 6 43q0 16 8 37q6 18 10 20q8 2 17 -16q4 -6 7 -12t9 -11l20 -20q2 -4 6.5 -7t8.5 -7q29 10 65.5 17t83.5 7h31.5t30.5 -2q20 -4 37.5 -8t27.5 -8q8 6 19.5 11t15.5 7q6 4 13.5 6t13.5 6q8 2 22 17q14 14 21 8q4 -4 4 -22 q0 -8 -1 -17.5t-3 -19.5q-4 -10 -5 -21.5t-6 -21.5v-2q23 -25 36.5 -52.5t19.5 -54.5t7 -49.5t1 -32.5q0 -6 -4 -14q-2 -8 -12 -21q-4 -6 -9.5 -11t-9.5 -11q-6 -4 -10 -8t-8 -7v-2q-31 -53 -46.5 -124.5t-11.5 -143.5t31 -136.5t80 -102.5q59 -45 73.5 -120t6.5 -151 q141 18 291.5 81t313.5 145.5t338 174t364.5 170t394.5 133t426 62.5q119 0 229.5 -22.5t194.5 -94.5q41 -35 71.5 -89t39.5 -111.5t-6 -109.5t-66 -85q-29 -18 -47.5 -14t-33 21.5t-26.5 43t-25 50.5q-10 23 -23 43t-24 34q-27 35 -68.5 50.5t-80.5 9.5 q-152 -23 -332 -86.5t-376.5 -143.5t-403.5 -166t-412 -152.5t-402.5 -101t-373.5 -14.5q-4 -10 -6 -16t-4 -10q-2 -6 -2 -11q-53 -10 -95.5 -13t-97.5 13q-47 4 -98 4t-109 -8q4 -10 -48 -15t-126 -5t-153.5 6t-130.5 18q-14 10 -31 51t-29 99.5t-18 128zM705 336v205h71 q29 0 47.5 -20.5t18.5 -45.5q0 -12 -6 -24q-6 -16 -21.5 -27.5t-38.5 -11.5h-45v-76h-26zM731 438h45q16 0 26.5 11.5t10.5 25.5q0 17 -10 27q-14 10 -27 10h-45v-74zM737 74v186l115 -2v-20h-92v-60h74v-20h-74v-64h92v-20h-115zM786 0h187v-51h-133v-68h108v-51h-108v-70 h133v-51h-187v291zM862 336v205h127v-29h-98v-59h80v-29h-80v-62h98v-26h-127zM874 238v22h140v-22h-60v-164h-20v164h-60zM983 0h223v-51h-84v-240h-53v240h-86v51zM1032 336v205h74q25 0 42 -17.5t17 -44.5q0 -41 -41 -55l64 -88h-19q-20 0 -24 12l-53 72h-31v-84h-29z M1061 449h45q8 0 12 2l10 6l7 10q2 4 2 12q0 12 -8.5 22.5t-22.5 10.5h-45v-63zM1102 1808q-4 -25 20 -28q19 -1 23 26q0 23 -19 31q-25 0 -24 -29zM1130 74v186h115v-22h-92v-64h78v-20h-78v-80h-23zM1163 -291l127 291h47l127 -291h-32q-20 0 -35 23l-17 39h-133l-16 -39 q-4 -8 -13.5 -15.5t-21.5 -7.5h-33zM1198 373l6 2q4 4 13 4q8 0 14 -6l4 -2q6 -10 27 -11q10 0 25.5 8.5t15.5 26.5t-12.5 23.5t-28.5 11.5l-21 10q-35 14 -35 49q0 33 22.5 43.5t39.5 10.5q8 0 17 -3t13 -8l15 -10q4 -4 6 -5t4 -5l-8 -4q-6 -6 -15 -6q-10 0 -16 6t-16 6 q-8 0 -13 -2l-12 -4q-8 -6 -8 -19q0 -10 3 -15t15 -9l19 -6q4 -2 9 -4t11 -4l8 -5q16 -6 23.5 -20t7.5 -31q0 -8 -4 -24q-23 -37 -65 -37q-16 0 -39 9t-23 26q-2 0 -2 4zM1272 -176h84l-37 88q-4 6 -4 10t-2 8q0 -2 -4 -18zM1278 1706q0 -8 8 -17.5t10 -9.5q4 0 13.5 9.5 t9.5 17.5q0 12 -23 12q-18 0 -18 -12zM1280 145v115h20v-115q0 -23 15.5 -38t38.5 -15q20 0 37.5 14.5t17.5 38.5v115h21v-115q0 -39 -26 -56t-50 -17q-31 0 -52.5 20.5t-21.5 52.5zM1352 1815q0 -29 20 -29q10 -4 16.5 5t8.5 19q0 25 -23 29q-18 0 -22 -24zM1354 436 q0 43 31.5 75t74.5 32q45 0 75 -32t30 -75q0 -6 -1 -12t-3 -14q-10 -27 -32 -51.5t-69 -24.5q-41 0 -73.5 28.5t-32.5 73.5zM1382 436q0 -23 18.5 -49.5t59.5 -26.5q29 0 52.5 21.5t23.5 54.5t-23 56q-18 23 -53 22q-29 0 -53.5 -21.5t-24.5 -56.5zM1468 74v186h21v-166h84 v-20h-105zM1477 0h184v-51h-133v-74h112v-51h-112v-115h-51v291zM1595 74v186h21v-166h84v-20h-105zM1604 336v205h20q14 0 21 -9l98 -137q4 -8 4 -14v160h29v-205h-23l-117 160q-2 2 -4 8v-168h-28zM1679 -145q0 37 13.5 64.5t35 46t48 27.5t51.5 9q47 0 80 -22.5t49 -51.5 q8 -16 13 -33.5t5 -39.5q0 -66 -44 -107t-103 -41q-35 0 -62.5 13.5t-46 35t-29 47t-10.5 52.5zM1733 -145q0 -41 28.5 -68t65.5 -27q61 1 88 58q4 10 6 18t2 19q0 41 -28.5 67.5t-67.5 26.5q-35 0 -64.5 -25.5t-29.5 -68.5zM1788 260h12q4 0 9.5 -3t7.5 -9l61 -139 q0 -4 1 -6.5t1 -4.5v4q0 2 1 3t1 4l62 139q4 12 16 12h10l-80 -186h-20zM1796 336l90 205h27l90 -205h-16q-14 0 -21 12l-14 33h-105l-14 -33q-6 -12 -21 -12h-16zM1860 410h79l-38 86q0 2 -1.5 4t-1.5 6v-6zM1987 74v186h112v-22h-92v-60h76v-20h-76v-64h92v-20h-112z M2013 0h47q23 0 44.5 -33t43.5 -65l62 -84q8 -16 8 -23v205h53v-291h-49l-139 195q-2 2 -2 3t-2 3l-4 8q-4 4 -4 6l-5 6v-221h-53v291zM2023 336v205h27v-179h90v-26h-117zM2144 74v186h66q25 0 39 -17.5t14 -35.5q0 -16 -7.5 -27.5t-17.5 -19.5q-4 -2 -16 -6l62 -80h-13 q-16 0 -22 10l-51 70h-33v-80h-21zM2165 174h45q10 0 21.5 8t11.5 25q0 12 -10.5 21.5t-22.5 9.5h-45v-64zM2257 416v125h27v-125q0 -23 16 -39.5t39 -16.5q20 0 36.5 15.5t16.5 40.5v125h29v-125q0 -25 -9.5 -40.5t-22.5 -25.5t-27.5 -14t-22.5 -4q-41 0 -61.5 27.5 t-20.5 56.5zM2296 0h223v-51h-86v-240h-53v240h-84v51zM2298 104l4 2q2 2 8 3q10 0 20.5 -8.5t22.5 -8.5q19 0 29 8q12 8 12 25q0 23 -24 33l-15 4q-14 4 -31.5 13t-17.5 38q0 18 15.5 33.5t37.5 15.5q4 0 8.5 -1t8.5 -1l12 -6q4 -4 6 -5t4 -3l10 -8l-6 -5q-2 -4 -10 -4 q-6 0 -10 2l-10 7q-4 0 -6.5 1t-6.5 1q-33 0 -32 -27q0 -16 18 -25l18 -6q4 -4 12.5 -6t14.5 -6l8 -4q18 -18 19 -41q0 -29 -20.5 -41t-43.5 -12q-20 0 -37.5 11t-17.5 21zM2449 373l9 2q4 4 10 4q10 0 16 -6l2 -2q10 -10 29 -11q16 0 28.5 10.5t12.5 24.5q0 12 -12 25 l-29 10l-21 10q-37 14 -36 49q0 29 21.5 41.5t41.5 12.5q16 0 31 -11l14 -10l10 -10l-8 -4q-6 -6 -14 -6q-10 0 -18.5 6t-14.5 6q-10 0 -14 -2l-10 -4q-10 -6 -11 -19q0 -14 21 -24l16 -6q8 -4 10 -4l21 -9q16 -6 23.5 -20t7.5 -31q-1 -12 -7 -24q-20 -37 -63 -37 q-23 0 -35 8t-24 20zM2458 74v186h20v-186h-20zM2521 166q0 43 31 69.5t65 26.5q41 0 69 -29.5t28 -66.5q0 -47 -31 -70.5t-66 -23.5q-40 -1 -67 26q-12 14 -20.5 31.5t-8.5 36.5zM2521 -229q4 2 7 4t7 4l9 2q4 0 5 1t5 1q20 0 31.5 -11.5t31.5 -11.5q10 0 17 2l16 7 q18 14 19 30q0 14 -19 25q-16 10 -35.5 16t-37 15.5t-30 25t-12.5 41.5q0 43 31 61.5t60 18.5q20 0 42.5 -12.5t38.5 -34.5l-10 -8q-16 -10 -31 -10h-6q-8 2 -16 7t-18 5q-37 0 -37 -27q0 -12 8 -17t18 -9l35 -13q35 -10 51 -33q18 -16 19 -51q0 -45 -34 -68.5t-69 -23.5 q-41 0 -63.5 21.5t-32.5 42.5zM2544 166q0 -31 21.5 -52.5t51.5 -21.5q37 0 55.5 23.5t18.5 50.5q0 29 -19.5 51.5t-54.5 22.5q-20 0 -38.5 -10t-28.5 -35q-6 -12 -6 -29zM2619 336v205h127v-29l-98 2v-61h80v-29h-80v-62h98v-26h-127zM2736 -262q0 12 8.5 22.5t22.5 10.5 q14 -1 24 -11q8 -8 9 -22q0 -31 -33 -31q-10 0 -20.5 7t-10.5 24zM2748 74v186h15q10 0 16 -8l96 -135q4 -4 4 -11v154h21v-186h-18l-111 153q-2 0 -1 3t-1 6v-162h-21zM2820 -145q0 55 40 101t108 46q29 0 59.5 -13.5t52.5 -39.5l-10 -12q-10 -10 -29 -11q-16 0 -33.5 11.5 t-39.5 11.5q-18 0 -36 -8.5t-32 -18.5q-12 -14 -20.5 -31.5t-8.5 -35.5q0 -39 29 -67t68 -28q27 0 40 11.5t33 11.5q16 0 29 -12l10 -11q-23 -29 -52.5 -41t-59.5 -12q-68 0 -108 46t-40 102zM2863 436q0 35 25.5 71t79.5 36q41 0 72.5 -29t31.5 -78q0 -16 -2 -26 q-10 -23 -30.5 -49.5t-71.5 -26.5q-41 0 -73 27.5t-32 74.5zM2892 436q0 -23 18.5 -49.5t57.5 -26.5q31 0 54 23t23 53q1 38 -22 56q-23 23 -55 22q-29 0 -52.5 -21.5t-23.5 -56.5zM3037 74v186h113v-22h-92v-64h77v-20h-77v-80h-21zM3101 -145q0 68 46 107.5t101 39.5 q47 0 80 -22.5t49 -51.5q8 -16 13.5 -33.5t5.5 -39.5q0 -12 -6.5 -37t-22.5 -49.5t-45 -43t-74 -18.5q-35 0 -61.5 13.5t-46 34t-29.5 47t-10 53.5zM3111 336v205h20q12 0 21 -9l98 -137q4 -4 4 -7t2 -7v160h29v-205h-25l-116 160q-2 0 -2 8l-2 4v-172h-29zM3154 -145 q0 -41 28.5 -68t65.5 -27q33 0 53.5 15.5t34.5 42.5q4 10 6 18t2 19q0 43 -30.5 68.5t-65.5 25.5t-64.5 -26.5t-29.5 -67.5zM3172 74v186h66q25 0 40 -16.5t15 -36.5q0 -23 -12 -35q-10 -14 -29 -18l60 -80h-13q-16 0 -20 10l-51 70h-35v-80h-21zM3193 174h45q10 0 14 2 q10 4 14.5 12.5t4.5 18.5q0 12 -8.5 21.5t-24.5 9.5h-45v-64zM3330 166q0 29 24.5 62.5t71.5 33.5q35 0 66 -25.5t31 -70.5q0 -39 -29 -68q-27 -27 -68 -26q-39 0 -67.5 26.5t-28.5 67.5zM3334 336v205h29v-179h88v-26h-117zM3353 166q0 -23 18 -48.5t55 -25.5 q35 0 54.5 22.5t19.5 51.5q0 37 -23.5 55.5t-50.5 18.5q-29 0 -51 -20.5t-22 -53.5zM3422 541h21q16 0 24 -15l49 -65l2 -2v-4v2q0 4 3 4l49 65q6 14 24 15h21l-74 -101q-8 -8 -6 -8l-2 -4v-6v-86h-29v92q-2 2 -2 4l-6 8zM3434 0h52q18 0 30 -14l7 -9q8 -23 16 -44t18 -44 l35 -88q4 -4 4 -18v-2q0 4 2 10t2 10l11 21l59 155q9 15 25 21q4 0 5 1t5 1h53v-291h-53v213q-2 -4 -2 -7t-2 -7q-20 -51 -39 -100.5t-41 -98.5h-49l-76 185q-4 8 -4 14l-4 12v-211h-54v291zM3561 74v186h17q4 0 10 -4t6 -8l64 -144v-4q0 -2 2 -2q0 2 1 4t1 4l63 142 q2 4 6 8q8 4 11 4h16v-186h-20v153l-2 -4v-2v-2l-19 -41q-8 -20 -17.5 -37.5t-13.5 -34.5l-16 -32h-20q-10 16 -17.5 34.5t-15.5 36.5l-33 74v2q0 2 -1 2t-1 2v-151h-21z" />
<glyph unicode="2" d="M528 166q0 41 29 68.5t68 27.5q18 0 36.5 -7t30.5 -22l-4 -4q-4 -4 -8 -4h-4q-12 0 -23.5 7.5t-27.5 7.5q-31 0 -53.5 -21.5t-22.5 -52.5q0 -35 24.5 -54.5t51.5 -19.5q25 0 47 12v39h-15q-8 0 -13 6.5t-5 12.5v2h53v-72q-14 -16 -49 -20h-18q-31 0 -51.5 13.5 t-30.5 33.5q-8 8 -11.5 21.5t-3.5 25.5zM528 -274q0 16 7 26l6 12q6 6 8 11l127 174h-139v51h215v-25q0 -10 -2 -14l-7 -12l-143 -193q2 0 4 2t8 2h138v-51h-222v17zM705 336v205h71q29 0 47.5 -20.5t18.5 -45.5q0 -12 -6 -24q-6 -16 -21.5 -27.5t-38.5 -11.5h-45v-76h-26z M731 438h45q16 0 26.5 11.5t10.5 25.5q0 17 -10 27q-14 10 -27 10h-45v-74zM731 750q0 33 6 66.5t27 62.5q33 55 69.5 108t100 97t167 74t271.5 34q100 0 180 -27.5t166 -62.5q51 27 110.5 54.5t123.5 62.5q-55 68 -56 106q0 29 8.5 56.5t22.5 52.5q-10 29 -24.5 75.5 t-14.5 92.5q0 16 1 29.5t7 23.5q31 -18 64 -39q29 -16 61.5 -34.5t63.5 -33.5q29 10 60.5 15.5t62.5 5.5q37 0 67.5 -5t59.5 -16q31 14 64.5 32.5t62.5 35.5q33 20 65 39q2 -10 6 -23.5t4 -25.5q0 -39 -12 -83t-24 -77q156 47 338 82t380 35q92 0 183.5 -18.5t168 -52.5 t135 -81t85.5 -104q16 -39 23.5 -73t7.5 -63q0 -53 -34 -95t-95 -42q-27 0 -47.5 16.5t-44 42t-52 55.5t-72 55.5t-102.5 42t-145 16.5q-117 0 -311.5 -35t-462.5 -115q16 -20 29.5 -42.5t21.5 -47.5q0 -23 25.5 -65t62.5 -84t80 -72.5t80 -30.5q49 0 79.5 -7t49 -19.5 t27.5 -28t20 -31.5h-537v-33q0 -72 -13.5 -87t-33.5 -15q-18 0 -33.5 8t-26 19.5t-16.5 21.5t-6 14q-35 10 -58.5 22.5t-45.5 29.5q-57 -2 -125 -3.5t-140.5 -2.5t-146.5 -1h-141h-324q-43 -6 -89 -14t-90 -16.5t-84 -14.5t-69 -6q-39 0 -78.5 4t-71.5 18.5t-51.5 43 t-19.5 78.5zM737 74v186l115 -2v-20h-92v-60h74v-20h-74v-64h92v-20h-115zM786 0h187v-51h-133v-68h108v-51h-108v-70h133v-51h-187v291zM862 336v205h127v-29h-98v-59h80v-29h-80v-62h98v-26h-127zM874 238v22h140v-22h-60v-164h-20v164h-60zM983 0h223v-51h-84v-240h-53 v240h-86v51zM1032 336v205h74q25 0 42 -17.5t17 -44.5q0 -41 -41 -55l64 -88h-19q-20 0 -24 12l-53 72h-31v-84h-29zM1061 449h45q8 0 12 2l10 6l7 10q2 4 2 12q0 12 -8.5 22.5t-22.5 10.5h-45v-63zM1130 74v186h115v-22h-92v-64h78v-20h-78v-80h-23zM1163 -291l127 291h47 l127 -291h-32q-20 0 -35 23l-17 39h-133l-16 -39q-4 -8 -13.5 -15.5t-21.5 -7.5h-33zM1198 373l6 2q4 4 13 4q8 0 14 -6l4 -2q6 -10 27 -11q10 0 25.5 8.5t15.5 26.5t-12.5 23.5t-28.5 11.5l-21 10q-35 14 -35 49q0 33 22.5 43.5t39.5 10.5q8 0 17 -3t13 -8l15 -10 q4 -4 6 -5t4 -5l-8 -4q-6 -6 -15 -6q-10 0 -16 6t-16 6q-8 0 -13 -2l-12 -4q-8 -6 -8 -19q0 -10 3 -15t15 -9l19 -6q4 -2 9 -4t11 -4l8 -5q16 -6 23.5 -20t7.5 -31q0 -8 -4 -24q-23 -37 -65 -37q-16 0 -39 9t-23 26q-2 0 -2 4zM1272 -176h84l-37 88q-4 6 -4 10t-2 8 q0 -2 -4 -18zM1280 145v115h20v-115q0 -23 15.5 -38t38.5 -15q20 0 37.5 14.5t17.5 38.5v115h21v-115q0 -39 -26 -56t-50 -17q-31 0 -52.5 20.5t-21.5 52.5zM1354 436q0 43 31.5 75t74.5 32q45 0 75 -32t30 -75q0 -6 -1 -12t-3 -14q-10 -27 -32 -51.5t-69 -24.5 q-41 0 -73.5 28.5t-32.5 73.5zM1382 436q0 -23 18.5 -49.5t59.5 -26.5q29 0 52.5 21.5t23.5 54.5t-23 56q-18 23 -53 22q-29 0 -53.5 -21.5t-24.5 -56.5zM1468 74v186h21v-166h84v-20h-105zM1477 0h184v-51h-133v-74h112v-51h-112v-115h-51v291zM1595 74v186h21v-166h84v-20 h-105zM1604 336v205h20q14 0 21 -9l98 -137q4 -8 4 -14v160h29v-205h-23l-117 160q-2 2 -4 8v-168h-28zM1679 -145q0 37 13.5 64.5t35 46t48 27.5t51.5 9q47 0 80 -22.5t49 -51.5q8 -16 13 -33.5t5 -39.5q0 -66 -44 -107t-103 -41q-35 0 -62.5 13.5t-46 35t-29 47 t-10.5 52.5zM1733 -145q0 -41 28.5 -68t65.5 -27q61 1 88 58q4 10 6 18t2 19q0 41 -28.5 67.5t-67.5 26.5q-35 0 -64.5 -25.5t-29.5 -68.5zM1788 260h12q4 0 9.5 -3t7.5 -9l61 -139q0 -4 1 -6.5t1 -4.5v4q0 2 1 3t1 4l62 139q4 12 16 12h10l-80 -186h-20zM1796 336l90 205 h27l90 -205h-16q-14 0 -21 12l-14 33h-105l-14 -33q-6 -12 -21 -12h-16zM1860 410h79l-38 86q0 2 -1.5 4t-1.5 6v-6zM1987 74v186h112v-22h-92v-60h76v-20h-76v-64h92v-20h-112zM2013 0h47q23 0 44.5 -33t43.5 -65l62 -84q8 -16 8 -23v205h53v-291h-49l-139 195q-2 2 -2 3 t-2 3l-4 8q-4 4 -4 6l-5 6v-221h-53v291zM2023 336v205h27v-179h90v-26h-117zM2034 1417q0 -10 6 -15t10 -5q8 0 12 7t4 13q-2 12 -16 13q-16 -4 -16 -13zM2144 74v186h66q25 0 39 -17.5t14 -35.5q0 -16 -7.5 -27.5t-17.5 -19.5q-4 -2 -16 -6l62 -80h-13q-16 0 -22 10 l-51 70h-33v-80h-21zM2161 1341q0 -10 8 -19t18 -9t18.5 9t8.5 19q0 12 -25 13q-12 0 -18 -1t-10 -12zM2165 174h45q10 0 21.5 8t11.5 25q0 12 -10.5 21.5t-22.5 9.5h-45v-64zM2257 416v125h27v-125q0 -23 16 -39.5t39 -16.5q20 0 36.5 15.5t16.5 40.5v125h29v-125 q0 -25 -9.5 -40.5t-22.5 -25.5t-27.5 -14t-22.5 -4q-41 0 -61.5 27.5t-20.5 56.5zM2296 0h223v-51h-86v-240h-53v240h-84v51zM2298 104l4 2q2 2 8 3q10 0 20.5 -8.5t22.5 -8.5q19 0 29 8q12 8 12 25q0 23 -24 33l-15 4q-14 4 -31.5 13t-17.5 38q0 18 15.5 33.5t37.5 15.5 q4 0 8.5 -1t8.5 -1l12 -6q4 -4 6 -5t4 -3l10 -8l-6 -5q-2 -4 -10 -4q-6 0 -10 2l-10 7q-4 0 -6.5 1t-6.5 1q-33 0 -32 -27q0 -16 18 -25l18 -6q4 -4 12.5 -6t14.5 -6l8 -4q18 -18 19 -41q0 -29 -20.5 -41t-43.5 -12q-20 0 -37.5 11t-17.5 21zM2351 1415q2 -18 16 -18 q10 0 16.5 7t6.5 15q-4 16 -23 17q-16 -10 -16 -21zM2449 373l9 2q4 4 10 4q10 0 16 -6l2 -2q10 -10 29 -11q16 0 28.5 10.5t12.5 24.5q0 12 -12 25l-29 10l-21 10q-37 14 -36 49q0 29 21.5 41.5t41.5 12.5q16 0 31 -11l14 -10l10 -10l-8 -4q-6 -6 -14 -6q-10 0 -18.5 6 t-14.5 6q-10 0 -14 -2l-10 -4q-10 -6 -11 -19q0 -14 21 -24l16 -6q8 -4 10 -4l21 -9q16 -6 23.5 -20t7.5 -31q-1 -12 -7 -24q-20 -37 -63 -37q-23 0 -35 8t-24 20zM2458 74v186h20v-186h-20zM2521 166q0 43 31 69.5t65 26.5q41 0 69 -29.5t28 -66.5q0 -47 -31 -70.5 t-66 -23.5q-40 -1 -67 26q-12 14 -20.5 31.5t-8.5 36.5zM2521 -229q4 2 7 4t7 4l9 2q4 0 5 1t5 1q20 0 31.5 -11.5t31.5 -11.5q10 0 17 2l16 7q18 14 19 30q0 14 -19 25q-16 10 -35.5 16t-37 15.5t-30 25t-12.5 41.5q0 43 31 61.5t60 18.5q20 0 42.5 -12.5t38.5 -34.5 l-10 -8q-16 -10 -31 -10h-6q-8 2 -16 7t-18 5q-37 0 -37 -27q0 -12 8 -17t18 -9l35 -13q35 -10 51 -33q18 -16 19 -51q0 -45 -34 -68.5t-69 -23.5q-41 0 -63.5 21.5t-32.5 42.5zM2544 166q0 -31 21.5 -52.5t51.5 -21.5q37 0 55.5 23.5t18.5 50.5q0 29 -19.5 51.5t-54.5 22.5 q-20 0 -38.5 -10t-28.5 -35q-6 -12 -6 -29zM2619 336v205h127v-29l-98 2v-61h80v-29h-80v-62h98v-26h-127zM2736 -262q0 12 8.5 22.5t22.5 10.5q14 -1 24 -11q8 -8 9 -22q0 -31 -33 -31q-10 0 -20.5 7t-10.5 24zM2748 74v186h15q10 0 16 -8l96 -135q4 -4 4 -11v154h21v-186 h-18l-111 153q-2 0 -1 3t-1 6v-162h-21zM2820 -145q0 55 40 101t108 46q29 0 59.5 -13.5t52.5 -39.5l-10 -12q-10 -10 -29 -11q-16 0 -33.5 11.5t-39.5 11.5q-18 0 -36 -8.5t-32 -18.5q-12 -14 -20.5 -31.5t-8.5 -35.5q0 -39 29 -67t68 -28q27 0 40 11.5t33 11.5 q16 0 29 -12l10 -11q-23 -29 -52.5 -41t-59.5 -12q-68 0 -108 46t-40 102zM2863 436q0 35 25.5 71t79.5 36q41 0 72.5 -29t31.5 -78q0 -16 -2 -26q-10 -23 -30.5 -49.5t-71.5 -26.5q-41 0 -73 27.5t-32 74.5zM2892 436q0 -23 18.5 -49.5t57.5 -26.5q31 0 54 23t23 53 q1 38 -22 56q-23 23 -55 22q-29 0 -52.5 -21.5t-23.5 -56.5zM3037 74v186h113v-22h-92v-64h77v-20h-77v-80h-21zM3101 -145q0 68 46 107.5t101 39.5q47 0 80 -22.5t49 -51.5q8 -16 13.5 -33.5t5.5 -39.5q0 -12 -6.5 -37t-22.5 -49.5t-45 -43t-74 -18.5q-35 0 -61.5 13.5 t-46 34t-29.5 47t-10 53.5zM3111 336v205h20q12 0 21 -9l98 -137q4 -4 4 -7t2 -7v160h29v-205h-25l-116 160q-2 0 -2 8l-2 4v-172h-29zM3154 -145q0 -41 28.5 -68t65.5 -27q33 0 53.5 15.5t34.5 42.5q4 10 6 18t2 19q0 43 -30.5 68.5t-65.5 25.5t-64.5 -26.5t-29.5 -67.5z M3172 74v186h66q25 0 40 -16.5t15 -36.5q0 -23 -12 -35q-10 -14 -29 -18l60 -80h-13q-16 0 -20 10l-51 70h-35v-80h-21zM3193 174h45q10 0 14 2q10 4 14.5 12.5t4.5 18.5q0 12 -8.5 21.5t-24.5 9.5h-45v-64zM3330 166q0 29 24.5 62.5t71.5 33.5q35 0 66 -25.5t31 -70.5 q0 -39 -29 -68q-27 -27 -68 -26q-39 0 -67.5 26.5t-28.5 67.5zM3334 336v205h29v-179h88v-26h-117zM3353 166q0 -23 18 -48.5t55 -25.5q35 0 54.5 22.5t19.5 51.5q0 37 -23.5 55.5t-50.5 18.5q-29 0 -51 -20.5t-22 -53.5zM3422 541h21q16 0 24 -15l49 -65l2 -2v-4v2q0 4 3 4 l49 65q6 14 24 15h21l-74 -101q-8 -8 -6 -8l-2 -4v-6v-86h-29v92q-2 2 -2 4l-6 8zM3434 0h52q18 0 30 -14l7 -9q8 -23 16 -44t18 -44l35 -88q4 -4 4 -18v-2q0 4 2 10t2 10l11 21l59 155q9 15 25 21q4 0 5 1t5 1h53v-291h-53v213q-2 -4 -2 -7t-2 -7q-20 -51 -39 -100.5 t-41 -98.5h-49l-76 185q-4 8 -4 14l-4 12v-211h-54v291zM3561 74v186h17q4 0 10 -4t6 -8l64 -144v-4q0 -2 2 -2q0 2 1 4t1 4l63 142q2 4 6 8q8 4 11 4h16v-186h-20v153l-2 -4v-2v-2l-19 -41q-8 -20 -17.5 -37.5t-13.5 -34.5l-16 -32h-20q-10 16 -17.5 34.5t-15.5 36.5 l-33 74v2q0 2 -1 2t-1 2v-151h-21z" />
<glyph unicode="3" d="M528 166q0 41 29 68.5t68 27.5q18 0 36.5 -7t30.5 -22l-4 -4q-4 -4 -8 -4h-4q-12 0 -23.5 7.5t-27.5 7.5q-31 0 -53.5 -21.5t-22.5 -52.5q0 -35 24.5 -54.5t51.5 -19.5q25 0 47 12v39h-15q-8 0 -13 6.5t-5 12.5v2h53v-72q-14 -16 -49 -20h-18q-31 0 -51.5 13.5 t-30.5 33.5q-8 8 -11.5 21.5t-3.5 25.5zM528 -274q0 16 7 26l6 12q6 6 8 11l127 174h-139v51h215v-25q0 -10 -2 -14l-7 -12l-143 -193q2 0 4 2t8 2h138v-51h-222v17zM705 336v205h71q29 0 47.5 -20.5t18.5 -45.5q0 -12 -6 -24q-6 -16 -21.5 -27.5t-38.5 -11.5h-45v-76h-26z M731 438h45q16 0 26.5 11.5t10.5 25.5q0 17 -10 27q-14 10 -27 10h-45v-74zM737 74v186l115 -2v-20h-92v-60h74v-20h-74v-64h92v-20h-115zM786 0h187v-51h-133v-68h108v-51h-108v-70h133v-51h-187v291zM862 336v205h127v-29h-98v-59h80v-29h-80v-62h98v-26h-127zM874 238v22 h140v-22h-60v-164h-20v164h-60zM942 1122q4 12 24.5 33t67.5 19q29 0 55.5 -12.5t48 -28t39 -32t27.5 -24.5q53 -49 102.5 -95t96.5 -77t94 -43t96 6q-33 51 -51 117t-16 125q2 45 19.5 85t39 68.5t44 44t34.5 15.5q4 0 10 -15.5t11.5 -37t9.5 -45t6 -39.5q57 -20 105 -42 t89 -42l20.5 20.5t26 24.5t24.5 20.5t17 8.5q8 -2 23.5 -22.5t26.5 -53.5q25 29 53.5 68.5t68.5 86.5q61 74 146.5 144.5t178.5 126t186.5 88.5t170.5 31q23 -2 43.5 -6.5t42.5 -8.5q80 109 114 172.5t36 110.5q6 47 -33 86q-72 66 -143.5 112t-128.5 88t-92 89t-33 116 q2 2 9 32t20.5 63.5t33 60.5t43.5 27q10 0 21.5 -7.5t11.5 -23.5q0 -6 -4 -12.5t-8 -10.5q-29 -37 -45.5 -70.5t-20.5 -68.5q4 -51 37 -92t94 -84q84 -61 142.5 -101t95.5 -72t53.5 -62.5t14.5 -73.5q-2 -59 -43 -128t-117 -171q68 -29 113 -72t71.5 -94t36.5 -109.5 t8 -120.5q-4 -82 -32.5 -183t-69.5 -190t-86 -149.5t-82 -58.5q-16 0 -17 31q0 12 22 56t47.5 103.5t47 128t23.5 131.5q4 59 -19.5 108.5t-85.5 72.5q10 -23 13.5 -49.5t3.5 -55.5q-4 -53 -18.5 -111.5t-35 -113.5t-43 -102.5t-41.5 -79.5q-33 -59 -51 -76t-30 -14 q-10 0 -13.5 9t-3.5 17q2 10 4 11t6 6q16 31 36 77.5t36 100t27.5 111t13.5 108.5q2 63 -13.5 110.5t-56.5 63.5q-53 -8 -110.5 -30.5t-120.5 -65.5t-133 -111t-143 -162q-90 -115 -179.5 -176t-171.5 -89t-154.5 -31t-129.5 -1q-55 4 -135 5t-156 3q-88 2 -180 5 q-6 6 -7 14q0 16 32 33.5t97 19.5q12 0 61.5 -4t118 -8t146.5 -3t148.5 10t124 31.5t73.5 63.5q4 8 8.5 12.5t4.5 8.5q0 12 -20.5 18t-51.5 8q-45 -25 -94.5 -40t-89.5 -13q-37 2 -66 21q-74 -18 -143 -19q-57 2 -112.5 30t-107 67.5t-98.5 86t-90 87.5q-29 29 -46 40 t-32 11q-10 0 -23.5 -5.5t-29.5 -2.5q-39 0 -39 32zM983 0h223v-51h-84v-240h-53v240h-86v51zM1032 336v205h74q25 0 42 -17.5t17 -44.5q0 -41 -41 -55l64 -88h-19q-20 0 -24 12l-53 72h-31v-84h-29zM1061 449h45q8 0 12 2l10 6l7 10q2 4 2 12q0 12 -8.5 22.5t-22.5 10.5 h-45v-63zM1130 74v186h115v-22h-92v-64h78v-20h-78v-80h-23zM1163 -291l127 291h47l127 -291h-32q-20 0 -35 23l-17 39h-133l-16 -39q-4 -8 -13.5 -15.5t-21.5 -7.5h-33zM1198 373l6 2q4 4 13 4q8 0 14 -6l4 -2q6 -10 27 -11q10 0 25.5 8.5t15.5 26.5t-12.5 23.5t-28.5 11.5 l-21 10q-35 14 -35 49q0 33 22.5 43.5t39.5 10.5q8 0 17 -3t13 -8l15 -10q4 -4 6 -5t4 -5l-8 -4q-6 -6 -15 -6q-10 0 -16 6t-16 6q-8 0 -13 -2l-12 -4q-8 -6 -8 -19q0 -10 3 -15t15 -9l19 -6q4 -2 9 -4t11 -4l8 -5q16 -6 23.5 -20t7.5 -31q0 -8 -4 -24q-23 -37 -65 -37 q-16 0 -39 9t-23 26q-2 0 -2 4zM1272 -176h84l-37 88q-4 6 -4 10t-2 8q0 -2 -4 -18zM1280 145v115h20v-115q0 -23 15.5 -38t38.5 -15q20 0 37.5 14.5t17.5 38.5v115h21v-115q0 -39 -26 -56t-50 -17q-31 0 -52.5 20.5t-21.5 52.5zM1354 436q0 43 31.5 75t74.5 32q45 0 75 -32 t30 -75q0 -6 -1 -12t-3 -14q-10 -27 -32 -51.5t-69 -24.5q-41 0 -73.5 28.5t-32.5 73.5zM1382 436q0 -23 18.5 -49.5t59.5 -26.5q29 0 52.5 21.5t23.5 54.5t-23 56q-18 23 -53 22q-29 0 -53.5 -21.5t-24.5 -56.5zM1468 74v186h21v-166h84v-20h-105zM1477 0h184v-51h-133v-74 h112v-51h-112v-115h-51v291zM1583 1006q0 -18 19 -19q14 0 16 14q0 6 -3 12.5t-11 8.5q-20 0 -21 -16zM1595 74v186h21v-166h84v-20h-105zM1604 336v205h20q14 0 21 -9l98 -137q4 -8 4 -14v160h29v-205h-23l-117 160q-2 2 -4 8v-168h-28zM1645 877q0 -10 4 -20.5t16 -10.5 q8 0 14.5 6t10.5 12v2q0 8 -10.5 14.5t-22.5 6.5q-12 2 -12 -10zM1679 -145q0 37 13.5 64.5t35 46t48 27.5t51.5 9q47 0 80 -22.5t49 -51.5q8 -16 13 -33.5t5 -39.5q0 -66 -44 -107t-103 -41q-35 0 -62.5 13.5t-46 35t-29 47t-10.5 52.5zM1733 -145q0 -41 28.5 -68t65.5 -27 q61 1 88 58q4 10 6 18t2 19q0 41 -28.5 67.5t-67.5 26.5q-35 0 -64.5 -25.5t-29.5 -68.5zM1788 260h12q4 0 9.5 -3t7.5 -9l61 -139q0 -4 1 -6.5t1 -4.5v4q0 2 1 3t1 4l62 139q4 12 16 12h10l-80 -186h-20zM1796 336l90 205h27l90 -205h-16q-14 0 -21 12l-14 33h-105l-14 -33 q-6 -12 -21 -12h-16zM1821 930q0 -14 18 -15q14 0 19 13v2q0 20 -21 20q-16 0 -16 -20zM1860 410h79l-38 86q0 2 -1.5 4t-1.5 6v-6zM1987 74v186h112v-22h-92v-60h76v-20h-76v-64h92v-20h-112zM2013 0h47q23 0 44.5 -33t43.5 -65l62 -84q8 -16 8 -23v205h53v-291h-49 l-139 195q-2 2 -2 3t-2 3l-4 8q-4 4 -4 6l-5 6v-221h-53v291zM2023 336v205h27v-179h90v-26h-117zM2144 74v186h66q25 0 39 -17.5t14 -35.5q0 -16 -7.5 -27.5t-17.5 -19.5q-4 -2 -16 -6l62 -80h-13q-16 0 -22 10l-51 70h-33v-80h-21zM2165 174h45q10 0 21.5 8t11.5 25 q0 12 -10.5 21.5t-22.5 9.5h-45v-64zM2257 416v125h27v-125q0 -23 16 -39.5t39 -16.5q20 0 36.5 15.5t16.5 40.5v125h29v-125q0 -25 -9.5 -40.5t-22.5 -25.5t-27.5 -14t-22.5 -4q-41 0 -61.5 27.5t-20.5 56.5zM2296 0h223v-51h-86v-240h-53v240h-84v51zM2298 104l4 2 q2 2 8 3q10 0 20.5 -8.5t22.5 -8.5q19 0 29 8q12 8 12 25q0 23 -24 33l-15 4q-14 4 -31.5 13t-17.5 38q0 18 15.5 33.5t37.5 15.5q4 0 8.5 -1t8.5 -1l12 -6q4 -4 6 -5t4 -3l10 -8l-6 -5q-2 -4 -10 -4q-6 0 -10 2l-10 7q-4 0 -6.5 1t-6.5 1q-33 0 -32 -27q0 -16 18 -25l18 -6 q4 -4 12.5 -6t14.5 -6l8 -4q18 -18 19 -41q0 -29 -20.5 -41t-43.5 -12q-20 0 -37.5 11t-17.5 21zM2449 373l9 2q4 4 10 4q10 0 16 -6l2 -2q10 -10 29 -11q16 0 28.5 10.5t12.5 24.5q0 12 -12 25l-29 10l-21 10q-37 14 -36 49q0 29 21.5 41.5t41.5 12.5q16 0 31 -11l14 -10 l10 -10l-8 -4q-6 -6 -14 -6q-10 0 -18.5 6t-14.5 6q-10 0 -14 -2l-10 -4q-10 -6 -11 -19q0 -14 21 -24l16 -6q8 -4 10 -4l21 -9q16 -6 23.5 -20t7.5 -31q-1 -12 -7 -24q-20 -37 -63 -37q-23 0 -35 8t-24 20zM2458 74v186h20v-186h-20zM2521 166q0 43 31 69.5t65 26.5 q41 0 69 -29.5t28 -66.5q0 -47 -31 -70.5t-66 -23.5q-40 -1 -67 26q-12 14 -20.5 31.5t-8.5 36.5zM2521 -229q4 2 7 4t7 4l9 2q4 0 5 1t5 1q20 0 31.5 -11.5t31.5 -11.5q10 0 17 2l16 7q18 14 19 30q0 14 -19 25q-16 10 -35.5 16t-37 15.5t-30 25t-12.5 41.5q0 43 31 61.5 t60 18.5q20 0 42.5 -12.5t38.5 -34.5l-10 -8q-16 -10 -31 -10h-6q-8 2 -16 7t-18 5q-37 0 -37 -27q0 -12 8 -17t18 -9l35 -13q35 -10 51 -33q18 -16 19 -51q0 -45 -34 -68.5t-69 -23.5q-41 0 -63.5 21.5t-32.5 42.5zM2544 166q0 -31 21.5 -52.5t51.5 -21.5q37 0 55.5 23.5 t18.5 50.5q0 29 -19.5 51.5t-54.5 22.5q-20 0 -38.5 -10t-28.5 -35q-6 -12 -6 -29zM2619 336v205h127v-29l-98 2v-61h80v-29h-80v-62h98v-26h-127zM2736 -262q0 12 8.5 22.5t22.5 10.5q14 -1 24 -11q8 -8 9 -22q0 -31 -33 -31q-10 0 -20.5 7t-10.5 24zM2748 74v186h15 q10 0 16 -8l96 -135q4 -4 4 -11v154h21v-186h-18l-111 153q-2 0 -1 3t-1 6v-162h-21zM2820 -145q0 55 40 101t108 46q29 0 59.5 -13.5t52.5 -39.5l-10 -12q-10 -10 -29 -11q-16 0 -33.5 11.5t-39.5 11.5q-18 0 -36 -8.5t-32 -18.5q-12 -14 -20.5 -31.5t-8.5 -35.5 q0 -39 29 -67t68 -28q27 0 40 11.5t33 11.5q16 0 29 -12l10 -11q-23 -29 -52.5 -41t-59.5 -12q-68 0 -108 46t-40 102zM2863 436q0 35 25.5 71t79.5 36q41 0 72.5 -29t31.5 -78q0 -16 -2 -26q-10 -23 -30.5 -49.5t-71.5 -26.5q-41 0 -73 27.5t-32 74.5zM2892 436 q0 -23 18.5 -49.5t57.5 -26.5q31 0 54 23t23 53q1 38 -22 56q-23 23 -55 22q-29 0 -52.5 -21.5t-23.5 -56.5zM3037 74v186h113v-22h-92v-64h77v-20h-77v-80h-21zM3101 -145q0 68 46 107.5t101 39.5q47 0 80 -22.5t49 -51.5q8 -16 13.5 -33.5t5.5 -39.5q0 -12 -6.5 -37 t-22.5 -49.5t-45 -43t-74 -18.5q-35 0 -61.5 13.5t-46 34t-29.5 47t-10 53.5zM3111 336v205h20q12 0 21 -9l98 -137q4 -4 4 -7t2 -7v160h29v-205h-25l-116 160q-2 0 -2 8l-2 4v-172h-29zM3154 -145q0 -41 28.5 -68t65.5 -27q33 0 53.5 15.5t34.5 42.5q4 10 6 18t2 19 q0 43 -30.5 68.5t-65.5 25.5t-64.5 -26.5t-29.5 -67.5zM3172 74v186h66q25 0 40 -16.5t15 -36.5q0 -23 -12 -35q-10 -14 -29 -18l60 -80h-13q-16 0 -20 10l-51 70h-35v-80h-21zM3193 174h45q10 0 14 2q10 4 14.5 12.5t4.5 18.5q0 12 -8.5 21.5t-24.5 9.5h-45v-64zM3330 166 q0 29 24.5 62.5t71.5 33.5q35 0 66 -25.5t31 -70.5q0 -39 -29 -68q-27 -27 -68 -26q-39 0 -67.5 26.5t-28.5 67.5zM3334 336v205h29v-179h88v-26h-117zM3353 166q0 -23 18 -48.5t55 -25.5q35 0 54.5 22.5t19.5 51.5q0 37 -23.5 55.5t-50.5 18.5q-29 0 -51 -20.5t-22 -53.5z M3422 541h21q16 0 24 -15l49 -65l2 -2v-4v2q0 4 3 4l49 65q6 14 24 15h21l-74 -101q-8 -8 -6 -8l-2 -4v-6v-86h-29v92q-2 2 -2 4l-6 8zM3434 0h52q18 0 30 -14l7 -9q8 -23 16 -44t18 -44l35 -88q4 -4 4 -18v-2q0 4 2 10t2 10l11 21l59 155q9 15 25 21q4 0 5 1t5 1h53v-291 h-53v213q-2 -4 -2 -7t-2 -7q-20 -51 -39 -100.5t-41 -98.5h-49l-76 185q-4 8 -4 14l-4 12v-211h-54v291zM3561 74v186h17q4 0 10 -4t6 -8l64 -144v-4q0 -2 2 -2q0 2 1 4t1 4l63 142q2 4 6 8q8 4 11 4h16v-186h-20v153l-2 -4v-2v-2l-19 -41q-8 -20 -17.5 -37.5t-13.5 -34.5 l-16 -32h-20q-10 16 -17.5 34.5t-15.5 36.5l-33 74v2q0 2 -1 2t-1 2v-151h-21z" />
<glyph unicode="4" d="M528 166q0 41 29 68.5t68 27.5q18 0 36.5 -7t30.5 -22l-4 -4q-4 -4 -8 -4h-4q-12 0 -23.5 7.5t-27.5 7.5q-31 0 -53.5 -21.5t-22.5 -52.5q0 -35 24.5 -54.5t51.5 -19.5q25 0 47 12v39h-15q-8 0 -13 6.5t-5 12.5v2h53v-72q-14 -16 -49 -20h-18q-31 0 -51.5 13.5 t-30.5 33.5q-8 8 -11.5 21.5t-3.5 25.5zM528 -274q0 16 7 26l6 12q6 6 8 11l127 174h-139v51h215v-25q0 -10 -2 -14l-7 -12l-143 -193q2 0 4 2t8 2h138v-51h-222v17zM604 776q-4 47 6.5 100.5t20.5 100.5q14 66 41.5 142.5t61.5 154.5t73 150.5t76 129.5q27 41 37 70t10 51 q-2 35 -32 48.5t-64.5 27.5t-64.5 40t-32 85q0 27 9.5 54.5t37.5 56.5q2 61 33 103t70 44q12 0 12 -4q0 -8 -10 -26.5t-10 -43.5q12 6 31.5 13.5t40 13.5t35.5 10l15 4q33 29 71 46.5t50 17.5q8 8 13 -27q0 -27 -5 -43q84 -23 120 -64.5t38 -82.5q4 -43 -24.5 -81t-67.5 -61 q10 -20 40 -79.5t58 -143.5q23 14 52.5 26.5t62.5 14.5q51 0 84 -31.5t35 -54.5q0 -25 -26.5 -47.5t-55.5 -22.5q-14 0 -24.5 7.5t-20.5 16.5t-20.5 16.5t-24.5 7.5q-6 -2 -14.5 -5.5t-18.5 -11.5q6 -29 12 -55.5t11 -54.5q41 -4 63.5 -35t24.5 -45q2 -27 -25 -49.5 t-55 -24.5q-4 -37 -12.5 -73t-15.5 -69.5t-12 -65.5t-3 -60q0 -39 9 -71t26 -60q51 -35 118.5 -58.5t143 -36t155.5 -15.5t156 1q119 4 250 52t271 117t286.5 148.5t293 148.5t293 118t285.5 55q121 6 210 -51.5t124 -200.5q2 -10 3 -18.5t1 -16.5q2 -31 -5 -47t-15 -23.5 t-16.5 -9.5t-10.5 -2q-29 -2 -40 19.5t-28.5 48.5t-51 47.5t-103.5 17.5q-86 -4 -209 -43.5t-267.5 -99t-304 -127t-318.5 -127t-307.5 -101.5t-270.5 -46q-78 -4 -163 1t-167 18t-155.5 35t-131.5 50q-18 8 -53 4q23 2 22 0q0 -2 -23.5 -7t-62 -10t-91 -10t-109.5 -8 q-76 -4 -156 -2t-144.5 14.5t-106.5 38t-44 66.5zM705 336v205h71q29 0 47.5 -20.5t18.5 -45.5q0 -12 -6 -24q-6 -16 -21.5 -27.5t-38.5 -11.5h-45v-76h-26zM731 438h45q16 0 26.5 11.5t10.5 25.5q0 17 -10 27q-14 10 -27 10h-45v-74zM737 74v186l115 -2v-20h-92v-60h74v-20 h-74v-64h92v-20h-115zM786 0h187v-51h-133v-68h108v-51h-108v-70h133v-51h-187v291zM862 336v205h127v-29h-98v-59h80v-29h-80v-62h98v-26h-127zM874 238v22h140v-22h-60v-164h-20v164h-60zM909 1843q0 -10 7.5 -12t15.5 -2q16 0 16 14q0 16 -22 17q-17 -1 -17 -17zM983 0 h223v-51h-84v-240h-53v240h-86v51zM1032 336v205h74q25 0 42 -17.5t17 -44.5q0 -41 -41 -55l64 -88h-19q-20 0 -24 12l-53 72h-31v-84h-29zM1061 449h45q8 0 12 2l10 6l7 10q2 4 2 12q0 12 -8.5 22.5t-22.5 10.5h-45v-63zM1104 1815q2 -6 8 -13.5t12 -7.5q25 6 25 29 q0 10 -14 10q-14 -2 -22.5 -5t-8.5 -13zM1130 74v186h115v-22h-92v-64h78v-20h-78v-80h-23zM1163 -291l127 291h47l127 -291h-32q-20 0 -35 23l-17 39h-133l-16 -39q-4 -8 -13.5 -15.5t-21.5 -7.5h-33zM1192 1903q4 -8 16 -9q14 0 15 15q0 14 -13 12q-18 0 -18 -18z M1198 373l6 2q4 4 13 4q8 0 14 -6l4 -2q6 -10 27 -11q10 0 25.5 8.5t15.5 26.5t-12.5 23.5t-28.5 11.5l-21 10q-35 14 -35 49q0 33 22.5 43.5t39.5 10.5q8 0 17 -3t13 -8l15 -10q4 -4 6 -5t4 -5l-8 -4q-6 -6 -15 -6q-10 0 -16 6t-16 6q-8 0 -13 -2l-12 -4q-8 -6 -8 -19 q0 -10 3 -15t15 -9l19 -6q4 -2 9 -4t11 -4l8 -5q16 -6 23.5 -20t7.5 -31q0 -8 -4 -24q-23 -37 -65 -37q-16 0 -39 9t-23 26q-2 0 -2 4zM1272 -176h84l-37 88q-4 6 -4 10t-2 8q0 -2 -4 -18zM1280 145v115h20v-115q0 -23 15.5 -38t38.5 -15q20 0 37.5 14.5t17.5 38.5v115h21 v-115q0 -39 -26 -56t-50 -17q-31 0 -52.5 20.5t-21.5 52.5zM1354 436q0 43 31.5 75t74.5 32q45 0 75 -32t30 -75q0 -6 -1 -12t-3 -14q-10 -27 -32 -51.5t-69 -24.5q-41 0 -73.5 28.5t-32.5 73.5zM1382 436q0 -23 18.5 -49.5t59.5 -26.5q29 0 52.5 21.5t23.5 54.5t-23 56 q-18 23 -53 22q-29 0 -53.5 -21.5t-24.5 -56.5zM1468 74v186h21v-166h84v-20h-105zM1477 0h184v-51h-133v-74h112v-51h-112v-115h-51v291zM1595 74v186h21v-166h84v-20h-105zM1604 336v205h20q14 0 21 -9l98 -137q4 -8 4 -14v160h29v-205h-23l-117 160q-2 2 -4 8v-168h-28z M1679 -145q0 37 13.5 64.5t35 46t48 27.5t51.5 9q47 0 80 -22.5t49 -51.5q8 -16 13 -33.5t5 -39.5q0 -66 -44 -107t-103 -41q-35 0 -62.5 13.5t-46 35t-29 47t-10.5 52.5zM1733 -145q0 -41 28.5 -68t65.5 -27q61 1 88 58q4 10 6 18t2 19q0 41 -28.5 67.5t-67.5 26.5 q-35 0 -64.5 -25.5t-29.5 -68.5zM1788 260h12q4 0 9.5 -3t7.5 -9l61 -139q0 -4 1 -6.5t1 -4.5v4q0 2 1 3t1 4l62 139q4 12 16 12h10l-80 -186h-20zM1796 336l90 205h27l90 -205h-16q-14 0 -21 12l-14 33h-105l-14 -33q-6 -12 -21 -12h-16zM1860 410h79l-38 86q0 2 -1.5 4 t-1.5 6v-6zM1987 74v186h112v-22h-92v-60h76v-20h-76v-64h92v-20h-112zM2013 0h47q23 0 44.5 -33t43.5 -65l62 -84q8 -16 8 -23v205h53v-291h-49l-139 195q-2 2 -2 3t-2 3l-4 8q-4 4 -4 6l-5 6v-221h-53v291zM2023 336v205h27v-179h90v-26h-117zM2144 74v186h66 q25 0 39 -17.5t14 -35.5q0 -16 -7.5 -27.5t-17.5 -19.5q-4 -2 -16 -6l62 -80h-13q-16 0 -22 10l-51 70h-33v-80h-21zM2165 174h45q10 0 21.5 8t11.5 25q0 12 -10.5 21.5t-22.5 9.5h-45v-64zM2257 416v125h27v-125q0 -23 16 -39.5t39 -16.5q20 0 36.5 15.5t16.5 40.5v125h29 v-125q0 -25 -9.5 -40.5t-22.5 -25.5t-27.5 -14t-22.5 -4q-41 0 -61.5 27.5t-20.5 56.5zM2296 0h223v-51h-86v-240h-53v240h-84v51zM2298 104l4 2q2 2 8 3q10 0 20.5 -8.5t22.5 -8.5q19 0 29 8q12 8 12 25q0 23 -24 33l-15 4q-14 4 -31.5 13t-17.5 38q0 18 15.5 33.5 t37.5 15.5q4 0 8.5 -1t8.5 -1l12 -6q4 -4 6 -5t4 -3l10 -8l-6 -5q-2 -4 -10 -4q-6 0 -10 2l-10 7q-4 0 -6.5 1t-6.5 1q-33 0 -32 -27q0 -16 18 -25l18 -6q4 -4 12.5 -6t14.5 -6l8 -4q18 -18 19 -41q0 -29 -20.5 -41t-43.5 -12q-20 0 -37.5 11t-17.5 21zM2449 373l9 2 q4 4 10 4q10 0 16 -6l2 -2q10 -10 29 -11q16 0 28.5 10.5t12.5 24.5q0 12 -12 25l-29 10l-21 10q-37 14 -36 49q0 29 21.5 41.5t41.5 12.5q16 0 31 -11l14 -10l10 -10l-8 -4q-6 -6 -14 -6q-10 0 -18.5 6t-14.5 6q-10 0 -14 -2l-10 -4q-10 -6 -11 -19q0 -14 21 -24l16 -6 q8 -4 10 -4l21 -9q16 -6 23.5 -20t7.5 -31q-1 -12 -7 -24q-20 -37 -63 -37q-23 0 -35 8t-24 20zM2458 74v186h20v-186h-20zM2521 166q0 43 31 69.5t65 26.5q41 0 69 -29.5t28 -66.5q0 -47 -31 -70.5t-66 -23.5q-40 -1 -67 26q-12 14 -20.5 31.5t-8.5 36.5zM2521 -229 q4 2 7 4t7 4l9 2q4 0 5 1t5 1q20 0 31.5 -11.5t31.5 -11.5q10 0 17 2l16 7q18 14 19 30q0 14 -19 25q-16 10 -35.5 16t-37 15.5t-30 25t-12.5 41.5q0 43 31 61.5t60 18.5q20 0 42.5 -12.5t38.5 -34.5l-10 -8q-16 -10 -31 -10h-6q-8 2 -16 7t-18 5q-37 0 -37 -27q0 -12 8 -17 t18 -9l35 -13q35 -10 51 -33q18 -16 19 -51q0 -45 -34 -68.5t-69 -23.5q-41 0 -63.5 21.5t-32.5 42.5zM2544 166q0 -31 21.5 -52.5t51.5 -21.5q37 0 55.5 23.5t18.5 50.5q0 29 -19.5 51.5t-54.5 22.5q-20 0 -38.5 -10t-28.5 -35q-6 -12 -6 -29zM2619 336v205h127v-29l-98 2 v-61h80v-29h-80v-62h98v-26h-127zM2736 -262q0 12 8.5 22.5t22.5 10.5q14 -1 24 -11q8 -8 9 -22q0 -31 -33 -31q-10 0 -20.5 7t-10.5 24zM2748 74v186h15q10 0 16 -8l96 -135q4 -4 4 -11v154h21v-186h-18l-111 153q-2 0 -1 3t-1 6v-162h-21zM2820 -145q0 55 40 101t108 46 q29 0 59.5 -13.5t52.5 -39.5l-10 -12q-10 -10 -29 -11q-16 0 -33.5 11.5t-39.5 11.5q-18 0 -36 -8.5t-32 -18.5q-12 -14 -20.5 -31.5t-8.5 -35.5q0 -39 29 -67t68 -28q27 0 40 11.5t33 11.5q16 0 29 -12l10 -11q-23 -29 -52.5 -41t-59.5 -12q-68 0 -108 46t-40 102z M2863 436q0 35 25.5 71t79.5 36q41 0 72.5 -29t31.5 -78q0 -16 -2 -26q-10 -23 -30.5 -49.5t-71.5 -26.5q-41 0 -73 27.5t-32 74.5zM2892 436q0 -23 18.5 -49.5t57.5 -26.5q31 0 54 23t23 53q1 38 -22 56q-23 23 -55 22q-29 0 -52.5 -21.5t-23.5 -56.5zM3037 74v186h113v-22 h-92v-64h77v-20h-77v-80h-21zM3101 -145q0 68 46 107.5t101 39.5q47 0 80 -22.5t49 -51.5q8 -16 13.5 -33.5t5.5 -39.5q0 -12 -6.5 -37t-22.5 -49.5t-45 -43t-74 -18.5q-35 0 -61.5 13.5t-46 34t-29.5 47t-10 53.5zM3111 336v205h20q12 0 21 -9l98 -137q4 -4 4 -7t2 -7v160 h29v-205h-25l-116 160q-2 0 -2 8l-2 4v-172h-29zM3154 -145q0 -41 28.5 -68t65.5 -27q33 0 53.5 15.5t34.5 42.5q4 10 6 18t2 19q0 43 -30.5 68.5t-65.5 25.5t-64.5 -26.5t-29.5 -67.5zM3172 74v186h66q25 0 40 -16.5t15 -36.5q0 -23 -12 -35q-10 -14 -29 -18l60 -80h-13 q-16 0 -20 10l-51 70h-35v-80h-21zM3193 174h45q10 0 14 2q10 4 14.5 12.5t4.5 18.5q0 12 -8.5 21.5t-24.5 9.5h-45v-64zM3330 166q0 29 24.5 62.5t71.5 33.5q35 0 66 -25.5t31 -70.5q0 -39 -29 -68q-27 -27 -68 -26q-39 0 -67.5 26.5t-28.5 67.5zM3334 336v205h29v-179h88 v-26h-117zM3353 166q0 -23 18 -48.5t55 -25.5q35 0 54.5 22.5t19.5 51.5q0 37 -23.5 55.5t-50.5 18.5q-29 0 -51 -20.5t-22 -53.5zM3422 541h21q16 0 24 -15l49 -65l2 -2v-4v2q0 4 3 4l49 65q6 14 24 15h21l-74 -101q-8 -8 -6 -8l-2 -4v-6v-86h-29v92q-2 2 -2 4l-6 8z M3434 0h52q18 0 30 -14l7 -9q8 -23 16 -44t18 -44l35 -88q4 -4 4 -18v-2q0 4 2 10t2 10l11 21l59 155q9 15 25 21q4 0 5 1t5 1h53v-291h-53v213q-2 -4 -2 -7t-2 -7q-20 -51 -39 -100.5t-41 -98.5h-49l-76 185q-4 8 -4 14l-4 12v-211h-54v291zM3561 74v186h17q4 0 10 -4t6 -8 l64 -144v-4q0 -2 2 -2q0 2 1 4t1 4l63 142q2 4 6 8q8 4 11 4h16v-186h-20v153l-2 -4v-2v-2l-19 -41q-8 -20 -17.5 -37.5t-13.5 -34.5l-16 -32h-20q-10 16 -17.5 34.5t-15.5 36.5l-33 74v2q0 2 -1 2t-1 2v-151h-21z" />
<glyph unicode="5" d="M145 297q0 47 15.5 102.5t50.5 120.5q0 25 10 64t24.5 74.5t31 61t30.5 25.5t19.5 -17t15.5 -28q23 37 73 107t119.5 151.5t158.5 167.5t192.5 156t219.5 115t238 45q88 0 150.5 -16.5t112.5 -41.5q-10 47 -34 111t-24 129q0 100 54.5 171t136.5 117t177 71.5t177 37.5 q156 16 264.5 16.5t177 10.5t99 42t30.5 114v26.5t-2 26.5q4 6 17.5 19.5t32.5 13.5q29 0 45 -14.5t23 -35t9 -44t2 -39.5q0 -113 -28.5 -178.5t-77.5 -100.5t-113.5 -47t-134.5 -19q-66 0 -145.5 3.5t-155.5 3.5q-133 0 -223 -20.5t-147.5 -58.5t-82 -91.5t-24.5 -116.5 q0 -123 14.5 -183.5t31.5 -92t31.5 -55t14.5 -73.5q0 -49 -12.5 -96t-34.5 -86q25 -12 47.5 -34.5t40.5 -48t28.5 -50.5t10.5 -43q0 -33 -21 -33q-10 0 -19 9.5t-21.5 21.5t-25.5 21.5t-28 9.5q-29 0 -62.5 -14.5t-62.5 -14.5q-39 0 -72.5 11.5t-58.5 29.5 q-35 -8 -67.5 -18.5t-67.5 -22.5q6 -25 11 -49.5t5 -44.5q0 -29 -10 -46.5t-26 -17.5q-12 0 -18.5 15.5t-13.5 33t-19.5 33t-36.5 15.5q-39 0 -81 -31t-77 -62q-90 -115 -161 -259t-127 -294.5t-100 -297t-77 -263.5q-23 0 -35 44t-12 116q0 86 15.5 193.5t37.5 212.5 q-16 -8 -34.5 -12.5t-37.5 -8.5q-16 -63 -27.5 -121.5t-18.5 -105.5t-11 -81t-6 -46q-4 -25 -10 -55.5t-15.5 -59.5t-20.5 -48t-22 -19q-10 0 -18 40.5t-14.5 113.5t-11.5 172.5t-11 215.5q-98 29 -147.5 92.5t-49.5 151.5zM213 279q0 -10 4 -17.5t12 -7.5q21 0 21 27 q0 25 -21 24q-8 0 -12 -8t-4 -18zM356 147q0 -10 8.5 -19t20.5 -11q12 0 19.5 9t7.5 19q0 12 -7.5 15.5t-19.5 3.5t-20.5 -2t-8.5 -15zM522 291q0 -10 4 -17.5t15 -7.5q6 0 10 7.5t4 15.5q0 20 -16 20t-17 -18zM528 166q0 41 29 68.5t68 27.5q18 0 36.5 -7t30.5 -22l-4 -4 q-4 -4 -8 -4h-4q-12 0 -23.5 7.5t-27.5 7.5q-31 0 -53.5 -21.5t-22.5 -52.5q0 -35 24.5 -54.5t51.5 -19.5q25 0 47 12v39h-15q-8 0 -13 6.5t-5 12.5v2h53v-72q-14 -16 -49 -20h-18q-31 0 -51.5 13.5t-30.5 33.5q-8 8 -11.5 21.5t-3.5 25.5zM528 -274q0 16 7 26l6 12 q6 6 8 11l127 174h-139v51h215v-25q0 -10 -2 -14l-7 -12l-143 -193q2 0 4 2t8 2h138v-51h-222v17zM705 336v205h71q29 0 47.5 -20.5t18.5 -45.5q0 -12 -6 -24q-6 -16 -21.5 -27.5t-38.5 -11.5h-45v-76h-26zM731 438h45q16 0 26.5 11.5t10.5 25.5q0 17 -10 27q-14 10 -27 10 h-45v-74zM737 74v186l115 -2v-20h-92v-60h74v-20h-74v-64h92v-20h-115zM786 0h187v-51h-133v-68h108v-51h-108v-70h133v-51h-187v291zM862 336v205h127v-29h-98v-59h80v-29h-80v-62h98v-26h-127zM874 238v22h140v-22h-60v-164h-20v164h-60zM983 0h223v-51h-84v-240h-53v240 h-86v51zM1032 336v205h74q25 0 42 -17.5t17 -44.5q0 -41 -41 -55l64 -88h-19q-20 0 -24 12l-53 72h-31v-84h-29zM1061 449h45q8 0 12 2l10 6l7 10q2 4 2 12q0 12 -8.5 22.5t-22.5 10.5h-45v-63zM1130 74v186h115v-22h-92v-64h78v-20h-78v-80h-23zM1163 -291l127 291h47 l127 -291h-32q-20 0 -35 23l-17 39h-133l-16 -39q-4 -8 -13.5 -15.5t-21.5 -7.5h-33zM1198 373l6 2q4 4 13 4q8 0 14 -6l4 -2q6 -10 27 -11q10 0 25.5 8.5t15.5 26.5t-12.5 23.5t-28.5 11.5l-21 10q-35 14 -35 49q0 33 22.5 43.5t39.5 10.5q8 0 17 -3t13 -8l15 -10 q4 -4 6 -5t4 -5l-8 -4q-6 -6 -15 -6q-10 0 -16 6t-16 6q-8 0 -13 -2l-12 -4q-8 -6 -8 -19q0 -10 3 -15t15 -9l19 -6q4 -2 9 -4t11 -4l8 -5q16 -6 23.5 -20t7.5 -31q0 -8 -4 -24q-23 -37 -65 -37q-16 0 -39 9t-23 26q-2 0 -2 4zM1272 -176h84l-37 88q-4 6 -4 10t-2 8 q0 -2 -4 -18zM1280 145v115h20v-115q0 -23 15.5 -38t38.5 -15q20 0 37.5 14.5t17.5 38.5v115h21v-115q0 -39 -26 -56t-50 -17q-31 0 -52.5 20.5t-21.5 52.5zM1354 436q0 43 31.5 75t74.5 32q45 0 75 -32t30 -75q0 -6 -1 -12t-3 -14q-10 -27 -32 -51.5t-69 -24.5 q-41 0 -73.5 28.5t-32.5 73.5zM1382 436q0 -23 18.5 -49.5t59.5 -26.5q29 0 52.5 21.5t23.5 54.5t-23 56q-18 23 -53 22q-29 0 -53.5 -21.5t-24.5 -56.5zM1468 74v186h21v-166h84v-20h-105zM1477 0h184v-51h-133v-74h112v-51h-112v-115h-51v291zM1595 74v186h21v-166h84v-20 h-105zM1604 336v205h20q14 0 21 -9l98 -137q4 -8 4 -14v160h29v-205h-23l-117 160q-2 2 -4 8v-168h-28zM1679 -145q0 37 13.5 64.5t35 46t48 27.5t51.5 9q47 0 80 -22.5t49 -51.5q8 -16 13 -33.5t5 -39.5q0 -66 -44 -107t-103 -41q-35 0 -62.5 13.5t-46 35t-29 47 t-10.5 52.5zM1733 -145q0 -41 28.5 -68t65.5 -27q61 1 88 58q4 10 6 18t2 19q0 41 -28.5 67.5t-67.5 26.5q-35 0 -64.5 -25.5t-29.5 -68.5zM1788 260h12q4 0 9.5 -3t7.5 -9l61 -139q0 -4 1 -6.5t1 -4.5v4q0 2 1 3t1 4l62 139q4 12 16 12h10l-80 -186h-20zM1796 336l90 205 h27l90 -205h-16q-14 0 -21 12l-14 33h-105l-14 -33q-6 -12 -21 -12h-16zM1860 410h79l-38 86q0 2 -1.5 4t-1.5 6v-6zM1987 74v186h112v-22h-92v-60h76v-20h-76v-64h92v-20h-112zM2013 0h47q23 0 44.5 -33t43.5 -65l62 -84q8 -16 8 -23v205h53v-291h-49l-139 195q-2 2 -2 3 t-2 3l-4 8q-4 4 -4 6l-5 6v-221h-53v291zM2023 336v205h27v-179h90v-26h-117zM2144 74v186h66q25 0 39 -17.5t14 -35.5q0 -16 -7.5 -27.5t-17.5 -19.5q-4 -2 -16 -6l62 -80h-13q-16 0 -22 10l-51 70h-33v-80h-21zM2165 174h45q10 0 21.5 8t11.5 25q0 12 -10.5 21.5 t-22.5 9.5h-45v-64zM2257 416v125h27v-125q0 -23 16 -39.5t39 -16.5q20 0 36.5 15.5t16.5 40.5v125h29v-125q0 -25 -9.5 -40.5t-22.5 -25.5t-27.5 -14t-22.5 -4q-41 0 -61.5 27.5t-20.5 56.5zM2296 0h223v-51h-86v-240h-53v240h-84v51zM2298 104l4 2q2 2 8 3q10 0 20.5 -8.5 t22.5 -8.5q19 0 29 8q12 8 12 25q0 23 -24 33l-15 4q-14 4 -31.5 13t-17.5 38q0 18 15.5 33.5t37.5 15.5q4 0 8.5 -1t8.5 -1l12 -6q4 -4 6 -5t4 -3l10 -8l-6 -5q-2 -4 -10 -4q-6 0 -10 2l-10 7q-4 0 -6.5 1t-6.5 1q-33 0 -32 -27q0 -16 18 -25l18 -6q4 -4 12.5 -6t14.5 -6 l8 -4q18 -18 19 -41q0 -29 -20.5 -41t-43.5 -12q-20 0 -37.5 11t-17.5 21zM2449 373l9 2q4 4 10 4q10 0 16 -6l2 -2q10 -10 29 -11q16 0 28.5 10.5t12.5 24.5q0 12 -12 25l-29 10l-21 10q-37 14 -36 49q0 29 21.5 41.5t41.5 12.5q16 0 31 -11l14 -10l10 -10l-8 -4 q-6 -6 -14 -6q-10 0 -18.5 6t-14.5 6q-10 0 -14 -2l-10 -4q-10 -6 -11 -19q0 -14 21 -24l16 -6q8 -4 10 -4l21 -9q16 -6 23.5 -20t7.5 -31q-1 -12 -7 -24q-20 -37 -63 -37q-23 0 -35 8t-24 20zM2458 74v186h20v-186h-20zM2521 166q0 43 31 69.5t65 26.5q41 0 69 -29.5 t28 -66.5q0 -47 -31 -70.5t-66 -23.5q-40 -1 -67 26q-12 14 -20.5 31.5t-8.5 36.5zM2521 -229q4 2 7 4t7 4l9 2q4 0 5 1t5 1q20 0 31.5 -11.5t31.5 -11.5q10 0 17 2l16 7q18 14 19 30q0 14 -19 25q-16 10 -35.5 16t-37 15.5t-30 25t-12.5 41.5q0 43 31 61.5t60 18.5 q20 0 42.5 -12.5t38.5 -34.5l-10 -8q-16 -10 -31 -10h-6q-8 2 -16 7t-18 5q-37 0 -37 -27q0 -12 8 -17t18 -9l35 -13q35 -10 51 -33q18 -16 19 -51q0 -45 -34 -68.5t-69 -23.5q-41 0 -63.5 21.5t-32.5 42.5zM2544 166q0 -31 21.5 -52.5t51.5 -21.5q37 0 55.5 23.5t18.5 50.5 q0 29 -19.5 51.5t-54.5 22.5q-20 0 -38.5 -10t-28.5 -35q-6 -12 -6 -29zM2619 336v205h127v-29l-98 2v-61h80v-29h-80v-62h98v-26h-127zM2736 -262q0 12 8.5 22.5t22.5 10.5q14 -1 24 -11q8 -8 9 -22q0 -31 -33 -31q-10 0 -20.5 7t-10.5 24zM2748 74v186h15q10 0 16 -8 l96 -135q4 -4 4 -11v154h21v-186h-18l-111 153q-2 0 -1 3t-1 6v-162h-21zM2820 -145q0 55 40 101t108 46q29 0 59.5 -13.5t52.5 -39.5l-10 -12q-10 -10 -29 -11q-16 0 -33.5 11.5t-39.5 11.5q-18 0 -36 -8.5t-32 -18.5q-12 -14 -20.5 -31.5t-8.5 -35.5q0 -39 29 -67t68 -28 q27 0 40 11.5t33 11.5q16 0 29 -12l10 -11q-23 -29 -52.5 -41t-59.5 -12q-68 0 -108 46t-40 102zM2863 436q0 35 25.5 71t79.5 36q41 0 72.5 -29t31.5 -78q0 -16 -2 -26q-10 -23 -30.5 -49.5t-71.5 -26.5q-41 0 -73 27.5t-32 74.5zM2892 436q0 -23 18.5 -49.5t57.5 -26.5 q31 0 54 23t23 53q1 38 -22 56q-23 23 -55 22q-29 0 -52.5 -21.5t-23.5 -56.5zM3037 74v186h113v-22h-92v-64h77v-20h-77v-80h-21zM3101 -145q0 68 46 107.5t101 39.5q47 0 80 -22.5t49 -51.5q8 -16 13.5 -33.5t5.5 -39.5q0 -12 -6.5 -37t-22.5 -49.5t-45 -43t-74 -18.5 q-35 0 -61.5 13.5t-46 34t-29.5 47t-10 53.5zM3111 336v205h20q12 0 21 -9l98 -137q4 -4 4 -7t2 -7v160h29v-205h-25l-116 160q-2 0 -2 8l-2 4v-172h-29zM3154 -145q0 -41 28.5 -68t65.5 -27q33 0 53.5 15.5t34.5 42.5q4 10 6 18t2 19q0 43 -30.5 68.5t-65.5 25.5 t-64.5 -26.5t-29.5 -67.5zM3172 74v186h66q25 0 40 -16.5t15 -36.5q0 -23 -12 -35q-10 -14 -29 -18l60 -80h-13q-16 0 -20 10l-51 70h-35v-80h-21zM3193 174h45q10 0 14 2q10 4 14.5 12.5t4.5 18.5q0 12 -8.5 21.5t-24.5 9.5h-45v-64zM3330 166q0 29 24.5 62.5t71.5 33.5 q35 0 66 -25.5t31 -70.5q0 -39 -29 -68q-27 -27 -68 -26q-39 0 -67.5 26.5t-28.5 67.5zM3334 336v205h29v-179h88v-26h-117zM3353 166q0 -23 18 -48.5t55 -25.5q35 0 54.5 22.5t19.5 51.5q0 37 -23.5 55.5t-50.5 18.5q-29 0 -51 -20.5t-22 -53.5zM3422 541h21q16 0 24 -15 l49 -65l2 -2v-4v2q0 4 3 4l49 65q6 14 24 15h21l-74 -101q-8 -8 -6 -8l-2 -4v-6v-86h-29v92q-2 2 -2 4l-6 8zM3434 0h52q18 0 30 -14l7 -9q8 -23 16 -44t18 -44l35 -88q4 -4 4 -18v-2q0 4 2 10t2 10l11 21l59 155q9 15 25 21q4 0 5 1t5 1h53v-291h-53v213q-2 -4 -2 -7t-2 -7 q-20 -51 -39 -100.5t-41 -98.5h-49l-76 185q-4 8 -4 14l-4 12v-211h-54v291zM3561 74v186h17q4 0 10 -4t6 -8l64 -144v-4q0 -2 2 -2q0 2 1 4t1 4l63 142q2 4 6 8q8 4 11 4h16v-186h-20v153l-2 -4v-2v-2l-19 -41q-8 -20 -17.5 -37.5t-13.5 -34.5l-16 -32h-20 q-10 16 -17.5 34.5t-15.5 36.5l-33 74v2q0 2 -1 2t-1 2v-151h-21z" />
<glyph unicode="6" d="M528 166q0 41 29 68.5t68 27.5q18 0 36.5 -7t30.5 -22l-4 -4q-4 -4 -8 -4h-4q-12 0 -23.5 7.5t-27.5 7.5q-31 0 -53.5 -21.5t-22.5 -52.5q0 -35 24.5 -54.5t51.5 -19.5q25 0 47 12v39h-15q-8 0 -13 6.5t-5 12.5v2h53v-72q-14 -16 -49 -20h-18q-31 0 -51.5 13.5 t-30.5 33.5q-8 8 -11.5 21.5t-3.5 25.5zM528 -274q0 16 7 26l6 12q6 6 8 11l127 174h-139v51h215v-25q0 -10 -2 -14l-7 -12l-143 -193q2 0 4 2t8 2h138v-51h-222v17zM705 336v205h71q29 0 47.5 -20.5t18.5 -45.5q0 -12 -6 -24q-6 -16 -21.5 -27.5t-38.5 -11.5h-45v-76h-26z M731 438h45q16 0 26.5 11.5t10.5 25.5q0 17 -10 27q-14 10 -27 10h-45v-74zM737 74v186l115 -2v-20h-92v-60h74v-20h-74v-64h92v-20h-115zM786 0h187v-51h-133v-68h108v-51h-108v-70h133v-51h-187v291zM862 336v205h127v-29h-98v-59h80v-29h-80v-62h98v-26h-127zM874 238v22 h140v-22h-60v-164h-20v164h-60zM983 0h223v-51h-84v-240h-53v240h-86v51zM1032 336v205h74q25 0 42 -17.5t17 -44.5q0 -41 -41 -55l64 -88h-19q-20 0 -24 12l-53 72h-31v-84h-29zM1061 449h45q8 0 12 2l10 6l7 10q2 4 2 12q0 12 -8.5 22.5t-22.5 10.5h-45v-63zM1130 74v186 h115v-22h-92v-64h78v-20h-78v-80h-23zM1163 -291l127 291h47l127 -291h-32q-20 0 -35 23l-17 39h-133l-16 -39q-4 -8 -13.5 -15.5t-21.5 -7.5h-33zM1198 373l6 2q4 4 13 4q8 0 14 -6l4 -2q6 -10 27 -11q10 0 25.5 8.5t15.5 26.5t-12.5 23.5t-28.5 11.5l-21 10q-35 14 -35 49 q0 33 22.5 43.5t39.5 10.5q8 0 17 -3t13 -8l15 -10q4 -4 6 -5t4 -5l-8 -4q-6 -6 -15 -6q-10 0 -16 6t-16 6q-8 0 -13 -2l-12 -4q-8 -6 -8 -19q0 -10 3 -15t15 -9l19 -6q4 -2 9 -4t11 -4l8 -5q16 -6 23.5 -20t7.5 -31q0 -8 -4 -24q-23 -37 -65 -37q-16 0 -39 9t-23 26 q-2 0 -2 4zM1272 -176h84l-37 88q-4 6 -4 10t-2 8q0 -2 -4 -18zM1280 145v115h20v-115q0 -23 15.5 -38t38.5 -15q20 0 37.5 14.5t17.5 38.5v115h21v-115q0 -39 -26 -56t-50 -17q-31 0 -52.5 20.5t-21.5 52.5zM1354 436q0 43 31.5 75t74.5 32q45 0 75 -32t30 -75q0 -6 -1 -12 t-3 -14q-10 -27 -32 -51.5t-69 -24.5q-41 0 -73.5 28.5t-32.5 73.5zM1382 436q0 -23 18.5 -49.5t59.5 -26.5q29 0 52.5 21.5t23.5 54.5t-23 56q-18 23 -53 22q-29 0 -53.5 -21.5t-24.5 -56.5zM1468 74v186h21v-166h84v-20h-105zM1477 0h184v-51h-133v-74h112v-51h-112v-115 h-51v291zM1595 74v186h21v-166h84v-20h-105zM1604 336v205h20q14 0 21 -9l98 -137l4 -12v158h29v-205h-23l-117 160q-2 2 -4 8v-168h-28zM1679 -145q0 37 13.5 64.5t35 46t48 27.5t51.5 9q47 0 80 -22.5t49 -51.5q8 -16 13 -33.5t5 -39.5q0 -66 -44 -107t-103 -41 q-35 0 -62.5 13.5t-46 35t-29 47t-10.5 52.5zM1733 -145q0 -41 28.5 -68t65.5 -27q61 1 88 58q4 10 6 18t2 19q0 41 -28.5 67.5t-67.5 26.5q-35 0 -64.5 -25.5t-29.5 -68.5zM1765 993q0 78 39 149.5t94 125.5q-10 27 -10 61q0 20 5 42t14 22q14 0 30.5 -23.5t28.5 -34.5 l19 -10q37 14 77.5 19.5t81.5 5.5q29 0 59.5 -3.5t55.5 -9.5t41 -12t16 -12q16 10 40 19t46 9q12 0 13 -8q0 -25 -17.5 -53.5t-17.5 -48.5q0 2 0 -5t5 -16.5t18.5 -17.5t39.5 -8q20 0 49 10t68 35.5t89 72t112 119.5q90 104 206.5 149.5t239.5 45.5q88 0 173 -21.5 t157 -60.5t124 -92t75 -115q16 -41 20 -82t4 -82q23 -23 44.5 -58.5t38.5 -74.5t27.5 -78t10.5 -67q0 -74 -28.5 -144.5t-69.5 -134t-86 -116t-78 -91.5q-35 -41 -68 -80.5t-63 -78.5l4 -4q31 -25 31 -70q0 -39 -29 -68q-27 -27 -68 -26q-27 0 -47 10q-16 -25 -30.5 -50.5 t-26.5 -47.5l6 -4q33 -23 49 -52q8 -16 13.5 -33.5t5.5 -39.5q0 -12 -6.5 -37t-22.5 -49.5t-45 -42.5q-20 -12 -49 -17q12 -27 31.5 -49t37 -45t30.5 -46.5t13 -47.5q0 -25 -25.5 -38t-56.5 -13q-43 0 -85 19t-78.5 53t-63.5 81t-39 103q-4 -4 -10 -7q-29 -12 -59 -12 q-68 0 -108 46t-40 102q0 55 40 101t108 46q29 0 59 -12q10 -4 18 -10q10 41 23.5 83.5t36.5 90.5h-47v-80h-21v186h113v-22h-92v-64h57q45 90 127 184l-98 138q-2 0 -2 8l-2 4v-172h-29v205h20q12 0 21 -9l98 -137q4 -4 4 -7t2 -7v160h29v-138q6 8 13 14.5t16 14.5l20 19 v90h29v-64q16 16 32.5 28.5t32.5 26.5l-6 9h17q74 57 137 102t110.5 84t75 78t27.5 86t-12.5 83t-32.5 64q-37 -154 -134.5 -232.5t-220.5 -78.5q-104 0 -204.5 3t-187.5 6t-154.5 6t-104.5 3h-99.5t-113.5 -8t-97 -26.5t-52 -55.5q-4 -18 -7.5 -37.5t-7.5 -37t-13 -28.5 t-26 -11q-23 4 -41 36.5t-18 81.5q0 31 10.5 57.5t26.5 55.5q-70 -23 -133 -35q-18 -39 -25.5 -70.5t-7.5 -54.5q0 -29 12.5 -51t26.5 -40.5t26.5 -34t12.5 -31.5q0 -10 -11.5 -20.5t-27.5 -10.5q-70 0 -123 59v-121h90v-26h-117v184q-14 27 -22 57.5t-8 65.5q0 23 4 46.5 t10 49.5q-111 23 -176.5 89.5t-65.5 164.5zM1788 260h12q4 0 9.5 -3t7.5 -9l61 -139q0 -4 1 -6.5t1 -4.5v4l2 7l62 139q4 12 16 12h10l-80 -186h-20zM1796 336l90 205h27l90 -205h-16q-14 0 -21 12l-14 33h-105l-14 -33q-6 -12 -21 -12h-16zM1860 410h79l-38 86q-1 2 -3 4z M1905 1044q0 -18 14 -18q8 0 13 7t5 11q-4 16 -18 17q-14 -4 -14 -17zM1987 74v186h112v-22h-92v-60h76v-20h-76v-64h92v-20h-112zM2013 0h47q23 0 44.5 -33t43.5 -65l62 -84q8 -16 8 -23v205h53v-291h-49l-139 195l-4 6l-4 8q-4 4 -4 6l-5 6v-221h-53v291zM2034 967 q0 -10 9 -19.5t19 -11.5q10 0 19.5 10.5t9.5 20.5q0 14 -27 14q-12 0 -20 -2t-10 -12zM2144 74v186h66q25 0 39 -17.5t14 -35.5q0 -16 -7.5 -27.5t-17.5 -19.5q-4 -2 -16 -6l62 -80h-13q-16 0 -22 10l-51 70h-33v-80h-21zM2165 174h45q10 0 21.5 8t11.5 25q0 12 -10.5 21.5 t-22.5 9.5h-45v-64zM2232 1042q2 -16 19 -16q10 0 15 7.5t5 15.5q0 16 -20 16q-18 -6 -19 -23zM2257 416v125h27v-125q0 -23 16 -39.5t39 -16.5q20 0 36.5 15.5t16.5 40.5v125h29v-125q0 -25 -9.5 -40.5t-22.5 -25.5t-27.5 -14t-22.5 -4q-41 0 -61.5 27.5t-20.5 56.5z M2296 0h223v-51h-86v-240h-53v240h-84v51zM2298 104l4 2q2 2 8 3q10 0 20.5 -8.5t22.5 -8.5q19 0 29 8q12 8 12 25q0 23 -24 33l-15 4q-14 4 -31.5 13t-17.5 38q0 18 15.5 33.5t37.5 15.5q4 0 8.5 -1t8.5 -1l12 -6q4 -4 6 -5t4 -3l10 -8l-6 -5q-2 -4 -10 -4q-6 0 -10 2 l-10 7q-4 0 -6.5 1t-6.5 1q-33 0 -32 -27q0 -16 18 -25l18 -6q4 -4 12.5 -6t14.5 -6l8 -4q18 -18 19 -41q0 -29 -20.5 -41t-43.5 -12q-20 0 -37.5 11t-17.5 21zM2449 373l9 2q4 4 10 4q10 0 16 -6l2 -2q10 -10 29 -11q16 0 28.5 10.5t12.5 24.5q0 12 -12 25l-29 10l-21 10 q-37 14 -36 49q0 29 21.5 41.5t41.5 12.5q16 0 31 -11l14 -10l10 -10l-8 -4q-6 -6 -14 -6q-10 0 -18.5 6t-14.5 6q-10 0 -14 -2l-10 -4q-10 -6 -11 -19q0 -14 21 -24l16 -6q8 -4 10 -4l21 -9q16 -6 23.5 -20t7.5 -31q-1 -12 -7 -24q-20 -37 -63 -37q-23 0 -35 8t-24 20z M2458 74v186h20v-186h-20zM2521 166q0 43 31 69.5t65 26.5q41 0 69 -29.5t28 -66.5q0 -47 -31 -70.5t-66 -23.5q-40 -1 -67 26q-12 14 -20.5 31.5t-8.5 36.5zM2521 -229q4 2 7 4t7 4l9 2q4 0 5 1t5 1q20 0 31.5 -11.5t31.5 -11.5q10 0 17 2l16 7q18 14 19 30q0 14 -19 25 q-16 10 -35.5 16t-37 15.5t-30 25t-12.5 41.5q0 43 31 61.5t60 18.5q20 0 42.5 -12.5t38.5 -34.5l-10 -8q-16 -10 -31 -10h-6q-8 2 -16 7t-18 5q-37 0 -37 -27q0 -12 8 -17t18 -9l35 -13q35 -10 51 -33q18 -16 19 -51q0 -45 -34 -68.5t-69 -23.5q-41 0 -63.5 21.5 t-32.5 42.5zM2544 166q0 -31 21.5 -52.5t51.5 -21.5q37 0 55.5 23.5t18.5 50.5q0 29 -19.5 51.5t-54.5 22.5q-20 0 -38.5 -10t-28.5 -35q-6 -12 -6 -29zM2619 336v205h127v-29l-98 2v-61h80v-29h-80v-62h98v-26h-127zM2736 -262q0 12 8.5 22.5t22.5 10.5q14 -1 24 -11 q8 -8 9 -22q0 -31 -33 -31q-10 0 -20.5 7t-10.5 24zM2748 74v186h15q10 0 16 -8l96 -135q4 -4 4 -11v154h21v-186h-18l-111 153l-2 2q2 4 0 7v-162h-21zM2863 436q0 35 25.5 71t79.5 36q41 0 72.5 -29t31.5 -78q0 -16 -2 -26q-10 -23 -30.5 -49.5t-71.5 -26.5 q-41 0 -73 27.5t-32 74.5zM2871 -145q0 -39 29 -67t68 -28q27 0 38 13q10 8 23 10v20q0 29 2 60t6 63q-14 2 -31 13q-16 10 -38 10q-18 0 -36 -8.5t-32 -18.5q-12 -14 -20.5 -31.5t-8.5 -35.5zM2892 436q0 -23 18.5 -49.5t57.5 -26.5q31 0 54 23t23 53q1 38 -22 56 q-23 23 -55 22q-29 0 -52.5 -21.5t-23.5 -56.5zM3258 -231v-9q25 2 43 17q21 14 35 41q4 10 6 18t2 19q0 43 -30 69q-8 6 -17 10q-39 -94 -39 -165zM3389 100q14 -8 37 -8q35 0 54.5 22.5t19.5 51.5q0 37 -25 55q-47 -57 -86 -121zM3434 0h52q18 0 30 -14l7 -9q8 -23 16 -44 t18 -44l35 -88q2 -2 4 -14l2 4q2 6 2 10l11 21l59 155q9 15 25 21q4 0 5 1t5 1h53v-291h-53v213q-2 -4 -2 -7t-2 -7q-20 -51 -39 -100.5t-41 -98.5h-49l-76 185q-4 8 -4 14l-4 12v-211h-54v291zM3561 74v186h17q4 0 10 -4t6 -8l64 -144v-4l2 -2q0 2 1 4t1 4l63 142q2 4 6 8 q8 4 11 4h16v-186h-20v153l-2 -4v-4l-19 -41q-8 -20 -17.5 -37.5t-13.5 -34.5l-16 -32h-20q-10 16 -17.5 34.5t-15.5 36.5l-33 74v2l-2 4v-151h-21z" />
<glyph unicode="7" d="M528 166q0 41 29 68.5t68 27.5q18 0 36.5 -7t30.5 -22l-4 -4q-4 -4 -8 -4h-4q-12 0 -23.5 7.5t-27.5 7.5q-31 0 -53.5 -21.5t-22.5 -52.5q0 -35 24.5 -54.5t51.5 -19.5q25 0 47 12v39h-15q-8 0 -13 6.5t-5 12.5v2h53v-72q-14 -16 -49 -20h-18q-31 0 -51.5 13.5 t-30.5 33.5q-8 8 -11.5 21.5t-3.5 25.5zM528 -274q0 16 7 26l6 12q6 6 8 11l127 174h-139v51h215v-25q0 -10 -2 -14l-7 -12l-143 -193q2 0 4 2t8 2h138v-51h-222v17zM705 336v205h71q29 0 47.5 -20.5t18.5 -45.5q0 -12 -6 -24q-6 -16 -21.5 -27.5t-38.5 -11.5h-45v-76h-26z M731 438h45q16 0 26.5 11.5t10.5 25.5q0 17 -10 27q-14 10 -27 10h-45v-74zM737 74v186l115 -2v-20h-92v-60h74v-20h-74v-64h92v-20h-115zM786 0h187v-51h-133v-68h108v-51h-108v-70h133v-51h-187v291zM862 336v205h127v-29h-98v-59h80v-29h-80v-62h98v-26h-127zM874 238v22 h140v-22h-60v-164h-20v164h-60zM926 1778q0 139 63.5 235t156.5 156.5t198.5 87.5t187.5 27q113 0 187.5 -17.5t119.5 -46.5t63.5 -65.5t18.5 -75.5q0 -55 -31.5 -101.5t-103.5 -46.5q-43 0 -94.5 16.5t-101.5 36t-93 36t-67 16.5q-31 0 -83.5 -20.5t-102.5 -59.5t-87 -96.5 t-37 -130.5q0 -51 21.5 -103.5t68.5 -99.5q18 37 55.5 90t89.5 101t119.5 83t147.5 35q59 0 126 -22.5t142 -75.5q111 -80 199 -139.5t158.5 -98.5t128 -57.5t110.5 -18.5q49 0 86 15.5t75 40t86 54.5t122 56q2 6 16.5 34t35 58.5t44 54t43.5 23.5q14 0 26.5 -17.5t22 -43 t15.5 -54t10 -51.5q53 -14 98 -44.5t80 -71.5q10 2 26.5 5t32.5 3q8 0 16.5 -3t14.5 -3q18 -4 19 -17q0 -12 -9.5 -27.5t-20.5 -28.5t-20.5 -24.5t-11.5 -13.5q0 -12 2 -23.5t2 -23.5q0 -57 -23.5 -106.5t-64.5 -85t-96 -56t-119 -20.5q-27 0 -55.5 2t-54.5 16 q59 -47 98 -106.5t61.5 -113.5t31.5 -92t9 -40q0 -16 -16 -17q-2 0 -11.5 -1t-19.5 -2t-20.5 0t-12.5 6q-29 31 -55.5 41t-61 12t-80.5 4t-110 14q-25 4 -55.5 25.5t-48.5 36.5q-14 -23 -11 -51.5t9 -58.5t8 -54.5t-12 -36.5h-107q-47 0 -81 17.5t-58.5 46t-40.5 64.5 t-29 73q-68 -10 -133 -19.5t-131 -9.5q-10 0 -22.5 2t-22.5 2q-4 -8 -5 -14t-1 -13q0 -23 22.5 -42t44 -36.5t31.5 -33t-12 -29.5q-152 -10 -251 42t-153 138q-96 -35 -96 -69q0 -8 4 -15q35 -35 52.5 -60.5t-11.5 -35.5q-33 -10 -76 -13t-81 13q-47 27 -83 86.5t-64 134 t-45 159.5t-28.5 162t-16.5 138t-5 92q-39 23 -85 55.5t-85 77.5t-65.5 101.5t-26.5 126.5zM983 0h223v-51h-84v-240h-53v240h-86v51zM1032 336v205h74q25 0 42 -17.5t17 -44.5q0 -41 -41 -55l64 -88h-19q-20 0 -24 12l-53 72h-31v-84h-29zM1061 449h45q8 0 12 2l10 6l7 10 q2 4 2 12q0 12 -8.5 22.5t-22.5 10.5h-45v-63zM1130 74v186h115v-22h-92v-64h78v-20h-78v-80h-23zM1163 -291l127 291h47l127 -291h-32q-20 0 -35 23l-17 39h-133l-16 -39q-4 -8 -13.5 -15.5t-21.5 -7.5h-33zM1198 373l6 2q4 4 13 4q8 0 14 -6l4 -2q6 -10 27 -11 q10 0 25.5 8.5t15.5 26.5t-12.5 23.5t-28.5 11.5l-21 10q-35 14 -35 49q0 33 22.5 43.5t39.5 10.5q8 0 17 -3t13 -8l15 -10q4 -4 6 -5t4 -5l-8 -4q-6 -6 -15 -6q-10 0 -16 6t-16 6q-8 0 -13 -2l-12 -4q-8 -6 -8 -19q0 -10 3 -15t15 -9l19 -6q4 -2 9 -4t11 -4l8 -5 q16 -6 23.5 -20t7.5 -31q0 -8 -4 -24q-23 -37 -65 -37q-16 0 -39 9t-23 26q-2 0 -2 4zM1272 -176h84l-37 88q-4 6 -4 10t-2 8q0 -2 -4 -18zM1280 145v115h20v-115q0 -23 15.5 -38t38.5 -15q20 0 37.5 14.5t17.5 38.5v115h21v-115q0 -39 -26 -56t-50 -17q-31 0 -52.5 20.5 t-21.5 52.5zM1354 436q0 43 31.5 75t74.5 32q45 0 75 -32t30 -75q0 -6 -1 -12t-3 -14q-10 -27 -32 -51.5t-69 -24.5q-41 0 -73.5 28.5t-32.5 73.5zM1382 436q0 -23 18.5 -49.5t59.5 -26.5q29 0 52.5 21.5t23.5 54.5t-23 56q-18 23 -53 22q-29 0 -53.5 -21.5t-24.5 -56.5z M1468 74v186h21v-166h84v-20h-105zM1477 0h184v-51h-133v-74h112v-51h-112v-115h-51v291zM1595 74v186h21v-166h84v-20h-105zM1604 336v205h20q14 0 21 -9l98 -137q4 -8 4 -14v160h29v-205h-23l-117 160q-2 2 -4 8v-168h-28zM1679 -145q0 37 13.5 64.5t35 46t48 27.5t51.5 9 q47 0 80 -22.5t49 -51.5q8 -16 13 -33.5t5 -39.5q0 -66 -44 -107t-103 -41q-35 0 -62.5 13.5t-46 35t-29 47t-10.5 52.5zM1733 -145q0 -41 28.5 -68t65.5 -27q61 1 88 58q4 10 6 18t2 19q0 41 -28.5 67.5t-67.5 26.5q-35 0 -64.5 -25.5t-29.5 -68.5zM1788 260h12q4 0 9.5 -3 t7.5 -9l61 -139q0 -4 1 -6.5t1 -4.5v4q0 2 1 3t1 4l62 139q4 12 16 12h10l-80 -186h-20zM1796 336l90 205h27l90 -205h-16q-14 0 -21 12l-14 33h-105l-14 -33q-6 -12 -21 -12h-16zM1860 410h79l-38 86q0 2 -1.5 4t-1.5 6v-6zM1987 74v186h112v-22h-92v-60h76v-20h-76v-64h92 v-20h-112zM2013 0h47q23 0 44.5 -33t43.5 -65l62 -84q8 -16 8 -23v205h53v-291h-49l-139 195q-2 2 -2 3t-2 3l-4 8q-4 4 -4 6l-5 6v-221h-53v291zM2023 336v205h27v-179h90v-26h-117zM2144 74v186h66q25 0 39 -17.5t14 -35.5q0 -16 -7.5 -27.5t-17.5 -19.5q-4 -2 -16 -6 l62 -80h-13q-16 0 -22 10l-51 70h-33v-80h-21zM2165 174h45q10 0 21.5 8t11.5 25q0 12 -10.5 21.5t-22.5 9.5h-45v-64zM2257 416v125h27v-125q0 -23 16 -39.5t39 -16.5q20 0 36.5 15.5t16.5 40.5v125h29v-125q0 -25 -9.5 -40.5t-22.5 -25.5t-27.5 -14t-22.5 -4 q-41 0 -61.5 27.5t-20.5 56.5zM2296 0h223v-51h-86v-240h-53v240h-84v51zM2298 104l4 2q2 2 8 3q10 0 20.5 -8.5t22.5 -8.5q19 0 29 8q12 8 12 25q0 23 -24 33l-15 4q-14 4 -31.5 13t-17.5 38q0 18 15.5 33.5t37.5 15.5q4 0 8.5 -1t8.5 -1l12 -6q4 -4 6 -5t4 -3l10 -8l-6 -5 q-2 -4 -10 -4q-6 0 -10 2l-10 7q-4 0 -6.5 1t-6.5 1q-33 0 -32 -27q0 -16 18 -25l18 -6q4 -4 12.5 -6t14.5 -6l8 -4q18 -18 19 -41q0 -29 -20.5 -41t-43.5 -12q-20 0 -37.5 11t-17.5 21zM2449 373l9 2q4 4 10 4q10 0 16 -6l2 -2q10 -10 29 -11q16 0 28.5 10.5t12.5 24.5 q0 12 -12 25l-29 10l-21 10q-37 14 -36 49q0 29 21.5 41.5t41.5 12.5q16 0 31 -11l14 -10l10 -10l-8 -4q-6 -6 -14 -6q-10 0 -18.5 6t-14.5 6q-10 0 -14 -2l-10 -4q-10 -6 -11 -19q0 -14 21 -24l16 -6q8 -4 10 -4l21 -9q16 -6 23.5 -20t7.5 -31q-1 -12 -7 -24 q-20 -37 -63 -37q-23 0 -35 8t-24 20zM2458 74v186h20v-186h-20zM2521 166q0 43 31 69.5t65 26.5q41 0 69 -29.5t28 -66.5q0 -47 -31 -70.5t-66 -23.5q-40 -1 -67 26q-12 14 -20.5 31.5t-8.5 36.5zM2521 -229q4 2 7 4t7 4l9 2q4 0 5 1t5 1q20 0 31.5 -11.5t31.5 -11.5 q10 0 17 2l16 7q18 14 19 30q0 14 -19 25q-16 10 -35.5 16t-37 15.5t-30 25t-12.5 41.5q0 43 31 61.5t60 18.5q20 0 42.5 -12.5t38.5 -34.5l-10 -8q-16 -10 -31 -10h-6q-8 2 -16 7t-18 5q-37 0 -37 -27q0 -12 8 -17t18 -9l35 -13q35 -10 51 -33q18 -16 19 -51 q0 -45 -34 -68.5t-69 -23.5q-41 0 -63.5 21.5t-32.5 42.5zM2544 166q0 -31 21.5 -52.5t51.5 -21.5q37 0 55.5 23.5t18.5 50.5q0 29 -19.5 51.5t-54.5 22.5q-20 0 -38.5 -10t-28.5 -35q-6 -12 -6 -29zM2619 336v205h127v-29l-98 2v-61h80v-29h-80v-62h98v-26h-127zM2736 -262 q0 12 8.5 22.5t22.5 10.5q14 -1 24 -11q8 -8 9 -22q0 -31 -33 -31q-10 0 -20.5 7t-10.5 24zM2748 74v186h15q10 0 16 -8l96 -135q4 -4 4 -11v154h21v-186h-18l-111 153q-2 0 -1 3t-1 6v-162h-21zM2820 -145q0 55 40 101t108 46q29 0 59.5 -13.5t52.5 -39.5l-10 -12 q-10 -10 -29 -11q-16 0 -33.5 11.5t-39.5 11.5q-18 0 -36 -8.5t-32 -18.5q-12 -14 -20.5 -31.5t-8.5 -35.5q0 -39 29 -67t68 -28q27 0 40 11.5t33 11.5q16 0 29 -12l10 -11q-23 -29 -52.5 -41t-59.5 -12q-68 0 -108 46t-40 102zM2863 436q0 35 25.5 71t79.5 36 q41 0 72.5 -29t31.5 -78q0 -16 -2 -26q-10 -23 -30.5 -49.5t-71.5 -26.5q-41 0 -73 27.5t-32 74.5zM2892 436q0 -23 18.5 -49.5t57.5 -26.5q31 0 54 23t23 53q1 38 -22 56q-23 23 -55 22q-29 0 -52.5 -21.5t-23.5 -56.5zM3017 1407q0 -20 18 -21q25 0 25 21q0 12 -6.5 20.5 t-12.5 8.5q-25 0 -24 -19v-10zM3037 74v186h113v-22h-92v-64h77v-20h-77v-80h-21zM3101 -145q0 68 46 107.5t101 39.5q47 0 80 -22.5t49 -51.5q8 -16 13.5 -33.5t5.5 -39.5q0 -12 -6.5 -37t-22.5 -49.5t-45 -43t-74 -18.5q-35 0 -61.5 13.5t-46 34t-29.5 47t-10 53.5z M3111 336v205h20q12 0 21 -9l98 -137q4 -4 4 -7t2 -7v160h29v-205h-25l-116 160q-2 0 -2 8l-2 4v-172h-29zM3154 -145q0 -41 28.5 -68t65.5 -27q33 0 53.5 15.5t34.5 42.5q4 10 6 18t2 19q0 43 -30.5 68.5t-65.5 25.5t-64.5 -26.5t-29.5 -67.5zM3172 74v186h66 q25 0 40 -16.5t15 -36.5q0 -23 -12 -35q-10 -14 -29 -18l60 -80h-13q-16 0 -20 10l-51 70h-35v-80h-21zM3174 1214q0 -8 2 -17t7 -13q6 0 19 6t13 16t-13 16.5t-19 6.5q-8 0 -9 -6v-9zM3193 174h45q10 0 14 2q10 4 14.5 12.5t4.5 18.5q0 12 -8.5 21.5t-24.5 9.5h-45v-64z M3226 1313q0 -6 4 -12.5t8 -6.5q23 0 22 33q0 8 -6 13.5t-12 5.5q-4 0 -10 -6.5t-6 -18.5v-8zM3330 166q0 29 24.5 62.5t71.5 33.5q35 0 66 -25.5t31 -70.5q0 -39 -29 -68q-27 -27 -68 -26q-39 0 -67.5 26.5t-28.5 67.5zM3334 336v205h29v-179h88v-26h-117zM3353 166 q0 -23 18 -48.5t55 -25.5q35 0 54.5 22.5t19.5 51.5q0 37 -23.5 55.5t-50.5 18.5q-29 0 -51 -20.5t-22 -53.5zM3422 541h21q16 0 24 -15l49 -65l2 -2v-4v2q0 4 3 4l49 65q6 14 24 15h21l-74 -101q-8 -8 -6 -8l-2 -4v-6v-86h-29v92q-2 2 -2 4l-6 8zM3434 0h52q18 0 30 -14 l7 -9q8 -23 16 -44t18 -44l35 -88q4 -4 4 -18v-2q0 4 2 10t2 10l11 21l59 155q9 15 25 21q4 0 5 1t5 1h53v-291h-53v213q-2 -4 -2 -7t-2 -7q-20 -51 -39 -100.5t-41 -98.5h-49l-76 185q-4 8 -4 14l-4 12v-211h-54v291zM3561 74v186h17q4 0 10 -4t6 -8l64 -144v-4q0 -2 2 -2 q0 2 1 4t1 4l63 142q2 4 6 8q8 4 11 4h16v-186h-20v153l-2 -4v-2v-2l-19 -41q-8 -20 -17.5 -37.5t-13.5 -34.5l-16 -32h-20q-10 16 -17.5 34.5t-15.5 36.5l-33 74v2q0 2 -1 2t-1 2v-151h-21z" />
<glyph unicode="8" d="M528 166q0 41 29 68.5t68 27.5q18 0 36.5 -7t30.5 -22l-4 -4q-4 -4 -8 -4h-4q-12 0 -23.5 7.5t-27.5 7.5q-31 0 -53.5 -21.5t-22.5 -52.5q0 -35 24.5 -54.5t51.5 -19.5q25 0 47 12v39h-15q-8 0 -13 6.5t-5 12.5v2h53v-72q-14 -16 -49 -20h-18q-31 0 -51.5 13.5 t-30.5 33.5q-8 8 -11.5 21.5t-3.5 25.5zM528 -274q0 16 7 26l6 12q6 6 8 11l127 174h-139v51h215v-25q0 -10 -2 -14l-7 -12l-143 -193q2 0 4 2t8 2h138v-51h-222v17zM586 931.5q-6 69.5 2 139.5t32.5 132.5t73.5 107.5q74 68 116 136.5t64.5 125.5t33 100t16.5 62 q8 16 10 53t31 78q0 4 -1 8t-1 8v16.5t2 20.5q0 25 6 43q0 16 8 37q6 18 10 20q8 2 17 -16q4 -6 7 -12t9 -11l20 -20q2 -4 6.5 -7t8.5 -7q29 10 65.5 17t83.5 7h31.5t30.5 -2q20 -4 37.5 -8t27.5 -8q8 6 19.5 11t15.5 7q6 4 13.5 6t13.5 6q8 2 22 17q14 14 21 8q4 -4 4 -22 q0 -8 -1 -17.5t-3 -19.5q-4 -10 -5 -21.5t-6 -21.5v-2q23 -25 36.5 -52.5t19.5 -54.5t7 -49.5t1 -32.5q0 -6 -4 -14q-2 -8 -12 -21q-4 -6 -9.5 -11t-9.5 -11q-6 -4 -10 -8t-8 -7v-2q-31 -53 -46.5 -124.5t-11.5 -143.5t31 -136.5t80 -102.5q59 -45 73.5 -120t6.5 -151 q141 18 291.5 81t313.5 145.5t338 174t364.5 170t394.5 133t426 62.5q119 0 229.5 -22.5t194.5 -94.5q41 -35 71.5 -89t39.5 -111.5t-6 -109.5t-66 -85q-29 -18 -47.5 -14t-33 21.5t-26.5 43t-25 50.5q-10 23 -23 43t-24 34q-27 35 -68.5 50.5t-80.5 9.5 q-152 -23 -332 -86.5t-376.5 -143.5t-403.5 -166t-412 -152.5t-402.5 -101t-373.5 -14.5q-4 -10 -6 -16t-4 -10q-2 -6 -2 -11q-53 -10 -95.5 -13t-97.5 13q-47 4 -98 4t-109 -8q4 -10 -48 -15t-126 -5t-153.5 6t-130.5 18q-14 10 -31 51t-29 99.5t-18 128zM705 336v205h71 q29 0 47.5 -20.5t18.5 -45.5q0 -12 -6 -24q-6 -16 -21.5 -27.5t-38.5 -11.5h-45v-76h-26zM731 438h45q16 0 26.5 11.5t10.5 25.5q0 17 -10 27q-14 10 -27 10h-45v-74zM737 74v186l115 -2v-20h-92v-60h74v-20h-74v-64h92v-20h-115zM786 0h187v-51h-133v-68h108v-51h-108v-70 h133v-51h-187v291zM862 336v205h127v-29h-98v-59h80v-29h-80v-62h98v-26h-127zM874 238v22h140v-22h-60v-164h-20v164h-60zM983 0h223v-51h-84v-240h-53v240h-86v51zM1032 336v205h74q25 0 42 -17.5t17 -44.5q0 -41 -41 -55l64 -88h-19q-20 0 -24 12l-53 72h-31v-84h-29z M1061 449h45q8 0 12 2l10 6l7 10q2 4 2 12q0 12 -8.5 22.5t-22.5 10.5h-45v-63zM1102 1808q-4 -25 20 -28q19 -1 23 26q0 23 -19 31q-25 0 -24 -29zM1130 74v186h115v-22h-92v-64h78v-20h-78v-80h-23zM1163 -291l127 291h47l127 -291h-32q-20 0 -35 23l-17 39h-133l-16 -39 q-4 -8 -13.5 -15.5t-21.5 -7.5h-33zM1198 373l6 2q4 4 13 4q8 0 14 -6l4 -2q6 -10 27 -11q10 0 25.5 8.5t15.5 26.5t-12.5 23.5t-28.5 11.5l-21 10q-35 14 -35 49q0 33 22.5 43.5t39.5 10.5q8 0 17 -3t13 -8l15 -10q4 -4 6 -5t4 -5l-8 -4q-6 -6 -15 -6q-10 0 -16 6t-16 6 q-8 0 -13 -2l-12 -4q-8 -6 -8 -19q0 -10 3 -15t15 -9l19 -6q4 -2 9 -4t11 -4l8 -5q16 -6 23.5 -20t7.5 -31q0 -8 -4 -24q-23 -37 -65 -37q-16 0 -39 9t-23 26q-2 0 -2 4zM1272 -176h84l-37 88q-4 6 -4 10t-2 8q0 -2 -4 -18zM1278 1706q0 -8 8 -17.5t10 -9.5q4 0 13.5 9.5 t9.5 17.5q0 12 -23 12q-18 0 -18 -12zM1280 145v115h20v-115q0 -23 15.5 -38t38.5 -15q20 0 37.5 14.5t17.5 38.5v115h21v-115q0 -39 -26 -56t-50 -17q-31 0 -52.5 20.5t-21.5 52.5zM1352 1815q0 -29 20 -29q10 -4 16.5 5t8.5 19q0 25 -23 29q-18 0 -22 -24zM1354 436 q0 43 31.5 75t74.5 32q45 0 75 -32t30 -75q0 -6 -1 -12t-3 -14q-10 -27 -32 -51.5t-69 -24.5q-41 0 -73.5 28.5t-32.5 73.5zM1382 436q0 -23 18.5 -49.5t59.5 -26.5q29 0 52.5 21.5t23.5 54.5t-23 56q-18 23 -53 22q-29 0 -53.5 -21.5t-24.5 -56.5zM1468 74v186h21v-166h84 v-20h-105zM1477 0h184v-51h-133v-74h112v-51h-112v-115h-51v291zM1595 74v186h21v-166h84v-20h-105zM1604 336v205h20q14 0 21 -9l98 -137q4 -8 4 -14v160h29v-205h-23l-117 160q-2 2 -4 8v-168h-28zM1679 -145q0 37 13.5 64.5t35 46t48 27.5t51.5 9q47 0 80 -22.5t49 -51.5 q8 -16 13 -33.5t5 -39.5q0 -66 -44 -107t-103 -41q-35 0 -62.5 13.5t-46 35t-29 47t-10.5 52.5zM1733 -145q0 -41 28.5 -68t65.5 -27q61 1 88 58q4 10 6 18t2 19q0 41 -28.5 67.5t-67.5 26.5q-35 0 -64.5 -25.5t-29.5 -68.5zM1788 260h12q4 0 9.5 -3t7.5 -9l61 -139 q0 -4 1 -6.5t1 -4.5v4q0 2 1 3t1 4l62 139q4 12 16 12h10l-80 -186h-20zM1796 336l90 205h27l90 -205h-16q-14 0 -21 12l-14 33h-105l-14 -33q-6 -12 -21 -12h-16zM1860 410h79l-38 86q0 2 -1.5 4t-1.5 6v-6zM1987 74v186h112v-22h-92v-60h76v-20h-76v-64h92v-20h-112z M2013 0h47q23 0 44.5 -33t43.5 -65l62 -84q8 -16 8 -23v205h53v-291h-49l-139 195q-2 2 -2 3t-2 3l-4 8q-4 4 -4 6l-5 6v-221h-53v291zM2023 336v205h27v-179h90v-26h-117zM2144 74v186h66q25 0 39 -17.5t14 -35.5q0 -16 -7.5 -27.5t-17.5 -19.5q-4 -2 -16 -6l62 -80h-13 q-16 0 -22 10l-51 70h-33v-80h-21zM2165 174h45q10 0 21.5 8t11.5 25q0 12 -10.5 21.5t-22.5 9.5h-45v-64zM2257 416v125h27v-125q0 -23 16 -39.5t39 -16.5q20 0 36.5 15.5t16.5 40.5v125h29v-125q0 -25 -9.5 -40.5t-22.5 -25.5t-27.5 -14t-22.5 -4q-41 0 -61.5 27.5 t-20.5 56.5zM2296 0h223v-51h-86v-240h-53v240h-84v51zM2298 104l4 2q2 2 8 3q10 0 20.5 -8.5t22.5 -8.5q19 0 29 8q12 8 12 25q0 23 -24 33l-15 4q-14 4 -31.5 13t-17.5 38q0 18 15.5 33.5t37.5 15.5q4 0 8.5 -1t8.5 -1l12 -6q4 -4 6 -5t4 -3l10 -8l-6 -5q-2 -4 -10 -4 q-6 0 -10 2l-10 7q-4 0 -6.5 1t-6.5 1q-33 0 -32 -27q0 -16 18 -25l18 -6q4 -4 12.5 -6t14.5 -6l8 -4q18 -18 19 -41q0 -29 -20.5 -41t-43.5 -12q-20 0 -37.5 11t-17.5 21zM2449 373l9 2q4 4 10 4q10 0 16 -6l2 -2q10 -10 29 -11q16 0 28.5 10.5t12.5 24.5q0 12 -12 25 l-29 10l-21 10q-37 14 -36 49q0 29 21.5 41.5t41.5 12.5q16 0 31 -11l14 -10l10 -10l-8 -4q-6 -6 -14 -6q-10 0 -18.5 6t-14.5 6q-10 0 -14 -2l-10 -4q-10 -6 -11 -19q0 -14 21 -24l16 -6q8 -4 10 -4l21 -9q16 -6 23.5 -20t7.5 -31q-1 -12 -7 -24q-20 -37 -63 -37 q-23 0 -35 8t-24 20zM2458 74v186h20v-186h-20zM2521 166q0 43 31 69.5t65 26.5q41 0 69 -29.5t28 -66.5q0 -47 -31 -70.5t-66 -23.5q-40 -1 -67 26q-12 14 -20.5 31.5t-8.5 36.5zM2521 -229q4 2 7 4t7 4l9 2q4 0 5 1t5 1q20 0 31.5 -11.5t31.5 -11.5q10 0 17 2l16 7 q18 14 19 30q0 14 -19 25q-16 10 -35.5 16t-37 15.5t-30 25t-12.5 41.5q0 43 31 61.5t60 18.5q20 0 42.5 -12.5t38.5 -34.5l-10 -8q-16 -10 -31 -10h-6q-8 2 -16 7t-18 5q-37 0 -37 -27q0 -12 8 -17t18 -9l35 -13q35 -10 51 -33q18 -16 19 -51q0 -45 -34 -68.5t-69 -23.5 q-41 0 -63.5 21.5t-32.5 42.5zM2544 166q0 -31 21.5 -52.5t51.5 -21.5q37 0 55.5 23.5t18.5 50.5q0 29 -19.5 51.5t-54.5 22.5q-20 0 -38.5 -10t-28.5 -35q-6 -12 -6 -29zM2619 336v205h127v-29l-98 2v-61h80v-29h-80v-62h98v-26h-127zM2736 -262q0 12 8.5 22.5t22.5 10.5 q14 -1 24 -11q8 -8 9 -22q0 -31 -33 -31q-10 0 -20.5 7t-10.5 24zM2748 74v186h15q10 0 16 -8l96 -135q4 -4 4 -11v154h21v-186h-18l-111 153q-2 0 -1 3t-1 6v-162h-21zM2820 -145q0 55 40 101t108 46q29 0 59.5 -13.5t52.5 -39.5l-10 -12q-10 -10 -29 -11q-16 0 -33.5 11.5 t-39.5 11.5q-18 0 -36 -8.5t-32 -18.5q-12 -14 -20.5 -31.5t-8.5 -35.5q0 -39 29 -67t68 -28q27 0 40 11.5t33 11.5q16 0 29 -12l10 -11q-23 -29 -52.5 -41t-59.5 -12q-68 0 -108 46t-40 102zM2863 436q0 35 25.5 71t79.5 36q41 0 72.5 -29t31.5 -78q0 -16 -2 -26 q-10 -23 -30.5 -49.5t-71.5 -26.5q-41 0 -73 27.5t-32 74.5zM2892 436q0 -23 18.5 -49.5t57.5 -26.5q31 0 54 23t23 53q1 38 -22 56q-23 23 -55 22q-29 0 -52.5 -21.5t-23.5 -56.5zM3037 74v186h113v-22h-92v-64h77v-20h-77v-80h-21zM3101 -145q0 68 46 107.5t101 39.5 q47 0 80 -22.5t49 -51.5q8 -16 13.5 -33.5t5.5 -39.5q0 -12 -6.5 -37t-22.5 -49.5t-45 -43t-74 -18.5q-35 0 -61.5 13.5t-46 34t-29.5 47t-10 53.5zM3111 336v205h20q12 0 21 -9l98 -137q4 -4 4 -7t2 -7v160h29v-205h-25l-116 160q-2 0 -2 8l-2 4v-172h-29zM3154 -145 q0 -41 28.5 -68t65.5 -27q33 0 53.5 15.5t34.5 42.5q4 10 6 18t2 19q0 43 -30.5 68.5t-65.5 25.5t-64.5 -26.5t-29.5 -67.5zM3172 74v186h66q25 0 40 -16.5t15 -36.5q0 -23 -12 -35q-10 -14 -29 -18l60 -80h-13q-16 0 -20 10l-51 70h-35v-80h-21zM3193 174h45q10 0 14 2 q10 4 14.5 12.5t4.5 18.5q0 12 -8.5 21.5t-24.5 9.5h-45v-64zM3330 166q0 29 24.5 62.5t71.5 33.5q35 0 66 -25.5t31 -70.5q0 -39 -29 -68q-27 -27 -68 -26q-39 0 -67.5 26.5t-28.5 67.5zM3334 336v205h29v-179h88v-26h-117zM3353 166q0 -23 18 -48.5t55 -25.5 q35 0 54.5 22.5t19.5 51.5q0 37 -23.5 55.5t-50.5 18.5q-29 0 -51 -20.5t-22 -53.5zM3422 541h21q16 0 24 -15l49 -65l2 -2v-4v2q0 4 3 4l49 65q6 14 24 15h21l-74 -101q-8 -8 -6 -8l-2 -4v-6v-86h-29v92q-2 2 -2 4l-6 8zM3434 0h52q18 0 30 -14l7 -9q8 -23 16 -44t18 -44 l35 -88q4 -4 4 -18v-2q0 4 2 10t2 10l11 21l59 155q9 15 25 21q4 0 5 1t5 1h53v-291h-53v213q-2 -4 -2 -7t-2 -7q-20 -51 -39 -100.5t-41 -98.5h-49l-76 185q-4 8 -4 14l-4 12v-211h-54v291zM3561 74v186h17q4 0 10 -4t6 -8l64 -144v-4q0 -2 2 -2q0 2 1 4t1 4l63 142 q2 4 6 8q8 4 11 4h16v-186h-20v153l-2 -4v-2v-2l-19 -41q-8 -20 -17.5 -37.5t-13.5 -34.5l-16 -32h-20q-10 16 -17.5 34.5t-15.5 36.5l-33 74v2q0 2 -1 2t-1 2v-151h-21z" />
<glyph unicode="9" d="M528 166q0 41 29 68.5t68 27.5q18 0 36.5 -7t30.5 -22l-4 -4q-4 -4 -8 -4h-4q-12 0 -23.5 7.5t-27.5 7.5q-31 0 -53.5 -21.5t-22.5 -52.5q0 -35 24.5 -54.5t51.5 -19.5q25 0 47 12v39h-15q-8 0 -13 6.5t-5 12.5v2h53v-72q-14 -16 -49 -20h-18q-31 0 -51.5 13.5 t-30.5 33.5q-8 8 -11.5 21.5t-3.5 25.5zM528 -274q0 16 7 26l6 12q6 6 8 11l127 174h-139v51h215v-25q0 -10 -2 -14l-7 -12l-143 -193q2 0 4 2t8 2h138v-51h-222v17zM705 336v205h71q29 0 47.5 -20.5t18.5 -45.5q0 -12 -6 -24q-6 -16 -21.5 -27.5t-38.5 -11.5h-45v-76h-26z M731 438h45q16 0 26.5 11.5t10.5 25.5q0 17 -10 27q-14 10 -27 10h-45v-74zM731 750q0 33 6 66.5t27 62.5q33 55 69.5 108t100 97t167 74t271.5 34q100 0 180 -27.5t166 -62.5q51 27 110.5 54.5t123.5 62.5q-55 68 -56 106q0 29 8.5 56.5t22.5 52.5q-10 29 -24.5 75.5 t-14.5 92.5q0 16 1 29.5t7 23.5q31 -18 64 -39q29 -16 61.5 -34.5t63.5 -33.5q29 10 60.5 15.5t62.5 5.5q37 0 67.5 -5t59.5 -16q31 14 64.5 32.5t62.5 35.5q33 20 65 39q2 -10 6 -23.5t4 -25.5q0 -39 -12 -83t-24 -77q156 47 338 82t380 35q92 0 183.5 -18.5t168 -52.5 t135 -81t85.5 -104q16 -39 23.5 -73t7.5 -63q0 -53 -34 -95t-95 -42q-27 0 -47.5 16.5t-44 42t-52 55.5t-72 55.5t-102.5 42t-145 16.5q-117 0 -311.5 -35t-462.5 -115q16 -20 29.5 -42.5t21.5 -47.5q0 -23 25.5 -65t62.5 -84t80 -72.5t80 -30.5q49 0 79.5 -7t49 -19.5 t27.5 -28t20 -31.5h-537v-33q0 -72 -13.5 -87t-33.5 -15q-18 0 -33.5 8t-26 19.5t-16.5 21.5t-6 14q-35 10 -58.5 22.5t-45.5 29.5q-57 -2 -125 -3.5t-140.5 -2.5t-146.5 -1h-141h-324q-43 -6 -89 -14t-90 -16.5t-84 -14.5t-69 -6q-39 0 -78.5 4t-71.5 18.5t-51.5 43 t-19.5 78.5zM737 74v186l115 -2v-20h-92v-60h74v-20h-74v-64h92v-20h-115zM786 0h187v-51h-133v-68h108v-51h-108v-70h133v-51h-187v291zM862 336v205h127v-29h-98v-59h80v-29h-80v-62h98v-26h-127zM874 238v22h140v-22h-60v-164h-20v164h-60zM983 0h223v-51h-84v-240h-53 v240h-86v51zM1032 336v205h74q25 0 42 -17.5t17 -44.5q0 -41 -41 -55l64 -88h-19q-20 0 -24 12l-53 72h-31v-84h-29zM1061 449h45q8 0 12 2l10 6l7 10q2 4 2 12q0 12 -8.5 22.5t-22.5 10.5h-45v-63zM1130 74v186h115v-22h-92v-64h78v-20h-78v-80h-23zM1163 -291l127 291h47 l127 -291h-32q-20 0 -35 23l-17 39h-133l-16 -39q-4 -8 -13.5 -15.5t-21.5 -7.5h-33zM1198 373l6 2q4 4 13 4q8 0 14 -6l4 -2q6 -10 27 -11q10 0 25.5 8.5t15.5 26.5t-12.5 23.5t-28.5 11.5l-21 10q-35 14 -35 49q0 33 22.5 43.5t39.5 10.5q8 0 17 -3t13 -8l15 -10 q4 -4 6 -5t4 -5l-8 -4q-6 -6 -15 -6q-10 0 -16 6t-16 6q-8 0 -13 -2l-12 -4q-8 -6 -8 -19q0 -10 3 -15t15 -9l19 -6q4 -2 9 -4t11 -4l8 -5q16 -6 23.5 -20t7.5 -31q0 -8 -4 -24q-23 -37 -65 -37q-16 0 -39 9t-23 26q-2 0 -2 4zM1272 -176h84l-37 88q-4 6 -4 10t-2 8 q0 -2 -4 -18zM1280 145v115h20v-115q0 -23 15.5 -38t38.5 -15q20 0 37.5 14.5t17.5 38.5v115h21v-115q0 -39 -26 -56t-50 -17q-31 0 -52.5 20.5t-21.5 52.5zM1354 436q0 43 31.5 75t74.5 32q45 0 75 -32t30 -75q0 -6 -1 -12t-3 -14q-10 -27 -32 -51.5t-69 -24.5 q-41 0 -73.5 28.5t-32.5 73.5zM1382 436q0 -23 18.5 -49.5t59.5 -26.5q29 0 52.5 21.5t23.5 54.5t-23 56q-18 23 -53 22q-29 0 -53.5 -21.5t-24.5 -56.5zM1468 74v186h21v-166h84v-20h-105zM1477 0h184v-51h-133v-74h112v-51h-112v-115h-51v291zM1595 74v186h21v-166h84v-20 h-105zM1604 336v205h20q14 0 21 -9l98 -137q4 -8 4 -14v160h29v-205h-23l-117 160q-2 2 -4 8v-168h-28zM1679 -145q0 37 13.5 64.5t35 46t48 27.5t51.5 9q47 0 80 -22.5t49 -51.5q8 -16 13 -33.5t5 -39.5q0 -66 -44 -107t-103 -41q-35 0 -62.5 13.5t-46 35t-29 47 t-10.5 52.5zM1733 -145q0 -41 28.5 -68t65.5 -27q61 1 88 58q4 10 6 18t2 19q0 41 -28.5 67.5t-67.5 26.5q-35 0 -64.5 -25.5t-29.5 -68.5zM1788 260h12q4 0 9.5 -3t7.5 -9l61 -139q0 -4 1 -6.5t1 -4.5v4q0 2 1 3t1 4l62 139q4 12 16 12h10l-80 -186h-20zM1796 336l90 205 h27l90 -205h-16q-14 0 -21 12l-14 33h-105l-14 -33q-6 -12 -21 -12h-16zM1860 410h79l-38 86q0 2 -1.5 4t-1.5 6v-6zM1987 74v186h112v-22h-92v-60h76v-20h-76v-64h92v-20h-112zM2013 0h47q23 0 44.5 -33t43.5 -65l62 -84q8 -16 8 -23v205h53v-291h-49l-139 195q-2 2 -2 3 t-2 3l-4 8q-4 4 -4 6l-5 6v-221h-53v291zM2023 336v205h27v-179h90v-26h-117zM2034 1417q0 -10 6 -15t10 -5q8 0 12 7t4 13q-2 12 -16 13q-16 -4 -16 -13zM2144 74v186h66q25 0 39 -17.5t14 -35.5q0 -16 -7.5 -27.5t-17.5 -19.5q-4 -2 -16 -6l62 -80h-13q-16 0 -22 10 l-51 70h-33v-80h-21zM2161 1341q0 -10 8 -19t18 -9t18.5 9t8.5 19q0 12 -25 13q-12 0 -18 -1t-10 -12zM2165 174h45q10 0 21.5 8t11.5 25q0 12 -10.5 21.5t-22.5 9.5h-45v-64zM2257 416v125h27v-125q0 -23 16 -39.5t39 -16.5q20 0 36.5 15.5t16.5 40.5v125h29v-125 q0 -25 -9.5 -40.5t-22.5 -25.5t-27.5 -14t-22.5 -4q-41 0 -61.5 27.5t-20.5 56.5zM2296 0h223v-51h-86v-240h-53v240h-84v51zM2298 104l4 2q2 2 8 3q10 0 20.5 -8.5t22.5 -8.5q19 0 29 8q12 8 12 25q0 23 -24 33l-15 4q-14 4 -31.5 13t-17.5 38q0 18 15.5 33.5t37.5 15.5 q4 0 8.5 -1t8.5 -1l12 -6q4 -4 6 -5t4 -3l10 -8l-6 -5q-2 -4 -10 -4q-6 0 -10 2l-10 7q-4 0 -6.5 1t-6.5 1q-33 0 -32 -27q0 -16 18 -25l18 -6q4 -4 12.5 -6t14.5 -6l8 -4q18 -18 19 -41q0 -29 -20.5 -41t-43.5 -12q-20 0 -37.5 11t-17.5 21zM2351 1415q2 -18 16 -18 q10 0 16.5 7t6.5 15q-4 16 -23 17q-16 -10 -16 -21zM2449 373l9 2q4 4 10 4q10 0 16 -6l2 -2q10 -10 29 -11q16 0 28.5 10.5t12.5 24.5q0 12 -12 25l-29 10l-21 10q-37 14 -36 49q0 29 21.5 41.5t41.5 12.5q16 0 31 -11l14 -10l10 -10l-8 -4q-6 -6 -14 -6q-10 0 -18.5 6 t-14.5 6q-10 0 -14 -2l-10 -4q-10 -6 -11 -19q0 -14 21 -24l16 -6q8 -4 10 -4l21 -9q16 -6 23.5 -20t7.5 -31q-1 -12 -7 -24q-20 -37 -63 -37q-23 0 -35 8t-24 20zM2458 74v186h20v-186h-20zM2521 166q0 43 31 69.5t65 26.5q41 0 69 -29.5t28 -66.5q0 -47 -31 -70.5 t-66 -23.5q-40 -1 -67 26q-12 14 -20.5 31.5t-8.5 36.5zM2521 -229q4 2 7 4t7 4l9 2q4 0 5 1t5 1q20 0 31.5 -11.5t31.5 -11.5q10 0 17 2l16 7q18 14 19 30q0 14 -19 25q-16 10 -35.5 16t-37 15.5t-30 25t-12.5 41.5q0 43 31 61.5t60 18.5q20 0 42.5 -12.5t38.5 -34.5 l-10 -8q-16 -10 -31 -10h-6q-8 2 -16 7t-18 5q-37 0 -37 -27q0 -12 8 -17t18 -9l35 -13q35 -10 51 -33q18 -16 19 -51q0 -45 -34 -68.5t-69 -23.5q-41 0 -63.5 21.5t-32.5 42.5zM2544 166q0 -31 21.5 -52.5t51.5 -21.5q37 0 55.5 23.5t18.5 50.5q0 29 -19.5 51.5t-54.5 22.5 q-20 0 -38.5 -10t-28.5 -35q-6 -12 -6 -29zM2619 336v205h127v-29l-98 2v-61h80v-29h-80v-62h98v-26h-127zM2736 -262q0 12 8.5 22.5t22.5 10.5q14 -1 24 -11q8 -8 9 -22q0 -31 -33 -31q-10 0 -20.5 7t-10.5 24zM2748 74v186h15q10 0 16 -8l96 -135q4 -4 4 -11v154h21v-186 h-18l-111 153q-2 0 -1 3t-1 6v-162h-21zM2820 -145q0 55 40 101t108 46q29 0 59.5 -13.5t52.5 -39.5l-10 -12q-10 -10 -29 -11q-16 0 -33.5 11.5t-39.5 11.5q-18 0 -36 -8.5t-32 -18.5q-12 -14 -20.5 -31.5t-8.5 -35.5q0 -39 29 -67t68 -28q27 0 40 11.5t33 11.5 q16 0 29 -12l10 -11q-23 -29 -52.5 -41t-59.5 -12q-68 0 -108 46t-40 102zM2863 436q0 35 25.5 71t79.5 36q41 0 72.5 -29t31.5 -78q0 -16 -2 -26q-10 -23 -30.5 -49.5t-71.5 -26.5q-41 0 -73 27.5t-32 74.5zM2892 436q0 -23 18.5 -49.5t57.5 -26.5q31 0 54 23t23 53 q1 38 -22 56q-23 23 -55 22q-29 0 -52.5 -21.5t-23.5 -56.5zM3037 74v186h113v-22h-92v-64h77v-20h-77v-80h-21zM3101 -145q0 68 46 107.5t101 39.5q47 0 80 -22.5t49 -51.5q8 -16 13.5 -33.5t5.5 -39.5q0 -12 -6.5 -37t-22.5 -49.5t-45 -43t-74 -18.5q-35 0 -61.5 13.5 t-46 34t-29.5 47t-10 53.5zM3111 336v205h20q12 0 21 -9l98 -137q4 -4 4 -7t2 -7v160h29v-205h-25l-116 160q-2 0 -2 8l-2 4v-172h-29zM3154 -145q0 -41 28.5 -68t65.5 -27q33 0 53.5 15.5t34.5 42.5q4 10 6 18t2 19q0 43 -30.5 68.5t-65.5 25.5t-64.5 -26.5t-29.5 -67.5z M3172 74v186h66q25 0 40 -16.5t15 -36.5q0 -23 -12 -35q-10 -14 -29 -18l60 -80h-13q-16 0 -20 10l-51 70h-35v-80h-21zM3193 174h45q10 0 14 2q10 4 14.5 12.5t4.5 18.5q0 12 -8.5 21.5t-24.5 9.5h-45v-64zM3330 166q0 29 24.5 62.5t71.5 33.5q35 0 66 -25.5t31 -70.5 q0 -39 -29 -68q-27 -27 -68 -26q-39 0 -67.5 26.5t-28.5 67.5zM3334 336v205h29v-179h88v-26h-117zM3353 166q0 -23 18 -48.5t55 -25.5q35 0 54.5 22.5t19.5 51.5q0 37 -23.5 55.5t-50.5 18.5q-29 0 -51 -20.5t-22 -53.5zM3422 541h21q16 0 24 -15l49 -65l2 -2v-4v2q0 4 3 4 l49 65q6 14 24 15h21l-74 -101q-8 -8 -6 -8l-2 -4v-6v-86h-29v92q-2 2 -2 4l-6 8zM3434 0h52q18 0 30 -14l7 -9q8 -23 16 -44t18 -44l35 -88q4 -4 4 -18v-2q0 4 2 10t2 10l11 21l59 155q9 15 25 21q4 0 5 1t5 1h53v-291h-53v213q-2 -4 -2 -7t-2 -7q-20 -51 -39 -100.5 t-41 -98.5h-49l-76 185q-4 8 -4 14l-4 12v-211h-54v291zM3561 74v186h17q4 0 10 -4t6 -8l64 -144v-4q0 -2 2 -2q0 2 1 4t1 4l63 142q2 4 6 8q8 4 11 4h16v-186h-20v153l-2 -4v-2v-2l-19 -41q-8 -20 -17.5 -37.5t-13.5 -34.5l-16 -32h-20q-10 16 -17.5 34.5t-15.5 36.5 l-33 74v2q0 2 -1 2t-1 2v-151h-21z" />
<glyph unicode=":" horiz-adv-x="618" d="M156 59q-2 31 17.5 53.5t51.5 24.5q31 2 53.5 -17.5t24.5 -51.5q2 -31 -19.5 -53.5t-52.5 -24.5t-52 17t-23 52zM336 745q-2 31 17.5 53.5t51.5 24.5q31 2 53.5 -17.5t24.5 -51.5q2 -31 -19.5 -53.5t-52.5 -24.5t-52 17t-23 52z" />
<glyph unicode=";" horiz-adv-x="618" d="M71 -125.5q-1 19.5 19 37.5q63 57 100 105.5t66 101.5q16 31 36.5 35t36 -7.5t21.5 -33t-4 -39.5q-37 -68 -83 -124t-107 -112q-18 -16 -38 -13t-33 16.5t-14 33zM336 745q-2 31 17.5 53.5t51.5 24.5q31 2 53.5 -17.5t24.5 -51.5q2 -31 -19.5 -53.5t-52.5 -24.5t-52 17 t-23 52z" />
<glyph unicode="&#x3c;" horiz-adv-x="790" d="M207.5 400.5q-23.5 33.5 5.5 72.5q27 29 65.5 50.5t81.5 47.5q16 10 42 26.5t51.5 35t47 35t34.5 28.5q23 20 41 18.5t27 -16t8 -36t-15 -37.5q-18 -18 -44 -39t-53.5 -39.5t-54 -34.5t-47.5 -29q-29 -18 -60.5 -34.5t-27.5 -18.5t27.5 -24.5t52.5 -53t57.5 -63.5 t42.5 -53q20 -29 21.5 -53.5t-10 -38t-31.5 -10.5t-45 32q-16 18 -36.5 41.5t-41 46t-39 41t-31.5 29.5q-45 43 -68.5 76.5z" />
<glyph unicode="=" horiz-adv-x="845" d="M201 252.5q2 19.5 16 34t41 10.5q45 -6 101.5 -7t112.5 1t106 7t81 11q35 6 51.5 -7t17.5 -32.5t-11 -39t-35 -23.5q-39 -6 -95.5 -11.5t-117.5 -6.5t-119.5 0t-101.5 6q-25 4 -37 21t-10 36.5zM201 521.5q2 19.5 16 33.5t41 10q45 -6 101.5 -7t112.5 1t106 7.5t81 11.5 q35 6 51.5 -7.5t17.5 -33t-11 -39t-35 -23.5q-39 -6 -95.5 -11t-117.5 -6t-119.5 0t-101.5 5q-25 4 -37 21.5t-10 37z" />
<glyph unicode="&#x3e;" horiz-adv-x="946" d="M257 162.5q1 21.5 15 38.5q18 18 44 38.5t53.5 39t54.5 35t47 28.5q29 18 60.5 34.5t27.5 18.5t-27.5 24.5t-52 53.5t-57.5 63.5t-43 53.5q-20 29 -21.5 53.5t10 37.5t31.5 9t45 -31q16 -18 37 -41.5t41.5 -46t39 -41t30.5 -28.5q45 -43 68.5 -77t-5.5 -73 q-27 -29 -65.5 -50t-81.5 -48q-16 -10 -42 -26.5t-51.5 -35t-47 -35t-33.5 -28.5q-23 -23 -41.5 -19.5t-27.5 17.5t-8 35.5z" />
<glyph unicode="?" horiz-adv-x="919" d="M156 59q-2 31 17.5 53.5t51.5 24.5q31 2 53.5 -17.5t24.5 -51.5q2 -31 -19.5 -53.5t-52.5 -24.5t-52 17t-23 52zM219 1090q0 111 60.5 180t151.5 101t197.5 26t198 -46t150.5 -112t59 -172q0 -82 -29.5 -139.5t-78.5 -99.5t-112.5 -74.5t-131.5 -63.5 q-55 -25 -110.5 -51.5t-102.5 -61t-81 -80t-48 -106.5q-8 -37 -27.5 -51t-38 -8t-29.5 27.5t-3 56.5q18 76 60 132t97.5 99t118 76t123.5 61q55 25 106.5 51.5t92.5 59.5t66.5 75t25.5 97q0 68 -44 117t-112.5 76.5t-148.5 32.5t-147.5 -15.5t-113.5 -66.5t-46 -121 q0 -39 17 -60.5t44 -30t58.5 -5.5t60.5 12q37 12 57.5 0.5t25.5 -30t-8.5 -40t-46.5 -29.5q-57 -16 -113.5 -15t-100.5 20.5t-70.5 62.5t-26.5 115z" />
<glyph unicode="@" horiz-adv-x="4763" d="M-29 897q0 125 58.5 237.5t160 196.5t236.5 133t289 49q61 0 110 -3t99 -13q88 -14 88 -67v-3l-123 -51q0 2 1 2t1 2q2 2 2 6q0 8 -19.5 13.5t-47 7.5t-59.5 3t-56 1q-129 0 -245 -40t-203 -108.5t-138 -160.5t-51 -197q0 -33 6 -63.5t6 -61.5q0 -25 -17.5 -41t-39.5 -16 q-20 0 -31.5 18.5t-18 45t-7.5 57t-1 53.5zM371 47q29 131 67.5 260t82.5 252t91 236.5t90 212.5q103 231 216 438q8 18 28.5 25.5t37.5 3t27.5 -20.5t-1.5 -45q-35 -86 -102.5 -218t-146.5 -306t-157 -387t-131 -459q-4 -23 -22.5 -31t-37 -6t-32.5 14.5t-10 30.5zM571 653 l45 90q10 -4 25 -8q12 -4 30.5 -6t45.5 -2q43 0 101.5 12.5t129 49t151.5 103t171 175.5q33 39 79 83t97 84t101 71.5t93 48.5q27 8 46.5 -1.5t26.5 -27.5t-2 -38.5t-40 -31.5q-35 -12 -79 -39.5t-89 -63.5t-86 -76t-69 -75q-100 -119 -191.5 -192.5t-172.5 -114.5 t-148.5 -55t-118.5 -14q-35 0 -61.5 4t-45.5 10q-23 6 -39 14zM582 637l20 98q104 -23 177 -68.5t127.5 -105t92 -127t72.5 -133.5q41 -80 83 -143.5t101 -83.5q37 -12 68 -13q63 0 118.5 34t96.5 76t65.5 79t28.5 43q16 25 39 32t40.5 -0.5t23.5 -25.5t-9 -43 q-49 -84 -110 -150q-53 -55 -127 -101t-166 -46q-27 0 -52.5 3t-47.5 13q-86 31 -139.5 109t-102.5 172q-31 57 -64.5 116.5t-79.5 112t-107.5 93t-147.5 59.5zM1650 195q0 102 48.5 256.5t152.5 359.5q8 18 29.5 25.5t40 1t27.5 -24.5t-7 -51q-98 -193 -143 -334t-45 -233 q0 -115 55 -115q45 0 112.5 43t151.5 141v-137q-78 -78 -143.5 -114t-120.5 -36q-72 0 -115 55.5t-43 162.5zM1781 -741q25 158 82.5 263.5t141.5 170t195.5 92t244.5 27.5q174 0 380 -38t439 -93q236 -53 408 -86t299 -33q133 0 218 49t145.5 163t105.5 299t98 456l102 -21 q-59 -293 -109 -493.5t-120 -323.5t-173 -177t-267 -54q-131 0 -309.5 32.5t-421.5 90.5q-227 53 -428 90t-367 37q-113 0 -207 -24t-165.5 -78t-120 -143t-68.5 -222q-4 -29 -22.5 -41.5t-38 -10.5t-34 19.5t-8.5 48.5zM1953 1008q1 90 95 211q14 20 34.5 20t36 -12.5 t20.5 -31.5t-9 -38q-74 -92 -74 -149q0 -49 57 -80t153.5 -46.5t223.5 -20.5t266 -5h148.5t148.5 2q37 0 53.5 -16.5t15.5 -35t-18.5 -34.5t-46.5 -16q-74 -2 -150.5 -2h-150.5q-160 0 -305 8t-256 34.5t-176.5 77t-65.5 134.5zM2072 127v137l33 43q18 25 37.5 26t32 -12.5 t11.5 -38t-22 -51.5q-23 -31 -46 -56t-46 -48zM2107 233q0 43 7 95.5t26.5 123t51.5 166t81 222.5l102 -19q-49 -129 -80.5 -222t-51 -161.5t-27 -118t-7.5 -86.5q0 -66 16.5 -104.5t49.5 -38.5q31 0 71 21.5t78.5 54.5t73.5 71.5t58 73.5q12 18 30.5 21.5t32.5 -7t18.5 -31 t-14.5 -48.5q-29 -45 -68.5 -91t-87 -83t-97.5 -60.5t-95 -23.5q-86 0 -127 64.5t-41 180.5zM2267 829q31 78 68.5 163t78.5 161t84 136.5t84 88.5q6 4 19 4q23 0 41 -18t18 -39q0 -12 -10 -22q-39 -41 -76 -98.5t-71 -121t-63.5 -127t-51.5 -114.5zM2556 233q0 86 25.5 197 t76.5 240l63 153l103 -18l-72 -172q-45 -117 -69.5 -220.5t-24.5 -179.5q0 -66 16.5 -104.5t48.5 -38.5q31 0 71 21.5t79 54.5t73.5 71.5t57.5 73.5q12 18 30.5 21.5t33 -7t18.5 -31t-14 -48.5q-29 -45 -69 -91t-87 -83t-97.5 -60.5t-95.5 -23.5q-86 0 -126.5 64.5 t-40.5 180.5zM2715 809q59 156 137 283t158 184q6 4 19 4q23 0 41 -18.5t18 -38.5q0 -12 -10 -23q-78 -80 -137.5 -177t-104.5 -202zM3015 315q0 82 24.5 169t73.5 163t121 131.5t168 75.5q49 10 85 0t59.5 -34.5t35.5 -61.5t12 -80q0 -59 -34.5 -124t-98 -118t-151.5 -83.5 t-193 -18.5v-19q0 -92 40 -160.5t120 -68.5q55 0 107.5 18.5t100.5 49t91 70.5t80 83q18 25 37.5 26t32 -12.5t11 -38t-21.5 -51.5q-39 -51 -86 -96t-102 -78.5t-117.5 -53t-132.5 -19.5q-66 0 -115 26.5t-81.5 71.5t-49 105.5t-16.5 127.5zM3132 436q76 -8 141 13.5 t114.5 58.5t77 83t27.5 87q0 37 -17.5 61.5t-52.5 16.5q-59 -12 -107 -43t-84 -74t-61.5 -95t-37.5 -108zM3623 41q4 143 42 291.5t83 269.5q51 144 114 275q8 18 27.5 21t37 -4t28 -23.5t1.5 -39.5q-59 -129 -108 -264q-41 -117 -79 -256t-44 -274q0 -20 -16.5 -29.5 t-36 -8.5t-34.5 12.5t-15 29.5zM3698 422q117 197 239 294t210 97q70 0 111 -42t41 -120q0 -80 -58 -194q-41 -78 -66.5 -160t-25.5 -143q0 -57 25 -58q53 0 134 57.5t163 153.5q18 23 38.5 25t31.5 -11.5t10 -38t-21 -51.5q-23 -29 -49.5 -54t-57.5 -56q-86 -66 -144 -96.5 t-105 -30.5q-68 0 -97.5 44t-29.5 116q0 70 29.5 165t74.5 183q45 94 45 149q0 59 -49 60q-63 0 -162.5 -80t-202.5 -254zM4421 -2q45 178 69.5 302t39 202t25 113t28.5 35q8 0 26.5 -7.5t37 -19.5t33 -29.5t16.5 -40.5q4 -29 -26 -110.5t-114 -186.5l-57 -276z" />
<glyph unicode="A" horiz-adv-x="1736" d="M74 1105q14 97 78.5 179t169 147.5t232.5 109.5q128 45 270 67q126 20 247 20q16 0 32 -1q136 -3 260 -34.5t214 -93.5l-6 -133q-66 61 -169 98q-104 36 -226 48q-64 6 -129 7q-60 1 -123 -5q-131 -10 -253 -42t-224.5 -83.5t-168.5 -120.5q-68 -68 -88 -153 q-7 -27 -6 -56q0 -60 29 -127q8 -20 -1 -40t-27.5 -28t-38 -2t-31.5 37q-44 87 -44 166q0 20 3 40zM217 14.5q-2 20.5 14 38.5q76 70 174.5 175.5t208 230.5t226 264t230.5 279.5t220.5 272.5t196.5 245l80 -64q-92 -115 -199.5 -249t-222.5 -274t-231.5 -280.5 t-227.5 -266.5t-209 -230.5t-176 -175.5q-18 -16 -37.5 -14.5t-32 15t-14.5 34zM412 487.5q-4 18.5 5 37t38 26.5q41 5 88 6q24 0 50 -2q77 -4 160 -17.5t168 -34t162 -42.5q84 -23 150.5 -47.5t112.5 -40.5l-43 -97q-43 16 -106.5 40t-141.5 46q-74 20 -155 39t-157.5 32 t-148.5 19q-29 2 -56 2q-39 0 -71 -5q-20 -4 -35.5 8t-19.5 30.5zM1276 195v33.5t4 33.5q20 137 49 290t58.5 310.5t58 313.5t51.5 301q2 25 20.5 32t39 0.5t35 -24t10.5 -41.5q-23 -145 -52.5 -300t-60.5 -309.5t-58.5 -304t-48.5 -284.5q-4 -16 -4 -28.5v-22.5 q0 -59 24.5 -87t61.5 -28q61 0 138 50t149 151q12 18 32.5 23t37 -2t22.5 -24.5t-10 -44.5q-86 -123 -185.5 -189.5t-183.5 -66.5t-136 53.5t-52 164.5z" />
<glyph unicode="B" horiz-adv-x="1865" d="M158 938q0 119 82 227.5t229 190.5t352 131t451 49q166 0 285.5 -31.5t198.5 -86t116 -124t37 -145.5q0 -90 -52.5 -180t-149.5 -162t-237.5 -117t-316.5 -45h-39.5t-38.5 2l8 103q18 -2 36 -2h34q152 0 272.5 35.5t205.5 93t130 129t45 143.5q0 55 -30.5 107.5t-96 91 t-167 62.5t-240.5 24q-223 0 -408.5 -40t-319.5 -108.5t-209 -159t-75 -188.5q0 -94 72 -184q14 -18 10 -40t-18.5 -35t-35 -12t-38.5 25q-92 119 -92 246zM707 22.5q-7 20.5 0.5 39t26 27.5t42.5 1q111 -41 212.5 -57.5t191.5 -16.5q156 0 265 43t165 110q56 66 56 142 q0 79 -64 149t-194 121.5t-331 63.5q-31 2 -42 18.5t-8 36t18.5 35t39.5 13.5q236 -16 386.5 -85t222.5 -161q72 -91 72 -193q0 -105 -68 -193q-68 -87 -200 -144.5t-318 -57.5q-98 0 -209 16.5t-228 61.5q-29 10 -36 30.5zM791 -45q43 186 92 355t107.5 330t127 321.5 t148.5 332.5q10 20 30.5 26.5t38 -1.5t26.5 -26.5t-3 -43.5q-82 -166 -149.5 -322.5t-124 -315t-103.5 -325.5t-88 -352q-6 -27 -24.5 -36t-38 -4.5t-33 20.5t-6.5 41z" />
<glyph unicode="C" horiz-adv-x="1378" d="M154 416q-3 36 -4 73q0 107 28 217q37 148 119 290.5t201.5 253t271.5 178t328 67.5q76 0 136 -28.5t102 -76t63.5 -107.5t21.5 -124q0 -82 -36.5 -160.5t-118.5 -119.5q-4 -2 -11 -2q-23 0 -46 19t-23 42q0 18 16 27q55 35 84 95t29 124q0 39 -13.5 77.5t-40 67.5 t-67.5 47.5t-94 18.5q-147 0 -277.5 -59.5t-237 -156t-183 -220t-115.5 -251.5q-36 -119 -37 -234q0 -9 1 -18q3 -124 57 -220.5t163 -156t283 -59.5q123 0 227 26t188 67t145.5 92t100.5 104q25 33 51 27q16 -4 23.5 -26.5t-0.5 -39.5q-31 -61 -96.5 -123.5t-159.5 -113.5 t-212 -83t-255 -32q-201 0 -331 67.5t-199.5 178t-81.5 252.5z" />
<glyph unicode="D" horiz-adv-x="1974" d="M-162 926q0 127 80 244.5t213 208.5t306 145.5t362 54.5q244 0 443.5 -71.5t340.5 -191.5t219 -277.5t78 -329.5q0 -133 -51 -273.5t-154.5 -255t-259 -187.5t-362.5 -73q-23 0 -69 4t-101.5 13.5t-112.5 22.5t-105.5 30.5t-79 39t-30.5 46.5q0 18 12.5 31.5t34.5 13.5 q16 0 25 -4q117 -43 221 -68.5t199 -25.5q184 0 320 64.5t226 164.5t135.5 222t45.5 239q0 152 -70 290t-197 243.5t-305 168t-395 62.5q-174 0 -331 -46.5t-275.5 -124t-189 -179t-70.5 -209.5q0 -35 6 -74t22.5 -77t45 -73.5t73.5 -64.5q25 -16 25 -37q0 -18 -18.5 -31.5 t-41.5 -13.5q-18 0 -33 8q-53 31 -87.5 76t-56 95t-30 102.5t-8.5 97.5zM647 -43q8 80 33 187.5t62.5 231.5t86 255t103.5 257t115.5 241.5t119.5 205.5q10 14 20.5 25.5t26.5 11.5q23 0 41.5 -12t18.5 -35q0 -4 -4 -13t-6 -14q-59 -94 -119 -208.5t-115 -240.5t-104 -255 t-86 -249t-60.5 -225.5t-27.5 -182.5q0 -10 -13.5 -16.5t-29.5 -6.5q-25 0 -43.5 10t-18.5 33z" />
<glyph unicode="E" horiz-adv-x="1157" d="M29 317q0 57 27.5 118t88 117t155.5 107.5t228 92.5q-100 49 -143 114.5t-43 137.5q0 102 53.5 180t138 131t190 79.5t212.5 26.5q74 0 144.5 -11t127 -37.5t91 -68.5t34.5 -104q0 -76 -61.5 -153.5t-175.5 -135.5q-14 -8 -26.5 -10t-22.5 -2q-49 0 -50 39 q0 16 12.5 32.5t41.5 30.5q88 41 134 96.5t46 102.5q0 35 -25.5 58.5t-66.5 38t-92.5 20.5t-102.5 6q-86 0 -175 -20.5t-161.5 -60.5t-118 -99.5t-45.5 -138.5q0 -70 78 -129.5t271 -94.5q27 -4 38 -19.5t11 -31.5q0 -20 -13.5 -36.5t-40.5 -16.5q-4 0 -6 1t-6 1 q-23 4 -41 7t-37 7q-154 -35 -261 -80t-175.5 -94t-99.5 -100t-31 -101q0 -57 37 -109t102.5 -92t155.5 -63.5t197 -23.5q70 0 143.5 11t143 38.5t133 73t114.5 112.5l33 43q18 25 37.5 26t32 -12.5t11 -38t-21.5 -51.5q-49 -70 -118.5 -126t-150.5 -96t-171 -61.5 t-180 -21.5q-129 0 -238.5 32t-190.5 85t-126 125t-45 149z" />
<glyph unicode="F" horiz-adv-x="1554" d="M-27 864q0 125 61.5 239t167 201t245 139t290.5 52q162 0 296 -20.5t247 -46t209 -48t181 -27.5q18 -1 35 -1q66 0 129 15q79 19 159 81q20 25 41.5 25t36 -14.5t15.5 -38t-20 -46.5q-94 -74 -181 -102q-81 -26 -165 -25h-12q-90 2 -188.5 24.5t-214 50.5t-256 49.5 t-312.5 21.5q-133 0 -252.5 -43t-211 -117t-144.5 -169t-53 -200v-6q0 -79 24 -147q10 -25 1 -44.5t-25.5 -29.5t-34.5 -7t-29 25q-20 47 -29.5 100.5t-9.5 108.5zM104 74q2 129 89.5 239.5t244 191.5t374.5 128t484 47q20 0 40 -1t42 -1q27 0 40.5 -17.5t12.5 -38 t-14.5 -36t-38.5 -11.5q-23 0 -42 1.5t-40 1.5q-238 0 -436 -40t-342.5 -110t-225.5 -162t-85 -196q0 -29 15.5 -63t46 -62.5t72.5 -49t93 -20.5q113 0 187.5 49t127 138.5t90.5 211t79 269.5q27 100 54 201.5t63 206t84 215t118 231.5l90 -49q-68 -117 -114 -224.5 t-80.5 -210t-62.5 -202t-54 -197.5q-43 -160 -87 -296t-107.5 -234.5t-155 -154.5t-232.5 -56q-78 0 -138 30.5t-103 76.5t-66 98.5t-23 95.5z" />
<glyph unicode="G" horiz-adv-x="1511" d="M150 487q0 158 44 294.5t117.5 249t171 199.5t203 146.5t213 90t203.5 30.5q72 0 134 -18.5t107.5 -55.5t71 -94t25.5 -135q0 -98 -66.5 -176t-220.5 -105h-8t-18.5 3.5t-20.5 14t-12 30.5q0 4 -1 5t-1 5q0 25 22 37q8 6 23 8q111 20 155.5 68.5t44.5 109.5 q0 102 -67.5 150.5t-173.5 48.5q-80 0 -173.5 -27t-187.5 -79t-181 -129t-154.5 -176t-107.5 -220t-40 -262q0 -86 31.5 -159t88 -125t134.5 -82t170 -30q41 0 94 5.5t111.5 21.5t117 47t109.5 84t89 130t54 186l13 -259q-57 -86 -129 -145t-150 -98t-157.5 -56.5 t-151.5 -17.5q-111 0 -207 36t-167 100.5t-111.5 153.5t-40.5 195zM399 -232.5q0 17.5 4.5 33t16.5 26.5t37 11q35 0 42 -20.5t7 -36.5q0 -129 57.5 -182.5t141.5 -53.5q86 0 156.5 64.5t129 166t102.5 225.5t77.5 242.5t55.5 218t34 150.5q2 8 10 17q6 6 14 12t25 6 q20 0 30.5 -7t15.5 -16.5t6 -17.5t1 -10q-12 -53 -35.5 -159.5t-61.5 -233.5t-88.5 -260t-119 -243t-153.5 -178.5t-189 -68.5q-61 0 -115.5 16.5t-96.5 50.5t-68.5 88t-35.5 132v27.5z" />
<glyph unicode="H" horiz-adv-x="1892" d="M-6 156q12 129 102 213t223.5 136t293 75.5t313.5 33.5q51 2 136 7.5t184.5 15.5t202.5 25.5t189 37.5l29 -98q-92 -25 -200.5 -41t-212 -26.5t-189.5 -15.5t-135 -7q-147 -6 -294 -22.5t-264.5 -54.5t-193.5 -106.5t-82 -181.5v-7q0 -36 18 -70q20 -36 57.5 -66.5 t87.5 -47.5t110 -17q113 0 201.5 46t159.5 124.5t125 184t97 224.5t78 244t66 246q29 115 57 217t61 188q8 10 19 19q8 6 19.5 9t25.5 -3q29 -6 33 -33q2 -12 -2 -29q-29 -78 -57.5 -180t-57.5 -213q-33 -125 -72 -258t-88 -261t-112.5 -241.5t-144.5 -199.5t-182 -136.5 t-226 -50.5q-78 0 -145.5 27.5t-119 73t-81 102.5t-29.5 117zM1460 176q0 119 71 306.5t177 439.5q45 104 93 217.5t97 238.5q10 12 21 21q10 6 23.5 10t29.5 -6q25 -10 25 -37q0 -12 -4 -25q-49 -125 -97.5 -240.5t-93.5 -219.5q-49 -117 -93 -222.5t-75.5 -196.5t-51 -164 t-19.5 -122q0 -53 20 -76q20 -25 55 -24q51 0 127.5 58.5t176.5 203.5q12 12 24 20q10 6 24.5 7.5t30.5 -9.5q12 -10 15.5 -22t1.5 -25q-2 -14 -10 -28q-117 -170 -216.5 -239t-173.5 -69q-41 0 -75.5 16.5t-57.5 45.5q-45 53 -45 141z" />
<glyph unicode="I" horiz-adv-x="493" d="M55 23q66 311 133 587q29 117 63 237t68.5 229.5t71.5 199.5t74 145q10 16 29.5 17.5t35 -8t23.5 -27t-2 -35.5q-33 -53 -67.5 -139t-68.5 -192.5t-66 -224.5t-60 -232q-68 -271 -131 -578q-2 -18 -19.5 -26.5t-37 -5.5t-35 15.5t-11.5 37.5z" />
<glyph unicode="J" horiz-adv-x="1417" d="M-20 0q0 8 3 28.5t10 42t19.5 39t30.5 17.5q23 0 45.5 -12.5t22.5 -34.5l-9 -21q-12 -16 -15 -32.5t-5 -32.5q0 -47 29.5 -85t74.5 -64.5t97.5 -43t97.5 -18.5h35q68 0 138.5 15.5t136 52t121.5 99t93 156.5q20 49 36.5 95.5t33.5 87.5q92 254 156.5 431t112.5 302 t86 209t77 149q2 2 2 6q0 8 -19.5 13.5t-47 7.5t-59.5 3t-56 1q-129 0 -245 -40t-203 -108.5t-138 -160.5t-51 -197q0 -33 6 -63.5t6 -61.5q0 -25 -17.5 -41t-39.5 -16q-20 0 -31.5 18.5t-18 45t-7.5 57t-1 53.5q0 125 58.5 237.5t160 196.5t236.5 133t289 49q61 0 110.5 -3 t98.5 -13q88 -14 88 -67q0 -29 -21 -64q-27 -47 -52 -101.5t-55 -125t-66 -164.5t-84 -222t-109.5 -295t-143.5 -384q-45 -121 -115.5 -197t-150.5 -121t-163 -61.5t-150 -16.5q-55 0 -130 18.5t-143.5 55.5t-116.5 95.5t-48 138.5v14z" />
<glyph unicode="K" horiz-adv-x="1630" d="M-29 897q0 125 58.5 237.5t160 196.5t236.5 133t289 49q61 0 110 -3t99 -13q88 -14 88 -67v-3l-123 -51q0 2 1 2t1 2q2 2 2 6q0 8 -19.5 13.5t-47 7.5t-59.5 3t-56 1q-129 0 -245 -40t-203 -108.5t-138 -160.5t-51 -197q0 -33 6 -63.5t6 -61.5q0 -25 -17.5 -41t-39.5 -16 q-20 0 -31.5 18.5t-18 45t-7.5 57t-1 53.5zM371 47q29 131 67.5 260t82.5 252t91 236.5t90 212.5q103 231 216 438q8 18 28.5 25.5t37.5 3t27.5 -20.5t-1.5 -45q-35 -86 -102.5 -218t-146.5 -306t-157 -387t-131 -459q-4 -23 -22.5 -31t-37 -6t-32.5 14.5t-10 30.5zM571 653 l45 90q10 -4 25 -8q12 -4 30.5 -6t45.5 -2q43 0 101.5 12.5t129 49t151.5 103t171 175.5q33 39 79 83t97 84t101 71.5t93 48.5q27 8 46.5 -1.5t26.5 -27.5t-2 -38.5t-40 -31.5q-35 -12 -79 -39.5t-89 -63.5t-86 -76t-69 -75q-100 -119 -191.5 -192.5t-172.5 -114.5 t-148.5 -55t-118.5 -14q-35 0 -61.5 4t-45.5 10q-23 6 -39 14zM582 637l20 98q104 -23 177 -68.5t127.5 -105t92 -127t72.5 -133.5q41 -80 83 -143.5t101 -83.5q37 -12 68 -13q63 0 118.5 34t96.5 76t65.5 79t28.5 43q16 25 39 32t40.5 -0.5t23.5 -25.5t-9 -43 q-49 -84 -110 -150q-53 -55 -127 -101t-166 -46q-27 0 -52.5 3t-47.5 13q-86 31 -139.5 109t-102.5 172q-31 57 -64.5 116.5t-79.5 112t-107.5 93t-147.5 59.5z" />
<glyph unicode="L" horiz-adv-x="1138" d="M-64 68q4 62 64.5 111.5t171.5 49.5q100 0 214 -49t234.5 -123.5t245.5 -160.5t248 -161t238.5 -124t220.5 -49q111 0 205 71.5t168 247.5q8 27 29.5 35t40 2t27.5 -25.5t-3 -52.5q-86 -209 -206 -295t-261 -86q-127 0 -252 49.5t-247 124t-241.5 160.5t-233.5 161 t-221.5 124t-205.5 49q-59 0 -94 -18.5t-39 -41t23.5 -41t93.5 -18.5q104 0 191 79t160 204t134 278.5t117 302.5q45 125 91 242t97 207t109.5 145.5t126.5 55.5q96 0 148 -63.5t52 -162.5q0 -90 -52 -196.5t-166.5 -199.5t-296 -157.5t-439.5 -70.5q-27 0 -42 16.5 t-17 34.5t11 34.5t44 16.5q231 4 394 58.5t265.5 133t149.5 168t47 162.5q0 53 -25.5 88t-72.5 35q-43 0 -85 -48t-82 -128t-80 -185.5t-83 -221.5q-41 -109 -83 -219.5t-90 -214t-102.5 -193.5t-119 -157.5t-139 -106.5t-162.5 -39q-116 0 -170 50q-49 46 -50 102v10z" />
<glyph unicode="M" horiz-adv-x="2330" d="M27 33q-8 29 4 46t31.5 22t39 -5t23.5 -35q25 -86 86 -124.5t143 -38.5q106 0 187.5 58t148 154.5t120.5 221.5t108 258q43 109 90 221.5t104 222t128 209.5t159 182q-84 25 -191 25q-137 0 -286.5 -37t-275.5 -107.5t-208 -173t-82 -233.5q0 -59 23 -131 q6 -20 -5.5 -36.5t-28.5 -23t-36.5 -1t-27.5 27.5q-27 80 -27 164q0 156 91 276.5t232.5 204.5t309.5 128t321 44q88 0 165 -14t138 -45q16 -6 24.5 -24.5t2.5 -41.5q-43 -94 -80 -202.5t-63.5 -225t-41 -237.5t-14.5 -238q0 -84 7.5 -162.5t23.5 -154.5q61 80 123.5 176 t128.5 199q63 100 137 212.5t160 219t184.5 202t212.5 162.5q20 14 41 14.5t34 -10t16 -31t-11 -48.5q-106 -207 -188 -385.5t-138.5 -322.5t-86 -253t-29.5 -176q0 -141 69 -141q59 0 143.5 64.5t188.5 207.5q23 31 44.5 35t34.5 -8.5t13 -37t-20 -50.5 q-119 -166 -219.5 -240t-184.5 -74q-78 0 -125 60.5t-47 183.5q0 70 26 175t74 238.5t118.5 291t162.5 331.5q-66 -55 -135 -137t-138 -174t-133.5 -187.5t-117.5 -179.5q-45 -72 -91 -143.5t-94 -138t-96.5 -126t-97.5 -104.5q-18 -16 -36.5 -12t-31 18.5t-15.5 34t14 33.5 q6 6 13 12t13 15q-27 96 -38 198.5t-11 212.5q0 180 29.5 357.5t79.5 337.5q-53 -70 -99.5 -152t-87.5 -168t-78 -174t-69 -172q-59 -150 -117.5 -287t-134.5 -241.5t-173.5 -167t-232.5 -62.5q-117 0 -204.5 57.5t-122.5 180.5z" />
<glyph unicode="N" horiz-adv-x="1986" d="M23 53q0 25 16 37t37 12q37 0 49 -41q23 -86 86 -124.5t143 -38.5q129 0 220.5 78.5t164 208.5t135 294t136 334t166 330t223.5 282q-84 25 -191 25q-137 0 -286.5 -37t-275.5 -107.5t-208 -173t-82 -233.5q0 -59 23 -131q2 -4 3 -14q0 -23 -18 -36t-40 -13 q-23 0 -36.5 22.5t-21.5 53t-10 63.5t-2 55q0 156 91 276.5t232.5 204.5t309.5 128t321 44q45 0 103.5 -5t108.5 -17t85 -32.5t35 -51.5q0 -4 -3 -12.5t-19 -34.5q-57 -90 -83 -201t-26 -235q0 -195 48 -402t114 -391q53 117 105.5 253t108.5 275.5t117.5 272.5t131 245.5 t149.5 195.5t176 122q25 8 42.5 -2t23.5 -27.5t-1 -37t-28 -27.5q-98 -39 -178 -132.5t-147.5 -220t-127 -276t-119 -302.5t-122 -297t-133.5 -261q-10 -20 -30.5 -24.5t-37 4t-25 26.5t6.5 47l26 43q-41 100 -76.5 214t-64.5 231.5t-45 237.5t-16 233q0 55 1 110t9 107 q-92 -135 -162 -290t-130 -309.5t-121.5 -296t-137.5 -251t-175 -174t-237 -64.5q-117 0 -205 57.5t-122 180.5q-4 12 -4 20z" />
<glyph unicode="O" horiz-adv-x="1802" d="M129 485q0 162 46 298.5t121 247t169 194.5t190.5 140t184.5 85t151 29q68 0 134.5 -19.5t131.5 -66.5q23 -18 24 -38t-11.5 -33t-31.5 -18.5t-38 7.5q-51 35 -102 50t-107 15q-55 0 -133 -25.5t-163 -75.5t-168 -126t-148.5 -174t-106.5 -221t-41 -269q0 -117 36 -211 t100.5 -159.5t152.5 -100t193 -34.5q154 0 269.5 48t202.5 120.5t149.5 155.5t109.5 155q41 57 66.5 167.5t29.5 258.5v15q0 48 -11 102q-13 62 -39 110t-65 74q-26 17 -56 17q-16 0 -34 -5q-55 -16 -81.5 -71.5t-26.5 -135.5q0 -70 18.5 -144.5t52.5 -141.5 q43 -80 94.5 -145.5t117.5 -111.5q67 -44 153 -68q69 -19 153 -19q22 0 44 1q25 2 39 -13t15 -33.5t-11.5 -36t-38.5 -19.5q-25 -1 -49 -1q-103 1 -183 21q-100 26 -178 78t-137.5 127.5t-108.5 169.5q-41 78 -62.5 165t-21.5 171q0 115 45 198t142 107h-2q33 9 63 9 q46 0 84 -20q64 -34 106 -98.5t62 -147.5q18 -72 18 -139v-19q-4 -162 -35.5 -286t-76.5 -194q-53 -78 -123 -169t-166 -169.5t-226 -132t-302 -53.5q-127 0 -233.5 42t-184.5 120t-122 191.5t-44 254.5z" />
<glyph unicode="P" horiz-adv-x="1667" d="M60 1118q36 115 139.5 203t256 146.5t320.5 82.5q104 15 208 14l128 -6q168 -14 302 -70t218 -158.5t84 -254.5q0 -94 -38 -183t-110.5 -158.5t-178 -111.5t-240.5 -42q-23 0 -58.5 2t-75.5 6t-79 10t-68 12l25 99q23 -6 57.5 -10.5t71.5 -8.5t70.5 -6t56.5 -2 q111 0 197 34t146 89t91 125.5t31 144.5q0 115 -72 194t-186 125q-116 46 -260 59q-65 6 -129 6q-79 0 -161 -9q-146 -16 -278.5 -60t-224.5 -115t-130 -166q-17 -42 -17 -89q0 -58 26 -123q8 -20 -2 -38.5t-28.5 -27t-38 -1t-29.5 37.5q-38 84 -38 161q0 46 14 89zM606 -4 q43 186 95.5 361t115 344t134 336t151.5 339q10 20 30.5 26.5t38 -1.5t26.5 -26.5t-3 -43.5q-164 -330 -283.5 -658.5t-201.5 -697.5q-6 -27 -24.5 -36t-38 -4.5t-33 20.5t-7.5 41z" />
<glyph unicode="Q" horiz-adv-x="1802" d="M129 485q0 162 46 298.5t121 247t169 194.5t190.5 140t184.5 85t151 29q68 0 134.5 -19.5t131.5 -66.5q23 -18 24 -38t-11.5 -33t-31.5 -18.5t-38 7.5q-51 35 -102 50t-107 15q-55 0 -133 -25.5t-163 -75.5t-168 -126t-148.5 -174t-106.5 -221t-41 -269q0 -117 36 -211 t100.5 -159.5t152.5 -100t193 -34.5q154 0 269.5 48t202.5 120.5t149.5 155.5t109.5 155q41 57 66.5 167.5t29.5 258.5v15q0 48 -11 102q-13 61 -39 109t-65 75q-26 17 -56 17q-16 0 -34 -5q-55 -16 -81.5 -71.5t-26.5 -135.5q0 -70 18.5 -144.5t52.5 -141.5 q43 -80 94.5 -145.5t118 -111t152.5 -68.5q69 -19 153 -19q21 0 44 1q25 2 39 -13t15 -33.5t-11.5 -36t-38.5 -19.5q-25 -1 -49 -1q-103 0 -183 21q-100 25 -178 77.5t-137.5 128t-108.5 169.5q-41 78 -62.5 165t-21.5 171q0 115 45 198t142 107h-2q33 9 63 9q45 0 84 -20 q64 -34 106 -98.5t62 -147.5q18 -72 18 -139v-19q-4 -162 -35.5 -286t-76.5 -194q-53 -78 -123 -169t-166 -169.5t-226 -132t-302 -53.5q-127 0 -233.5 42t-184.5 120t-122 191.5t-44 254.5z" />
<glyph unicode="R" horiz-adv-x="1953" d="M80 1118q37 115 140.5 203t256 146.5t320.5 82.5q104 15 208 14q63 0 127 -6q168 -14 302.5 -70t218.5 -158.5t84 -254.5q0 -94 -38 -183t-110.5 -158.5t-178 -111.5t-241.5 -42q-23 0 -58.5 2t-75.5 6t-78.5 10t-67.5 12l24 99q23 -6 58 -10.5t71.5 -8.5t70.5 -6t56 -2 q111 0 197 34t146.5 89t91 125.5t30.5 144.5q0 115 -71.5 194t-186 125t-258.5 59q-65 6 -130 6q-80 0 -162 -9q-146 -16 -278 -60t-224 -115t-130 -166q-17 -42 -17 -89q0 -58 26 -123q8 -20 -2.5 -38.5t-28.5 -27t-37.5 -1t-30.5 37.5q-38 84 -38 160q0 47 14 90zM647 -4 q37 186 83 361t103.5 344t124 336t140.5 339q8 20 28.5 26.5t39 -1.5t28.5 -26.5t-2 -43.5q-152 -330 -261.5 -658.5t-178.5 -697.5q-6 -27 -24.5 -36t-38 -4.5t-33 20.5t-9.5 41zM905 608l23 99q102 -23 175 -69t125 -105.5t89 -127t69 -133.5q39 -80 79 -143t100 -84 q37 -12 67 -12q63 0 120.5 33.5t100.5 74.5t70 78t31 43q18 25 39.5 32t37 0t19.5 -24.5t-10 -42.5q-8 -12 -39 -60t-83 -100.5t-125 -94.5t-163 -42q-27 0 -52.5 3.5t-47.5 13.5q-84 31 -136.5 108.5t-99.5 171.5q-29 57 -61.5 116.5t-76.5 112t-105.5 93.5t-145.5 59z" />
<glyph unicode="S" horiz-adv-x="1470" d="M6 387q0 70 24.5 135.5t78 122.5t134.5 101.5t195 70.5h11q29 0 46 -15.5t17 -33.5t-16.5 -33.5t-53.5 -21.5q-90 -20 -154.5 -54t-105.5 -77t-60.5 -92.5t-19.5 -100.5q0 -82 44 -163t123 -145.5t187.5 -104t239.5 -39.5q57 0 139.5 23.5t157 74.5t126.5 130t52 187 q0 63 -24.5 130t-60 135.5t-78.5 135t-79 131t-60.5 125t-24.5 113.5q0 76 26.5 145.5t74.5 123t116.5 85t152.5 31.5q61 0 120 -22.5t105 -60.5t74.5 -87t28.5 -100q0 -53 -29.5 -103.5t-101.5 -91.5q-16 -8 -33 -8q-23 0 -37 14.5t-14 32.5q0 25 31 47q82 49 82 109 q0 33 -19.5 62.5t-51.5 53t-72 38t-83 14.5q-61 0 -110 -23.5t-84 -62.5t-54.5 -90t-19.5 -107q0 -66 51.5 -154.5t112.5 -191t112.5 -211t51.5 -213.5q0 -90 -30 -164.5t-78 -132t-110.5 -99.5t-126 -68.5t-125 -40t-108.5 -13.5q-156 0 -282.5 49t-218 127t-140.5 177.5 t-49 199.5z" />
<glyph unicode="T" horiz-adv-x="1368" d="M-27 864q0 125 61.5 239t167 201t245 139t290.5 52q39 0 79 -3t81 -13q190 -37 337.5 -62.5t261.5 -42t196 -24t141 -7.5q57 0 95 6.5t63.5 17.5t43 26.5t33.5 31.5l23 23q20 25 41.5 25t36 -14.5t15.5 -38t-19 -46.5l-23 -22q-23 -23 -46 -43.5t-57 -36t-83 -23.5 t-123 -8q-63 0 -149.5 7t-203 23.5t-265 43t-338.5 63.5q-70 14 -140 15q-133 0 -252.5 -43t-211 -117t-144.5 -169t-53 -200q2 -119 53 -213t178 -147q14 -4 23.5 -23.5t8.5 -38t-17.5 -31t-51.5 -1.5q-162 66 -228.5 185.5t-68.5 268.5zM-16 61q-4 29 10 44.5t33.5 17.5 t37 -10.5t21.5 -38.5q6 -49 30.5 -95.5t64.5 -80.5q39 -32 95 -50q35 -11 77 -12q23 0 48 4q115 16 194 74.5t136 154t103.5 226.5t97.5 291q59 186 135 402t193 462q10 23 30.5 30t39 0t27.5 -25.5t-3 -49.5q-53 -113 -100.5 -227.5t-87.5 -225t-74.5 -212t-61.5 -187.5 q-53 -168 -106.5 -308.5t-122 -245.5t-160.5 -172t-223 -89q-27 -3 -52 -3q-62 -1 -116 17q-76 24 -132.5 71.5t-91 109.5t-42.5 128z" />
<glyph unicode="U" horiz-adv-x="1712" d="M16 889q0 125 58.5 237.5t160 196.5t236.5 133t289 49q100 0 186 -8t133 -24q79 -22 79 -67q0 -5 -1 -11v-2h-2q-2 -10 -12 -23q-117 -180 -209 -360q-39 -78 -77 -162t-66.5 -170t-47 -170t-18.5 -160q0 -109 44 -183.5t153 -94.5h-2q47 -8 90 -9q127 0 210 56.5 t140 153t100 228.5t91 281.5t113 312t167 322.5q14 27 37.5 34t44 1t30 -22.5t-5.5 -38.5q-104 -168 -169.5 -339t-115.5 -330t-97.5 -297t-117 -241.5t-172 -163t-264.5 -59.5q-29 0 -55 2t-55 6q-78 14 -129 49t-82 84.5t-44 112.5t-13 135q0 94 23.5 198.5t61 209t84 203 t90.5 181.5t81.5 144.5t58.5 93.5q-16 6 -49 10.5t-71 7.5t-77 5t-69 2q-129 0 -245 -40t-203 -108.5t-138 -161t-51 -196.5q0 -33 6 -63.5t6 -61.5q0 -25 -17.5 -41t-39.5 -16q-20 0 -31.5 18.5t-18 45t-7.5 57t-1 53.5z" />
<glyph unicode="V" horiz-adv-x="1816" d="M-47 807q0 92 39 179t106.5 163t160.5 138.5t203.5 106.5t231.5 68.5t246 24.5q152 0 348 -55q12 -4 25.5 -10.5t20.5 -21t1 -34.5t-35 -51q-129 -139 -232 -282.5t-177 -282t-113 -263.5t-39 -223q0 -115 56.5 -183.5t181.5 -68.5q104 0 196.5 34t167 89t133 128 t99.5 153t61.5 159.5t20.5 151.5q0 57 -20.5 84t-43.5 27q-16 0 -27.5 -15.5t-11.5 -44.5q0 -61 30 -103t75 -72t99 -50.5t102 -34.5q18 -6 36.5 -12t34.5 -12q27 -6 34 -25.5t1 -38t-25.5 -30t-46.5 -1.5q-16 6 -32.5 10.5t-34.5 10.5q-55 18 -121 46t-122 71t-94 102 t-38 139q0 82 43 122t98 40q31 0 60.5 -13.5t53.5 -39t38 -65.5t14 -95q0 -80 -25.5 -172t-72.5 -183t-115.5 -175t-156 -147.5t-190.5 -101.5t-220 -38q-176 0 -258 97t-82 257q0 111 38 244t109.5 276.5t174 289t231.5 280.5q-119 30 -242 30h-8q-166 0 -325.5 -46 t-283.5 -124.5t-200 -183t-76 -223.5q1 -41 11 -88q6 -20 -6.5 -35.5t-31 -21t-37 2t-24.5 29.5q-14 57 -14 113z" />
<glyph unicode="W" horiz-adv-x="2281" d="M-170 807q0 92 39 179t106.5 163t160.5 138.5t204 106.5t231.5 68.5t245.5 24.5q152 0 348 -55q12 -4 25.5 -10.5t21 -21t1 -34.5t-34.5 -51q-129 -139 -232.5 -282.5t-177.5 -282t-113 -263.5t-39 -223q0 -115 56.5 -183.5t181.5 -68.5v-102q-176 0 -258 97t-82 257 q0 111 38 244t109.5 276.5t174 289t231.5 280.5q-119 30 -242 30h-8q-166 0 -325.5 -46t-283.5 -124.5t-200 -183t-76 -223.5q0 -41 11 -88q6 -20 -6.5 -35.5t-31 -21t-37 2t-24.5 29.5q-14 57 -14 113zM514 264h102q0 -115 56.5 -183.5t181.5 -68.5q96 0 186 38t169 98.5 t143.5 138.5t111.5 157.5t73 155.5t26 133q0 35 -13.5 54.5t-42.5 17.5q-41 -2 -75.5 -39t-59 -96.5t-39 -134t-14.5 -152.5q0 -74 15.5 -142.5t47 -121.5t84 -85t125.5 -32q96 0 180 49t152 127t117 173t76 190l92 -45q-33 -104 -91.5 -211t-138.5 -193t-177 -139t-210 -53 q-102 0 -172.5 40t-116 107.5t-65.5 155.5t-20 180q0 96 21.5 189.5t59 167t90 119.5t115.5 48h7q79 0 116 -45q39 -47 39 -129q0 -66 -29.5 -151.5t-83 -178t-127 -180.5t-164 -157.5t-193.5 -112.5t-214 -43q-176 0 -258 97t-82 257zM1944 780q0 82 43 122t98 40 q31 0 60.5 -13.5t53 -39t38 -65.5t14.5 -95q0 -92 -31 -190l-100 14q28 93 28 171v5q0 57 -20.5 84t-42.5 27q-16 0 -27.5 -15.5t-11.5 -44.5q0 -61 29.5 -103t74.5 -72t99.5 -50t101.5 -35q18 -6 36.5 -12t35.5 -12q27 -6 34 -25.5t0.5 -38t-25.5 -30t-46 -1.5 q-16 6 -32.5 10.5t-35.5 10.5q-55 18 -120.5 46t-122 71t-94 102t-37.5 139z" />
<glyph unicode="X" horiz-adv-x="1851" d="M-131 86q0 72 41 147.5t119 145.5q16 16 39 16t38 -14t15 -37q0 -20 -19 -39q-61 -57 -96 -114.5t-35 -104.5q0 -53 46 -85t155 -32q84 0 195.5 76t242.5 198t277.5 274.5t300 305t309.5 290.5t305 230q10 8 29 9q23 0 39 -13.5t16 -33.5q0 -27 -31 -48 q-113 -70 -228.5 -167t-231 -207.5t-230 -229t-226.5 -231.5t-217.5 -213t-202.5 -177t-185 -121t-162 -44q-156 0 -229.5 63.5t-73.5 155.5zM455 1432q0 16 15 27t50 11q96 0 186.5 -42t169 -137t142 -249.5t106.5 -382.5h-2q63 -297 171 -455.5t239 -158.5q78 0 164 60.5 t178 189.5q12 18 26.5 26.5t26.5 8.5q16 0 28.5 -12.5t12.5 -30.5q0 -25 -16 -47q-209 -297 -420 -297q-170 0 -304 179t-206 517q-39 207 -92 343t-117.5 220t-137.5 122t-149 48q-33 4 -52 22.5t-19 37.5z" />
<glyph unicode="Y" horiz-adv-x="1609" d="M-37 883q0 125 65.5 237.5t174 196.5t251 133t296.5 49q100 0 186 -8t133 -25q79 -22 79 -69q0 -5 -1 -11l-14 -22q-14 -20 -33 -45q-16 -23 -36 -53.5t-42 -69.5l-88 49q25 43 45 75t33 52q-16 6 -49 10t-71 7.5t-77 5.5t-70 2q-129 0 -251.5 -40t-218 -108.5 t-152.5 -161t-57 -196.5q0 -33 6 -63.5t6 -61.5q0 -25 -17.5 -41t-40.5 -16q-20 0 -31.5 18t-17.5 45t-7 57.5t-1 53.5zM367 -154q0 27 5 56.5t27 62.5q8 12 29 12q23 0 43.5 -12t20.5 -33q0 -8 -7 -20q-10 -16 -13 -32.5t-3 -33.5q0 -47 19.5 -86t52 -67.5t74.5 -44 t90 -15.5q115 0 205.5 38t160.5 107.5t121 170t88 225.5q86 289 145.5 483.5t104.5 327.5t82 220t80 159q8 12 26 12q20 0 41 -14t21 -35q0 -10 -4 -16q-41 -66 -76 -147t-77 -208t-99.5 -316t-143.5 -472q-47 -190 -124.5 -313t-170 -195t-190.5 -100.5t-190 -28.5 q-59 0 -119 20.5t-109 60.5t-79.5 99.5t-30.5 134.5zM649 573q6 113 49 229t102.5 225.5t125 208.5t116.5 179l91 -51q-51 -80 -115 -176t-121 -198.5t-98 -209t-47 -207.5q-1 -14 -1 -28q0 -91 35 -155q39 -75 146 -95h-2q47 -8 90 -8q133 0 222 55t155 154l-43 -209 q-66 -49 -152 -76t-196 -27q-29 0 -55.5 2t-55.5 7q-76 14 -125 48.5t-76.5 84t-37.5 112.5q-8 46 -8 96q0 19 1 39z" />
<glyph unicode="Z" horiz-adv-x="1472" d="M136 196q-3 6 -3 13q0 25 39 59q160 141 319.5 287.5t303 285t265.5 261.5t208 219q27 25 46 22.5t30.5 -17.5t12.5 -36.5t-11 -38.5q-90 -100 -218.5 -229t-277 -270.5t-309 -288t-318.5 -281.5l-24 90q23 -4 40 -6t35 -4q72 -8 123.5 -15t102.5 -21.5t109.5 -37 t144.5 -61.5q106 -47 191 -67.5t155 -20.5q86 0 150.5 26.5t113.5 69.5t84 96.5t63 106.5q8 25 29 30t38 -2.5t26.5 -28t-2.5 -48.5q-33 -61 -75 -125t-102.5 -114t-139.5 -81.5t-185 -31.5q-80 0 -175.5 22.5t-211.5 73.5q-78 35 -135.5 56.5t-112.5 34.5t-116.5 21.5 t-147.5 18.5q-53 4 -65 32zM139 1024q12 113 37 193.5t65 131t97 74t137 23.5q53 0 121 -12.5t142.5 -31t156.5 -42t164 -45.5h-2q90 -20 134 -23.5t81 -5.5l8 -102q-53 2 -110.5 8t-139.5 25q-80 20 -157.5 42.5t-149.5 41t-135.5 30.5t-112.5 12q-115 0 -164 -78.5 t-69 -252.5q-2 -25 -18.5 -34t-35 -7t-34 15t-15.5 38z" />
<glyph unicode="[" horiz-adv-x="743" d="M84 -258q0 14 6 27q6 18 26.5 77.5t50.5 148.5t67.5 199.5t77.5 229.5t83 237.5t82 226t73 195.5t58 144q4 20 25.5 30.5t51.5 15.5t65.5 5h70.5h62.5t57.5 -4t42 -16.5t16 -36.5q0 -18 -9 -32.5t-27 -14.5q-31 0 -67 2t-74 3t-73.5 1t-64.5 -4q-25 -61 -65.5 -174 t-90 -251.5t-101.5 -288t-98 -284.5t-83 -240.5t-53 -156.5q18 -2 37.5 -2h37.5q53 0 101.5 3t79.5 9q4 0 6 1t6 1q23 0 31 -12t8 -29q0 -29 -20.5 -43t-52.5 -19t-73 -5h-82h-68.5t-60 4t-43 16t-16.5 37z" />
<glyph unicode="\" horiz-adv-x="546" d="M-102 1290q-4 14 7 28.5t26.5 22t30.5 4t22 -23.5q10 -41 39.5 -124t69.5 -190.5t88 -230.5t96.5 -245.5t92.5 -234.5t77.5 -196t52 -131t16.5 -39q8 -23 -2 -39t-26.5 -23t-34 -1t-25.5 29q-8 25 -45 116.5t-89 223t-113.5 285t-118 301t-101.5 272.5t-63 196z" />
<glyph unicode="]" horiz-adv-x="796" d="M-100 -260q0 18 9 32.5t28 14.5q31 0 66.5 -2t73.5 -4t73.5 -1t64.5 5q25 61 66 174t90 251t101 287.5t98 285t83 240.5t54 157q-18 2 -38 2h-38q-53 0 -101 -3.5t-79 -9.5q-4 0 -6.5 -1t-6.5 -1q-23 0 -31 12.5t-8 28.5q0 29 19.5 43.5t52.5 19.5t74 5h82h68.5t60 -4 t43 -16.5t16.5 -36.5q0 -14 -6 -27q-6 -18 -26.5 -77.5t-50.5 -148.5t-67.5 -200t-77.5 -229.5t-83 -237.5t-82 -226.5t-73 -195.5t-58 -143q-4 -20 -25.5 -30.5t-51.5 -15.5t-65.5 -5h-70.5h-62.5t-57.5 4t-42 16t-16 37z" />
<glyph unicode="^" horiz-adv-x="745" d="M182 846.5q2 17.5 31 33.5t62.5 43t64.5 55q37 35 68.5 67t66.5 48q23 8 40 3t31.5 -19.5t27 -37t26.5 -48.5q14 -29 31.5 -62.5t44.5 -74.5q12 -18 5 -33t-23.5 -22t-35 -6t-30.5 18q-16 20 -32.5 50.5t-31 58.5t-24.5 47.5t-15 21.5q-4 2 -27.5 -23.5t-47.5 -46.5 q-33 -33 -69 -63.5t-81 -53.5q-18 -10 -39.5 -5t-33 18.5t-9.5 31z" />
<glyph unicode="_" horiz-adv-x="794" d="M79 -2q-1 18 10 32.5t36 14.5h175t183 2q98 0 201 2q14 2 24.5 -10t12.5 -29.5t-6 -33t-29 -17.5q-102 -2 -201 -4q-86 -2 -182 -3t-176 -1q-23 0 -35 14.5t-13 32.5z" />
<glyph unicode="`" horiz-adv-x="714" d="M177 1230.5q3 22.5 17.5 36t34.5 13.5t43 -29q39 -51 84 -94t121 -92q23 -14 25 -34.5t-8.5 -36t-31 -21.5t-40.5 8q-72 47 -128 96t-106 113q-14 18 -11 40.5z" />
<glyph unicode="a" horiz-adv-x="864" d="M18 276q14 76 46 156t82.5 158t108.5 138t120.5 97t122.5 37q47 0 95 -20.5t95 -65.5l-70 -74q-59 57 -120 58q-43 0 -92.5 -32t-94.5 -84t-86 -117.5t-67 -130.5q-28 -66 -40 -126q-6 -30 -6 -56t7 -48q6 -25 27.5 -43.5t56.5 -18.5q29 0 65.5 12.5t76.5 44.5t81 84 t76 132l90 -53q-53 -90 -105.5 -151.5t-102.5 -99.5t-96 -54.5t-85 -16.5q-72 0 -119 42t-64 97q-9 32 -9 69q1 31 7 66zM455 193q33 147 75.5 285t90.5 270l30 92q8 23 27.5 31t38 2.5t30 -22.5t3.5 -44l-31 -92q-49 -141 -94 -280.5t-72 -262.5q-6 -33 6 -49.5t35 -16.5 q37 0 77 15.5t80 43.5t75.5 62.5t64.5 75.5q16 25 36.5 31t36 0t20.5 -24.5t-9 -45.5q-33 -61 -81 -109.5t-100.5 -82t-104.5 -51t-95 -17.5q-76 0 -118 45q-28 30 -28 84q0 27 7 60z" />
<glyph unicode="b" horiz-adv-x="815" d="M14 180q-2 19 -2 39q0 57 12 129q16 98 51.5 209t82.5 228.5t98 227t104.5 204t100.5 159.5q14 20 36.5 23.5t39 -7t20.5 -32t-14 -45.5q-45 -59 -96.5 -148.5t-99.5 -192t-92 -213t-76 -215t-49 -197.5q-14 -75 -14 -133q0 -14 1 -26q6 -59 32.5 -87.5t61.5 -28.5 q29 0 57.5 12t61.5 35q35 29 70.5 74t67.5 97t58.5 108.5t42.5 109.5l93 -31q-23 -57 -52.5 -121.5t-64.5 -125t-74 -111.5t-80 -82q-96 -68 -180 -68q-76 0 -130 50.5t-67 158.5zM430 653q0 81 43 133q41 50 98 50h4q82 -2 115 -47.5t33 -110.5q0 -51 -19.5 -111.5 t-48 -121t-59.5 -112.5t-53 -87l-94 8q20 31 48.5 84t56.5 114.5t47.5 122t19.5 103.5q0 23 -10.5 38t-39.5 17q-16 2 -27.5 -21.5t-11.5 -58.5q0 -39 19.5 -86t60.5 -96q41 -45 73 -58.5t60 -13.5q35 0 69 16.5t75 65.5q18 20 37.5 22.5t32 -10t14.5 -33t-17 -42.5 q-59 -72 -105 -96.5t-106 -24.5q-47 0 -97 18.5t-113 90.5q-55 66 -80 130t-25 117z" />
<glyph unicode="c" horiz-adv-x="669" d="M14 258q-1 13 -1 25q0 81 33 171q38 104 102.5 190.5t148.5 144t170 57.5t130 -33q45 -33 55 -83q4 -17 3 -35q1 -35 -13 -73q-20 -58 -67 -106l-18 -18q-16 -16 -36.5 -13.5t-35 17t-17.5 35t15 38.5l19 17q31 27 45 55.5t9 52t-28.5 38t-68.5 14.5q-68 0 -131.5 -48.5 t-112.5 -122t-77 -160.5q-23 -71 -22 -135q0 -14 1 -28q4 -84 54 -126t140 -42q84 0 146.5 22.5t108.5 54.5t77 68.5t49 67.5q16 27 36 28t33 -12.5t16 -37t-11 -45.5q-76 -111 -188.5 -179.5t-260.5 -68.5q-59 0 -112 14t-101 49q-47 41 -66.5 93.5t-23.5 113.5z" />
<glyph unicode="d" horiz-adv-x="808" d="M23 217q-1 13 -1 27q0 76 28 168q34 108 99.5 202.5t161 162t209.5 75.5q33 2 50.5 -13.5t19.5 -36t-13.5 -36.5t-48.5 -16q-94 0 -170.5 -55.5t-131 -136.5t-80.5 -174q-22 -76 -22 -139q0 -14 1 -28q4 -53 33.5 -87t89.5 -34q68 0 131 53.5t116.5 144.5t95.5 210 t69.5 249t37.5 263q6 72 6 140q0 58 -4 114q-2 35 -4 60.5t-8 58.5q-10 39 3.5 57t32.5 21t37.5 -10t22.5 -40q6 -33 10.5 -69.5t8.5 -77.5q4 -57 4 -115q1 -79 -7 -163q-14 -146 -46.5 -288.5t-82.5 -270.5t-113.5 -226t-140.5 -155.5t-161 -57.5q-72 0 -133 37 q-47 27 -71.5 76t-28.5 110z" />
<glyph unicode="e" horiz-adv-x="638" d="M37 315q0 82 24.5 169t73.5 163t121 131.5t168 75.5q24 5 45.5 5t39.5 -5q36 -10 59.5 -34.5t35.5 -61.5t12 -80q0 -59 -34.5 -124t-97.5 -118q-64 -54 -152 -84q-63 -22 -135 -21q-28 0 -58 3v-19q0 -92 40 -160.5t120 -68.5q55 0 107.5 18.5t100.5 49t91 70.5t80 83 q18 25 37.5 26t32 -12.5t11 -38t-21.5 -51.5q-39 -51 -86 -96t-102 -78.5t-117.5 -53t-132.5 -19.5q-66 0 -115 26.5t-81.5 71.5t-49 105.5t-16.5 127.5zM154 436q21 -2 40 -2q53 0 101 16q65 22 114.5 58.5t77 82.5t27.5 87q0 37 -17.5 61.5t-52.5 16.5q-59 -12 -107 -43 t-84 -74t-61.5 -95t-37.5 -108z" />
<glyph unicode="f" horiz-adv-x="647" d="M-116 -290q5 91 34 222t79 289t112.5 318.5t135 312.5t147.5 269.5t149.5 188t140.5 70.5q29 0 57.5 -9t53.5 -32q12 -12 12 -31.5t-9.5 -35t-27.5 -21.5t-41 11q-27 16 -45 16q-51 0 -110.5 -64.5t-121 -170t-123 -241.5t-116.5 -280.5t-102.5 -286t-79 -257 t-47.5 -194.5q-11 -57 -11 -83q0 -10 2 -16q13 -34 45 -34h5q36 3 82.5 34.5t96.5 87t92 124t69.5 143.5t27.5 144q0 57 -17.5 112.5t-57.5 105t-106.5 90t-164.5 71.5q-20 6 -28.5 21.5t-5.5 32t16.5 29.5t31.5 13l555 19q25 0 37.5 -15.5t12.5 -35t-11.5 -36t-34.5 -16.5 l-329 -10q111 -74 158 -172t47 -209q0 -86 -33 -175t-85 -168t-117.5 -142.5t-131.5 -100t-124 -42.5h-13q-50 0 -84 36q-23 23 -23 91q0 13 1 27z" />
<glyph unicode="g" horiz-adv-x="794" d="M-342 -399q2 10 9 20t26 14q18 6 29.5 1t19.5 -13t14 -22q16 -70 75.5 -117t145.5 -47q49 0 100.5 25.5t102.5 84.5q18 16 46 61.5t63 116t71.5 167t73.5 212.5q-63 -55 -121.5 -78.5t-105.5 -23.5q-72 0 -119 42t-63 97q-6 23 -6 54q0 37 9 85q17 89 59 184t103.5 185 t135 148.5t154.5 70.5q13 1 25 1q69 0 136 -52q2 2 6 10.5t12.5 15.5t20.5 12t31 1q20 -8 27 -28.5t1 -41.5q-12 -39 -61 -221t-137 -461l-33 -102q-43 -119 -94.5 -237.5t-116 -214t-143 -156t-177.5 -60.5q-55 0 -114.5 21.5t-107.5 58.5t-77 85q-22 37 -22 79q0 11 2 23z M118 198.5q1 -26.5 10 -47t28.5 -34t50.5 -13.5q23 0 62.5 10.5t80.5 39.5t82 77t76 121l27 92q20 74 36.5 136.5t38.5 132.5q-53 47 -108 47q-57 0 -120 -52.5t-118 -129t-94 -164.5t-49 -162q-4 -27 -3 -53.5z" />
<glyph unicode="h" horiz-adv-x="815" d="M-39 25q68 303 153 548.5t160 423.5q89 207 181 371q12 18 39 18q23 0 38 -15t15 -38q0 -6 -4 -18q-20 -35 -75.5 -142.5t-126.5 -276.5t-145.5 -394.5t-136.5 -497.5q-4 -8 -12 -14q-8 -4 -19.5 -8.5t-27.5 0.5q-16 4 -23.5 10t-11.5 14t-4 19zM72 422 q117 197 238.5 294t209.5 97q70 0 111 -42t41 -120q0 -80 -58 -194q-41 -78 -66.5 -160t-25.5 -143q0 -57 25 -58q53 0 134 57.5t163 153.5q18 23 38.5 25t32 -11.5t10.5 -38t-22 -51.5q-23 -29 -49 -54t-57 -56q-86 -66 -144.5 -96.5t-105.5 -30.5q-68 0 -97.5 44 t-29.5 116q0 70 29.5 165t74.5 183q45 94 45 149q0 59 -49 60q-63 0 -162.5 -80t-201.5 -254z" />
<glyph unicode="i" horiz-adv-x="434" d="M12 195q0 102 48.5 256.5t152.5 359.5q8 18 29.5 25.5t40 1t27.5 -24.5t-7 -51q-98 -193 -143 -334t-45 -233q0 -115 55 -115q45 0 112.5 43t151.5 141v-137q-78 -78 -143.5 -114t-120.5 -36q-72 0 -115 55.5t-43 162.5zM306 967.5q-9 15.5 3 36.5q25 45 45.5 78.5 t48.5 78.5q14 23 35 28t39.5 -1t26.5 -22.5t-2 -37.5q-14 -23 -24.5 -39t-19.5 -31.5t-18.5 -31.5t-21.5 -39q-14 -29 -38 -37t-44.5 -3t-29.5 20.5zM434 127v137l33 43q18 25 37.5 26t32 -12.5t11.5 -38t-22 -51.5q-23 -31 -46 -56t-46 -48z" />
<glyph unicode="j" horiz-adv-x="374" d="M-545 -362q0 59 37 107t98.5 89t141.5 79t166 75l110 49l-22 -123l-47 -20q-76 -33 -144.5 -64t-121 -62.5t-84 -63.5t-31.5 -66q0 -29 10 -46.5t24.5 -26.5t31 -13.5t28.5 -4.5q86 0 143.5 59.5t97 160t69.5 230.5t62.5 270.5t74.5 280.5t108 261q10 18 30.5 22.5t38 -3 t26.5 -26t-5 -42.5q-63 -115 -105 -257.5t-76 -287.5t-70 -284.5t-86 -247t-124 -173t-184 -65.5q-29 0 -62.5 7t-63.5 28.5t-50.5 59.5t-20.5 98zM-14 -86l22 123q109 47 205 101.5t160 123.5q23 25 37 47.5t43 22.5q16 0 27.5 -12.5t11.5 -32.5q0 -16 -11.5 -37t-29 -41.5 t-38 -41l-36.5 -36.5q-78 -72 -182.5 -122t-208.5 -95zM304 967.5q-9 15.5 3 36.5q25 45 45.5 78.5t48.5 78.5q14 23 35 28t39.5 -1t26.5 -22.5t-2 -37.5q-14 -23 -24.5 -39t-20 -31.5t-18.5 -31.5t-21 -39q-14 -29 -38 -37t-44.5 -3t-29.5 20.5z" />
<glyph unicode="k" horiz-adv-x="804" d="M-31 51q27 125 62 248t73.5 237.5t78.5 220t79 195.5q88 214 184 402q8 18 28 22t37 -2t27.5 -22.5t0.5 -40.5q-94 -186 -183 -398q-76 -180 -155.5 -409.5t-134.5 -472.5q-8 -27 -25.5 -35t-35 -2t-30 21.5t-6.5 35.5zM129 432l29 98q14 -2 30 -6q14 -4 34 -6t46 0 q43 0 93.5 9.5t101.5 36t98 72.5t82 124q8 20 28.5 26.5t39 0t29 -22.5t-0.5 -39q-41 -94 -97 -154.5t-118.5 -95.5t-128 -47t-127.5 -12q-31 0 -56.5 2t-43.5 6q-23 4 -39 8zM266 467l103 4q6 -109 26 -192q8 -37 20.5 -71t31 -60.5t42 -43t54.5 -16.5q33 0 72.5 18.5 t77.5 47t72 63.5t56 70q16 25 39 35t40.5 3.5t22.5 -25.5t-16 -52q-25 -39 -63.5 -85t-86.5 -85t-103.5 -65.5t-110.5 -26.5q-49 0 -87 20.5t-67 54t-48 76.5t-34 88q-33 106 -41 242z" />
<glyph unicode="l" horiz-adv-x="436" d="M18 233q0 86 26 197t77 240q68 166 123 285.5t95 199.5t64.5 122t30.5 52q8 18 28.5 21.5t37 -5t24.5 -27t-6 -44.5q-39 -63 -86 -158q-41 -80 -96 -199.5t-121 -283.5q-45 -117 -69.5 -220.5t-24.5 -179.5q0 -66 16.5 -104.5t48.5 -38.5q31 0 71 21.5t78 55.5t72.5 73 t57.5 73q12 18 31.5 21.5t34 -7t18.5 -31t-14 -48.5q-29 -45 -69 -91t-87 -84t-97.5 -61.5t-95.5 -23.5q-86 0 -127 64.5t-41 180.5z" />
<glyph unicode="m" horiz-adv-x="1241" d="M-8 27q4 141 41 290.5t82 274.5q52 146 118 285q10 20 29 23t36 -6t26.5 -25.5t-0.5 -37.5q-61 -131 -113 -268q-43 -117 -80 -259t-41 -277q0 -23 -16.5 -35t-35 -12t-32.5 11t-14 36zM47 367q27 51 76 126.5t114.5 146.5t142.5 121t159 50q78 0 108.5 -40t30.5 -105 q0 -72 -34 -167.5t-75 -195.5q-33 -78 -58.5 -155.5t-35.5 -124.5q-6 -23 -23.5 -34.5t-36 -10t-31.5 15.5t-11 41q4 61 35.5 143t66.5 166q37 90 68.5 179t31.5 143q0 43 -36 43q-61 0 -127 -44t-123.5 -106.5t-100.5 -131.5t-57 -118zM512 422q117 197 238.5 294t210.5 97 q70 0 110.5 -42t40.5 -120q0 -80 -57 -194q-41 -78 -66.5 -160t-25.5 -143q0 -57 24 -58q53 0 134 57.5t163 153.5q18 23 38.5 25t32 -11.5t10.5 -38t-22 -51.5q-23 -29 -49 -54t-57 -56q-86 -66 -144.5 -96.5t-105.5 -30.5q-68 0 -97.5 44t-29.5 116q0 70 30 165t75 183 q45 94 45 149q0 59 -49 60q-63 0 -163 -80t-202 -254z" />
<glyph unicode="n" horiz-adv-x="794" d="M-14 41q4 143 42 291.5t83 269.5q51 144 114 275q8 18 27.5 21t37 -4t28 -23.5t1.5 -39.5q-59 -129 -108 -264q-41 -117 -79 -256t-44 -274q0 -20 -16.5 -29.5t-36 -8.5t-34.5 12.5t-15 29.5zM61 422q117 197 239 294t210 97q70 0 111 -42t41 -120q0 -80 -58 -194 q-41 -78 -66.5 -160t-25.5 -143q0 -57 25 -58q53 0 134 57.5t163 153.5q18 23 38.5 25t31.5 -11.5t10 -38t-21 -51.5q-23 -29 -49.5 -54t-57.5 -56q-86 -66 -144 -96.5t-105 -30.5q-68 0 -97.5 44t-29.5 116q0 70 29.5 165t74.5 183q45 94 45 149q0 59 -49 60 q-63 0 -162.5 -80t-202.5 -254z" />
<glyph unicode="o" horiz-adv-x="817" d="M8 190q0 43 10.5 89.5t25.5 90.5t31.5 83t30.5 63q23 39 52.5 82t67.5 86t82 80.5t93 64.5q20 12 40 6t30 -21t7 -35.5t-27 -39.5q-86 -47 -149.5 -125.5t-104.5 -150.5q-12 -20 -27.5 -52t-28 -69t-21.5 -77t-9 -75q0 -31 14 -57.5t37 -36.5q17 -5 35 -5q19 1 39 7 q38 12 74 36t70 59.5t62 76.5q14 18 43 66.5t58.5 108t52 122t22.5 111.5q0 23 -10 38t-39 17q-16 2 -27.5 -21.5t-11.5 -58.5q0 -39 19.5 -86t60.5 -96q41 -45 73 -58.5t60 -13.5q35 0 69 16.5t75 65.5q18 20 37.5 22.5t32 -10t14.5 -33t-17 -42.5q-59 -72 -105 -96.5 t-106 -24.5q-47 0 -97 18.5t-114 90.5q-55 66 -79.5 130t-24.5 117q0 81 43 133q41 50 98 50h4q82 -2 115 -47.5t33 -110.5q0 -59 -24.5 -131t-57.5 -139.5t-65.5 -122t-49.5 -76.5q-37 -49 -83 -94t-96 -77q-49 -32 -103 -44q-23 -5 -47 -5q-31 0 -62 9q-72 23 -98.5 75 t-26.5 117z" />
<glyph unicode="p" horiz-adv-x="759" d="M-176 -530q-1 8 -1 21q0 21 4 55q7 53 21.5 125.5t36 157.5t45 170t47 165t46.5 143q59 170 119.5 298t101.5 204v-2l12 24q14 20 33.5 25.5t37 -2.5t24.5 -25.5t-3 -42.5l-14 -26q-39 -78 -98.5 -204t-118.5 -286q-20 -57 -44 -133t-46.5 -156.5t-43 -160.5 t-33.5 -147.5t-20 -116.5q-5 -33 -5 -53q0 -10 1 -17q4 -27 -8 -45.5t-30.5 -22.5t-37 7.5t-26.5 44.5zM8 266q45 109 126 213.5t170 181t172 111.5q44 19 78 19q31 0 54 -15v2q47 -29 66.5 -70.5t19.5 -95.5q0 -39 -6 -69q-18 -96 -63 -192.5t-99 -174.5 q-14 -20 -29.5 -41.5t-31.5 -38.5q119 23 202 86.5t136 128.5q20 25 38.5 25t29 -14.5t9.5 -38t-16 -43.5q-31 -45 -75 -88t-104 -78t-142 -58.5t-191 -27.5h-13q-37 0 -51 10q-18 12 -18 30.5t14.5 40t32.5 35.5q92 76 127 129q47 66 86 150t56 176q6 33 6 53q0 53 -37 76 q-12 7 -27 7q-28 0 -68 -23q-61 -35 -128.5 -103.5t-131 -160t-100.5 -183.5z" />
<glyph unicode="q" horiz-adv-x="780" d="M10 195q0 117 45 231.5t114 204.5t147.5 145t146.5 55q70 0 129 -45q0 10 1 17.5t1 15.5q0 18 16.5 26.5t35 8.5t34.5 -9t16 -26q0 -59 -31.5 -182t-78.5 -279q-6 -20 -25.5 -80.5t-47.5 -144.5t-60.5 -183.5t-65.5 -200.5t-64.5 -194.5t-55 -164t-38 -109.5t-14.5 -33 q-12 -16 -29.5 -20t-34 1t-26.5 19.5t-8 32.5q2 10 8 23q4 10 9 25.5t13 37.5q12 31 36 99.5t51.5 148.5t55 161t46.5 138q12 37 25.5 75t25.5 79q-45 -27 -83 -41.5t-71 -22.5q-16 -4 -30.5 -6t-26.5 -2q-90 0 -128 56.5t-38 142.5zM113 195q0 -41 14 -69t49 -28 q41 0 104.5 28t155.5 93v-2q41 129 75 245t56 206q-49 61 -104 61q-45 0 -91 -29.5t-89 -82t-80 -123t-64 -152.5q-12 -39 -19 -77t-7 -70z" />
<glyph unicode="r" horiz-adv-x="784" d="M-16.5 199.5q-12.5 27.5 10.5 54.5q49 57 84 119.5t60.5 127t47 132t45.5 137.5q27 76 35 128t27 52q-8 0 -15.5 -15t-7.5 -38q0 -31 38 -58.5t141 -39.5q39 -6 73.5 -14.5t60 -24t41 -41t15.5 -64.5q0 -23 -6 -49t-21 -55l-20 -45q-18 -39 -39 -86t-38 -94t-29.5 -92.5 t-12.5 -79.5q0 -23 10.5 -38.5t36.5 -15.5q68 0 125 35t98 76q49 49 86 111q12 14 35 14t28 -16.5t5 -38.5q0 -10 -24.5 -55.5t-72.5 -95.5t-119 -91t-161 -41q-82 0 -115.5 43t-33.5 113q0 43 12 95t31.5 104.5t42 102.5t41.5 91l20 45q10 20 13.5 36.5t5.5 26.5 q0 20 -30 27.5t-71 13.5q-74 8 -124 30t-82.5 49.5t-47 59t-14.5 62.5t12.5 58.5t30.5 49t40.5 35t41.5 13.5q35 0 59.5 -26t24.5 -85q0 -31 -14.5 -84t-36.5 -125q-20 -72 -51 -148.5t-66 -150.5t-71.5 -136t-69.5 -105q-10 -12 -21.5 -16.5t-21.5 -4.5q-29 0 -41.5 27.5z " />
<glyph unicode="s" horiz-adv-x="733" d="M-6 233q0 39 5 78t17.5 71t33.5 52.5t54 20.5q49 0 69 -21.5t20 -52.5q0 -47 -30 -99.5t-65 -80.5q0 -53 46 -90t112 -37q31 0 68.5 10t72.5 29.5t58.5 49.5t23.5 70q0 59 -44 105.5t-98 92.5t-98 98.5t-44 123.5q0 63 24.5 108.5t64.5 74t87 42t94 13.5q74 0 131 -37 t92 -127q2 -6 2 -16q0 -18 -15.5 -31.5t-35.5 -13.5q-27 0 -39 24q-18 47 -51 80t-98 33q-61 0 -106.5 -35t-45.5 -104q0 -49 45 -96.5t100.5 -98.5t100.5 -107.5t45 -123.5q0 -63 -35 -111.5t-87 -80.5t-114.5 -48t-115.5 -16q-51 0 -95.5 13t-77 43t-52 78t-19.5 117z" />
<glyph unicode="t" horiz-adv-x="428" d="M20 233q0 86 26 197t77 240l63 153l103 -18l-72 -172q-45 -117 -69.5 -220.5t-24.5 -179.5q0 -66 16.5 -104.5t48.5 -38.5q31 0 71 21.5t79 54.5t73.5 71.5t57.5 73.5q12 18 30.5 21.5t33 -7t18.5 -31t-14 -48.5q-29 -45 -69 -91t-87 -83t-97.5 -60.5t-95.5 -23.5 q-86 0 -127 64.5t-41 180.5zM25 838q0 16 18 36.5t51 20.5q18 0 40 -5t54.5 -10.5t79.5 -10.5t113 -5q41 0 78 3t69 7q25 0 35 -15t10 -36q0 -18 -8 -33.5t-24 -17.5q-29 -4 -70 -7t-90 -3q-131 0 -221 20.5t-125 36.5q-10 6 -10 19zM168 799q72 154 131 275.5t119 195.5 q4 4 8 4t8 4q23 4 45.5 -8.5t26.5 -32.5q0 -12 -6 -25q-59 -94 -111.5 -197.5t-99.5 -207.5z" />
<glyph unicode="u" horiz-adv-x="915" d="M8 195q0 102 48 256.5t153 359.5q6 14 20.5 21.5t30.5 7.5q18 0 33.5 -10.5t15.5 -30.5q0 -12 -10 -37q-98 -193 -143 -334t-45 -233q0 -115 55 -115q41 0 101.5 36t138.5 122q45 63 81.5 133.5t70.5 143.5t66.5 147.5t73.5 148.5q6 14 20.5 21.5t31.5 7.5 q18 0 33.5 -10.5t15.5 -30.5q0 -12 -11 -37l-36 -74q-29 -70 -53.5 -132t-49.5 -116l-4 -8q-25 -72 -35 -131t-10 -106q0 -115 55 -115q49 0 125 52t172 175q18 25 43 25q16 0 27.5 -12.5t11.5 -32.5q0 -23 -22 -56q-106 -135 -195.5 -194.5t-161.5 -59.5t-114.5 55.5 t-42.5 162.5v6l-47 -54q-82 -92 -155 -129.5t-130 -40.5q-72 0 -115 55.5t-43 162.5z" />
<glyph unicode="v" horiz-adv-x="833" d="M4 166q0 88 32 198.5t73 208.5q47 115 106 234q18 27 41 33t39 -2.5t24.5 -25.5t-2.5 -36q-59 -117 -106 -229q-20 -47 -38.5 -98.5t-33 -101.5t-24 -97t-9.5 -84q0 -63 52 -76q20 -4 39 -5q25 0 49 8q43 13 83 43t77.5 72t70.5 89l80 -51q-37 -57 -82 -107.5t-97 -85.5 t-110 -53q-43 -14 -88 -14q-15 0 -30 2q-80 8 -113 55t-33 123zM444 653q0 81 43 133q41 50 99 50h4q82 -2 114.5 -47.5t32.5 -110.5q0 -51 -19.5 -111.5t-48 -121t-59 -112.5t-53.5 -87l-80 51q20 31 47 78t51.5 100t42 106.5t17.5 96.5q0 23 -10.5 38t-38.5 17 q-16 2 -27.5 -21.5t-11.5 -58.5q0 -39 19.5 -86t60.5 -96q41 -45 72.5 -58.5t60.5 -13.5q35 0 68.5 16.5t74.5 65.5q18 20 38 22.5t32 -10t14 -33t-16 -42.5q-59 -72 -105.5 -96.5t-105.5 -24.5q-47 0 -97.5 18.5t-113.5 90.5q-55 66 -80 130t-25 117z" />
<glyph unicode="w" horiz-adv-x="1316" d="M45 254q0 139 45 286.5t156 307.5q10 16 34.5 22.5t46 2t32 -18.5t-8.5 -39q-104 -147 -153.5 -292.5t-49.5 -268.5q0 -31 4.5 -60.5t14.5 -54t27.5 -39t44.5 -14.5q51 0 123.5 37t158.5 135l68 -78q-139 -137 -255 -184q-43 -17 -84 -17q-71 0 -138 50h2 q-43 35 -55.5 91t-12.5 134zM492 166q0 88 31.5 198.5t72.5 208.5q47 115 106 234q18 27 41 33t39.5 -2.5t24.5 -25.5t-2 -36q-59 -117 -107 -229q-20 -47 -38.5 -98.5t-33 -101.5t-23.5 -97t-9 -84q0 -63 51 -76q20 -4 39 -4q25 0 49 7q43 13 83 43t78 72t71 89l79 -51 q-37 -57 -81.5 -107.5t-96.5 -85.5t-110 -53q-43 -14 -89 -14q-15 0 -30 2q-80 8 -112.5 55t-32.5 123zM932 653q0 81 43 133q41 50 98 50h4q82 -2 115 -47.5t33 -110.5q0 -51 -19.5 -111.5t-48.5 -121t-59.5 -112.5t-53.5 -87l-79 51q20 31 46.5 78t51 100t42 106.5 t17.5 96.5q0 23 -10 38t-39 17q-16 2 -27.5 -21.5t-11.5 -58.5q0 -39 19.5 -86t60.5 -96q41 -45 73 -58.5t60 -13.5q35 0 69 16.5t75 65.5q18 20 37.5 22.5t32 -10t14.5 -33t-17 -42.5q-59 -72 -105 -96.5t-106 -24.5q-47 0 -97 18.5t-114 90.5q-55 66 -79.5 130t-24.5 117z " />
<glyph unicode="x" horiz-adv-x="894" d="M-49 211q0 100 51 197q25 43 54.5 53t54 -4.5t42 -46t21.5 -72.5v-13q0 -61 -33 -105q-37 -48 -80 -70q10 -35 30 -58.5t44 -23.5q35 0 76 38q45 43 98 122t107 165q49 76 103 158t111.5 147.5t113.5 105.5q51 36 100 36h10q27 -4 40 -21.5t13 -38t-13 -35t-40 -8.5h-4 q-37 -1 -78 -33q-43 -34 -88 -91.5t-91 -129t-91 -143.5q-59 -92 -113.5 -174t-107.5 -133q-37 -35 -75 -51.5t-71 -16.5q-41 0 -74.5 19.5t-58.5 52.5t-38 78t-13 96zM238 793q-4 33 11 43t35.5 7t37 -18.5t16.5 -36.5q10 -158 42 -286.5t77 -220t100 -141.5t115 -50 q53 0 115.5 57.5t136.5 186.5q18 35 37.5 37t34 -12.5t20.5 -37t-2 -36.5q-92 -158 -177 -227.5t-165 -69.5q-82 0 -158 59t-134 167t-96 255.5t-46 323.5z" />
<glyph unicode="y" horiz-adv-x="765" d="M-66 -383q0 63 34 116.5t89.5 96.5t125 73.5t140 52t136 33t112.5 11.5q92 0 164 -15.5t127.5 -43t95 -62.5t66.5 -72q63 -86 82 -196q2 -23 -12.5 -34t-28.5 -13q-35 -4 -48 19.5t-26 62.5q-37 115 -145.5 182.5t-274.5 67.5q-90 0 -188.5 -22t-196.5 -75 q-70 -39 -111.5 -91t-41.5 -93q0 -29 10 -46.5t24.5 -26.5t31 -13t28.5 -4q47 0 90 19.5t81 67.5t73 131t65 210q25 -6 50.5 -11t50.5 -12q-27 -86 -57.5 -176t-75 -162.5t-110 -119.5t-163.5 -47q-29 0 -62.5 7t-63.5 28.5t-50.5 59.5t-20.5 97zM27 279q0 92 35.5 220 t119.5 287q10 16 29.5 18.5t36 -5.5t26 -24.5t-1.5 -37.5q-53 -104 -98 -220t-45 -238q0 -76 24.5 -115t65.5 -39q72 0 152 74.5t172 249.5q41 76 76.5 175t82.5 185q10 18 31 22.5t38 -3t26.5 -26t-4.5 -42.5q-35 -63 -60.5 -135t-54.5 -148q-23 -57 -41.5 -126.5 t-35.5 -142.5t-33.5 -146t-30.5 -134q-25 6 -50.5 12.5t-50.5 12.5q35 111 48 181q13 67 19 67h1q-76 -92 -160 -135t-145 -43q-84 0 -128 65.5t-44 190.5z" />
<glyph unicode="z" horiz-adv-x="718" d="M3 279q7 18 22.5 27t35 6t33.5 -19q61 -98 158.5 -153.5t196.5 -55.5q68 0 130 28.5t111 84.5q14 16 33.5 15t35 -11.5t19.5 -29.5t-12 -40q-61 -74 -146 -107.5t-176 -33.5q-123 0 -241.5 63.5t-194.5 182.5q-12 25 -5 43zM45 252q84 57 147.5 103t113.5 87t93 79t83 81 t83.5 94t96.5 117q16 20 37.5 23.5t37 -7t20.5 -31t-14 -46.5q-72 -109 -133 -180.5t-131.5 -132t-160 -122t-216.5 -147.5q-43 4 -53 26.5t-4 55.5zM89 756.5q-5 17.5 6 37t42 27.5q27 8 52.5 10.5t50.5 2.5q98 0 203.5 -27t185.5 -62l-41 -94q-72 31 -167 55.5t-181 24.5 q-49 0 -82 -8q-29 -6 -46.5 5t-22.5 28.5z" />
<glyph unicode="{" horiz-adv-x="856" d="M247 590.5q3 19.5 18.5 34t41.5 8.5q68 -10 112 6t73.5 50t49 82t38.5 101q27 76 59.5 152t87.5 137.5t142 99t223 37.5q25 0 37 -16t12 -34.5t-12.5 -35t-36.5 -16.5q-109 0 -178.5 -31.5t-114.5 -83t-72 -115t-49 -126.5q-18 -51 -37.5 -98.5t-44.5 -87.5t-58.5 -69.5 t-78.5 -45.5q16 -25 21 -51.5t5 -61.5q0 -53 -15 -111.5t-32 -117.5q-20 -66 -35.5 -143t-15.5 -134q0 -66 29.5 -120t115.5 -93q14 -8 17.5 -26.5t-3.5 -35t-21.5 -27.5t-32.5 -5q-59 27 -99.5 60.5t-64 73.5t-33.5 83t-10 90q0 68 16 153t39 152q16 53 29.5 107.5 t13.5 93.5t-20.5 66.5t-73.5 42.5q-25 2 -35 19t-7 36.5z" />
<glyph unicode="|" horiz-adv-x="743" d="M193 -63q6 18 22 77.5t41 146.5t55.5 196.5t63.5 226t67.5 234.5t66.5 222.5t60.5 189.5t51.5 136q6 14 23.5 19.5t34.5 0t26.5 -17.5t1.5 -31q-16 -39 -43 -121.5t-61 -192.5t-70.5 -237t-73.5 -252.5t-70 -241.5t-57.5 -204t-37.5 -137t-11 -41q-6 -23 -24.5 -30 t-35 -2t-28 20.5t-2.5 38.5z" />
<glyph unicode="}" horiz-adv-x="952" d="M-184 -288.5q0 18.5 12 34.5t37 16q106 0 177 32t116 83t71.5 114.5t49.5 127.5q18 51 37.5 98t44 87t57.5 69.5t80 46.5q-16 25 -21.5 51.5t-5.5 60.5q0 53 15.5 111.5t31.5 118.5q20 66 35.5 142.5t15.5 133.5q0 66 -29.5 120t-115.5 93q-14 8 -17.5 26.5t4 35t21.5 28 t33 5.5q119 -53 163 -134.5t44 -173.5q0 -68 -16.5 -152.5t-39.5 -152.5q-16 -53 -29.5 -107.5t-13.5 -93.5t20.5 -66.5t74.5 -41.5q25 -2 35 -19.5t7 -37t-18.5 -34t-42.5 -7.5q-68 8 -111.5 -7.5t-73.5 -49t-49.5 -82t-37.5 -101.5q-27 -76 -59.5 -151.5t-88 -137 t-142.5 -99.5t-222 -38q-25 0 -37 16.5t-12 35z" />
<glyph unicode="~" horiz-adv-x="1083" d="M268 676q2 20 25 39q41 31 74.5 42t64.5 11q35 0 59.5 -10t53.5 -21q23 -10 45 -19t45 -9q16 0 36.5 4t45.5 20q20 12 40.5 6t30.5 -21t6 -35.5t-30 -35.5q-35 -20 -68 -27t-61 -7q-41 0 -72 11t-57 23q-23 10 -40.5 16.5t-33.5 6.5t-35.5 -7.5t-44.5 -25.5 q-23 -16 -43 -12t-31.5 17.5t-9.5 33.5z" />
<glyph unicode="&#xa1;" horiz-adv-x="741" d="M51 -535.5q-8 17.5 2 35.5q33 53 68 126t68.5 158t65.5 175t60 176q69 203 132 424q2 18 19 26.5t36.5 5.5t35 -15.5t11.5 -36.5q-66 -227 -133 -434q-29 -88 -62.5 -181.5t-68.5 -180.5t-72 -164t-74 -132q-10 -16 -29.5 -17t-35 8t-23.5 26.5zM506 866q-2 31 19.5 53.5 t52.5 24.5t52 -17t23 -52q2 -31 -17.5 -53.5t-51.5 -24.5q-31 -2 -53.5 17.5t-24.5 51.5z" />
<glyph unicode="&#xa2;" horiz-adv-x="669" d="M2 258q-6 92 32 195.5t102.5 190.5t148.5 144.5t170 57.5t130 -33t54.5 -83t-10 -107.5t-66.5 -106.5l-18 -18q-16 -16 -36.5 -13.5t-35 17t-17.5 35t15 38.5l19 17q31 27 45 55.5t9 52t-28.5 38t-68.5 14.5q-68 0 -131.5 -48.5t-112.5 -122t-76.5 -160.5t-21.5 -163 q4 -84 54 -126t140 -42q84 0 146.5 22.5t108.5 54.5t77 68.5t49 67.5q16 27 36 28t33 -12.5t16 -37t-11 -45.5q-76 -111 -188.5 -179.5t-260.5 -68.5q-59 0 -112 14t-101 49q-47 41 -66.5 93.5t-23.5 113.5zM123 -188q6 18 22 77.5t41 146.5t55.5 196.5t63.5 226t67.5 234.5 t66.5 222.5t60.5 189.5t51.5 136q6 14 23.5 19.5t34.5 0t26.5 -17.5t1.5 -31q-16 -39 -43 -121.5t-61 -192.5t-70.5 -237t-73.5 -252.5t-70 -241.5t-57.5 -204t-37.5 -137t-11 -41q-6 -23 -24.5 -30t-35 -2t-28 20.5t-2.5 38.5z" />
<glyph unicode="&#xa3;" horiz-adv-x="1404" d="M47 61.5q-2 18.5 9.5 35t39.5 16.5l41 4q86 0 147.5 46t107.5 121.5t81 171t68 193.5q37 111 81 223.5t105 201.5t144 145.5t200 56.5q80 0 137.5 -20.5t94 -53.5t55 -75t18.5 -83q0 -39 -14 -73.5t-41 -62t-65.5 -44t-88.5 -16.5q-35 0 -52 16.5t-17 35t17.5 34.5 t51.5 16q51 0 79 29t28 65q0 47 -48 88.5t-155 41.5q-92 0 -158.5 -48.5t-115.5 -127t-87 -178t-71 -204.5q-37 -113 -78 -221t-96 -192t-133 -136.5t-191 -52.5h4l-41 -4l-8 103q125 12 243 -24t230 -79q84 -33 162 -57.5t150 -24.5q76 0 143.5 44t126.5 161q10 25 29.5 31 t37 -1t26.5 -26.5t-3 -48.5q-39 -76 -81 -126t-87 -81t-93 -43t-99 -12q-82 0 -169 27.5t-180 62.5q-49 18 -102 36.5t-108.5 33t-110.5 21.5t-107 3q-27 0 -41 16.5t-16 35zM325 594.5q-1 19.5 11 39t35 23.5q39 6 95 11.5t117.5 6.5t120 0t101.5 -5q25 -4 37 -21.5t10 -37 t-16.5 -34t-40.5 -10.5q-45 6 -101.5 7t-113 -1t-106.5 -7t-81 -11q-35 -6 -51 7t-17 32.5z" />
<glyph unicode="&#xa4;" horiz-adv-x="1032" d="M109 168q0 2 2 8t11 16.5t27.5 27t49.5 38.5q-18 35 -31.5 75t-13.5 79q0 92 26.5 173t79.5 146q-29 35 -59.5 63.5t-32.5 41.5q0 25 18.5 41t28.5 16q18 0 33.5 -9.5t29 -23.5t27.5 -32.5t33 -34.5q37 23 65.5 38t56 23t57.5 11t69 3q61 0 99 -26.5t73 -55.5 q8 12 21.5 26.5t29.5 29t34.5 23.5t39.5 9q16 0 27.5 -6t11.5 -20q0 -12 -10.5 -27.5t-26 -34t-33.5 -37t-33 -34.5q23 -41 35 -91.5t12 -99.5q0 -113 -53 -213q-4 -6 -7 -13t-9 -13q70 -66 90 -90.5t20 -28.5q0 -16 -17.5 -27.5t-33.5 -11.5q-25 0 -38 7t-24.5 18.5 t-23.5 27t-35 31.5q-45 -45 -109.5 -78t-142.5 -33q-66 0 -125 22.5t-100 65.5q-29 -29 -52.5 -56.5t-49.5 -27.5q-2 0 -24.5 16.5t-22.5 47.5zM268 446q0 -55 16.5 -102t46 -82t68.5 -54.5t84 -19.5q55 0 105.5 30t87.5 78t58.5 106.5t21.5 115.5t-17.5 106.5t-60.5 94.5 q-23 20 -47.5 33.5t-48.5 13.5q-74 0 -132.5 -29.5t-98.5 -76t-61.5 -103.5t-21.5 -111z" />
<glyph unicode="&#xa5;" horiz-adv-x="1157" d="M11.5 1369q0.5 20 13 32t32 15t37.5 -9q43 -37 90 -100.5t96.5 -148.5t98.5 -187.5t98 -214.5q100 182 253 350t364 311q31 12 50 5t27.5 -22.5t3 -34.5t-23.5 -34q-205 -141 -353.5 -304t-242.5 -339h70q14 0 26 2q14 2 24.5 -10t12.5 -29.5t-6 -33t-29 -17.5 q-18 0 -41 -2q-18 -2 -44.5 -3t-57.5 -1q-16 -37 -30.5 -75t-26.5 -77q29 0 52 1t40 1q20 0 35 2q14 2 24 -10t12 -29.5t-6 -33t-28 -17.5q-20 0 -43 -2q-20 -2 -49 -3t-64 -1q-41 -160 -37 -317q0 -16 -14.5 -27.5t-32.5 -12.5t-34.5 7t-20.5 33q-2 78 7 156.5t25 158.5 h-112q-23 0 -35 14.5t-13 33t10 32.5t36 14h139q10 37 23.5 74t29.5 76q-29 -2 -57 -1t-61 1q-23 0 -35.5 14.5t-13.5 32.5t10.5 32.5t35.5 14.5h119q-45 111 -92 213t-93 186t-92 146.5t-89 97.5q-18 20 -17.5 40z" />
<glyph unicode="&#xa6;" horiz-adv-x="729" d="M160 -98q20 51 44.5 117.5t49.5 136t47.5 135t38.5 115t24.5 76t6.5 16.5q6 23 24.5 30t34.5 1.5t27.5 -20.5t3.5 -38q-23 -72 -75 -231.5t-140 -366.5q-6 -14 -23.5 -19.5t-35 0t-26.5 17.5t-1 31zM418 680q20 51 45.5 121.5t51.5 147.5t49.5 151t41 130t26.5 86.5 t7 20.5q6 23 24.5 30t35 2t27.5 -20.5t3 -37.5q-12 -35 -31.5 -104.5t-48 -159t-65.5 -191.5t-80 -205q-6 -14 -23.5 -19t-35 0t-26.5 17.5t-1 30.5z" />
<glyph unicode="&#xa7;" horiz-adv-x="827" d="M41 131q0 14 2 39t10 47.5t22.5 38.5t37.5 16q18 0 32.5 -13t14.5 -42q0 -27 -8.5 -46t-8.5 -40q0 -43 28 -77t68 -55.5t88 -29.5t88 -1t67.5 31t27.5 64q0 68 -51 147t-112.5 160t-113 158.5t-51.5 145.5q0 27 12.5 60.5t37 66.5t58.5 58.5t77 35.5q-25 43 -40.5 89 t-15.5 95q0 74 40 127.5t99.5 83t128 35.5t128 -13.5t99.5 -66.5t40 -121q0 -53 -35 -123q-10 -16 -24.5 -22t-26.5 -6q-20 0 -34.5 12t-14.5 35q0 29 14 58.5t14 47.5q0 39 -24.5 61.5t-60.5 31t-77.5 2t-77.5 -24.5t-60.5 -48t-24.5 -69q0 -70 45 -137.5t98 -133t98 -131 t45 -130.5q0 -49 -17 -85t-46 -60.5t-65.5 -40t-75.5 -21.5q47 -70 81.5 -138.5t34.5 -133.5q0 -78 -42 -126t-105.5 -66.5t-138 -10.5t-138 42t-105.5 90t-42 134zM285 680q0 -45 42 -107.5t97 -134.5h10q29 0 58.5 6.5t53 19.5t38 33.5t14.5 49.5q0 25 -15.5 52.5t-39 59 t-53 67.5t-60.5 75q-8 2 -15 2h-14q-33 0 -55 -13.5t-35.5 -33t-19.5 -41t-6 -35.5z" />
<glyph unicode="&#xa8;" horiz-adv-x="628" d="M213 1040q-2 27 15.5 45.5t43.5 20.5q27 2 45.5 -14.5t20.5 -42.5q2 -27 -15.5 -46.5t-43.5 -21.5q-27 0 -45.5 16t-20.5 43zM592 1028q-2 25 14.5 43.5t40.5 20.5q25 2 43.5 -15.5t20.5 -42.5t-15.5 -42t-42.5 -19t-42 14t-19 41z" />
<glyph unicode="&#xa9;" horiz-adv-x="1384" d="M94 504q0 117 46 219t126 179t187.5 121t230.5 44q104 0 205.5 -33t182.5 -97.5t131 -158.5t50 -215t-51 -217t-135 -165.5t-193.5 -106.5t-228.5 -37q-133 0 -235.5 34.5t-172 97t-106.5 147.5t-37 188zM188 504q0 -82 30 -150.5t88.5 -118t143.5 -77t195 -27.5 q100 0 192.5 31t164 87t114.5 136t43 178t-42 174t-109.5 128.5t-152.5 80t-171 27.5q-102 0 -192.5 -37t-158 -100.5t-106.5 -149.5t-39 -182zM371 453q0 66 31.5 140.5t83 137t115 103t124.5 40.5q72 0 104.5 -29.5t32.5 -76.5q0 -72 -67 -143l-13 -13q-8 -8 -18 -8 q-20 0 -37.5 17.5t-17.5 37.5q0 14 10 25h-2l12 12q43 33 43 60q0 33 -57 32q-47 0 -92 -32.5t-80 -82.5t-57.5 -109.5t-22.5 -110.5q0 -109 119 -109q61 0 111 25.5t89 55.5t62.5 55.5t34.5 25.5q16 0 29.5 -15.5t13.5 -35.5q0 -12 -7 -25q-59 -76 -146 -127t-187 -51 q-98 0 -154.5 51t-56.5 150z" />
<glyph unicode="&#xaa;" horiz-adv-x="864" d="M170 784q0 68 33 148t83 149.5t110.5 116.5t117.5 47q76 0 139 -61q4 -4 4 -10q0 -4 -2 -7l-47 -51q-4 -4 -8 -4t-8 4q-39 39 -78 39q-41 0 -85 -40t-82 -97t-62.5 -120.5t-24.5 -111.5q0 -23 9.5 -44t41.5 -21q18 0 42 8t50.5 28.5t53 56.5t51.5 89q2 6 8 6t8 -2l64 -37 q4 -4 4 -8q0 -2 -1 -3t-1 -3q-74 -127 -149.5 -176t-129.5 -49q-37 0 -64.5 14t-44 37t-24.5 49.5t-8 52.5zM473 731v20.5t4 22.5q45 209 113 387l22 60q6 23 39 22q18 0 34.5 -10t16.5 -29q0 -8 -2 -12v2l-22 -64q-33 -92 -63.5 -194t-51.5 -180q0 -10 5 -22.5t14 -12.5 q49 0 104 40t94 93q10 16 22.5 22.5t24.5 6.5q14 0 24.5 -9.5t10.5 -25.5t-8 -31q-23 -45 -56.5 -80t-71.5 -58.5t-76 -35.5t-68 -12q-47 0 -78 23.5t-31 76.5z" />
<glyph unicode="&#xab;" horiz-adv-x="1257" d="M299.5 400.5q-23.5 33.5 5.5 72.5q27 29 65.5 50.5t81.5 47.5q16 10 42 26.5t51.5 35t47 35t34.5 28.5q23 20 41 18.5t27 -16t8 -36t-15 -37.5q-18 -18 -44 -39t-53.5 -39.5t-54 -34.5t-47.5 -29q-29 -18 -60.5 -34.5t-27.5 -18.5t27.5 -24.5t52.5 -53t57.5 -63.5 t42.5 -53q20 -29 21.5 -53.5t-10 -38t-31.5 -10.5t-45 32q-16 18 -36.5 41.5t-41 46t-39 41t-31.5 29.5q-45 43 -68.5 76.5zM688.5 400.5q-23.5 33.5 5.5 72.5q27 29 65.5 50.5t81.5 47.5q16 10 42 26.5t51.5 35t47 35t34.5 28.5q23 20 41 18.5t27 -16t8 -36t-15 -37.5 q-18 -18 -44 -39t-53.5 -39.5t-54 -34.5t-47.5 -29q-29 -18 -60.5 -34.5t-27.5 -18.5t27.5 -24.5t52.5 -53t57.5 -63.5t42.5 -53q20 -29 21.5 -53.5t-10 -38t-31.5 -10.5t-45 32q-16 18 -36.5 41.5t-41 46t-39 41t-31.5 29.5q-45 43 -68.5 76.5z" />
<glyph unicode="&#xac;" horiz-adv-x="1292" d="M269 455.5q3 17.5 15.5 32t30.5 14.5h506h41q27 0 35 -8.5t7 -32t-9 -66.5t-14 -114q-4 -37 -29 -54.5t-41 -17.5q-18 0 -28.5 8t-14.5 20.5t-4 24.5t2 21l20 127h-473q-27 0 -37 14t-7 31.5z" />
<glyph unicode="&#xad;" horiz-adv-x="962" d="M217 422q0 12 12.5 21.5t32 14.5t42 8t42.5 5q80 4 151.5 9t149.5 16q29 0 49.5 -12.5t22.5 -24.5q0 -14 -45 -43q-78 -8 -179.5 -13.5t-230.5 -9.5q-43 10 -47 29z" />
<glyph unicode="&#xae;" horiz-adv-x="1673" d="M180 647q0 117 46 219.5t126 179t187.5 120.5t230.5 44q104 0 205.5 -32.5t182.5 -97t131 -159t50 -214.5q0 -121 -51 -217.5t-135 -166t-193.5 -106.5t-228.5 -37q-133 0 -235.5 35t-172 97.5t-106.5 147.5t-37 187zM274 647q0 -82 30 -150.5t88.5 -117.5t143.5 -77 t195 -28q100 0 192.5 31t164 87.5t114.5 136t43 178.5q0 98 -42 173.5t-109.5 128t-152.5 80t-171 27.5q-102 0 -192.5 -37t-158 -100.5t-106.5 -149.5t-39 -182zM514 473q12 70 24.5 128t28 111.5t35.5 108t47 113.5q27 55 56 55q16 0 26 -19.5t10 -37.5q0 -16 -1 -24.5 t-3 -12.5q-25 -59 -44 -113.5t-34.5 -106.5t-28 -106.5t-22.5 -113.5q-4 -23 -19.5 -32t-29.5 -9t-29.5 14t-15.5 45zM578 707l63 43q2 -2 34 -13.5t62 -11.5q18 0 43 5t47.5 17.5t38 34t15.5 56.5q0 20 -16.5 36.5t-42 26.5t-55 15.5t-54.5 5.5q-12 0 -28.5 -4.5 t-27.5 -8.5l2 2q-8 -4 -14 -4q-23 0 -35 16.5t-12 32.5q0 37 39 48.5t76 11.5q39 0 86 -11.5t87 -33t66.5 -55t26.5 -78.5q0 -59 -25.5 -99.5t-63.5 -64t-80 -33.5t-73 -10q-29 0 -55.5 10t-49 23.5t-37.5 25.5t-17 17zM659 664l54 51q47 -37 74.5 -73t44 -64.5t23.5 -47 t13 -18.5q27 0 45.5 14.5t33 33t28.5 32.5t33 14q18 0 31.5 -12t13.5 -35q0 -6 -7.5 -29.5t-28 -49t-56 -47t-93.5 -21.5q-45 0 -67.5 24.5t-40 61.5t-39 81t-62.5 85z" />
<glyph unicode="&#xaf;" horiz-adv-x="1619" d="M359 998.5q-1 19.5 11.5 39t35.5 23.5q39 6 95 11t117.5 6t120 0t101.5 -5q25 -4 37 -21.5t10 -37t-16.5 -33.5t-41.5 -10q-45 6 -101 7t-112.5 -1t-106.5 -7.5t-81 -11.5q-35 -6 -51.5 7.5t-17.5 33z" />
<glyph unicode="&#xb0;" horiz-adv-x="636" d="M156 1036q-4 63 19.5 112.5t72.5 65.5q25 27 62.5 39.5t70.5 12.5q57 0 103.5 -40t50.5 -106q4 -51 -14.5 -92t-50.5 -70.5t-70.5 -45t-75.5 -15.5q-66 0 -114 39t-54 100zM242 1059q4 -55 59 -76q14 -4 39 2t47.5 20.5t37.5 36t13 49.5q-4 35 -28.5 62t-63.5 27 q-43 -2 -75.5 -39t-28.5 -82z" />
<glyph unicode="&#xb1;" horiz-adv-x="1132" d="M195 110.5q2 18.5 15 33t38 14.5h159.5t147.5 2q78 0 147 2q35 0 47.5 -15.5t8.5 -33t-20.5 -32.5t-41.5 -15q-74 -2 -151 -3h-309q-23 0 -33 14.5t-8 33zM268 645.5q2 18.5 15.5 32.5t38.5 14h159.5t147.5 2q78 0 147 2q35 0 47.5 -15t8 -32.5t-20.5 -33t-41 -15.5 q-74 -2 -152 -2h-309q-23 0 -33 14.5t-8 33zM442 420q14 66 33 143.5t35 145.5q18 78 37 155q2 20 21.5 31.5t39 11.5t31.5 -13t4 -44q-16 -78 -35 -156q-16 -68 -33.5 -145.5t-33.5 -145.5q-4 -18 -22.5 -28t-37 -10t-32 13t-7.5 42z" />
<glyph unicode="&#xb2;" horiz-adv-x="1105" d="M143 504q0 27 48.5 58.5t120 67.5t156.5 75.5t157 85.5q39 25 77.5 58.5t70.5 72.5t52.5 79.5t20.5 75.5q0 29 -16.5 51.5t-44 37t-63.5 21.5t-75 7q-49 0 -99 -11.5t-90 -35t-64.5 -59t-24.5 -82.5q-1 -52 32 -72q18 -12 19 -37q0 -20 -14.5 -38.5t-34.5 -18.5 q-25 0 -45.5 17t-35 43t-21.5 54.5t-7 51.5q0 70 35 124t90 90.5t125 55t139 18.5q57 0 111.5 -13t96.5 -40t66.5 -67.5t24.5 -96.5q0 -72 -32.5 -134t-85 -115.5t-119 -97.5t-135 -81t-133 -66.5t-111.5 -52.5q41 -4 92 -11t109 -7q78 0 158.5 13.5t137.5 29.5q6 2 17 2 q23 0 37 -17.5t14 -37.5q0 -27 -25 -41h3q-59 -35 -151.5 -45t-190.5 -10q-45 0 -112 3t-129.5 13t-106.5 29.5t-44 52.5z" />
<glyph unicode="&#xb3;" horiz-adv-x="1009" d="M90 397q0 10 6 34t18.5 48.5t30 44t39.5 19.5q18 0 36 -19.5t18 -42.5q0 -10 -8.5 -20t-17.5 -21.5t-16.5 -21.5t-7.5 -21q0 -51 60.5 -87t163.5 -36q39 0 81 10.5t77.5 34t59 60.5t23.5 92q0 45 -22.5 71.5t-56 42t-73.5 23.5t-74 17.5t-56.5 23t-22.5 37.5 q0 16 11.5 27.5t37.5 13.5q63 6 127 22.5t114 44t81 66.5t31 88q0 39 -39 69t-140 30q-78 0 -118.5 -16.5t-58 -37t-19.5 -38t-2 -19.5v-2q-2 -23 -17.5 -34t-33.5 -11q-47 0 -48 47q0 18 7.5 53t37 71t89 61.5t161.5 25.5q78 0 131.5 -17.5t86 -46t47 -63.5t14.5 -72 q0 -59 -22.5 -104t-57.5 -77t-78 -54.5t-84 -36.5q57 -29 102.5 -79t45.5 -130t-34 -136.5t-84 -90t-110.5 -49t-113.5 -15.5q-147 0 -234.5 61.5t-87.5 159.5z" />
<glyph unicode="&#xb4;" horiz-adv-x="643" d="M444 1030.5q2 20.5 25 34.5q76 49 121 92t84 94q23 29 43 29t34.5 -13.5t17.5 -36t-11 -40.5q-49 -63 -105.5 -112.5t-128.5 -96.5q-20 -14 -40.5 -8t-31 21.5t-8.5 36z" />
<glyph unicode="&#xb5;" horiz-adv-x="940" d="M-184 -530q-4 23 3 76t21.5 125.5t36 157.5t45 170t47 165t45.5 143q59 170 120 298t102 204v-2l12 24q14 20 33.5 25.5t37 -2.5t24.5 -25.5t-3 -42.5l-14 -26q-39 -78 -98.5 -204t-118.5 -286q-20 -57 -44 -133t-46.5 -156.5t-43 -160.5t-34 -147.5t-20.5 -117t-3 -69.5 q4 -27 -8 -45.5t-30.5 -22.5t-37 7.5t-26.5 44.5zM33 195q0 102 48 256.5t152 359.5q6 14 20.5 21.5t31.5 7.5q18 0 33.5 -10.5t15.5 -30.5q0 -12 -10 -37q-98 -193 -143.5 -334t-45.5 -233q0 -115 55 -115q41 0 101.5 36t138.5 122q45 63 82 133.5t70.5 143.5t66.5 147.5 t74 148.5q6 14 20.5 21.5t30.5 7.5q18 0 33.5 -10.5t15.5 -30.5q0 -12 -10 -37l-37 -74q-29 -70 -53.5 -132t-48.5 -116l-4 -8q-25 -72 -35 -131t-10 -106q0 -115 55 -115q49 0 125 52t172 175q18 25 43 25q16 0 27.5 -12.5t11.5 -32.5q0 -23 -23 -56q-106 -135 -195 -194.5 t-161 -59.5t-115 55.5t-43 162.5v6l-47 -54q-82 -92 -154.5 -129.5t-130.5 -40.5q-72 0 -114.5 55.5t-42.5 162.5z" />
<glyph unicode="&#xb6;" horiz-adv-x="962" d="M-138 -41.5q1 23.5 14 36.5t34.5 12t44.5 -27q29 -35 63.5 -55.5t71.5 -32t73 -15.5t64 -4q88 0 161 76t147 254q-121 39 -210 100.5t-147.5 133t-88.5 151.5t-30 160q0 90 37 173t110 146t180.5 101t248.5 38q37 0 76 -5t84 -11l34 -6l13 49q8 31 27.5 43t38 8 t29.5 -23.5t3 -52.5l-10 -37q20 -4 38.5 -4h35.5q29 0 63 7q31 6 46 -7.5t16 -33t-11 -39t-35 -23.5q-35 -6 -79 -6q-27 0 -51.5 1t-49.5 3q-96 -369 -176 -617.5t-156.5 -400t-158.5 -216t-185 -64.5q-35 0 -81 7t-95 24.5t-94 44t-78 65.5q-18 23 -17 46.5zM162 748 q0 -66 25.5 -131.5t75.5 -126t127 -110.5t181 -83q51 141 107.5 334.5t124.5 451.5l-23 4h2q-45 6 -84 11.5t-63 5.5q-117 0 -205 -30t-148.5 -79t-90 -113.5t-29.5 -133.5z" />
<glyph unicode="&#xb7;" horiz-adv-x="786" d="M330 415q-2 31 17.5 53.5t51.5 24.5q31 2 53.5 -17.5t24.5 -51.5q2 -31 -19.5 -53.5t-52.5 -24.5t-52 17t-23 52z" />
<glyph unicode="&#xb8;" horiz-adv-x="616" d="M38 -314.5q-3 19.5 6 35t27.5 22.5t37.5 -3q39 -20 73 -21q33 0 56.5 12.5t23.5 35.5q0 16 -17.5 45.5t-43.5 48.5q0 53 7 99t25 116l89 -23q-16 -55 -20.5 -87t-4.5 -66q63 -70 63 -133q0 -66 -52 -105t-126 -39q-63 0 -121 31q-20 12 -23 31.5z" />
<glyph unicode="&#xb9;" horiz-adv-x="534" d="M174 504q31 98 64 190q29 78 59.5 161t56.5 140q-25 -16 -42 -27.5t-30.5 -20.5t-25.5 -14t-31 -5q-18 0 -29.5 12t-15.5 29.5t2 34t23 22.5q27 10 67.5 35.5t80.5 52.5t70 48.5t36 23.5q18 4 34.5 0t26.5 -14.5t12.5 -24.5t-8.5 -29q-18 -27 -38.5 -67.5t-41 -92 t-42 -106.5t-40.5 -109q-45 -127 -90 -268q-6 -20 -24.5 -25.5t-36.5 1t-30.5 20.5t-6.5 33z" />
<glyph unicode="&#xba;" horiz-adv-x="1243" d="M178 825q-6 68 17.5 142.5t66.5 137t99.5 103.5t117.5 41q12 0 23.5 -2t25.5 -4q16 2 18.5 2h6.5q59 0 92 -38t49 -105q2 -14 3 -38t1 -47.5t-2 -42t-2 -24.5q-6 -18 10.5 -27.5t39 -11.5t43 2.5t24.5 14.5q10 33 26.5 37t31 -7.5t21.5 -35t3 -48t-25.5 -44t-64.5 -23.5 t-76 7t-68 34q-23 -59 -58.5 -101t-75.5 -68t-79.5 -38t-70.5 -12q-76 0 -132.5 57t-64.5 139zM275 844q1 -49 29 -83t91 -34q43 0 81 27.5t63.5 61.5t38 65.5t6.5 40.5q4 -6 -11.5 15t-34 59t-29.5 85t1 93q-41 0 -83 -32t-76 -82t-55.5 -108.5t-20.5 -107.5z" />
<glyph unicode="&#xbb;" horiz-adv-x="1187" d="M237 183.5q1 21.5 15 37.5q18 18 44 39t53.5 39t54 34.5t47.5 28.5q29 18 60.5 35t27.5 19t-28 24.5t-52.5 53t-57 63.5t-43.5 53q-20 29 -21 53.5t10 38t31.5 9.5t45.5 -31q16 -18 36.5 -42t41 -46.5t39 -41t30.5 -28.5q45 -43 69 -76.5t-5 -72.5q-27 -29 -66 -50.5 t-82 -48.5q-16 -10 -41.5 -26.5t-51 -34.5t-47 -34.5t-34.5 -28.5q-23 -23 -41 -20t-27 17.5t-8 36zM626 183.5q1 21.5 15 37.5q18 18 44 39t53.5 39t54 34.5t47.5 28.5q29 18 60.5 35t27.5 19t-27.5 24.5t-52.5 53t-57.5 63.5t-42.5 53q-20 29 -21.5 53.5t10 38t31.5 9.5 t45 -31q16 -18 36.5 -42t41 -46.5t39 -41t31.5 -28.5q45 -43 68.5 -76.5t-5.5 -72.5q-27 -29 -65.5 -50.5t-81.5 -48.5q-16 -10 -42 -26.5t-51.5 -34.5t-47 -34.5t-34.5 -28.5q-23 -23 -41 -20t-27 17.5t-8 36z" />
<glyph unicode="&#xbc;" horiz-adv-x="1667" d="M182 670q31 98 64 190q29 78 59.5 161t56.5 140q-25 -16 -42 -27.5t-30.5 -20.5t-25.5 -14t-31 -5q-18 0 -29.5 12t-15.5 29.5t2 34t23 22.5q27 10 67.5 35.5t80.5 52.5t70 48.5t36 23.5q18 4 34.5 0t26.5 -14.5t12.5 -24.5t-8.5 -29q-18 -27 -38.5 -67.5t-41 -92 t-42 -106.5t-40.5 -109q-45 -127 -90 -268q-6 -20 -24.5 -25.5t-36.5 1t-30.5 20.5t-6.5 33zM204 -8.5q-5 18.5 11 36.5q12 14 48 64.5t88.5 125t118 167t136 191.5t142.5 198.5t137.5 186.5t120.5 157.5t94 111.5q10 12 28.5 10.5t32 -11t19.5 -25t-8 -29.5 q-29 -31 -82 -100.5t-121.5 -161.5t-146.5 -198.5t-155 -214t-147.5 -205t-122.5 -171t-81 -115.5t-25 -36q-14 -18 -33.5 -19.5t-34 9t-19.5 29zM1187 134q0 34 26.5 56t62.5 22q17 0 34 -5.5t28 -17.5l-4 -3q-4 -4 -7 -4h-4q-11 0 -21.5 6t-25.5 6q-28 0 -49 -17t-21 -43 q0 -28 22.5 -43.5t47.5 -15.5q23 0 43 9v32h-14q-7 0 -11.5 5t-4.5 10v2h49v-58q-13 -13 -45 -17h-17q-28 0 -47 11t-28 27q-8 7 -11 18t-3 20zM1187 -222q0 13 6 21l6 10q5 5 7 9l117 141h-128v41h198v-20q0 -8 -2 -12l-7 -9l-131 -157q2 0 4 2t7 2h127v-42h-204v14z M1257 629q-4 38 5.5 81t19.5 81q12 54 37.5 116t56.5 125t67 122t70 105q25 33 34 56.5t9 41.5q-2 28 -29.5 39t-59 22.5t-59 32.5t-29.5 69q0 22 8.5 44t34.5 46q2 49 30.5 83t64.5 36q11 0 11 -4q0 -6 -9.5 -21t-9.5 -35q11 5 29 11t37 10.5t33 8.5l13 3q31 23 65.5 37.5 t45.5 14.5q8 6 12 -22q0 -22 -4 -35q77 -19 110 -52.5t35 -66.5q4 -35 -22.5 -65.5t-62.5 -49.5q10 -16 37.5 -64.5t52.5 -116.5q22 12 49 22t57 12q47 0 77 -25.5t32 -44.5q0 -20 -24 -38.5t-51 -18.5q-13 0 -22.5 6t-19 13.5t-19 13.5t-22.5 6q-5 -2 -13 -4.5t-17 -9.5 q6 -23 11.5 -44.5t9.5 -44.5q38 -3 58.5 -28t22.5 -37q2 -22 -23 -40t-50 -20q-4 -30 -12 -59t-14.5 -56t-11 -53t-2.5 -49q0 -31 8.5 -57t23.5 -49q47 -28 109 -47t131.5 -29t143 -12.5t142.5 0.5q110 3 230 42t248.5 95t263.5 120.5t269.5 120t269 95.5t261.5 45 q112 4 193.5 -42.5t113.5 -162.5q2 -8 3 -14.5t1 -13.5q2 -25 -4.5 -38t-14 -19t-15.5 -7.5t-9 -1.5q-27 -2 -37 15.5t-26 39.5t-47 38.5t-95 13.5q-79 -3 -192 -35t-245.5 -80t-279 -103t-293 -103t-282.5 -82t-248 -37q-72 -4 -150 0.5t-153.5 15t-143 28t-120.5 40.5 q-16 6 -49 3q21 2 21 0q0 -1 -22 -5.5t-57 -8.5t-83.5 -8t-100.5 -6q-70 -3 -143.5 -1.5t-132.5 11.5t-97.5 30.5t-40.5 54.5zM1349 272v166h66q26 0 43 -16.5t17 -36.5q0 -10 -5 -20q-6 -13 -20 -22t-35 -9h-42v-62h-24zM1373 355h42q14 0 24 9t10 21q0 14 -10 22 q-12 8 -24 8h-42v-60zM1379 60v151l105 -2v-16h-84v-49h68v-16h-68v-52h84v-16h-105zM1424 0h172v-41h-123v-55h100v-42h-100v-56h123v-42h-172v236zM1494 272v166h116v-23h-90v-48h74v-24h-74v-50h90v-21h-116zM1505 193v18h128v-18h-55v-133h-18v133h-55zM1537 1493 q0 -8 7 -9.5t14 -1.5q15 0 15 11q0 13 -21 14q-15 -1 -15 -14zM1605 0h205v-41h-78v-195h-48v195h-79v41zM1650 272v166h68q23 0 38.5 -14t15.5 -36q0 -33 -38 -45l59 -71h-17q-19 0 -22 10l-49 58h-29v-68h-26zM1676 364h42q7 0 11 1l9 5l6 8q2 4 2 10q0 10 -7.5 18.5 t-20.5 8.5h-42v-51zM1716 1470q2 -5 7.5 -11t10.5 -6q23 5 23 24q0 8 -13 8q-12 -2 -20 -4.5t-8 -10.5zM1740 60v151h105v-18h-84v-52h72v-16h-72v-65h-21zM1770 -236l117 236h43l117 -236h-30q-18 0 -32 19l-16 31h-122l-14 -31q-4 -7 -13 -13t-20 -6h-30zM1797 1542 q3 -7 14 -8q13 0 14 12q0 12 -12 10q-16 0 -16 -14zM1802 302l6 2q3 3 12 3q7 0 13 -5l3 -1q6 -9 25 -9q9 0 23.5 6.5t14.5 21.5t-11.5 19t-26.5 9l-19 8q-32 12 -32 40q0 27 20.5 35.5t36.5 8.5q7 0 15 -2.5t12 -6.5l14 -8q4 -3 5.5 -4t3.5 -4l-7 -3q-6 -5 -14 -5 q-9 0 -14.5 4.5t-14.5 4.5q-8 0 -12 -1l-11 -3q-8 -5 -8 -16q0 -8 3 -12t14 -7l17 -5q4 -2 8.5 -3.5l10.5 -3.5l7 -4q15 -5 21.5 -16t6.5 -25q0 -7 -3 -19q-21 -30 -60 -30q-15 0 -36 7t-21 21q-2 0 -2 3zM1870 -143h77l-34 72q-3 5 -3 8t-2 6q0 -1 -4 -14zM1878 117v94h18 v-94q0 -18 14 -30t36 -12q18 0 34 11.5t16 30.5v94h19v-94q0 -31 -23.5 -45t-45.5 -14q-29 0 -48.5 17t-19.5 42zM1946 353q0 35 28.5 61t68.5 26q41 0 68.5 -26t27.5 -61q0 -5 -1 -9.5t-2 -11.5q-10 -22 -30 -41.5t-63 -19.5q-38 0 -67.5 23t-29.5 59zM1971 353 q0 -18 17 -39.5t55 -21.5q26 0 48 17t22 44t-21 46q-17 18 -49 17q-27 0 -49.5 -17t-22.5 -46zM2050 60v151h19v-135h78v-16h-97zM2058 0h169v-41h-122v-60h103v-42h-103v-93h-47v236zM2167 60v151h19v-135h77v-16h-96zM2175 272v166h18q13 0 20 -7l90 -111q3 -7 3 -11v129 h27v-166h-21l-108 130q-1 1 -3 6v-136h-26zM2244 -117q0 30 12.5 52t32 37t44 22.5t47.5 7.5q43 0 73.5 -18.5t44.5 -41.5q8 -13 12.5 -27.5t4.5 -31.5q0 -54 -40.5 -87t-94.5 -33q-32 0 -57.5 11t-42.5 28t-26.5 38t-9.5 43zM2294 -117q0 -34 26 -55.5t60 -21.5q56 0 81 47 q3 8 5 14.5t2 15.5q0 33 -26 54.5t-62 21.5q-32 0 -59 -21t-27 -55zM2344 211h11q4 0 9 -2.5t7 -7.5l56 -113q0 -3 1 -5t1 -4v4q0 1 0.5 2t0.5 3l57 113q4 10 15 10h9l-73 -151h-19zM2351 272l83 166h25l83 -166h-15q-13 0 -19 10l-13 27h-97l-13 -27q-5 -10 -19 -10h-15z M2410 332h73l-35 70q0 1 -1.5 3t-1.5 5v-5zM2527 60v151h103v-18h-85v-49h70v-16h-70v-52h85v-16h-103zM2551 0h43q21 0 41 -26.5t40 -52.5l57 -68q7 -13 7 -19v166h49v-236h-45l-128 158q-2 2 -2 2.5t-2 2.5l-3 7q-4 3 -4 4l-5 5v-179h-48v236zM2560 272v166h25v-145h82 v-21h-107zM2671 60v151h61q23 0 35.5 -14.5t12.5 -28.5q0 -13 -6.5 -22.5t-16.5 -15.5q-3 -2 -14 -5l57 -65h-12q-15 0 -21 8l-46 57h-31v-65h-19zM2690 141h42q9 0 19.5 6.5t10.5 20.5q0 9 -9.5 17t-20.5 8h-42v-52zM2775 337v101h25v-101q0 -19 14.5 -32t35.5 -13 q18 0 33.5 12.5t15.5 32.5v101h26v-101q0 -20 -8.5 -32.5t-20.5 -21t-25.5 -11.5t-20.5 -3q-38 0 -56.5 22t-18.5 46zM2811 0h204v-41h-79v-195h-48v195h-77v41zM2812 84l4 2q2 1 7 2q10 0 19.5 -6.5t20.5 -6.5q17 0 27 6q11 6 11 20q0 19 -22 27l-14 3q-13 3 -29 10.5 t-16 31.5q0 14 14 26.5t34 12.5q4 0 8 -0.5t8 -0.5l11 -5q4 -3 5.5 -4t3.5 -3l9 -6l-5 -4q-2 -3 -9 -3q-6 0 -9 1l-10 6q-3 0 -5.5 0.5t-6.5 0.5q-30 0 -29 -21q0 -13 17 -21l16 -5q4 -3 11.5 -4.5t13.5 -4.5l7 -4q17 -14 18 -33q0 -23 -19 -33t-40 -10q-18 0 -34.5 9 t-16.5 17zM2951 302l8 2q4 3 10 3q9 0 14 -5l2 -1q9 -9 27 -9q14 0 25.5 8.5t11.5 19.5q0 10 -11 20l-26 8l-20 8q-34 12 -33 40q0 24 20 34t38 10q15 0 29 -9l13 -8l9 -8l-8 -3q-5 -5 -12 -5q-10 0 -17.5 4.5t-13.5 4.5q-9 0 -13 -1l-9 -3q-9 -5 -10 -16q0 -11 19 -19 l15 -5q7 -3 9 -3l20 -8q14 -5 21 -16t7 -25q-1 -10 -6 -19q-19 -30 -58 -30q-21 0 -32 6.5t-22 15.5zM2959 60v151h19v-151h-19zM3017 134q0 35 28.5 56.5t59.5 21.5q38 0 64 -24t26 -54q0 -38 -28.5 -57t-61.5 -19q-36 0 -61 21q-11 12 -19 26t-8 29zM3017 -186 q4 2 6.5 3.5t6.5 3.5l8 2q4 0 5 0.5t5 0.5q18 0 28.5 -9t28.5 -9q10 0 16 1l15 6q16 11 17 24q0 12 -17 20q-15 9 -33 13.5t-34 12.5t-27.5 20.5t-11.5 33.5q0 35 28.5 50t55.5 15q18 0 38.5 -10.5t35.5 -27.5l-9 -7q-15 -8 -29 -8h-5q-7 2 -14.5 6t-16.5 4q-34 0 -34 -22 q0 -10 7 -14t17 -7l32 -11q32 -8 47 -27q16 -12 17 -41q0 -36 -31 -55t-64 -19q-37 0 -58 17t-30 34zM3038 134q0 -25 20 -42t47 -17q34 0 51 19t17 40q0 24 -17.5 42t-50.5 18q-18 0 -35 -8t-26 -28q-6 -10 -6 -24zM3107 272v166h117v-23l-90 1v-49h73v-24h-73v-50h90v-21 h-117zM3215 -212q0 9 7.5 17.5t20.5 8.5t22 -8q8 -7 9 -18q0 -25 -31 -25q-9 0 -18.5 5.5t-9.5 19.5zM3226 60v151h14q9 0 14 -7l88 -109q4 -3 4 -9v125h19v-151h-16l-102 124q-2 0 -1 2.5t-1 4.5v-131h-19zM3292 -117q0 44 36.5 81.5t99.5 37.5q26 0 54 -11t49 -32l-10 -10 q-9 -8 -26 -9q-15 0 -31 9.5t-36 9.5q-17 0 -33.5 -7t-29.5 -15q-11 -12 -18.5 -26t-7.5 -28q0 -32 26.5 -54.5t62.5 -22.5q25 0 36.5 9t30.5 9q15 0 26 -10l10 -8q-21 -24 -48.5 -33.5t-54.5 -9.5q-63 0 -99.5 37t-36.5 83zM3331 353q0 29 23.5 58t73.5 29q37 0 66 -23.5 t29 -63.5q0 -13 -2 -21q-9 -19 -27.5 -40t-65.5 -21q-38 0 -67.5 22t-29.5 60zM3358 353q0 -18 17 -39.5t53 -21.5q28 0 49.5 18.5t21.5 42.5q0 31 -21 46q-21 18 -50 17q-27 0 -48.5 -17t-21.5 -46zM3491 60v151h104v-18h-85v-52h71v-16h-71v-65h-19zM3550 -117q0 55 42 87 t93 32q43 0 73.5 -18.5t44.5 -41.5q8 -13 13 -27.5t5 -31.5q0 -10 -6 -30.5t-20.5 -40t-41.5 -34.5t-68 -15q-32 0 -56.5 11t-42.5 27.5t-27 38t-9 43.5zM3559 272v166h18q12 0 20 -7l90 -111q3 -3 3 -5.5t2 -5.5v129h27v-166h-23l-107 130q-1 0 -1 6l-2 4v-140h-27z M3599 -117q0 -34 26 -55.5t60 -21.5q30 0 49 12.5t32 34.5q3 8 5 14.5t2 15.5q0 34 -28 55t-60 21t-59 -21.5t-27 -54.5zM3615 60v151h61q23 0 36.5 -13.5t13.5 -29.5q0 -19 -11 -29q-9 -11 -26 -14l55 -65h-12q-15 0 -19 8l-46 57h-33v-65h-19zM3634 141h42q9 0 13 2 q9 3 13 10t4 15q0 9 -8 17t-22 8h-42v-52zM3760 134q0 24 22.5 51t65.5 27q33 0 61.5 -20.5t28.5 -57.5q0 -31 -27 -55q-25 -21 -63 -21q-35 0 -61.5 21.5t-26.5 54.5zM3764 272v166h27v-145h80v-21h-107zM3781 134q0 -18 16.5 -38.5t50.5 -20.5q33 0 50.5 18t17.5 41 q0 30 -21.5 45t-46.5 15q-26 0 -46.5 -16.5t-20.5 -43.5zM3845 438h19q15 0 22 -12l45 -53l2 -1v-3v1q0 3 3 3l45 53q5 11 22 12h19l-68 -82q-7 -6 -5 -6l-2 -3v-5v-70h-27v75q-2 1 -2 3l-5 6zM3856 0h48q16 0 27 -11l7 -8q7 -18 14.5 -35t16.5 -36l32 -71q4 -3 4 -15v-1 q0 3 1.5 8t1.5 8l10 17l55 125q8 13 22 17q4 0 5 1t5 1h48v-236h-48v173q-2 -3 -2 -5.5t-2 -6.5q-18 -41 -35.5 -81t-37.5 -80h-45l-70 150q-4 7 -4 11l-4 10v-171h-49v236zM3972 60v151h16q4 0 9.5 -3.5t5.5 -6.5l58 -117v-3q0 -2 2 -2q0 2 1 3.5t1 3.5l58 115q2 3 6 6 q7 4 10 4h14v-151h-18v124l-2 -3v-2v-2l-17 -33q-8 -16 -16.5 -30t-12.5 -28l-14 -26h-19q-9 13 -16 28t-14 29l-30 60v2q0 2 -1 2t-1 1v-122h-20z" />
<glyph unicode="&#xbd;" horiz-adv-x="1658" d="M171 -8.5q-5 18.5 11 36.5q12 14 48 64.5t88.5 125t118 167t136 191.5t142.5 198.5t137.5 186.5t120.5 157.5t94 111.5q10 12 28.5 10.5t32 -11t19.5 -25t-8 -29.5q-29 -31 -82 -100.5t-121.5 -161.5t-146.5 -198.5t-155 -214t-147.5 -205t-122.5 -171t-81 -115.5 t-25 -36q-14 -18 -33.5 -19.5t-34 9t-19.5 29zM182 670q31 98 64 190q29 78 59.5 161t56.5 140q-25 -16 -42 -27.5t-30.5 -20.5t-25.5 -14t-31 -5q-18 0 -29.5 12t-15.5 29.5t2 34t23 22.5q27 10 67.5 35.5t80.5 52.5t70 48.5t36 23.5q18 4 34.5 0t26.5 -14.5t12.5 -24.5 t-8.5 -29q-18 -27 -38.5 -67.5t-41 -92t-42 -106.5t-40.5 -109q-45 -127 -90 -268q-6 -20 -24.5 -25.5t-36.5 1t-30.5 20.5t-6.5 33zM780 107q0 27 48.5 58.5t120 67.5t156.5 75.5t157 85.5q39 25 77.5 58.5t70.5 72.5t52.5 79.5t20.5 75.5q0 29 -16.5 51.5t-44 37 t-63.5 21.5t-75 7q-49 0 -99 -11.5t-90 -35t-64.5 -59t-24.5 -82.5q-1 -52 32 -72q18 -12 19 -37q0 -20 -14.5 -38.5t-34.5 -18.5q-25 0 -45.5 17t-35 43t-21.5 54.5t-7 51.5q0 70 35 124t90 90.5t125 55t139 18.5q57 0 111.5 -13t96.5 -40t66.5 -67.5t24.5 -96.5 q0 -72 -32.5 -134t-85 -115.5t-119 -97.5t-135 -81t-133 -66.5t-111.5 -52.5q41 -4 92 -11t109 -7q78 0 158.5 13.5t137.5 29.5q6 2 17 2q23 0 37 -17.5t14 -37.5q0 -27 -25 -41h3q-59 -35 -151.5 -45t-190.5 -10q-45 0 -112 3t-129.5 13t-106.5 29.5t-44 52.5z" />
<glyph unicode="&#xbe;" horiz-adv-x="1935" d="M53 602q0 10 6 34t18.5 48.5t30 44t39.5 19.5q18 0 36 -19.5t18 -42.5q0 -10 -8.5 -20t-17.5 -21.5t-16.5 -21.5t-7.5 -21q0 -51 60.5 -87t163.5 -36q39 0 81 10.5t77.5 34t59 60.5t23.5 92q0 45 -22.5 71.5t-56 42t-73.5 23.5t-74 17.5t-56.5 23t-22.5 37.5 q0 16 11.5 27.5t37.5 13.5q63 6 127 22.5t114 44t81 66.5t31 88q0 39 -39 69t-140 30q-78 0 -118.5 -16.5t-58 -37t-19.5 -38t-2 -19.5v-2q-2 -23 -17.5 -34t-33.5 -11q-47 0 -48 47q0 18 7.5 53t37 71t89 61.5t161.5 25.5q78 0 131.5 -17.5t86 -46t47 -63.5t14.5 -72 q0 -59 -22.5 -104t-57.5 -77t-78 -54.5t-84 -36.5q57 -29 102.5 -79t45.5 -130t-34 -136.5t-84 -90t-110.5 -49t-113.5 -15.5q-147 0 -234.5 61.5t-87.5 159.5zM492 -8.5q-5 18.5 11 36.5q12 14 48 64.5t88.5 125t118 167t136 191.5t142.5 198.5t137.5 186.5t120.5 157.5 t94 111.5q10 12 28.5 10.5t32 -11t19.5 -25t-8 -29.5q-29 -31 -82 -100.5t-121.5 -161.5t-146.5 -198.5t-155 -214t-147.5 -205t-122.5 -171t-81 -115.5t-25 -36q-14 -18 -33.5 -19.5t-34 9t-19.5 29zM1476 134q0 34 26.5 56t62.5 22q17 0 34 -5.5t28 -17.5l-4 -3 q-4 -4 -7 -4h-4q-11 0 -21.5 6t-25.5 6q-28 0 -49 -17t-21 -43q0 -28 22.5 -43.5t47.5 -15.5q23 0 43 9v32h-14q-7 0 -11.5 5t-4.5 10v2h49v-58q-13 -13 -45 -17h-17q-28 0 -47 11t-28 27q-8 7 -11 18t-3 20zM1476 -222q0 13 6 21l6 10q5 5 7 9l117 141h-128v41h198v-20 q0 -8 -2 -12l-7 -9l-131 -157q2 0 4 2t7 2h127v-42h-204v14zM1546 629q-4 38 5.5 81t19.5 81q12 54 37.5 116t56.5 125t67 122t70 105q25 33 34 56.5t9 41.5q-2 28 -29.5 39t-59 22.5t-59 32.5t-29.5 69q0 22 8.5 44t34.5 46q2 49 30.5 83t64.5 36q11 0 11 -4q0 -6 -9.5 -21 t-9.5 -35q11 5 29 11t37 10.5t33 8.5l13 3q31 23 65.5 37.5t45.5 14.5q8 6 12 -22q0 -22 -4 -35q77 -19 110 -52.5t35 -66.5q4 -35 -22.5 -65.5t-62.5 -49.5q10 -16 37.5 -64.5t52.5 -116.5q22 12 49 22t57 12q47 0 77 -25.5t32 -44.5q0 -20 -24 -38.5t-51 -18.5 q-13 0 -22.5 6t-19 13.5t-19 13.5t-22.5 6q-5 -2 -13 -4.5t-17 -9.5q6 -23 11.5 -44.5t9.5 -44.5q38 -3 58.5 -28t22.5 -37q2 -22 -23 -40t-50 -20q-4 -30 -12 -59t-14.5 -56t-11 -53t-2.5 -49q0 -31 8.5 -57t23.5 -49q47 -28 109 -47t131.5 -29t143 -12.5t142.5 0.5 q110 3 230 42t248.5 95t263.5 120.5t269.5 120t269 95.5t261.5 45q112 4 193.5 -42.5t113.5 -162.5q2 -8 3 -14.5t1 -13.5q2 -25 -4.5 -38t-14 -19t-15.5 -7.5t-9 -1.5q-27 -2 -37 15.5t-26 39.5t-47 38.5t-95 13.5q-79 -3 -192 -35t-245.5 -80t-279 -103t-293 -103 t-282.5 -82t-248 -37q-72 -4 -150 0.5t-153.5 15t-143 28t-120.5 40.5q-16 6 -49 3q21 2 21 0q0 -1 -22 -5.5t-57 -8.5t-83.5 -8t-100.5 -6q-70 -3 -143.5 -1.5t-132.5 11.5t-97.5 30.5t-40.5 54.5zM1638 272v166h66q26 0 43 -16.5t17 -36.5q0 -10 -5 -20q-6 -13 -20 -22 t-35 -9h-42v-62h-24zM1662 355h42q14 0 24 9t10 21q0 14 -10 22q-12 8 -24 8h-42v-60zM1668 60v151l105 -2v-16h-84v-49h68v-16h-68v-52h84v-16h-105zM1713 0h172v-41h-123v-55h100v-42h-100v-56h123v-42h-172v236zM1783 272v166h116v-23h-90v-48h74v-24h-74v-50h90v-21 h-116zM1794 193v18h128v-18h-55v-133h-18v133h-55zM1826 1493q0 -8 7 -9.5t14 -1.5q15 0 15 11q0 13 -21 14q-15 -1 -15 -14zM1894 0h205v-41h-78v-195h-48v195h-79v41zM1939 272v166h68q23 0 38.5 -14t15.5 -36q0 -33 -38 -45l59 -71h-17q-19 0 -22 10l-49 58h-29v-68h-26z M1965 364h42q7 0 11 1l9 5l6 8q2 4 2 10q0 10 -7.5 18.5t-20.5 8.5h-42v-51zM2005 1470q2 -5 7.5 -11t10.5 -6q23 5 23 24q0 8 -13 8q-12 -2 -20 -4.5t-8 -10.5zM2029 60v151h105v-18h-84v-52h72v-16h-72v-65h-21zM2059 -236l117 236h43l117 -236h-30q-18 0 -32 19l-16 31 h-122l-14 -31q-4 -7 -13 -13t-20 -6h-30zM2086 1542q3 -7 14 -8q13 0 14 12q0 12 -12 10q-16 0 -16 -14zM2091 302l6 2q3 3 12 3q7 0 13 -5l3 -1q6 -9 25 -9q9 0 23.5 6.5t14.5 21.5t-11.5 19t-26.5 9l-19 8q-32 12 -32 40q0 27 20.5 35.5t36.5 8.5q7 0 15 -2.5t12 -6.5 l14 -8q4 -3 5.5 -4t3.5 -4l-7 -3q-6 -5 -14 -5q-9 0 -14.5 4.5t-14.5 4.5q-8 0 -12 -1l-11 -3q-8 -5 -8 -16q0 -8 3 -12t14 -7l17 -5q4 -2 8.5 -3.5l10.5 -3.5l7 -4q15 -5 21.5 -16t6.5 -25q0 -7 -3 -19q-21 -30 -60 -30q-15 0 -36 7t-21 21q-2 0 -2 3zM2159 -143h77l-34 72 q-3 5 -3 8t-2 6q0 -1 -4 -14zM2167 117v94h18v-94q0 -18 14 -30t36 -12q18 0 34 11.5t16 30.5v94h19v-94q0 -31 -23.5 -45t-45.5 -14q-29 0 -48.5 17t-19.5 42zM2235 353q0 35 28.5 61t68.5 26q41 0 68.5 -26t27.5 -61q0 -5 -1 -9.5t-2 -11.5q-10 -22 -30 -41.5t-63 -19.5 q-38 0 -67.5 23t-29.5 59zM2260 353q0 -18 17 -39.5t55 -21.5q26 0 48 17t22 44t-21 46q-17 18 -49 17q-27 0 -49.5 -17t-22.5 -46zM2339 60v151h19v-135h78v-16h-97zM2347 0h169v-41h-122v-60h103v-42h-103v-93h-47v236zM2456 60v151h19v-135h77v-16h-96zM2464 272v166h18 q13 0 20 -7l90 -111q3 -7 3 -11v129h27v-166h-21l-108 130q-1 1 -3 6v-136h-26zM2533 -117q0 30 12.5 52t32 37t44 22.5t47.5 7.5q43 0 73.5 -18.5t44.5 -41.5q8 -13 12.5 -27.5t4.5 -31.5q0 -54 -40.5 -87t-94.5 -33q-32 0 -57.5 11t-42.5 28t-26.5 38t-9.5 43zM2583 -117 q0 -34 26 -55.5t60 -21.5q56 0 81 47q3 8 5 14.5t2 15.5q0 33 -26 54.5t-62 21.5q-32 0 -59 -21t-27 -55zM2633 211h11q4 0 9 -2.5t7 -7.5l56 -113q0 -3 1 -5t1 -4v4q0 1 0.5 2t0.5 3l57 113q4 10 15 10h9l-73 -151h-19zM2640 272l83 166h25l83 -166h-15q-13 0 -19 10 l-13 27h-97l-13 -27q-5 -10 -19 -10h-15zM2699 332h73l-35 70q0 1 -1.5 3t-1.5 5v-5zM2816 60v151h103v-18h-85v-49h70v-16h-70v-52h85v-16h-103zM2840 0h43q21 0 41 -26.5t40 -52.5l57 -68q7 -13 7 -19v166h49v-236h-45l-128 158q-2 2 -2 2.5t-2 2.5l-3 7q-4 3 -4 4l-5 5 v-179h-48v236zM2849 272v166h25v-145h82v-21h-107zM2960 60v151h61q23 0 35.5 -14.5t12.5 -28.5q0 -13 -6.5 -22.5t-16.5 -15.5q-3 -2 -14 -5l57 -65h-12q-15 0 -21 8l-46 57h-31v-65h-19zM2979 141h42q9 0 19.5 6.5t10.5 20.5q0 9 -9.5 17t-20.5 8h-42v-52zM3064 337v101 h25v-101q0 -19 14.5 -32t35.5 -13q18 0 33.5 12.5t15.5 32.5v101h26v-101q0 -20 -8.5 -32.5t-20.5 -21t-25.5 -11.5t-20.5 -3q-38 0 -56.5 22t-18.5 46zM3100 0h204v-41h-79v-195h-48v195h-77v41zM3101 84l4 2q2 1 7 2q10 0 19.5 -6.5t20.5 -6.5q17 0 27 6q11 6 11 20 q0 19 -22 27l-14 3q-13 3 -29 10.5t-16 31.5q0 14 14 26.5t34 12.5q4 0 8 -0.5t8 -0.5l11 -5q4 -3 5.5 -4t3.5 -3l9 -6l-5 -4q-2 -3 -9 -3q-6 0 -9 1l-10 6q-3 0 -5.5 0.5t-6.5 0.5q-30 0 -29 -21q0 -13 17 -21l16 -5q4 -3 11.5 -4.5t13.5 -4.5l7 -4q17 -14 18 -33 q0 -23 -19 -33t-40 -10q-18 0 -34.5 9t-16.5 17zM3240 302l8 2q4 3 10 3q9 0 14 -5l2 -1q9 -9 27 -9q14 0 25.5 8.5t11.5 19.5q0 10 -11 20l-26 8l-20 8q-34 12 -33 40q0 24 20 34t38 10q15 0 29 -9l13 -8l9 -8l-8 -3q-5 -5 -12 -5q-10 0 -17.5 4.5t-13.5 4.5q-9 0 -13 -1 l-9 -3q-9 -5 -10 -16q0 -11 19 -19l15 -5q7 -3 9 -3l20 -8q14 -5 21 -16t7 -25q-1 -10 -6 -19q-19 -30 -58 -30q-21 0 -32 6.5t-22 15.5zM3248 60v151h19v-151h-19zM3306 134q0 35 28.5 56.5t59.5 21.5q38 0 64 -24t26 -54q0 -38 -28.5 -57t-61.5 -19q-36 0 -61 21 q-11 12 -19 26t-8 29zM3306 -186q4 2 6.5 3.5t6.5 3.5l8 2q4 0 5 0.5t5 0.5q18 0 28.5 -9t28.5 -9q10 0 16 1l15 6q16 11 17 24q0 12 -17 20q-15 9 -33 13.5t-34 12.5t-27.5 20.5t-11.5 33.5q0 35 28.5 50t55.5 15q18 0 38.5 -10.5t35.5 -27.5l-9 -7q-15 -8 -29 -8h-5 q-7 2 -14.5 6t-16.5 4q-34 0 -34 -22q0 -10 7 -14t17 -7l32 -11q32 -8 47 -27q16 -12 17 -41q0 -36 -31 -55t-64 -19q-37 0 -58 17t-30 34zM3327 134q0 -25 20 -42t47 -17q34 0 51 19t17 40q0 24 -17.5 42t-50.5 18q-18 0 -35 -8t-26 -28q-6 -10 -6 -24zM3396 272v166h117 v-23l-90 1v-49h73v-24h-73v-50h90v-21h-117zM3504 -212q0 9 7.5 17.5t20.5 8.5t22 -8q8 -7 9 -18q0 -25 -31 -25q-9 0 -18.5 5.5t-9.5 19.5zM3515 60v151h14q9 0 14 -7l88 -109q4 -3 4 -9v125h19v-151h-16l-102 124q-2 0 -1 2.5t-1 4.5v-131h-19zM3581 -117q0 44 36.5 81.5 t99.5 37.5q26 0 54 -11t49 -32l-10 -10q-9 -8 -26 -9q-15 0 -31 9.5t-36 9.5q-17 0 -33.5 -7t-29.5 -15q-11 -12 -18.5 -26t-7.5 -28q0 -32 26.5 -54.5t62.5 -22.5q25 0 36.5 9t30.5 9q15 0 26 -10l10 -8q-21 -24 -48.5 -33.5t-54.5 -9.5q-63 0 -99.5 37t-36.5 83zM3620 353 q0 29 23.5 58t73.5 29q37 0 66 -23.5t29 -63.5q0 -13 -2 -21q-9 -19 -27.5 -40t-65.5 -21q-38 0 -67.5 22t-29.5 60zM3647 353q0 -18 17 -39.5t53 -21.5q28 0 49.5 18.5t21.5 42.5q0 31 -21 46q-21 18 -50 17q-27 0 -48.5 -17t-21.5 -46zM3780 60v151h104v-18h-85v-52h71 v-16h-71v-65h-19zM3839 -117q0 55 42 87t93 32q43 0 73.5 -18.5t44.5 -41.5q8 -13 13 -27.5t5 -31.5q0 -10 -6 -30.5t-20.5 -40t-41.5 -34.5t-68 -15q-32 0 -56.5 11t-42.5 27.5t-27 38t-9 43.5zM3848 272v166h18q12 0 20 -7l90 -111q3 -3 3 -5.5t2 -5.5v129h27v-166h-23 l-107 130q-1 0 -1 6l-2 4v-140h-27zM3888 -117q0 -34 26 -55.5t60 -21.5q30 0 49 12.5t32 34.5q3 8 5 14.5t2 15.5q0 34 -28 55t-60 21t-59 -21.5t-27 -54.5zM3904 60v151h61q23 0 36.5 -13.5t13.5 -29.5q0 -19 -11 -29q-9 -11 -26 -14l55 -65h-12q-15 0 -19 8l-46 57h-33 v-65h-19zM3923 141h42q9 0 13 2q9 3 13 10t4 15q0 9 -8 17t-22 8h-42v-52zM4049 134q0 24 22.5 51t65.5 27q33 0 61.5 -20.5t28.5 -57.5q0 -31 -27 -55q-25 -21 -63 -21q-35 0 -61.5 21.5t-26.5 54.5zM4053 272v166h27v-145h80v-21h-107zM4070 134q0 -18 16.5 -38.5 t50.5 -20.5q33 0 50.5 18t17.5 41q0 30 -21.5 45t-46.5 15q-26 0 -46.5 -16.5t-20.5 -43.5zM4134 438h19q15 0 22 -12l45 -53l2 -1v-3v1q0 3 3 3l45 53q5 11 22 12h19l-68 -82q-7 -6 -5 -6l-2 -3v-5v-70h-27v75q-2 1 -2 3l-5 6zM4145 0h48q16 0 27 -11l7 -8q7 -18 14.5 -35 t16.5 -36l32 -71q4 -3 4 -15v-1q0 3 1.5 8t1.5 8l10 17l55 125q8 13 22 17q4 0 5 1t5 1h48v-236h-48v173q-2 -3 -2 -5.5t-2 -6.5q-18 -41 -35.5 -81t-37.5 -80h-45l-70 150q-4 7 -4 11l-4 10v-171h-49v236zM4261 60v151h16q4 0 9.5 -3.5t5.5 -6.5l58 -117v-3q0 -2 2 -2 q0 2 1 3.5t1 3.5l58 115q2 3 6 6q7 4 10 4h14v-151h-18v124l-2 -3v-2v-2l-17 -33q-8 -16 -16.5 -30t-12.5 -28l-14 -26h-19q-9 13 -16 28t-14 29l-30 60v2q0 2 -1 2t-1 1v-122h-20z" />
<glyph unicode="&#xbf;" horiz-adv-x="1036" d="M70 -135q0 82 29.5 139.5t78.5 99.5t112.5 74.5t131.5 63.5q55 25 110.5 51.5t102.5 61t81 80t48 106.5q8 37 27.5 51t38 8t29.5 -27.5t3 -56.5q-18 -76 -60 -132t-97.5 -99t-118 -76t-123.5 -61q-55 -25 -106.5 -51.5t-92.5 -59.5t-66.5 -75t-25.5 -97q0 -68 44 -117 t112.5 -76.5t148.5 -32.5t147.5 15.5t113.5 66.5t46 121q0 39 -17 60.5t-44 30t-58.5 5.5t-60.5 -12q-37 -12 -57.5 -0.5t-25.5 30t8.5 40t46.5 29.5q57 16 113.5 15t100.5 -20.5t70.5 -62.5t26.5 -115q0 -111 -60.5 -180t-151.5 -101t-197.5 -26t-198 46t-150.5 112 t-59 172zM803 864q-2 31 19.5 53.5t52.5 24.5t52 -17t23 -52q2 -31 -17.5 -53.5t-51.5 -24.5q-31 -2 -53.5 17.5t-24.5 51.5z" />
<glyph unicode="&#xc0;" horiz-adv-x="1736" d="M74 1105q14 97 78.5 179t169 147.5t232.5 109.5t270.5 66.5t278.5 19.5t260 -34.5t214 -93.5l-6 -133q-66 61 -169.5 98t-225 48.5t-252.5 1t-253 -42t-224.5 -83t-169 -120t-87 -153.5t22.5 -183q8 -20 -1 -40t-27.5 -28t-38 -2t-31.5 37q-55 109 -41 206zM217 14.5 q-2 20.5 14 38.5q76 70 174.5 175.5t208 230.5t226 264t230.5 279.5t220.5 272.5t196.5 245l80 -64q-92 -115 -199.5 -249t-222.5 -274t-231.5 -280.5t-227.5 -266.5t-209 -230.5t-176 -175.5q-18 -16 -37.5 -14.5t-32 15t-14.5 34zM412 487.5q-4 18.5 5 37t38 26.5 q61 8 138 4t160 -17.5t168 -34t162 -42.5q84 -23 150.5 -47.5t112.5 -40.5l-43 -97q-43 16 -106.5 40t-141.5 46q-74 20 -155 39t-157.5 32t-148.5 18.5t-127 -2.5q-20 -4 -35.5 8t-19.5 30.5zM1221 1869.5q3 22.5 17.5 36t34.5 13.5t43 -29q39 -51 84 -94t121 -92 q23 -14 25 -34.5t-8.5 -36t-31 -21.5t-40.5 8q-72 47 -128 96t-106 113q-14 18 -11 40.5zM1276 195v33.5t4 33.5q20 137 49 290t58.5 310.5t58 313.5t51.5 301q2 25 20.5 32t39 0.5t35 -24t10.5 -41.5q-23 -145 -52.5 -300t-60.5 -309.5t-58.5 -304t-48.5 -284.5 q-4 -16 -4 -28.5v-22.5q0 -59 24.5 -87t61.5 -28q61 0 138 50t149 151q12 18 32.5 23t37 -2t22.5 -24.5t-10 -44.5q-86 -123 -185.5 -189.5t-183.5 -66.5t-136 53.5t-52 164.5z" />
<glyph unicode="&#xc1;" horiz-adv-x="1736" d="M74 1105q14 97 78.5 179t169 147.5t232.5 109.5t270.5 66.5t278.5 19.5t260 -34.5t214 -93.5l-6 -133q-66 61 -169.5 98t-225 48.5t-252.5 1t-253 -42t-224.5 -83t-169 -120t-87 -153.5t22.5 -183q8 -20 -1 -40t-27.5 -28t-38 -2t-31.5 37q-55 109 -41 206zM217 14.5 q-2 20.5 14 38.5q76 70 174.5 175.5t208 230.5t226 264t230.5 279.5t220.5 272.5t196.5 245l80 -64q-92 -115 -199.5 -249t-222.5 -274t-231.5 -280.5t-227.5 -266.5t-209 -230.5t-176 -175.5q-18 -16 -37.5 -14.5t-32 15t-14.5 34zM412 487.5q-4 18.5 5 37t38 26.5 q61 8 138 4t160 -17.5t168 -34t162 -42.5q84 -23 150.5 -47.5t112.5 -40.5l-43 -97q-43 16 -106.5 40t-141.5 46q-74 20 -155 39t-157.5 32t-148.5 18.5t-127 -2.5q-20 -4 -35.5 8t-19.5 30.5zM1276 195v33.5t4 33.5q20 137 49 290t58.5 310.5t58 313.5t51.5 301 q2 25 20.5 32t39 0.5t35 -24t10.5 -41.5q-23 -145 -52.5 -300t-60.5 -309.5t-58.5 -304t-48.5 -284.5q-4 -16 -4 -28.5v-22.5q0 -59 24.5 -87t61.5 -28q61 0 138 50t149 151q12 18 32.5 23t37 -2t22.5 -24.5t-10 -44.5q-86 -123 -185.5 -189.5t-183.5 -66.5t-136 53.5 t-52 164.5zM1468 1646.5q2 20.5 25 34.5q76 49 121 92t84 94q23 29 43 29t34.5 -13.5t17.5 -36t-11 -40.5q-49 -63 -105.5 -112.5t-128.5 -96.5q-20 -14 -40.5 -8t-31 21.5t-8.5 36z" />
<glyph unicode="&#xc2;" horiz-adv-x="1736" d="M74 1105q14 97 78.5 179t169 147.5t232.5 109.5t270.5 66.5t278.5 19.5t260 -34.5t214 -93.5l-6 -133q-66 61 -169.5 98t-225 48.5t-252.5 1t-253 -42t-224.5 -83t-169 -120t-87 -153.5t22.5 -183q8 -20 -1 -40t-27.5 -28t-38 -2t-31.5 37q-55 109 -41 206zM217 14.5 q-2 20.5 14 38.5q76 70 174.5 175.5t208 230.5t226 264t230.5 279.5t220.5 272.5t196.5 245l80 -64q-92 -115 -199.5 -249t-222.5 -274t-231.5 -280.5t-227.5 -266.5t-209 -230.5t-176 -175.5q-18 -16 -37.5 -14.5t-32 15t-14.5 34zM412 487.5q-4 18.5 5 37t38 26.5 q61 8 138 4t160 -17.5t168 -34t162 -42.5q84 -23 150.5 -47.5t112.5 -40.5l-43 -97q-43 16 -106.5 40t-141.5 46q-74 20 -155 39t-157.5 32t-148.5 18.5t-127 -2.5q-20 -4 -35.5 8t-19.5 30.5zM1249 1670.5q2 17.5 31 33.5t62.5 43t64.5 55q37 35 68.5 67t66.5 48q23 8 40 3 t31.5 -19.5t27 -37t26.5 -48.5q14 -29 31.5 -62.5t44.5 -74.5q12 -18 5 -33t-23.5 -22t-35 -6t-30.5 18q-16 20 -32.5 50.5t-31 58.5t-24.5 47.5t-15 21.5q-4 2 -27.5 -23.5t-47.5 -46.5q-33 -33 -69 -63.5t-81 -53.5q-18 -10 -39.5 -5t-33 18.5t-9.5 31zM1276 195v33.5 t4 33.5q20 137 49 290t58.5 310.5t58 313.5t51.5 301q2 25 20.5 32t39 0.5t35 -24t10.5 -41.5q-23 -145 -52.5 -300t-60.5 -309.5t-58.5 -304t-48.5 -284.5q-4 -16 -4 -28.5v-22.5q0 -59 24.5 -87t61.5 -28q61 0 138 50t149 151q12 18 32.5 23t37 -2t22.5 -24.5t-10 -44.5 q-86 -123 -185.5 -189.5t-183.5 -66.5t-136 53.5t-52 164.5z" />
<glyph unicode="&#xc3;" horiz-adv-x="1736" d="M74 1105q14 97 78.5 179t169 147.5t232.5 109.5t270.5 66.5t278.5 19.5t260 -34.5t214 -93.5l-6 -133q-66 61 -169.5 98t-225 48.5t-252.5 1t-253 -42t-224.5 -83t-169 -120t-87 -153.5t22.5 -183q8 -20 -1 -40t-27.5 -28t-38 -2t-31.5 37q-55 109 -41 206zM217 14.5 q-2 20.5 14 38.5q76 70 174.5 175.5t208 230.5t226 264t230.5 279.5t220.5 272.5t196.5 245l80 -64q-92 -115 -199.5 -249t-222.5 -274t-231.5 -280.5t-227.5 -266.5t-209 -230.5t-176 -175.5q-18 -16 -37.5 -14.5t-32 15t-14.5 34zM412 487.5q-4 18.5 5 37t38 26.5 q61 8 138 4t160 -17.5t168 -34t162 -42.5q84 -23 150.5 -47.5t112.5 -40.5l-43 -97q-43 16 -106.5 40t-141.5 46q-74 20 -155 39t-157.5 32t-148.5 18.5t-127 -2.5q-20 -4 -35.5 8t-19.5 30.5zM1276 195v33.5t4 33.5q20 137 49 290t58.5 310.5t58 313.5t51.5 301 q2 25 20.5 32t39 0.5t35 -24t10.5 -41.5q-23 -145 -52.5 -300t-60.5 -309.5t-58.5 -304t-48.5 -284.5q-4 -16 -4 -28.5v-22.5q0 -59 24.5 -87t61.5 -28q61 0 138 50t149 151q12 18 32.5 23t37 -2t22.5 -24.5t-10 -44.5q-86 -123 -185.5 -189.5t-183.5 -66.5t-136 53.5 t-52 164.5zM1343 1677q2 20 25 39q41 31 74.5 42t64.5 11q35 0 59.5 -10t53.5 -21q23 -10 45 -19t45 -9q16 0 36.5 4t45.5 20q20 12 40.5 6t30.5 -21t6 -35.5t-30 -35.5q-35 -20 -68 -27t-61 -7q-41 0 -72 11t-57 23q-23 10 -40.5 16.5t-33.5 6.5t-35.5 -7.5t-44.5 -25.5 q-23 -16 -43 -12t-31.5 17.5t-9.5 33.5z" />
<glyph unicode="&#xc4;" horiz-adv-x="1736" d="M74 1105q14 97 78.5 179t169 147.5t232.5 109.5t270.5 66.5t278.5 19.5t260 -34.5t214 -93.5l-6 -133q-66 61 -169.5 98t-225 48.5t-252.5 1t-253 -42t-224.5 -83t-169 -120t-87 -153.5t22.5 -183q8 -20 -1 -40t-27.5 -28t-38 -2t-31.5 37q-55 109 -41 206zM217 14.5 q-2 20.5 14 38.5q76 70 174.5 175.5t208 230.5t226 264t230.5 279.5t220.5 272.5t196.5 245l80 -64q-92 -115 -199.5 -249t-222.5 -274t-231.5 -280.5t-227.5 -266.5t-209 -230.5t-176 -175.5q-18 -16 -37.5 -14.5t-32 15t-14.5 34zM412 487.5q-4 18.5 5 37t38 26.5 q61 8 138 4t160 -17.5t168 -34t162 -42.5q84 -23 150.5 -47.5t112.5 -40.5l-43 -97q-43 16 -106.5 40t-141.5 46q-74 20 -155 39t-157.5 32t-148.5 18.5t-127 -2.5q-20 -4 -35.5 8t-19.5 30.5zM1069 1691q-2 27 15.5 45.5t43.5 20.5q27 2 45.5 -14.5t20.5 -42.5 q2 -27 -15.5 -46.5t-43.5 -21.5q-27 0 -45.5 16t-20.5 43zM1276 195v33.5t4 33.5q20 137 49 290t58.5 310.5t58 313.5t51.5 301q2 25 20.5 32t39 0.5t35 -24t10.5 -41.5q-23 -145 -52.5 -300t-60.5 -309.5t-58.5 -304t-48.5 -284.5q-4 -16 -4 -28.5v-22.5q0 -59 24.5 -87 t61.5 -28q61 0 138 50t149 151q12 18 32.5 23t37 -2t22.5 -24.5t-10 -44.5q-86 -123 -185.5 -189.5t-183.5 -66.5t-136 53.5t-52 164.5zM1448 1679q-2 25 14.5 43.5t40.5 20.5q25 2 43.5 -15.5t20.5 -42.5t-15.5 -42t-42.5 -19t-42 14t-19 41z" />
<glyph unicode="&#xc5;" horiz-adv-x="1736" d="M74 1105q14 97 78.5 179t169 147.5t232.5 109.5t270.5 66.5t278.5 19.5t260 -34.5t214 -93.5l-6 -133q-66 61 -169.5 98t-225 48.5t-252.5 1t-253 -42t-224.5 -83t-169 -120t-87 -153.5t22.5 -183q8 -20 -1 -40t-27.5 -28t-38 -2t-31.5 37q-55 109 -41 206zM217 14.5 q-2 20.5 14 38.5q76 70 174.5 175.5t208 230.5t226 264t230.5 279.5t220.5 272.5t196.5 245l80 -64q-92 -115 -199.5 -249t-222.5 -274t-231.5 -280.5t-227.5 -266.5t-209 -230.5t-176 -175.5q-18 -16 -37.5 -14.5t-32 15t-14.5 34zM412 487.5q-4 18.5 5 37t38 26.5 q61 8 138 4t160 -17.5t168 -34t162 -42.5q84 -23 150.5 -47.5t112.5 -40.5l-43 -97q-43 16 -106.5 40t-141.5 46q-74 20 -155 39t-157.5 32t-148.5 18.5t-127 -2.5q-20 -4 -35.5 8t-19.5 30.5zM1276 195v33.5t4 33.5q20 137 49 290t58.5 310.5t58 313.5t51.5 301 q2 25 20.5 32t39 0.5t35 -24t10.5 -41.5q-23 -145 -52.5 -300t-60.5 -309.5t-58.5 -304t-48.5 -284.5q-4 -16 -4 -28.5v-22.5q0 -59 24.5 -87t61.5 -28q61 0 138 50t149 151q12 18 32.5 23t37 -2t22.5 -24.5t-10 -44.5q-86 -123 -185.5 -189.5t-183.5 -66.5t-136 53.5 t-52 164.5zM1348 1747q-4 63 19.5 112.5t72.5 65.5q25 27 62.5 39.5t70.5 12.5q57 0 103.5 -40t50.5 -106q4 -51 -14.5 -92t-50.5 -70.5t-70.5 -45t-75.5 -15.5q-66 0 -114 39t-54 100zM1434 1770q4 -55 59 -76q14 -4 39 2t47.5 20.5t37.5 36t13 49.5q-4 35 -28.5 62 t-63.5 27q-43 -2 -75.5 -39t-28.5 -82z" />
<glyph unicode="&#xc6;" horiz-adv-x="1931" d="M-192.5 1023q14.5 97 79 179t169 147.5t232.5 109.5t270 66.5t278.5 19.5t260.5 -34.5t214 -93.5l-6 -133q-66 61 -169.5 98t-225.5 48.5t-253 1t-252.5 -42t-224 -83t-169 -120t-87 -153.5t22.5 -183q8 -20 -1 -39.5t-27.5 -28t-38 -2.5t-32.5 37q-55 109 -40.5 206z M111.5 39.5q-7.5 19.5 5.5 40.5q80 129 208 303t283.5 357.5t325.5 357.5t336 303l69 -82q-109 -84 -220 -189.5t-219.5 -222t-211 -238.5t-192.5 -238t-165 -222.5t-126 -190.5q-16 -18 -35.5 -18t-35 10t-23 29.5zM212 471q-5 21 2 37t23.5 23.5t34.5 -1.5q51 -23 120 -38 t144.5 -24t155.5 -12t154 -3q78 0 144.5 4t109.5 8l24 -103q-45 -4 -113.5 -8t-154.5 -4q-78 0 -162 4t-166 13.5t-155.5 26.5t-130.5 42q-25 14 -30 35zM1040 180.5q2 112.5 22.5 259t53.5 305t65.5 291.5t58.5 218t32 83l112 11q-14 -10 -40.5 -100.5t-58.5 -222.5 t-63.5 -285.5t-53 -289t-28.5 -231.5t9 -115q2 -8 36 -9t81 1t103 4t106 2q45 0 82.5 -1t74.5 -3l74 -4t82 -6q25 -2 38 -18.5t12 -34t-18.5 -30.5t-54.5 -11q-2 0 -31.5 2t-72.5 5t-93 5t-93 2q-61 0 -126 -5t-121.5 -6t-99.5 4t-59 28q-31 39 -29 151.5zM1159 741 q37 2 78 4q35 2 82 4.5t100 4.5q90 2 182.5 2t151.5 -15q29 -6 41 -23.5t10 -35.5t-15 -31.5t-36 -11.5q-61 4 -146 9t-171 3q-53 -2 -99.5 -4t-81.5 -4q-41 -2 -75 -4zM1204 1386.5q2 18.5 19 24.5q41 16 104.5 16h132.5q98 0 196.5 -6t178.5 -14q94 -8 182 -18 q27 -4 39 -22.5t8 -39t-26.5 -34t-63.5 -5.5q-78 10 -159 19q-72 6 -161 12t-181 6q-59 0 -114.5 -3t-101.5 -13q-16 -4 -29.5 9t-19.5 31.5t-4 37z" />
<glyph unicode="&#xc7;" horiz-adv-x="1378" d="M153.5 416.5q-12.5 142.5 24.5 290t119 290t201.5 253t271.5 178t328 67.5q76 0 136 -28.5t102 -76t63.5 -107.5t21.5 -124q0 -82 -36.5 -160.5t-118.5 -119.5q-4 -2 -11 -2q-23 0 -46 19t-23 42q0 18 16 27q55 35 84 95t29 124q0 39 -13.5 77.5t-40 67.5t-67.5 47.5 t-94 18.5q-147 0 -277.5 -59.5t-237 -156t-183 -220t-115.5 -251.5t-36 -252t57 -220.5t163 -156t283 -59.5q123 0 227 26t188 67t145.5 92t100.5 104q25 33 51 27q16 -4 23.5 -26.5t-0.5 -39.5q-31 -61 -96.5 -123.5t-159.5 -113.5t-212 -83t-255 -32q-201 0 -331 67.5 t-199.5 178t-82 253zM351 -390.5q-3 19.5 6 35t27.5 22.5t37.5 -3q39 -20 73 -21q33 0 56.5 12.5t23.5 35.5q0 16 -17.5 45.5t-43.5 48.5q0 53 7 99t25 116l89 -23q-16 -55 -20.5 -87t-4.5 -66q63 -70 63 -133q0 -66 -52 -105t-126 -39q-63 0 -121 31q-20 12 -23 31.5z" />
<glyph unicode="&#xc8;" horiz-adv-x="1157" d="M29 317q0 57 27.5 118t88 117t155.5 107.5t228 92.5q-100 49 -143 114.5t-43 137.5q0 102 53.5 180t138 131t190 79.5t212.5 26.5q74 0 144.5 -11t127 -37.5t91 -68.5t34.5 -104q0 -76 -61.5 -153.5t-175.5 -135.5q-14 -8 -26.5 -10t-22.5 -2q-49 0 -50 39 q0 16 12.5 32.5t41.5 30.5q88 41 134 96.5t46 102.5q0 35 -25.5 58.5t-66.5 38t-92.5 20.5t-102.5 6q-86 0 -175 -20.5t-161.5 -60.5t-118 -99.5t-45.5 -138.5q0 -70 78 -129.5t271 -94.5q27 -4 38 -19.5t11 -31.5q0 -20 -13.5 -36.5t-40.5 -16.5q-4 0 -6 1t-6 1 q-23 4 -41 7t-37 7q-154 -35 -261 -80t-175.5 -94t-99.5 -100t-31 -101q0 -57 37 -109t102.5 -92t155.5 -63.5t197 -23.5q70 0 143.5 11t143 38.5t133 73t114.5 112.5l33 43q18 25 37.5 26t32 -12.5t11 -38t-21.5 -51.5q-49 -70 -118.5 -126t-150.5 -96t-171 -61.5 t-180 -21.5q-129 0 -238.5 32t-190.5 85t-126 125t-45 149zM679 1808.5q3 22.5 17.5 36t34.5 13.5t43 -29q39 -51 84 -94t121 -92q23 -14 25 -34.5t-8.5 -36t-31 -21.5t-40.5 8q-72 47 -128 96t-106 113q-14 18 -11 40.5z" />
<glyph unicode="&#xc9;" horiz-adv-x="1157" d="M29 317q0 57 27.5 118t88 117t155.5 107.5t228 92.5q-100 49 -143 114.5t-43 137.5q0 102 53.5 180t138 131t190 79.5t212.5 26.5q74 0 144.5 -11t127 -37.5t91 -68.5t34.5 -104q0 -76 -61.5 -153.5t-175.5 -135.5q-14 -8 -26.5 -10t-22.5 -2q-49 0 -50 39 q0 16 12.5 32.5t41.5 30.5q88 41 134 96.5t46 102.5q0 35 -25.5 58.5t-66.5 38t-92.5 20.5t-102.5 6q-86 0 -175 -20.5t-161.5 -60.5t-118 -99.5t-45.5 -138.5q0 -70 78 -129.5t271 -94.5q27 -4 38 -19.5t11 -31.5q0 -20 -13.5 -36.5t-40.5 -16.5q-4 0 -6 1t-6 1 q-23 4 -41 7t-37 7q-154 -35 -261 -80t-175.5 -94t-99.5 -100t-31 -101q0 -57 37 -109t102.5 -92t155.5 -63.5t197 -23.5q70 0 143.5 11t143 38.5t133 73t114.5 112.5l33 43q18 25 37.5 26t32 -12.5t11 -38t-21.5 -51.5q-49 -70 -118.5 -126t-150.5 -96t-171 -61.5 t-180 -21.5q-129 0 -238.5 32t-190.5 85t-126 125t-45 149zM841 1636.5q2 20.5 25 34.5q76 49 121 92t84 94q23 29 43 29t34.5 -13.5t17.5 -36t-11 -40.5q-49 -63 -105.5 -112.5t-128.5 -96.5q-20 -14 -40.5 -8t-31 21.5t-8.5 36z" />
<glyph unicode="&#xca;" horiz-adv-x="1157" d="M29 317q0 57 27.5 118t88 117t155.5 107.5t228 92.5q-100 49 -143 114.5t-43 137.5q0 102 53.5 180t138 131t190 79.5t212.5 26.5q74 0 144.5 -11t127 -37.5t91 -68.5t34.5 -104q0 -76 -61.5 -153.5t-175.5 -135.5q-14 -8 -26.5 -10t-22.5 -2q-49 0 -50 39 q0 16 12.5 32.5t41.5 30.5q88 41 134 96.5t46 102.5q0 35 -25.5 58.5t-66.5 38t-92.5 20.5t-102.5 6q-86 0 -175 -20.5t-161.5 -60.5t-118 -99.5t-45.5 -138.5q0 -70 78 -129.5t271 -94.5q27 -4 38 -19.5t11 -31.5q0 -20 -13.5 -36.5t-40.5 -16.5q-4 0 -6 1t-6 1 q-23 4 -41 7t-37 7q-154 -35 -261 -80t-175.5 -94t-99.5 -100t-31 -101q0 -57 37 -109t102.5 -92t155.5 -63.5t197 -23.5q70 0 143.5 11t143 38.5t133 73t114.5 112.5l33 43q18 25 37.5 26t32 -12.5t11 -38t-21.5 -51.5q-49 -70 -118.5 -126t-150.5 -96t-171 -61.5 t-180 -21.5q-129 0 -238.5 32t-190.5 85t-126 125t-45 149zM690 1633.5q2 17.5 31 33.5t62.5 43t64.5 55q37 35 68.5 67t66.5 48q23 8 40 3t31.5 -19.5t27 -37t26.5 -48.5q14 -29 31.5 -62.5t44.5 -74.5q12 -18 5 -33t-23.5 -22t-35 -6t-30.5 18q-16 20 -32.5 50.5t-31 58.5 t-24.5 47.5t-15 21.5q-4 2 -27.5 -23.5t-47.5 -46.5q-33 -33 -69 -63.5t-81 -53.5q-18 -10 -39.5 -5t-33 18.5t-9.5 31z" />
<glyph unicode="&#xcb;" horiz-adv-x="1157" d="M29 317q0 57 27.5 118t88 117t155.5 107.5t228 92.5q-100 49 -143 114.5t-43 137.5q0 102 53.5 180t138 131t190 79.5t212.5 26.5q74 0 144.5 -11t127 -37.5t91 -68.5t34.5 -104q0 -76 -61.5 -153.5t-175.5 -135.5q-14 -8 -26.5 -10t-22.5 -2q-49 0 -50 39 q0 16 12.5 32.5t41.5 30.5q88 41 134 96.5t46 102.5q0 35 -25.5 58.5t-66.5 38t-92.5 20.5t-102.5 6q-86 0 -175 -20.5t-161.5 -60.5t-118 -99.5t-45.5 -138.5q0 -70 78 -129.5t271 -94.5q27 -4 38 -19.5t11 -31.5q0 -20 -13.5 -36.5t-40.5 -16.5q-4 0 -6 1t-6 1 q-23 4 -41 7t-37 7q-154 -35 -261 -80t-175.5 -94t-99.5 -100t-31 -101q0 -57 37 -109t102.5 -92t155.5 -63.5t197 -23.5q70 0 143.5 11t143 38.5t133 73t114.5 112.5l33 43q18 25 37.5 26t32 -12.5t11 -38t-21.5 -51.5q-49 -70 -118.5 -126t-150.5 -96t-171 -61.5 t-180 -21.5q-129 0 -238.5 32t-190.5 85t-126 125t-45 149zM545 1634q-2 27 15.5 45.5t43.5 20.5q27 2 45.5 -14.5t20.5 -42.5q2 -27 -15.5 -46.5t-43.5 -21.5q-27 0 -45.5 16t-20.5 43zM924 1622q-2 25 14.5 43.5t40.5 20.5q25 2 43.5 -15.5t20.5 -42.5t-15.5 -42 t-42.5 -19t-42 14t-19 41z" />
<glyph unicode="&#xcc;" horiz-adv-x="493" d="M55 23q66 311 133 587q29 117 63 237t68.5 229.5t71.5 199.5t74 145q10 16 29.5 17.5t35 -8t23.5 -27t-2 -35.5q-33 -53 -67.5 -139t-68.5 -192.5t-66 -224.5t-60 -232q-68 -271 -131 -578q-2 -18 -19.5 -26.5t-37 -5.5t-35 15.5t-11.5 37.5zM271 1810.5q3 22.5 17.5 36 t34.5 13.5t43 -29q39 -51 84 -94t121 -92q23 -14 25 -34.5t-8.5 -36t-31 -21.5t-40.5 8q-72 47 -128 96t-106 113q-14 18 -11 40.5z" />
<glyph unicode="&#xcd;" horiz-adv-x="493" d="M55 23q66 311 133 587q29 117 63 237t68.5 229.5t71.5 199.5t74 145q10 16 29.5 17.5t35 -8t23.5 -27t-2 -35.5q-33 -53 -67.5 -139t-68.5 -192.5t-66 -224.5t-60 -232q-68 -271 -131 -578q-2 -18 -19.5 -26.5t-37 -5.5t-35 15.5t-11.5 37.5zM581 1624.5q2 20.5 25 34.5 q76 49 121 92t84 94q23 29 43 29t34.5 -13.5t17.5 -36t-11 -40.5q-49 -63 -105.5 -112.5t-128.5 -96.5q-20 -14 -40.5 -8t-31 21.5t-8.5 36z" />
<glyph unicode="&#xce;" horiz-adv-x="493" d="M55 23q66 311 133 587q29 117 63 237t68.5 229.5t71.5 199.5t74 145q10 16 29.5 17.5t35 -8t23.5 -27t-2 -35.5q-33 -53 -67.5 -139t-68.5 -192.5t-66 -224.5t-60 -232q-68 -271 -131 -578q-2 -18 -19.5 -26.5t-37 -5.5t-35 15.5t-11.5 37.5zM317 1604.5q2 17.5 31 33.5 t62.5 43t64.5 55q37 35 68.5 67t66.5 48q23 8 40 3t31.5 -19.5t27 -37t26.5 -48.5q14 -29 31.5 -62.5t44.5 -74.5q12 -18 5 -33t-23.5 -22t-35 -6t-30.5 18q-16 20 -32.5 50.5t-31 58.5t-24.5 47.5t-15 21.5q-4 2 -27.5 -23.5t-47.5 -46.5q-33 -33 -69 -63.5t-81 -53.5 q-18 -10 -39.5 -5t-33 18.5t-9.5 31z" />
<glyph unicode="&#xcf;" horiz-adv-x="540" d="M80 23q66 311 133 587q29 117 63 237t68.5 229.5t71.5 199.5t74 145q10 16 29.5 17.5t35 -8t23.5 -27t-2 -35.5q-33 -53 -67.5 -139t-68.5 -192.5t-66 -224.5t-60 -232q-68 -271 -131 -578q-2 -18 -19.5 -26.5t-37 -5.5t-35 15.5t-11.5 37.5zM322 1652q-2 27 15.5 45.5 t43.5 20.5q27 2 45.5 -14.5t20.5 -42.5q2 -27 -15.5 -46.5t-43.5 -21.5q-27 0 -45.5 16t-20.5 43zM701 1640q-2 25 14.5 43.5t40.5 20.5q25 2 43.5 -15.5t20.5 -42.5t-15.5 -42t-42.5 -19t-42 14t-19 41z" />
<glyph unicode="&#xd0;" horiz-adv-x="2050" d="M-35 926q0 127 80 244.5t213 208.5t306 145.5t362 54.5q244 0 443.5 -71.5t340.5 -191.5t219 -277.5t78 -329.5q0 -133 -51 -273.5t-154.5 -255t-259.5 -187.5t-362 -73q-18 0 -50 3t-73 9.5t-87 14.5t-89 18q-4 -23 -6.5 -37t-38.5 -14q-25 0 -43.5 10t-18.5 33 q0 10 1 19.5t3 19.5q-43 16 -69.5 35.5t-26.5 44.5q0 18 12.5 31.5t34.5 13.5q16 0 25 -4l43 -17q27 129 76 288t114 323q-27 2 -52.5 1t-46 2t-32.5 12t-12 34q0 20 10 37.5t29 19.5h62.5t80.5 -4q61 147 129.5 282.5t138.5 239.5q10 14 20.5 25.5t26.5 11.5q23 0 41.5 -12 t18.5 -35q0 -4 -4 -13t-6 -14q-66 -104 -131.5 -231t-124.5 -268q76 -12 114.5 -30.5t38.5 -35.5q0 -16 -16.5 -34.5t-46.5 -18.5q-20 0 -27.5 1t-17 4t-27.5 6t-59 9q-70 -172 -122 -335.5t-77 -296.5q76 -23 144.5 -34t134.5 -11q184 0 320 64.5t226 164.5t135.5 222 t45.5 239q0 152 -70 290t-197 243.5t-305 168t-395 62.5q-174 0 -331 -46.5t-275.5 -124t-189 -179t-70.5 -209.5q0 -35 6 -74t22.5 -77t45 -74t73.5 -64q25 -16 25 -37q0 -18 -18.5 -31.5t-41.5 -13.5q-18 0 -33 8q-53 31 -87.5 76t-56 95t-30 102.5t-8.5 97.5z" />
<glyph unicode="&#xd1;" horiz-adv-x="1986" d="M23 53q0 25 16 37t37 12q37 0 49 -41q23 -86 86 -124.5t143 -38.5q129 0 220.5 78.5t164 208.5t135 294t136 334t166 330t223.5 282q-84 25 -191 25q-137 0 -286.5 -37t-275.5 -107.5t-208 -173t-82 -233.5q0 -59 23 -131q2 -4 2 -14q0 -23 -17.5 -36t-39.5 -13 q-23 0 -36.5 22.5t-21.5 53t-10 63.5t-2 55q0 156 91 276.5t232.5 204.5t309.5 128t321 44q45 0 103.5 -5t108.5 -17t85 -32.5t35 -51.5q0 -4 -3 -12.5t-19 -34.5q-57 -90 -83 -201t-26 -235q0 -195 48 -402t114 -391q53 117 105.5 253t108.5 275.5t117.5 272.5t131 245.5 t149.5 195.5t176 122q25 8 42.5 -2t23.5 -27.5t-1 -37t-28 -27.5q-98 -39 -178 -132.5t-147.5 -220t-127 -276t-119 -302.5t-122 -297t-133.5 -261q-10 -20 -30.5 -24.5t-37 4t-25 26.5t6.5 47l26 43q-41 100 -76.5 214t-64.5 231.5t-45 237.5t-16 233q0 55 1 110t9 107 q-92 -135 -162 -290t-130 -309.5t-121.5 -296t-137.5 -251t-175 -174t-237 -64.5q-117 0 -205 57.5t-122 180.5q-4 12 -4 20zM1655 1714q2 20 25 39q41 31 74.5 42t64.5 11q35 0 59.5 -10t53.5 -21q23 -10 45 -19t45 -9q16 0 36.5 4t45.5 20q20 12 40.5 6t30.5 -21t6 -35.5 t-30 -35.5q-35 -20 -68 -27t-61 -7q-41 0 -72 11t-57 23q-23 10 -40.5 16.5t-33.5 6.5t-35.5 -7.5t-44.5 -25.5q-23 -16 -43 -12t-31.5 17.5t-9.5 33.5z" />
<glyph unicode="&#xd2;" horiz-adv-x="1802" d="M129 485q0 162 46 298.5t121 247t169 194.5t190.5 140t184.5 85t151 29q68 0 134.5 -19.5t131.5 -66.5q23 -18 24 -38t-11.5 -33t-31.5 -18.5t-38 7.5q-51 35 -102 50t-107 15q-55 0 -133 -25.5t-163 -75.5t-168 -126t-148.5 -174t-106.5 -221t-41 -269q0 -117 36 -211 t100.5 -159.5t152.5 -100t193 -34.5q154 0 269.5 48t202.5 120.5t149.5 155.5t109.5 155q41 57 66.5 167.5t29.5 258.5q2 55 -11 116.5t-39 109.5t-65 74.5t-90 12.5q-55 -16 -81.5 -71.5t-26.5 -135.5q0 -70 18.5 -144.5t52.5 -141.5q43 -80 94.5 -145.5t118 -111 t152.5 -69t197 -17.5q25 2 39 -13t15 -33.5t-11.5 -36t-38.5 -19.5q-133 -6 -232.5 19.5t-177.5 78t-137.5 128t-108.5 169.5q-41 78 -62.5 165t-21.5 171q0 115 45 198t142 107h-2q82 23 146.5 -11t106.5 -98.5t62.5 -147.5t17.5 -158q-4 -162 -35.5 -286t-76.5 -194 q-53 -78 -123 -169t-166 -169.5t-226 -132t-302 -53.5q-127 0 -233.5 42t-184.5 120t-122 191.5t-44 254.5zM980 1873.5q3 22.5 17.5 36t34.5 13.5t43 -29q39 -51 84 -94t121 -92q23 -14 25 -34.5t-8.5 -36t-31 -21.5t-40.5 8q-72 47 -128 96t-106 113q-14 18 -11 40.5z" />
</font>
</defs>
</svg>
