<?xml version="1.0" standalone="no"?>
<!DOCTYPE svg PUBLIC "-//W3C//DTD SVG 1.1//EN" "http://www.w3.org/Graphics/SVG/1.1/DTD/svg11.dtd" >
<svg xmlns="http://www.w3.org/2000/svg" xmlns:xlink="http://www.w3.org/1999/xlink" version="1.1">
<metadata></metadata>
<defs>
<font id="trade_gothic_next_lt_proBdCn" horiz-adv-x="974" >
<font-face units-per-em="2048" ascent="1475" descent="-573" />
<missing-glyph horiz-adv-x="382" />
<glyph unicode="&#xfb01;" horiz-adv-x="1005" d="M27 883v182h145v121q0 154 67 229q66 74 212 74q67 0 120 -10v-185q-63 9 -75 9q-109 0 -109 -107v-131h180v-182h-180v-883h-215v883h-145zM678 1239v242h225v-242h-225zM682 0v1065h217v-1065h-217z" />
<glyph unicode="&#xfb02;" horiz-adv-x="1005" d="M27 883v182h145v121q0 154 67 229q66 74 212 74q67 0 120 -10v-185q-63 9 -75 9q-109 0 -109 -107v-131h180v-182h-180v-883h-215v883h-145zM682 0v1470h217v-1470h-217z" />
<glyph unicode="&#xfb03;" horiz-adv-x="1515" d="M27 883v182h145v121q0 154 67 229q66 74 210 74q69 0 122 -10v-185q-63 9 -75 9q-109 0 -109 -107v-131h295v121q0 154 67 229q66 74 212 74q70 0 120 -10v-185q-59 9 -73 9q-109 0 -109 -107v-131h180v-182h-180v-883h-217v883h-295v-883h-215v883h-145zM1184 1239v242 h225v-242h-225zM1188 0v1065h217v-1065h-217z" />
<glyph unicode="&#xfb04;" horiz-adv-x="1515" d="M27 883v182h145v121q0 154 67 229q66 74 210 74q69 0 122 -10v-185q-63 9 -75 9q-109 0 -109 -107v-131h295v121q0 154 67 229q66 74 212 74q70 0 120 -10v-185q-59 9 -73 9q-109 0 -109 -107v-131h180v-182h-180v-883h-217v883h-295v-883h-215v883h-145zM1188 0v1470 h217v-1470h-217z" />
<glyph horiz-adv-x="0" />
<glyph horiz-adv-x="682" />
<glyph unicode="&#xd;" horiz-adv-x="681" />
<glyph unicode=" "  horiz-adv-x="382" />
<glyph unicode="&#x09;" horiz-adv-x="382" />
<glyph unicode="&#xa0;" horiz-adv-x="382" />
<glyph unicode="!" horiz-adv-x="475" d="M84 1470h276l-55 -974h-164zM100 0v276h246v-276h-246z" />
<glyph unicode="&#x22;" horiz-adv-x="815" d="M115 1470h233l-45 -571h-143zM453 1470h235l-47 -571h-141z" />
<glyph unicode="#" d="M33 418v174h207l41 297h-185v174h209l55 407h136l-58 -407h189l55 407h133l-55 -407h182v-174h-207l-41 -297h185v-174h-207l-58 -418h-133l58 418h-189l-57 -418h-133l57 418h-184zM373 592h188l41 297h-188z" />
<glyph unicode="$" d="M47 350l197 62q30 -100 73 -147q43 -48 113 -60v459q-76 41 -128 75q-34 22 -105 84q-59 52 -87 123q-28 72 -28 156q0 157 94 251q95 95 254 107v152h125v-156q246 -33 324 -287l-177 -69q-52 128 -147 157v-411q56 -30 102 -59q51 -31 94 -66q57 -46 85 -85 q30 -42 53 -106q22 -62 22 -135q0 -167 -96 -266t-260 -117v-258h-125v256q-149 11 -241 92q-93 82 -142 248zM287 1114q0 -110 143 -199v351q-143 -22 -143 -152zM555 205q147 30 147 172q0 121 -147 217v-389z" />
<glyph unicode="%" horiz-adv-x="1306" d="M37 1192q0 130 82 213q83 84 213 84q131 0 212 -85q81 -86 81 -212t-82 -212q-82 -87 -211 -87q-130 0 -213 87q-82 86 -82 212zM174 1192q0 -73 41 -120q40 -46 117 -46q74 0 114 46q41 47 41 120q0 72 -41 119t-114 47q-74 0 -116 -47t-42 -119zM188 -47l781 1560h141 l-780 -1560h-142zM680 276q0 130 81 216t214 86q128 0 211 -86q82 -85 82 -216q0 -124 -82 -209t-211 -85q-133 0 -214 85q-81 86 -81 209zM817 276q0 -73 42 -118t116 -45q75 0 115 45q40 44 40 118q0 75 -40 121q-41 47 -115 47t-116 -47t-42 -121z" />
<glyph unicode="&#x26;" horiz-adv-x="1189" d="M55 371q0 129 66 228q67 101 184 200q-94 194 -94 362q0 150 86 239t244 89q151 0 230 -78t79 -209q0 -65 -22 -125q-20 -55 -69 -113q-49 -59 -85 -90q-12 -11 -47.5 -41t-59.5 -51q57 -94 123 -182q46 -67 125 -158q53 116 88 293l205 -33q-46 -244 -143 -409 q94 -76 192 -125l-86 -191q-149 67 -244 144q-155 -139 -372 -139q-190 0 -294 104q-106 106 -106 285zM289 375q0 -91 52 -146t144 -55q113 0 199 80q-98 107 -172 211q-71 99 -113 166q-110 -123 -110 -256zM432 1163q0 -99 51 -221q150 129 150 246q0 108 -92 108 q-52 0 -80 -35q-29 -37 -29 -98z" />
<glyph unicode="'" horiz-adv-x="475" d="M115 1470h233l-45 -571h-143z" />
<glyph unicode="(" horiz-adv-x="589" d="M100 690q0 434 234 799h176q-242 -394 -242 -799q0 -419 242 -799h-176q-234 369 -234 799z" />
<glyph unicode=")" horiz-adv-x="589" d="M82 -109q240 381 240 799q0 403 -240 799h174q233 -363 233 -799q0 -432 -233 -799h-174z" />
<glyph unicode="*" horiz-adv-x="782" d="M55 1192l45 139l244 -102l-25 260h144l-23 -260l244 104l41 -141l-254 -57l172 -199l-117 -84l-135 225l-133 -227l-117 86l172 199z" />
<glyph unicode="+" d="M59 467v119h367v344h125v-344h364v-119h-364v-365h-125v365h-367z" />
<glyph unicode="," horiz-adv-x="475" d="M68 -295l114 295h-86v276h248v-264l-135 -307h-141z" />
<glyph unicode="-" horiz-adv-x="600" d="M61 436v203h478v-203h-478z" />
<glyph unicode="." horiz-adv-x="475" d="M96 0v276h248v-276h-248z" />
<glyph unicode="/" horiz-adv-x="518" d="M-18 -109l419 1598h136l-424 -1598h-131z" />
<glyph unicode="0" d="M63 729q0 386 103 574q102 186 321 186q220 0 322 -186t102 -574q0 -385 -103 -566t-321 -181q-217 0 -320 181q-104 182 -104 566zM299 729q0 -296 44 -426q43 -129 144 -129q99 0 143 129q44 130 44 426t-44 431q-44 134 -143 134q-98 0 -143 -134t-45 -431z" />
<glyph unicode="1" d="M158 1198v170l299 102h172v-1273h200v-197h-636v197h204v1040z" />
<glyph unicode="2" d="M68 0v113q0 177 194 401q43 49 127 135q82 83 132 142q46 54 85 132q41 82 41 158q0 207 -168 207q-161 0 -188 -246l-211 21q38 426 409 426q194 0 293 -105t99 -292q0 -100 -52 -209q-52 -108 -108 -173q-57 -66 -152 -164q-99 -102 -129 -140q-104 -117 -110 -199h553 v-207h-815z" />
<glyph unicode="3" d="M25 338l208 57q33 -114 84 -163q52 -50 136 -50q97 0 154 66t57 182q0 256 -277 256h-80v199h76q254 0 254 213q0 91 -46 140q-47 50 -130 50q-144 0 -201 -153l-194 61q105 293 411 293q189 0 292 -99t103 -270q0 -242 -225 -327v-5q252 -90 252 -374q0 -204 -122 -318 q-121 -114 -322 -114q-179 0 -282 85t-148 271z" />
<glyph unicode="4" d="M23 338v211l452 926h287v-936h176v-201h-176v-338h-223v338h-516zM217 539h322v647h-4z" />
<glyph unicode="5" d="M53 324l205 57q29 -110 78 -156q50 -47 125 -47q103 0 156 86t53 238q0 295 -201 295q-118 0 -178 -127l-193 24l56 776h669v-208h-497l-29 -359h4q100 86 231 86q178 0 277 -126q98 -125 98 -359q0 -248 -114 -385t-326 -137q-163 0 -264 76q-104 78 -150 266z" />
<glyph unicode="6" d="M57 659q0 830 480 830q134 0 220 -58q87 -59 140 -190l-170 -96q-76 143 -190 143q-235 0 -246 -489h4q111 131 278 131q169 0 260 -118t91 -337q0 -231 -116 -362t-308 -131q-443 0 -443 677zM293 569q5 -393 207 -393q92 0 141 75q49 74 49 214q0 262 -190 262 q-65 0 -123 -44q-56 -43 -84 -114z" />
<glyph unicode="7" d="M72 1249v221h827v-176l-471 -1294h-252l479 1249h-583z" />
<glyph unicode="8" d="M39 387q0 228 256 379v4q-102 69 -158 151q-55 80 -55 201q0 166 105 267q104 100 300 100q199 0 305 -95q105 -95 105 -264q0 -214 -221 -342v-4q140 -85 201 -179q59 -91 59 -216q0 -188 -119 -298q-118 -109 -334 -109q-213 0 -328 109q-116 110 -116 296zM266 383 q0 -100 58 -158q57 -57 159 -57q106 0 166 57t60 156q0 49 -19 92q-18 41 -59 77q-38 34 -75 58q-47 30 -97 58q-193 -118 -193 -283zM303 1128q0 -84 56 -139q56 -54 165 -112q76 51 113 105q39 57 39 144q0 80 -50 130q-51 51 -139 51q-87 0 -136 -51q-48 -50 -48 -128z " />
<glyph unicode="9" d="M45 995q0 232 116 363t308 131q442 0 442 -678q0 -829 -479 -829q-264 0 -358 247l168 97q76 -144 190 -144q235 0 246 490h-4q-111 -131 -277 -131q-170 0 -261 118t-91 336zM276 1006q0 -263 193 -263q65 0 123 44q56 43 84 114q0 393 -207 393q-93 0 -142 -75 q-51 -79 -51 -213z" />
<glyph unicode=":" horiz-adv-x="475" d="M96 0v276h248v-276h-248zM96 629v276h248v-276h-248z" />
<glyph unicode=";" horiz-adv-x="475" d="M68 -295l114 295h-86v276h248v-264l-135 -307h-141zM96 629v276h248v-276h-248z" />
<glyph unicode="&#x3c;" d="M117 451v151l710 295v-135l-577 -236l577 -235v-135z" />
<glyph unicode="=" d="M59 283v120h856v-120h-856zM59 649v121h856v-121h-856z" />
<glyph unicode="&#x3e;" d="M145 156v135l580 235l-580 236v135l715 -295v-151z" />
<glyph unicode="?" horiz-adv-x="765" d="M16 1186q57 303 359 303q166 0 248 -85t82 -228q0 -90 -47 -184q-48 -96 -101 -156q-51 -58 -101 -140q-46 -76 -46 -137v-63h-168v92q0 84 36 166q38 86 78 135q43 54 79 128q36 75 36 148q0 61 -30 96q-29 33 -83 33q-99 0 -139 -145zM201 0v276h248v-276h-248z" />
<glyph unicode="@" horiz-adv-x="1294" d="M70 451q0 367 153 588t459 221q257 0 400 -155t143 -450q0 -237 -99 -392q-99 -154 -252 -154q-121 0 -145 106h-4q-73 -106 -188 -106q-103 0 -150 87q-47 88 -47 220q0 196 89 357t235 161q127 0 172 -117l30 82h105l-119 -526q-29 -140 41 -140q87 0 144 122 q57 121 57 300q0 480 -412 480q-483 0 -483 -684q0 -278 116 -425q117 -149 338 -149t361 100l59 -118q-160 -107 -420 -107q-286 0 -435 179q-148 178 -148 520zM473 403q0 -165 92 -165q65 0 114 74q51 78 73 169q22 92 22 181q0 145 -102 145q-66 0 -113 -69 q-47 -70 -66 -156q-20 -91 -20 -179z" />
<glyph unicode="A" horiz-adv-x="1054" d="M27 0l333 1470h326l342 -1470h-250l-78 377h-352l-76 -377h-245zM391 592h266l-131 641h-6z" />
<glyph unicode="B" horiz-adv-x="1097" d="M129 0v1470h365q252 0 371 -90q118 -90 118 -293q0 -226 -190 -311v-4q225 -80 225 -350q0 -239 -133 -330q-134 -92 -373 -92h-383zM367 217h159q129 0 187 50q57 49 57 169t-59 172q-62 54 -183 54h-161v-445zM367 860h135q235 0 235 207q0 186 -235 186h-135v-393z " />
<glyph unicode="C" horiz-adv-x="1046" d="M72 741q0 169 25 297q25 129 79 235q51 101 147 160q91 56 220 56q203 0 303 -120q101 -120 129 -355l-225 -21q-45 279 -203 279q-228 0 -228 -531q0 -300 53 -423q52 -121 173 -121q170 0 217 305l227 -23q-34 -249 -143 -374q-107 -123 -307 -123q-255 0 -361 192 q-106 191 -106 567z" />
<glyph unicode="D" horiz-adv-x="1128" d="M129 0v1470h338q308 0 449 -168q143 -170 143 -550q0 -376 -140 -564t-456 -188h-334zM377 225h104q171 0 251 126q79 125 79 399q0 273 -78 384t-246 111h-110v-1020z" />
<glyph unicode="E" horiz-adv-x="954" d="M129 0v1470h752v-221h-508v-383h379v-213h-379v-432h534v-221h-778z" />
<glyph unicode="F" horiz-adv-x="919" d="M129 0v1470h764v-221h-520v-383h387v-213h-387v-653h-244z" />
<glyph unicode="G" horiz-adv-x="1099" d="M72 737q0 228 46 390q47 166 156 263q111 99 281 99q204 0 305 -122t131 -349l-225 -21q-46 273 -211 273q-119 0 -177 -126q-59 -127 -59 -407q0 -291 55 -419q54 -125 185 -125q103 0 158 73t55 195q0 42 -2 74h-215v196h440v-731h-196v119h-4q-107 -137 -293 -137 q-217 0 -324 179q-106 178 -106 576z" />
<glyph unicode="H" horiz-adv-x="1161" d="M129 0v1470h244v-600h418v600h239v-1470h-239v651h-418v-651h-244z" />
<glyph unicode="I" horiz-adv-x="501" d="M129 0v1470h244v-1470h-244z" />
<glyph unicode="J" horiz-adv-x="808" d="M-12 199l184 112q51 -108 141 -108q67 0 95 45q28 44 28 139v1083h244v-1062q0 -426 -356 -426q-118 0 -198 51q-76 49 -138 166z" />
<glyph unicode="K" horiz-adv-x="1042" d="M129 0v1470h240v-639h4l385 639h256l-330 -536l371 -934h-258l-279 692l-149 -229v-463h-240z" />
<glyph unicode="L" horiz-adv-x="880" d="M129 0v1470h244v-1249h491v-221h-735z" />
<glyph unicode="M" horiz-adv-x="1402" d="M129 0v1470h330l239 -987h4l250 987h322v-1470h-217v1081h-4l-265 -1081h-172l-270 1081h-4v-1081h-213z" />
<glyph unicode="N" horiz-adv-x="1165" d="M129 0v1470h281l403 -892h4v892h221v-1470h-219l-469 1016h-4v-1016h-217z" />
<glyph unicode="O" horiz-adv-x="1114" d="M72 735q0 377 116 564q118 190 369 190t370 -190q117 -187 117 -564q0 -753 -487 -753q-485 0 -485 753zM319 735q0 -289 60 -417t178 -128q120 0 180 127q60 128 60 418q0 283 -60 413t-180 130q-121 0 -179 -130q-59 -132 -59 -413z" />
<glyph unicode="P" horiz-adv-x="1044" d="M129 0v1470h377q246 0 367 -106q122 -107 122 -332q0 -221 -125 -335q-123 -113 -364 -113h-133v-584h-244zM373 799h143q100 0 165 54q64 54 64 179q0 217 -225 217h-147v-450z" />
<glyph unicode="Q" horiz-adv-x="1114" d="M72 735q0 377 116 564q118 190 369 190t370 -190q117 -187 117 -564q0 -375 -120 -563q56 -84 153 -96v-223q-197 6 -297 180q-99 -51 -223 -51q-485 0 -485 753zM319 735q0 -291 60 -419t178 -128q83 0 135 58q-56 113 -125 121v223q130 -12 209 -135q21 105 21 280 q0 283 -60 413t-180 130q-121 0 -179 -130q-59 -132 -59 -413z" />
<glyph unicode="R" horiz-adv-x="1077" d="M129 0v1470h389q240 0 353 -97q114 -97 114 -310q0 -263 -207 -358l256 -705h-264l-211 606h-186v-606h-244zM373 813h139q225 0 225 227q0 74 -18 121q-19 48 -55 67t-70 25q-38 7 -84 7h-137v-447z" />
<glyph unicode="S" horiz-adv-x="968" d="M45 373l225 39q22 -117 72 -171q50 -55 143 -55q86 0 136 46q51 46 51 130q0 88 -62 156t-148 117q-103 58 -175 105q-88 57 -150 152q-61 94 -61 226q0 170 105 271q104 100 288 100q344 0 412 -367l-211 -41q-24 100 -71 152q-46 51 -128 51q-78 0 -122 -41t-44 -110 q0 -55 26 -102q26 -48 68 -78q34 -24 97 -66q54 -36 110 -65q66 -35 111 -72q51 -42 96 -92q44 -49 69 -119q25 -71 25 -158q0 -190 -115 -295q-114 -104 -315 -104q-193 0 -294 94q-100 93 -138 297z" />
<glyph unicode="T" horiz-adv-x="909" d="M31 1249v221h848v-221h-304v-1249h-241v1249h-303z" />
<glyph unicode="U" horiz-adv-x="1140" d="M121 469v1001h244v-1034q0 -127 49 -185t153 -58q213 0 213 243v1034h240v-1001q0 -243 -111 -364t-346 -121q-233 0 -337 120q-105 122 -105 365z" />
<glyph unicode="V" horiz-adv-x="993" d="M8 1470h258l228 -1077h4l237 1077h258l-358 -1470h-273z" />
<glyph unicode="W" horiz-adv-x="1439" d="M18 1470h244l172 -1007h4l168 1007h240l166 -1005h4l172 1005h239l-292 -1470h-244l-168 1001h-4l-160 -1001h-246z" />
<glyph unicode="X" horiz-adv-x="983" d="M0 0l342 760l-317 710h266l201 -475h4l211 475h258l-324 -708l342 -762h-264l-227 528h-5l-229 -528h-258z" />
<glyph unicode="Y" horiz-adv-x="956" d="M-6 1470h258l223 -598h4l236 598h254l-369 -876v-594h-244v594z" />
<glyph unicode="Z" horiz-adv-x="954" d="M47 0v221l555 1028h-514v221h803v-217l-567 -1032h571v-221h-848z" />
<glyph unicode="[" horiz-adv-x="589" d="M125 -90v1560h375v-112h-213v-1335h213v-113h-375z" />
<glyph unicode="\" horiz-adv-x="526" d="M-18 1489h133l422 -1598h-134z" />
<glyph unicode="]" horiz-adv-x="589" d="M90 23h213v1335h-213v112h375v-1560h-375v113z" />
<glyph unicode="^" horiz-adv-x="944" d="M98 774l297 696h156l295 -696h-139l-236 559l-233 -559h-140z" />
<glyph unicode="_" horiz-adv-x="960" d="M-10 -150h981v-112h-981v112z" />
<glyph unicode="`" horiz-adv-x="747" d="M170 1470h246l157 -290h-161z" />
<glyph unicode="a" horiz-adv-x="878" d="M47 262q0 182 135 281q90 71 383 157q3 29 3 55q0 66 -21 102q-29 50 -109 50q-126 0 -172 -147l-176 43q78 282 361 282q172 0 249 -81q78 -82 78 -254v-549l17 -201h-207l-13 113q-128 -131 -288 -131q-113 0 -176 73q-64 75 -64 207zM270 295q0 -131 105 -131 q107 0 184 102v281q-166 -46 -229 -98q-60 -47 -60 -154z" />
<glyph unicode="b" horiz-adv-x="948" d="M109 0v1470h217v-509q100 116 233 116q328 0 328 -551q0 -544 -320 -544q-144 0 -258 139l-30 -121h-170zM326 283q25 -45 70 -71q48 -28 93 -28q173 0 173 346q0 349 -179 349q-93 0 -157 -91v-505z" />
<glyph unicode="c" horiz-adv-x="864" d="M61 530q0 254 94 406q92 149 298 149q158 0 242 -81q85 -82 114 -252l-195 -31q-23 94 -58 136q-36 44 -99 44q-87 0 -130 -98q-44 -100 -44 -273q0 -198 42 -281t130 -83q67 0 107 46q41 47 65 153l190 -41q-40 -178 -128 -261q-85 -81 -245 -81q-198 0 -290 138 q-93 140 -93 410z" />
<glyph unicode="d" horiz-adv-x="948" d="M61 524q0 553 332 553q131 0 230 -112v505h217v-1470h-172l-29 121q-118 -139 -260 -139q-318 0 -318 542zM287 522q0 -338 174 -338q99 0 162 99v508q-61 88 -156 88q-180 0 -180 -357z" />
<glyph unicode="e" horiz-adv-x="880" d="M61 539q0 258 100 403q98 143 285 143q195 0 284 -134t89 -357q0 -53 -2 -105h-547q6 -171 48 -249t135 -78q133 0 182 178l182 -37q-83 -321 -375 -321q-194 0 -287 134q-94 135 -94 423zM272 647h338q0 264 -164 264q-152 0 -174 -264z" />
<glyph unicode="f" horiz-adv-x="575" d="M27 883v182h145v121q0 154 67 229q66 74 212 74q67 0 120 -10v-185q-63 9 -75 9q-109 0 -109 -107v-131h180v-182h-180v-883h-215v883h-145z" />
<glyph unicode="g" horiz-adv-x="880" d="M23 -154q0 134 151 195v4q-115 27 -115 141q0 110 121 209q-112 99 -112 310q0 175 89 278q89 102 261 102q162 0 252 -94q76 111 196 111v-203q-78 -4 -123 -29q27 -72 27 -165q0 -184 -89 -284q-89 -99 -263 -99q-71 0 -131 16q-45 -34 -45 -68q0 -36 64 -51 q55 -13 156 -21q94 -8 182 -25q93 -18 156 -80q64 -63 64 -169q0 -142 -120 -219q-119 -76 -326 -76q-178 0 -287 53q-108 52 -108 164zM217 -111q0 -53 57 -80q59 -28 156 -28q99 0 162 29q61 28 61 84q0 43 -40 68q-41 26 -98 36q-51 9 -155 14q-143 -34 -143 -123z M270 700q0 -116 36 -166q37 -51 112 -51q72 0 109 51q36 50 36 166q0 218 -145 218q-148 0 -148 -218z" />
<glyph unicode="h" horiz-adv-x="931" d="M109 0v1470h217v-522q129 137 272 137q133 0 190 -96q43 -68 43 -264v-725h-217v700q0 96 -22 137q-22 42 -88 42q-87 0 -178 -103v-776h-217z" />
<glyph unicode="i" horiz-adv-x="436" d="M104 1239v242h226v-242h-226zM109 0v1065h217v-1065h-217z" />
<glyph unicode="j" horiz-adv-x="436" d="M-55 -170q42 -8 71 -8q101 0 101 104v1139h219v-1135q0 -154 -66 -227q-66 -74 -207 -74q-57 0 -118 9v192zM113 1239v242h227v-242h-227z" />
<glyph unicode="k" horiz-adv-x="886" d="M109 0v1470h213v-831h4l284 426h236l-252 -356l293 -709h-232l-211 506l-122 -164v-342h-213z" />
<glyph unicode="l" horiz-adv-x="436" d="M109 0v1470h217v-1470h-217z" />
<glyph unicode="m" horiz-adv-x="1388" d="M109 0v1065h210v-125q127 145 269 145q151 0 196 -145q129 145 275 145q227 0 227 -327v-758h-215v723q0 156 -100 156q-81 0 -164 -101v-778h-217v715q0 84 -22 125q-21 39 -74 39q-83 0 -168 -109v-770h-217z" />
<glyph unicode="n" horiz-adv-x="929" d="M109 0v1065h210v-127q130 147 279 147q137 0 188 -96q43 -67 43 -250v-739h-215v715q0 87 -26 125q-27 39 -84 39q-86 0 -178 -107v-772h-217z" />
<glyph unicode="o" horiz-adv-x="907" d="M61 528q0 557 394 557q389 0 389 -557q0 -546 -389 -546q-394 0 -394 546zM287 528q0 -192 39 -280t129 -88q89 0 126 88q37 87 37 280t-38 284q-39 93 -125 93q-90 0 -129 -93t-39 -284z" />
<glyph unicode="p" horiz-adv-x="948" d="M109 -352v1417h210v-125q106 145 252 145q316 0 316 -544q0 -551 -332 -551q-134 0 -229 110v-452h-217zM326 274q66 -88 157 -88q179 0 179 357q0 338 -173 338q-97 0 -163 -107v-500z" />
<glyph unicode="q" horiz-adv-x="946" d="M61 539q0 546 318 546q144 0 260 -149l31 129h170v-1417h-217v456q-99 -114 -236 -114q-326 0 -326 549zM287 537q0 -351 180 -351q93 0 156 90v498q-63 107 -162 107q-174 0 -174 -344z" />
<glyph unicode="r" horiz-adv-x="616" d="M109 0v1065h210v-176q55 100 114 148t138 48q10 0 35 -4v-223q-29 4 -43 4q-149 0 -237 -182v-680h-217z" />
<glyph unicode="s" horiz-adv-x="780" d="M37 258l178 49q28 -81 69 -119q39 -36 107 -36q61 0 97 30t36 84q0 62 -48 107q-46 43 -116 79q-90 46 -135 71q-66 36 -115 109q-49 72 -49 167q0 129 85 208q84 78 231 78q139 0 217 -63t113 -193l-172 -47q-47 131 -156 131q-55 0 -84 -28q-31 -29 -31 -76 q0 -53 48 -93q47 -40 118 -72q69 -32 138 -72q70 -41 117 -112q48 -72 48 -175q0 -146 -91 -225q-90 -78 -253 -78q-150 0 -231 65q-82 66 -121 211z" />
<glyph unicode="t" horiz-adv-x="608" d="M18 883v182h142v346h215v-346h194v-182h-194v-588q0 -107 92 -107q53 0 102 15v-197q-83 -16 -168 -16q-133 0 -187 58t-54 210v625h-142z" />
<glyph unicode="u" horiz-adv-x="929" d="M98 326v739h221v-715q0 -87 25 -126q24 -38 84 -38q84 0 174 107v772h219v-1065h-211v127q-133 -145 -280 -145q-135 0 -187 94q-45 72 -45 250z" />
<glyph unicode="v" horiz-adv-x="800" d="M0 1065h233l164 -739h4l168 739h234l-293 -1065h-227z" />
<glyph unicode="w" horiz-adv-x="1196" d="M-2 1065h223l139 -680h5l135 680h202l136 -680h4l139 680h217l-258 -1065h-199l-139 668h-4l-145 -668h-199z" />
<glyph unicode="x" horiz-adv-x="804" d="M-10 0l284 563l-266 502h238l155 -322h5l153 322h234l-261 -502l281 -563h-235l-175 367h-4l-176 -367h-233z" />
<glyph unicode="y" horiz-adv-x="808" d="M-4 1065h246l174 -719h4l164 719h229l-293 -1069q-60 -214 -139 -290q-80 -77 -234 -77q-64 0 -120 9v188q35 -4 88 -4q78 0 118 37q42 38 68 131l10 39z" />
<glyph unicode="z" horiz-adv-x="763" d="M33 0v164l418 719h-379v182h637v-166l-418 -717h430v-182h-688z" />
<glyph unicode="{" horiz-adv-x="589" d="M53 676v110h53q51 0 75 39t24 127v236q0 154 46 218t169 64h88v-112h-43q-51 0 -74 -38q-22 -37 -22 -126v-236q0 -176 -105 -225v-4q105 -51 105 -225v-318q0 -89 22 -126t74 -37h43v-113h-88q-123 0 -169 64t-46 219v317q0 88 -24 127t-75 39h-53z" />
<glyph unicode="|" horiz-adv-x="428" d="M152 -109v1598h124v-1598h-124z" />
<glyph unicode="}" horiz-adv-x="589" d="M76 23h43q54 0 75 37q21 38 21 126v318q0 176 104 225v4q-104 46 -104 225v236q0 88 -21 126t-75 38h-43v112h86q123 0 169 -64t46 -218v-236q0 -166 100 -166h51v-110h-51q-100 0 -100 -166v-317q0 -155 -46 -219t-169 -64h-86v113z" />
<glyph unicode="~" d="M72 379q30 280 239 280q79 0 191 -60t164 -60q91 0 106 131h131q-15 -135 -74 -207q-60 -74 -163 -74q-80 0 -193 63q-111 62 -164 62q-88 0 -106 -135h-131z" />
<glyph unicode="&#xa1;" horiz-adv-x="475" d="M117 -385l55 973h162l57 -973h-274zM129 811v274h246v-274h-246z" />
<glyph unicode="&#xa2;" d="M70 530q0 502 329 551v219h127v-219q244 -27 295 -329l-194 -31q-23 92 -59 136t-97 44q-86 0 -131 -98q-45 -99 -45 -273q0 -197 41 -281q41 -83 129 -83q69 0 109 46t67 153l190 -41q-35 -159 -108 -241t-197 -99v-238h-127v240q-329 33 -329 544z" />
<glyph unicode="&#xa3;" d="M55 -20v225q185 66 185 301q0 49 -19 166h-166v145h135q-40 206 -40 293q0 177 97 278t269 101q171 0 269 -95t122 -311l-202 -24q-18 110 -61 169q-41 56 -120 56q-67 0 -106 -44t-39 -128q0 -104 39 -295h239v-145h-213q17 -94 17 -174q0 -121 -43 -222q78 -75 160 -75 q129 0 159 202l205 -24q-29 -215 -109 -306q-81 -91 -231 -91q-164 0 -301 131q-95 -89 -246 -133z" />
<glyph unicode="&#xa4;" d="M131 260l105 107q-43 67 -43 157q0 87 43 160l-105 109l92 92l103 -105q76 45 161 45q87 0 160 -45l107 105l90 -92l-105 -109q43 -73 43 -160q0 -84 -43 -157l105 -107l-90 -92l-107 104q-67 -45 -160 -45q-89 0 -161 45l-103 -104zM330 524q0 -73 42 -118 q43 -46 115 -46q73 0 116 46q42 45 42 118q0 75 -42 121q-42 47 -116 47q-73 0 -115 -47q-42 -46 -42 -121z" />
<glyph unicode="&#xa5;" d="M12 1470h240l231 -636h4l240 636h240l-299 -714h217v-144h-277l-6 -18v-123h283v-145h-283v-326h-233v326h-289v145h289v125l-9 16h-280v144h223z" />
<glyph unicode="&#xa6;" horiz-adv-x="428" d="M152 -109v656h124v-656h-124zM152 874v615h124v-615h-124z" />
<glyph unicode="&#xa7;" horiz-adv-x="808" d="M45 786q0 92 47 151t125 71q-96 128 -96 231q0 112 70 181q71 69 196 69q234 0 318 -240l-168 -61q-54 127 -144 127q-35 0 -59 -22q-23 -21 -23 -58q0 -39 47 -103q46 -63 115 -133q59 -60 136 -144q70 -76 116 -161q47 -86 47 -157q0 -91 -47 -152q-46 -59 -125 -74 q94 -128 94 -227q0 -113 -71 -181q-72 -69 -199 -69q-244 0 -330 240l168 61q60 -127 154 -127q38 0 63 22t25 58q0 39 -47 103q-46 63 -115 133q-68 69 -135 144q-69 77 -115 161q-47 86 -47 157zM229 795q0 -14 7 -35q8 -24 13 -35q9 -21 24 -39q18 -22 30 -39 q9 -13 37 -44q9 -11 22.5 -25.5t15.5 -16.5q4 -4 10.5 -11t16 -17t17.5 -18q39 -41 43 -46q25 -14 53 -14q32 0 52 20q22 22 22 53q0 17 -4 30q-4 14 -14 32q-12 22 -17 32q-6 11 -26 35q-3 4 -29 36q-1 2 -34 39q-8 9 -20 22t-15 16q-5 6 -18.5 20t-20.5 21q-17 18 -40 41 q-25 14 -51 14q-32 0 -52 -20q-22 -22 -22 -51z" />
<glyph unicode="&#xa8;" horiz-adv-x="747" d="M113 1200v217h206v-217h-206zM428 1200v217h205v-217h-205z" />
<glyph unicode="&#xa9;" horiz-adv-x="1329" d="M72 735q0 332 154 543t442 211q285 0 438 -211q154 -213 154 -543q0 -326 -155 -540q-155 -213 -437 -213q-285 0 -441 213q-155 212 -155 540zM190 735q0 -286 124 -461q125 -176 354 -176q225 0 348 176q123 175 123 461q0 279 -123 458t-348 179q-228 0 -353 -179 t-125 -458zM387 745q0 197 67 317q66 118 212 118q119 0 180 -70q60 -69 78 -207l-144 -14q-21 153 -110 153q-129 0 -129 -297q0 -176 29 -240q30 -67 98 -67q94 0 118 172l144 -14q-41 -293 -266 -293q-150 0 -213 113q-64 114 -64 329z" />
<glyph unicode="&#xaa;" horiz-adv-x="593" d="M25 948q0 128 88 189q54 37 254 98q12 117 -76 117q-75 0 -103 -84l-137 32q56 185 254 185q113 0 171 -53q56 -52 56 -172v-334l13 -148h-164l-10 74q-84 -84 -189 -84q-73 0 -115 47t-42 133zM35 508v113h506v-113h-506zM197 981q0 -78 63 -78q58 0 102 51v168 q-85 -21 -129 -49q-36 -27 -36 -92z" />
<glyph unicode="&#xab;" horiz-adv-x="968" d="M82 539l194 327h207l-196 -329l196 -332h-207zM465 539l192 327h209l-196 -329l196 -332h-207z" />
<glyph unicode="&#xac;" d="M59 602v119h859v-492h-125v373h-734z" />
<glyph unicode="&#xad;" horiz-adv-x="600" d="M61 436v203h478v-203h-478z" />
<glyph unicode="&#xae;" horiz-adv-x="882" d="M45 999q0 217 105 353q105 137 292 137q188 0 292 -137t104 -353q0 -213 -105 -352t-291 -139q-187 0 -291 140q-106 142 -106 351zM141 999q0 -177 78 -288t223 -111q144 0 223 111q78 109 78 288q0 175 -78 285q-80 113 -223 113q-145 0 -223 -113q-78 -112 -78 -285z M285 731v557h153q185 0 185 -160q0 -96 -76 -139l94 -258h-117l-73 217h-62v-217h-104zM389 1038h47q78 0 78 82q0 36 -12 54t-28 21q-15 3 -40 3h-45v-160z" />
<glyph unicode="&#xaf;" horiz-adv-x="747" d="M86 1239v143h571v-143h-571z" />
<glyph unicode="&#xb0;" horiz-adv-x="677" d="M43 1192q0 130 82 213q83 84 213 84q131 0 213 -85t82 -212q0 -124 -83 -212q-82 -87 -212 -87t-213 87q-82 86 -82 212zM180 1192q0 -73 41 -120q40 -46 117 -46t117 46q41 47 41 120q0 72 -42 119t-116 47t-116 -47t-42 -119z" />
<glyph unicode="&#xb1;" d="M59 31v121h856v-121h-856zM59 543v119h367v268h125v-268h364v-119h-364v-291h-125v291h-367z" />
<glyph unicode="&#xb2;" horiz-adv-x="667" d="M45 840v90q0 112 135 264q39 41 81 82q41 40 84 85q29 30 55 81q26 50 26 98q0 113 -98 113q-92 0 -115 -144l-162 17q24 282 289 282q132 0 200 -68t68 -192q0 -69 -33 -138q-33 -68 -67 -107q-41 -46 -96 -100q-51 -49 -82 -83q-64 -80 -68 -119h348v-161h-565z" />
<glyph unicode="&#xb3;" horiz-adv-x="667" d="M14 1063l164 45q34 -127 131 -127q56 0 91 38q34 37 34 109q0 146 -168 146h-57v151h57q150 0 150 119q0 113 -105 113q-86 0 -121 -92l-149 47q76 196 287 196q132 0 201 -65q71 -66 71 -176q0 -160 -151 -211v-4q167 -45 167 -238q0 -134 -84 -210q-85 -77 -219 -77 q-120 0 -194 56q-75 57 -105 180z" />
<glyph unicode="&#xb4;" horiz-adv-x="747" d="M170 1180l160 290h243l-239 -290h-164z" />
<glyph unicode="&#xb5;" horiz-adv-x="978" d="M104 -352v1417h220v-717q0 -91 25 -128q26 -38 83 -38q86 0 176 107v776h219v-809q0 -68 52 -68q9 0 49 9v-191q-48 -16 -113 -16q-83 0 -124 34q-42 35 -54 111q-111 -153 -246 -153q-43 0 -72 18v-352h-215z" />
<glyph unicode="&#xb6;" horiz-adv-x="903" d="M49 1102q0 368 389 368h408v-116h-96v-1463h-123v1463h-119v-1463h-123v830q-147 0 -241 96q-95 97 -95 285z" />
<glyph unicode="&#xb7;" horiz-adv-x="475" d="M113 401v275h249v-275h-249z" />
<glyph unicode="&#xb8;" horiz-adv-x="747" d="M201 -252q52 -14 104 -14q113 0 113 53q0 43 -72 43q-32 0 -61 -10l-21 49l21 164l96 -10l-16 -109q16 4 51 4q141 0 141 -127q0 -83 -65 -121q-66 -39 -173 -39q-61 0 -118 13v104z" />
<glyph unicode="&#xb9;" horiz-adv-x="667" d="M96 1595v134l211 67h135v-803h138v-153h-459v153h137v629z" />
<glyph unicode="&#xba;" horiz-adv-x="618" d="M37 1122q0 363 272 363q271 0 271 -363q0 -356 -271 -356q-272 0 -272 356zM57 508v113h502v-113h-502zM213 1122q0 -219 96 -219q52 0 73 52q21 53 21 167q0 226 -94 226q-96 0 -96 -226z" />
<glyph unicode="&#xbb;" horiz-adv-x="968" d="M102 205l197 332l-197 329h209l193 -327l-195 -334h-207zM483 205l199 332l-199 329h209l193 -327l-195 -334h-207z" />
<glyph unicode="&#xbc;" horiz-adv-x="1583" d="M96 1270v133l211 67h135v-802h138v-154h-459v154h137v628zM365 -47l778 1560h141l-780 -1560h-139zM932 219v160l291 577h223v-585h113v-152h-113v-219h-176v219h-338zM1085 371h185v350h-2z" />
<glyph unicode="&#xbd;" horiz-adv-x="1644" d="M96 1270v133l211 67h135v-802h138v-154h-459v154h137v628zM365 -47l778 1560h141l-780 -1560h-139zM1022 0v90q0 112 135 264q39 41 81 82q41 40 84 85q29 30 55 81q26 50 26 98q0 113 -98 113q-93 0 -115 -143l-162 16q24 283 289 283q130 0 199 -69t69 -191 q0 -70 -33 -139q-33 -68 -67 -107q-35 -39 -96 -99q-51 -49 -82 -83q-64 -80 -68 -119h348v-162h-565z" />
<glyph unicode="&#xbe;" horiz-adv-x="1583" d="M14 737l164 45q34 -127 131 -127q56 0 91 38q34 37 34 110q0 145 -168 145h-57v152h57q150 0 150 119q0 112 -105 112q-86 0 -121 -92l-149 47q77 197 287 197q130 0 201 -66t71 -176q0 -160 -151 -211v-4q167 -45 167 -238q0 -132 -84 -209q-85 -77 -219 -77 q-121 0 -194 55q-75 57 -105 180zM365 -47l778 1560h141l-780 -1560h-139zM932 219v160l291 577h223v-585h113v-152h-113v-219h-176v219h-338zM1085 371h185v350h-2z" />
<glyph unicode="&#xbf;" horiz-adv-x="765" d="M66 -82q0 89 46 180q48 94 100 155q55 65 100 138q46 76 46 135v62h172v-90q0 -88 -36 -164q-40 -85 -80 -133t-80 -127q-37 -73 -37 -148q0 -60 30 -95q30 -34 83 -34t85 35q31 34 54 113l203 -37q-62 -305 -359 -305q-166 0 -247 86q-80 84 -80 229zM322 811v274h249 v-274h-249z" />
<glyph unicode="&#xc0;" horiz-adv-x="1054" d="M27 0l333 1470h326l342 -1470h-250l-78 377h-352l-76 -377h-245zM203 1866h246l157 -291h-162zM391 592h266l-131 641h-6z" />
<glyph unicode="&#xc1;" horiz-adv-x="1054" d="M27 0l333 1470h326l342 -1470h-250l-78 377h-352l-76 -377h-245zM391 592h266l-131 641h-6zM438 1575l160 291h244l-240 -291h-164z" />
<glyph unicode="&#xc2;" horiz-adv-x="1054" d="M27 0l333 1470h326l342 -1470h-250l-78 377h-352l-76 -377h-245zM229 1575l164 291h260l162 -291h-160l-133 186l-133 -186h-160zM391 592h266l-131 641h-6z" />
<glyph unicode="&#xc3;" horiz-adv-x="1054" d="M27 0l333 1470h326l342 -1470h-250l-78 377h-352l-76 -377h-245zM203 1585q27 232 196 232q62 0 137 -37t115 -37q55 0 70 82h131q-30 -234 -197 -234q-60 0 -139 38t-113 38q-54 0 -69 -82h-131zM391 592h266l-131 641h-6z" />
<glyph unicode="&#xc4;" horiz-adv-x="1054" d="M27 0l333 1470h326l342 -1470h-250l-78 377h-352l-76 -377h-245zM264 1595v217h207v-217h-207zM391 592h266l-131 641h-6zM580 1595v217h204v-217h-204z" />
<glyph unicode="&#xc5;" horiz-adv-x="1054" d="M27 0l333 1470h326l342 -1470h-250l-78 377h-352l-76 -377h-245zM322 1761q0 86 57 146q56 59 145 59q90 0 146 -59q57 -60 57 -146q0 -85 -57 -144q-57 -58 -146 -58q-88 0 -145 58q-57 59 -57 144zM391 592h266l-131 641h-6zM418 1763q0 -41 31 -74q30 -32 75 -32 q46 0 77 31q30 30 30 73t-30 75t-77 32q-44 0 -75 -31t-31 -74z" />
<glyph unicode="&#xc6;" horiz-adv-x="1527" d="M-10 0l569 1470h899v-221h-489v-383h358v-213h-358v-432h514v-221h-758v377h-348l-139 -377h-248zM455 592h270v663h-25z" />
<glyph unicode="&#xc7;" horiz-adv-x="1046" d="M72 741q0 169 25 297q25 129 79 235q51 101 147 160q91 56 220 56q203 0 303 -120q101 -120 129 -355l-225 -21q-45 279 -203 279q-228 0 -228 -531q0 -300 53 -423q52 -121 173 -121q170 0 217 305l227 -23q-35 -243 -139 -367q-105 -124 -293 -130l-10 -68q16 4 51 4 q141 0 141 -127q0 -83 -65 -121q-66 -39 -172 -39q-64 0 -119 13v104q52 -14 104 -14q113 0 113 53q0 43 -72 43q-32 0 -61 -10l-21 49l15 119q-211 28 -300 218t-89 535z" />
<glyph unicode="&#xc8;" horiz-adv-x="954" d="M129 0v1470h752v-221h-508v-383h379v-213h-379v-432h534v-221h-778zM203 1866h246l157 -291h-162z" />
<glyph unicode="&#xc9;" horiz-adv-x="954" d="M129 0v1470h752v-221h-508v-383h379v-213h-379v-432h534v-221h-778zM410 1575l159 291h244l-240 -291h-163z" />
<glyph unicode="&#xca;" horiz-adv-x="954" d="M129 0v1470h752v-221h-508v-383h379v-213h-379v-432h534v-221h-778zM217 1575l164 291h260l162 -291h-160l-133 186l-133 -186h-160z" />
<glyph unicode="&#xcb;" horiz-adv-x="954" d="M129 0v1470h752v-221h-508v-383h379v-213h-379v-432h534v-221h-778zM250 1595v217h207v-217h-207zM565 1595v217h205v-217h-205z" />
<glyph unicode="&#xcc;" horiz-adv-x="501" d="M-63 1866h245l158 -291h-162zM129 0v1470h244v-1470h-244z" />
<glyph unicode="&#xcd;" horiz-adv-x="501" d="M129 0v1470h244v-1470h-244zM170 1575l160 291h243l-239 -291h-164z" />
<glyph unicode="&#xce;" horiz-adv-x="501" d="M-43 1575l164 291h260l162 -291h-160l-133 186l-133 -186h-160zM129 0v1470h244v-1470h-244z" />
<glyph unicode="&#xcf;" horiz-adv-x="501" d="M-10 1595v217h207v-217h-207zM129 0v1470h244v-1470h-244zM305 1595v217h205v-217h-205z" />
<glyph unicode="&#xd0;" horiz-adv-x="1128" d="M25 680v164h104v626h344q302 0 443 -168q143 -170 143 -550q0 -376 -139 -564t-451 -188h-340v680h-104zM377 225h96q179 0 259 125q79 124 79 400q0 273 -78 384t-246 111h-110v-401h196v-164h-196v-455z" />
<glyph unicode="&#xd1;" horiz-adv-x="1165" d="M129 0v1470h281l403 -892h4v892h221v-1470h-219l-469 1016h-4v-1016h-217zM276 1585q27 232 197 232q61 0 136 -37t116 -37q55 0 70 82h131q-30 -234 -197 -234q-60 0 -138 38t-114 38q-54 0 -69 -82h-132z" />
<glyph unicode="&#xd2;" horiz-adv-x="1114" d="M72 735q0 377 116 564q118 190 369 190t370 -190q117 -187 117 -564q0 -753 -487 -753q-485 0 -485 753zM242 1866h245l158 -291h-162zM319 735q0 -289 60 -417t178 -128q120 0 180 127q60 128 60 418q0 283 -60 413t-180 130q-121 0 -179 -130q-59 -132 -59 -413z" />
<glyph unicode="&#xd3;" horiz-adv-x="1114" d="M72 735q0 377 116 564q118 190 369 190t370 -190q117 -187 117 -564q0 -753 -487 -753q-485 0 -485 753zM319 735q0 -289 60 -417t178 -128q120 0 180 127q60 128 60 418q0 283 -60 413t-180 130q-121 0 -179 -130q-59 -132 -59 -413zM475 1575l160 291h244l-240 -291 h-164z" />
<glyph unicode="&#xd4;" horiz-adv-x="1114" d="M72 735q0 377 116 564q118 190 369 190t370 -190q117 -187 117 -564q0 -753 -487 -753q-485 0 -485 753zM264 1575l164 291h260l162 -291h-160l-133 186l-133 -186h-160zM319 735q0 -289 60 -417t178 -128q120 0 180 127q60 128 60 418q0 283 -60 413t-180 130 q-121 0 -179 -130q-59 -132 -59 -413z" />
<glyph unicode="&#xd5;" horiz-adv-x="1114" d="M72 735q0 377 116 564q118 190 369 190t370 -190q117 -187 117 -564q0 -753 -487 -753q-485 0 -485 753zM246 1585q27 232 196 232q62 0 137 -37t115 -37q55 0 70 82h131q-30 -234 -197 -234q-58 0 -137 38t-115 38q-54 0 -69 -82h-131zM319 735q0 -289 60 -417t178 -128 q120 0 180 127q60 128 60 418q0 283 -60 413t-180 130q-121 0 -179 -130q-59 -132 -59 -413z" />
<glyph unicode="&#xd6;" horiz-adv-x="1114" d="M72 735q0 377 116 564q118 190 369 190t370 -190q117 -187 117 -564q0 -753 -487 -753q-485 0 -485 753zM297 1595v217h207v-217h-207zM319 735q0 -289 60 -417t178 -128q120 0 180 127q60 128 60 418q0 283 -60 413t-180 130q-121 0 -179 -130q-59 -132 -59 -413z M612 1595v217h205v-217h-205z" />
<glyph unicode="&#xd7;" d="M131 256l270 268l-270 273l86 86l270 -271l271 271l86 -86l-269 -273l269 -268l-86 -88l-271 272l-270 -272z" />
<glyph unicode="&#xd8;" horiz-adv-x="1114" d="M72 735q0 754 485 754q107 0 197 -39l63 158h178l-104 -262q153 -186 153 -611q0 -367 -121 -560t-366 -193q-109 0 -195 38l-63 -157h-176l104 264q-155 185 -155 608zM301 735q0 -201 33 -332h4l336 844q-52 35 -117 35q-256 0 -256 -547zM442 221q47 -33 115 -33 q127 0 192 129q64 128 64 418q0 193 -33 324h-4z" />
<glyph unicode="&#xd9;" horiz-adv-x="1140" d="M121 469v1001h244v-1034q0 -127 49 -185t153 -58q213 0 213 243v1034h240v-1001q0 -243 -111 -364t-346 -121q-233 0 -337 120q-105 122 -105 365zM256 1866h246l157 -291h-161z" />
<glyph unicode="&#xda;" horiz-adv-x="1140" d="M121 469v1001h244v-1034q0 -127 49 -185t153 -58q213 0 213 243v1034h240v-1001q0 -243 -111 -364t-346 -121q-233 0 -337 120q-105 122 -105 365zM485 1575l160 291h244l-240 -291h-164z" />
<glyph unicode="&#xdb;" horiz-adv-x="1140" d="M121 469v1001h244v-1034q0 -127 49 -185t153 -58q213 0 213 243v1034h240v-1001q0 -243 -111 -364t-346 -121q-233 0 -337 120q-105 122 -105 365zM281 1575l163 291h261l161 -291h-159l-134 186l-133 -186h-159z" />
<glyph unicode="&#xdc;" horiz-adv-x="1140" d="M121 469v1001h244v-1034q0 -127 49 -185t153 -58q213 0 213 243v1034h240v-1001q0 -243 -111 -364t-346 -121q-233 0 -337 120q-105 122 -105 365zM311 1595v217h207v-217h-207zM627 1595v217h204v-217h-204z" />
<glyph unicode="&#xdd;" horiz-adv-x="956" d="M-6 1470h258l223 -598h4l236 598h254l-369 -876v-594h-244v594zM399 1575l160 291h244l-240 -291h-164z" />
<glyph unicode="&#xde;" horiz-adv-x="1044" d="M129 0v1470h244v-204h133q245 0 367 -107t122 -330q0 -221 -125 -335q-126 -115 -364 -115h-133v-379h-244zM373 592h143q100 0 165 54q64 54 64 181q0 118 -56 167q-58 50 -169 50h-147v-452z" />
<glyph unicode="&#xdf;" horiz-adv-x="964" d="M106 0v1085q0 192 96 299q94 105 273 105q178 0 273 -94q96 -95 96 -262q0 -238 -176 -324v-4q231 -84 231 -399q0 -202 -82 -309t-244 -107q-73 0 -127 10v193q52 -7 76 -7q156 0 156 240q0 273 -232 279v186q177 15 177 215q0 91 -41 143q-40 51 -113 51 q-147 0 -147 -200v-1100h-216z" />
<glyph unicode="&#xe0;" horiz-adv-x="878" d="M47 262q0 182 135 281q90 71 383 157q11 107 -18 157t-109 50q-126 0 -172 -147l-176 43q78 282 361 282q172 0 249 -81q78 -82 78 -254v-549l17 -201h-207l-13 113q-128 -131 -288 -131q-113 0 -176 73q-64 75 -64 207zM137 1470h246l158 -290h-162zM270 295 q0 -131 105 -131q107 0 184 102v281q-166 -46 -229 -98q-60 -47 -60 -154z" />
<glyph unicode="&#xe1;" horiz-adv-x="878" d="M47 262q0 182 135 281q90 71 383 157q11 107 -18 157t-109 50q-126 0 -172 -147l-176 43q78 282 361 282q172 0 249 -81q78 -82 78 -254v-549l17 -201h-207l-13 113q-128 -131 -288 -131q-113 0 -176 73q-64 75 -64 207zM270 295q0 -131 105 -131q107 0 184 102v281 q-166 -46 -229 -98q-60 -47 -60 -154zM356 1180l160 290h244l-240 -290h-164z" />
<glyph unicode="&#xe2;" horiz-adv-x="878" d="M47 262q0 182 135 281q90 71 383 157q11 107 -18 157t-109 50q-126 0 -172 -147l-176 43q78 282 361 282q172 0 249 -81q78 -82 78 -254v-549l17 -201h-207l-13 113q-128 -131 -288 -131q-113 0 -176 73q-64 75 -64 207zM154 1180l163 290h261l161 -290h-159l-134 186 l-133 -186h-159zM270 295q0 -131 105 -131q107 0 184 102v281q-166 -46 -229 -98q-60 -47 -60 -154z" />
<glyph unicode="&#xe3;" horiz-adv-x="878" d="M47 262q0 182 135 281q90 71 383 157q11 107 -18 157t-109 50q-126 0 -172 -147l-176 43q78 282 361 282q172 0 249 -81q78 -82 78 -254v-549l17 -201h-207l-13 113q-128 -131 -288 -131q-113 0 -176 73q-64 75 -64 207zM127 1190q27 231 197 231q61 0 136 -37 q73 -36 115 -36q55 0 70 82h131q-30 -234 -196 -234q-59 0 -138 38t-114 38q-55 0 -70 -82h-131zM270 295q0 -131 105 -131q107 0 184 102v281q-166 -46 -229 -98q-60 -47 -60 -154z" />
<glyph unicode="&#xe4;" horiz-adv-x="878" d="M47 262q0 182 135 281q90 71 383 157q11 107 -18 157t-109 50q-126 0 -172 -147l-176 43q78 282 361 282q172 0 249 -81q78 -82 78 -254v-549l17 -201h-207l-13 113q-128 -131 -288 -131q-113 0 -176 73q-64 75 -64 207zM190 1200v217h207v-217h-207zM270 295 q0 -131 105 -131q107 0 184 102v281q-166 -46 -229 -98q-60 -47 -60 -154zM506 1200v217h205v-217h-205z" />
<glyph unicode="&#xe5;" horiz-adv-x="878" d="M47 262q0 182 135 281q90 71 383 157q11 107 -18 157t-109 50q-126 0 -172 -147l-176 43q78 282 361 282q172 0 249 -81q78 -82 78 -254v-549l17 -201h-207l-13 113q-128 -131 -288 -131q-113 0 -176 73q-64 75 -64 207zM248 1366q0 85 57 145t146 60q88 0 145 -60 t57 -145q0 -86 -57 -144q-57 -59 -145 -59q-89 0 -146 59q-57 58 -57 144zM270 295q0 -131 105 -131q107 0 184 102v281q-166 -46 -229 -98q-60 -47 -60 -154zM344 1368q0 -42 31 -75q30 -31 76 -31t76 30t30 74t-30 75q-30 32 -76 32q-45 0 -76 -31t-31 -74z" />
<glyph unicode="&#xe6;" horiz-adv-x="1345" d="M47 262q0 182 135 281q101 80 367 157q10 106 -18 158q-27 49 -107 49q-112 0 -158 -147l-176 43q78 282 340 282q178 0 246 -114q92 114 252 114q186 0 272 -135q86 -136 86 -356q0 -36 -4 -105h-526q4 -172 43 -249q39 -78 131 -78q67 0 106 44q39 43 66 134l182 -37 q-82 -321 -364 -321q-212 0 -295 174q-145 -174 -332 -174q-119 0 -182 73q-64 75 -64 207zM270 295q0 -131 107 -131q89 0 166 102v281q-145 -39 -213 -94q-60 -53 -60 -158zM758 647h317q0 264 -149 264q-152 0 -168 -264z" />
<glyph unicode="&#xe7;" horiz-adv-x="864" d="M61 530q0 254 94 406q92 149 298 149q158 0 242 -81q85 -82 114 -252l-195 -31q-23 94 -58 136q-36 44 -99 44q-87 0 -130 -98q-44 -100 -44 -273q0 -198 42 -281t130 -83q67 0 107 46q41 47 65 153l190 -41q-39 -171 -122 -254q-82 -82 -228 -88l-10 -68q16 4 51 4 q141 0 141 -127q0 -83 -65 -121q-66 -39 -172 -39q-64 0 -119 13v104q52 -14 104 -14q113 0 113 53q0 43 -72 43q-32 0 -61 -10l-21 49l15 119q-310 44 -310 542z" />
<glyph unicode="&#xe8;" horiz-adv-x="880" d="M61 539q0 258 100 403q98 143 285 143q195 0 284 -134t89 -357q0 -53 -2 -105h-547q6 -171 48 -249t135 -78q133 0 182 178l182 -37q-83 -321 -375 -321q-194 0 -287 134q-94 135 -94 423zM139 1470h246l158 -290h-162zM272 647h338q0 264 -164 264q-152 0 -174 -264z " />
<glyph unicode="&#xe9;" horiz-adv-x="880" d="M61 539q0 258 100 403q98 143 285 143q195 0 284 -134t89 -357q0 -53 -2 -105h-547q6 -171 48 -249t135 -78q133 0 182 178l182 -37q-83 -321 -375 -321q-194 0 -287 134q-94 135 -94 423zM272 647h338q0 264 -164 264q-152 0 -174 -264zM362 1180l160 290h244l-240 -290 h-164z" />
<glyph unicode="&#xea;" horiz-adv-x="880" d="M61 539q0 258 100 403q98 143 285 143q195 0 284 -134t89 -357q0 -53 -2 -105h-547q6 -171 48 -249t135 -78q133 0 182 178l182 -37q-83 -321 -375 -321q-194 0 -287 134q-94 135 -94 423zM164 1180l164 290h260l162 -290h-160l-133 186l-133 -186h-160zM272 647h338 q0 264 -164 264q-152 0 -174 -264z" />
<glyph unicode="&#xeb;" horiz-adv-x="880" d="M61 539q0 258 100 403q98 143 285 143q195 0 284 -134t89 -357q0 -53 -2 -105h-547q6 -171 48 -249t135 -78q133 0 182 178l182 -37q-83 -321 -375 -321q-194 0 -287 134q-94 135 -94 423zM190 1200v217h207v-217h-207zM272 647h338q0 264 -164 264q-152 0 -174 -264z M506 1200v217h205v-217h-205z" />
<glyph unicode="&#xec;" horiz-adv-x="436" d="M-100 1470h245l158 -290h-162zM109 0v1065h217v-1065h-217z" />
<glyph unicode="&#xed;" horiz-adv-x="436" d="M109 0v1065h217v-1065h-217zM137 1180l160 290h244l-240 -290h-164z" />
<glyph unicode="&#xee;" horiz-adv-x="436" d="M-76 1180l164 290h260l162 -290h-160l-133 186l-133 -186h-160zM109 0v1065h217v-1065h-217z" />
<glyph unicode="&#xef;" horiz-adv-x="436" d="M-43 1200v217h207v-217h-207zM109 0v1065h217v-1065h-217zM272 1200v217h205v-217h-205z" />
<glyph unicode="&#xf0;" horiz-adv-x="950" d="M63 502q0 257 100 396q99 138 263 138q110 0 186 -55l4 2q-29 97 -79 195l-197 -78l-51 135l172 68l-55 77l163 121q48 -59 88 -121l152 60l47 -135l-123 -50q152 -290 152 -641q0 -632 -434 -632q-187 0 -287 130q-101 131 -101 390zM289 506q0 -346 168 -346 q207 0 207 446q0 69 -7 142q-72 112 -178 112q-190 0 -190 -354z" />
<glyph unicode="&#xf1;" horiz-adv-x="929" d="M109 0v1065h210v-127q130 147 279 147q137 0 188 -96q43 -67 43 -250v-739h-215v715q0 87 -26 125q-27 39 -84 39q-86 0 -178 -107v-772h-217zM150 1190q27 231 196 231q61 0 136 -37q73 -36 116 -36q55 0 70 82h131q-30 -234 -197 -234q-60 0 -139 38t-113 38 q-54 0 -69 -82h-131z" />
<glyph unicode="&#xf2;" horiz-adv-x="907" d="M61 528q0 557 394 557q389 0 389 -557q0 -546 -389 -546q-394 0 -394 546zM135 1470h246l158 -290h-162zM287 528q0 -192 39 -280t129 -88q89 0 126 88q37 87 37 280t-38 284q-39 93 -125 93q-90 0 -129 -93t-39 -284z" />
<glyph unicode="&#xf3;" horiz-adv-x="907" d="M61 528q0 557 394 557q389 0 389 -557q0 -546 -389 -546q-394 0 -394 546zM287 528q0 -192 39 -280t129 -88q89 0 126 88q37 87 37 280t-38 284q-39 93 -125 93q-90 0 -129 -93t-39 -284zM373 1180l159 290h244l-239 -290h-164z" />
<glyph unicode="&#xf4;" horiz-adv-x="907" d="M61 528q0 557 394 557q389 0 389 -557q0 -546 -389 -546q-394 0 -394 546zM160 1180l164 290h260l161 -290h-159l-133 186l-134 -186h-159zM287 528q0 -192 39 -280t129 -88q89 0 126 88q37 87 37 280t-38 284q-39 93 -125 93q-90 0 -129 -93t-39 -284z" />
<glyph unicode="&#xf5;" horiz-adv-x="907" d="M61 528q0 557 394 557q389 0 389 -557q0 -546 -389 -546q-394 0 -394 546zM135 1190q27 231 197 231q61 0 136 -37q73 -36 116 -36q54 0 69 82h131q-30 -234 -196 -234q-58 0 -137 38t-115 38q-55 0 -70 -82h-131zM287 528q0 -192 39 -280t129 -88q89 0 126 88 q37 87 37 280t-38 284q-39 93 -125 93q-90 0 -129 -93t-39 -284z" />
<glyph unicode="&#xf6;" horiz-adv-x="907" d="M61 528q0 557 394 557q389 0 389 -557q0 -546 -389 -546q-394 0 -394 546zM193 1200v217h206v-217h-206zM287 528q0 -192 39 -280t129 -88q89 0 126 88q37 87 37 280t-38 284q-39 93 -125 93q-90 0 -129 -93t-39 -284zM508 1200v217h205v-217h-205z" />
<glyph unicode="&#xf7;" d="M59 467v119h856v-119h-856zM401 133v189h172v-189h-172zM401 733v187h172v-187h-172z" />
<glyph unicode="&#xf8;" horiz-adv-x="907" d="M61 528q0 557 394 557q77 0 139 -22l57 141h150l-88 -219q131 -137 131 -457q0 -546 -389 -546q-73 0 -142 20l-55 -139h-152l87 215q-132 137 -132 450zM270 528q0 -130 19 -206h4l231 571q-32 16 -69 16q-185 0 -185 -381zM383 172q26 -16 72 -16q95 0 138 91 q44 93 44 281q0 129 -21 213h-4z" />
<glyph unicode="&#xf9;" horiz-adv-x="929" d="M98 326v739h221v-715q0 -87 25 -126q24 -38 84 -38q84 0 174 107v772h219v-1065h-211v127q-133 -145 -280 -145q-135 0 -187 94q-45 72 -45 250zM145 1470h246l158 -290h-162z" />
<glyph unicode="&#xfa;" horiz-adv-x="929" d="M98 326v739h221v-715q0 -87 25 -126q24 -38 84 -38q84 0 174 107v772h219v-1065h-211v127q-133 -145 -280 -145q-135 0 -187 94q-45 72 -45 250zM379 1180l160 290h243l-239 -290h-164z" />
<glyph unicode="&#xfb;" horiz-adv-x="929" d="M98 326v739h221v-715q0 -87 25 -126q24 -38 84 -38q84 0 174 107v772h219v-1065h-211v127q-133 -145 -280 -145q-135 0 -187 94q-45 72 -45 250zM182 1180l164 290h260l162 -290h-160l-133 186l-133 -186h-160z" />
<glyph unicode="&#xfc;" horiz-adv-x="929" d="M98 326v739h221v-715q0 -87 25 -126q24 -38 84 -38q84 0 174 107v772h219v-1065h-211v127q-133 -145 -280 -145q-135 0 -187 94q-45 72 -45 250zM217 1200v217h207v-217h-207zM532 1200v217h205v-217h-205z" />
<glyph unicode="&#xfd;" horiz-adv-x="808" d="M-4 1065h246l174 -719h4l164 719h229l-293 -1069q-60 -214 -139 -290q-80 -77 -234 -77q-64 0 -120 9v188q35 -4 88 -4q78 0 118 37q42 38 68 131l10 39zM326 1180l159 290h244l-240 -290h-163z" />
<glyph unicode="&#xfe;" horiz-adv-x="948" d="M109 -352v1822h217v-524q55 72 109 105q56 34 136 34q316 0 316 -544q0 -551 -332 -551q-134 0 -229 110v-452h-217zM326 274q66 -88 157 -88q179 0 179 357q0 338 -173 338q-97 0 -163 -107v-500z" />
<glyph unicode="&#xff;" horiz-adv-x="808" d="M-4 1065h246l174 -719h4l164 719h229l-293 -1069q-60 -214 -139 -290q-80 -77 -234 -77q-64 0 -120 9v188q35 -4 88 -4q78 0 118 37q42 38 68 131l10 39zM162 1200v217h207v-217h-207zM477 1200v217h205v-217h-205z" />
<glyph unicode="&#x152;" horiz-adv-x="1601" d="M72 731q0 756 557 756q82 0 184 -17h717v-221h-488v-383h359v-213h-359v-432h514v-221h-747q-83 -16 -184 -16q-553 0 -553 747zM317 735q0 -536 316 -536q121 0 149 65q17 45 17 174v662q0 84 -27 121q-38 53 -137 53q-318 0 -318 -539z" />
<glyph unicode="&#x153;" horiz-adv-x="1411" d="M61 528q0 557 375 557q195 0 279 -151h4q94 151 278 151t270 -134q85 -133 85 -357q0 -53 -2 -105h-533q4 -171 45 -249q40 -78 133 -78q68 0 107 44q37 42 65 134l183 -37q-82 -321 -363 -321q-186 0 -270 147h-4q-91 -147 -277 -147q-375 0 -375 546zM287 528 q0 -193 35 -281q34 -87 120 -87q84 0 121 87q37 86 37 279q0 194 -37 286q-38 93 -121 93t-119 -92q-36 -91 -36 -285zM819 647h322q0 264 -152 264q-148 0 -170 -264z" />
<glyph unicode="&#x178;" horiz-adv-x="956" d="M-6 1470h258l223 -598h4l236 598h254l-369 -876v-594h-244v594zM225 1595v217h207v-217h-207zM541 1595v217h204v-217h-204z" />
<glyph unicode="&#x2c6;" horiz-adv-x="747" d="M80 1180l164 290h260l162 -290h-160l-133 186l-133 -186h-160z" />
<glyph unicode="&#x2dc;" horiz-adv-x="747" d="M49 1190q27 231 197 231q61 0 136 -37q73 -36 116 -36q54 0 69 82h131q-30 -234 -196 -234q-58 0 -137 38t-115 38q-55 0 -70 -82h-131z" />
<glyph unicode="&#x2000;" horiz-adv-x="983" />
<glyph unicode="&#x2001;" horiz-adv-x="1966" />
<glyph unicode="&#x2002;" horiz-adv-x="983" />
<glyph unicode="&#x2003;" horiz-adv-x="1966" />
<glyph unicode="&#x2004;" horiz-adv-x="655" />
<glyph unicode="&#x2005;" horiz-adv-x="491" />
<glyph unicode="&#x2006;" horiz-adv-x="327" />
<glyph unicode="&#x2007;" horiz-adv-x="327" />
<glyph unicode="&#x2008;" horiz-adv-x="245" />
<glyph unicode="&#x2009;" horiz-adv-x="393" />
<glyph unicode="&#x200a;" horiz-adv-x="109" />
<glyph unicode="&#x2010;" horiz-adv-x="600" d="M61 436v203h478v-203h-478z" />
<glyph unicode="&#x2011;" horiz-adv-x="600" d="M61 436v203h478v-203h-478z" />
<glyph unicode="&#x2012;" horiz-adv-x="600" d="M61 436v203h478v-203h-478z" />
<glyph unicode="&#x2013;" horiz-adv-x="1120" d="M55 483v111h1008v-111h-1008z" />
<glyph unicode="&#x2014;" horiz-adv-x="1691" d="M0 483v111h1692v-111h-1692z" />
<glyph unicode="&#x2018;" horiz-adv-x="475" d="M111 899v262l135 309h139l-115 -294h88v-277h-247z" />
<glyph unicode="&#x2019;" horiz-adv-x="475" d="M92 899l115 295h-90v276h250v-264l-136 -307h-139z" />
<glyph unicode="&#x201a;" horiz-adv-x="475" d="M92 -295l115 295h-90v276h250v-264l-136 -307h-139z" />
<glyph unicode="&#x201c;" horiz-adv-x="839" d="M111 899v262l135 309h139l-115 -294h88v-277h-247zM473 899v262l135 309h142l-117 -294h88v-277h-248z" />
<glyph unicode="&#x201d;" horiz-adv-x="837" d="M92 899l115 295h-90v276h250v-264l-136 -307h-139zM455 899l114 295h-88v276h248v-264l-133 -307h-141z" />
<glyph unicode="&#x201e;" horiz-adv-x="837" d="M92 -295l115 295h-90v276h250v-264l-136 -307h-139zM455 -295l114 295h-88v276h248v-264l-133 -307h-141z" />
<glyph unicode="&#x2022;" horiz-adv-x="958" d="M111 735q0 153 107 260q109 109 259 109q151 0 260 -109t109 -260q0 -150 -109 -259q-107 -107 -260 -107q-152 0 -259 107t-107 259z" />
<glyph unicode="&#x2026;" horiz-adv-x="1794" d="M96 0v276h248v-276h-248zM754 0v276h250v-276h-250zM1413 0v276h250v-276h-250z" />
<glyph unicode="&#x202f;" horiz-adv-x="393" />
<glyph unicode="&#x2039;" horiz-adv-x="585" d="M82 539l194 327h207l-196 -329l196 -332h-207z" />
<glyph unicode="&#x203a;" horiz-adv-x="585" d="M102 205l197 332l-197 329h209l193 -327l-195 -334h-207z" />
<glyph unicode="&#x205f;" horiz-adv-x="491" />
<glyph unicode="&#x20ac;" d="M25 543v145h135v64v73h-135v146h145q56 518 420 518q160 0 250 -84q89 -83 118 -260l-206 -29q-21 84 -57 126t-103 42q-153 0 -186 -313h364v-146h-373v-73v-64h373v-145h-369q12 -178 53 -269q40 -90 128 -90q74 0 111 49q39 51 61 150l211 -39q-45 -206 -145 -285 q-98 -77 -251 -77q-199 0 -291 141q-91 140 -112 420h-141z" />
<glyph unicode="&#x2122;" horiz-adv-x="1228" d="M29 1343v127h434v-127h-148v-608h-139v608h-147zM539 735v735h192l107 -458h4l112 458h187v-735h-127v510h-4l-115 -510h-107l-118 510h-4v-510h-127z" />
<glyph unicode="&#x25fc;" horiz-adv-x="1064" d="M0 0v1065h1065v-1065h-1065z" />
</font>
</defs>
</svg>
