<?xml version="1.0" standalone="no"?>
<!DOCTYPE svg PUBLIC "-//W3C//DTD SVG 1.1//EN" "http://www.w3.org/Graphics/SVG/1.1/DTD/svg11.dtd" >
<svg xmlns="http://www.w3.org/2000/svg" xmlns:xlink="http://www.w3.org/1999/xlink" version="1.1">
<metadata></metadata>
<defs>
<font id="vidaloka_regular" horiz-adv-x="1441" >
<font-face units-per-em="2048" ascent="1638" descent="-410" />
<missing-glyph horiz-adv-x="463" />
<glyph horiz-adv-x="0" />
<glyph unicode="&#xd;" horiz-adv-x="0" />
<glyph unicode=" "  horiz-adv-x="463" />
<glyph unicode="&#x09;" horiz-adv-x="463" />
<glyph unicode="&#xa0;" horiz-adv-x="463" />
<glyph unicode="!" horiz-adv-x="542" d="M125 1294q0 32 10.5 62.5t30 54t47.5 37.5t62 14t60.5 -14t44.5 -37.5t27 -53.5t9 -63q0 -28 -6 -80.5t-20 -124t-29.5 -157.5t-29.5 -180t-24 -192t-13 -194h-46q-3 96 -12.5 194t-24 192t-30 180t-29.5 157.5t-20.5 124t-6.5 80.5zM133 115q0 63 37 101.5t98 38.5 q63 0 102 -38.5t39 -101.5q0 -61 -39 -98t-102 -37q-61 0 -98 37t-37 98z" />
<glyph unicode="&#x22;" horiz-adv-x="594" d="M90 1329q0 133 86 133q82 0 82 -133q0 -32 -7.5 -81.5t-26 -145.5t-28.5 -156h-45q-10 63 -27.5 157t-25.5 144.5t-8 81.5zM336 1329q0 133 86 133q82 0 82 -133q0 -32 -7.5 -81.5t-26 -145.5t-28.5 -156h-45q-9 56 -27.5 155t-26 147.5t-7.5 80.5z" />
<glyph unicode="#" horiz-adv-x="1364" d="M26 403l19 134h305l63 378h-301l19 134h305l70 413h123l-70 -413h364l70 413h123l-70 -413h289l-18 -134h-294l-63 -378h293l-18 -134h-298l-73 -438h-123l73 438h-364l-73 -438h-123l73 438h-301zM473 537h364l63 378h-364z" />
<glyph unicode="$" horiz-adv-x="1009" d="M24 241q0 33 10 61.5t29.5 50t48 34t64.5 12.5q33 0 60 -11.5t45.5 -31t29 -46t10.5 -57.5q0 -71 -41 -107t-106 -36v-4q7 -8 27.5 -22t57 -28t90 -24.5t126.5 -10.5h7v546q-24 12 -50.5 24t-55.5 26q-99 42 -162.5 92.5t-100 107t-50.5 118t-14 126.5q0 81 28.5 152.5 t84 126t136 87t184.5 34.5v192h56v-192q93 -5 161.5 -30.5t113.5 -64.5t67.5 -89t22.5 -104q0 -30 -10 -57.5t-29 -48t-47 -33t-64 -12.5q-33 0 -60 11t-46.5 30t-30 45t-10.5 57q0 35 12 62.5t32.5 46t48.5 28t60 9.5v4q-6 7 -21.5 20.5t-42 27.5t-65.5 26t-92 16v-552 q117 -54 198 -102t131.5 -102.5t73.5 -122t23 -160.5q0 -69 -26 -137.5t-79 -124.5t-133 -93t-188 -44v-211h-56v209q-129 1 -216.5 25.5t-141.5 63.5t-77 88t-23 99zM203 1172q0 -35 9 -69.5t38 -70t84 -73.5t148 -80v528q-69 -2 -121 -20t-87.5 -48.5t-53 -73t-17.5 -93.5 zM538 25q52 7 100.5 26t85.5 48t59 68t22 86q0 38 -11 71.5t-40.5 67.5t-81.5 69.5t-134 77.5v-514z" />
<glyph unicode="%" horiz-adv-x="1612" d="M26 1074q0 97 42 184t129 145.5t202 58.5q88 0 158.5 -32.5t113.5 -86t65.5 -118t22.5 -133.5q0 -159 -105.5 -276t-255.5 -117q-114 0 -200.5 53t-129 137.5t-42.5 184.5zM228 1107q1 -95 4.5 -135t9.5 -67.5t18 -58t29 -49t42.5 -31t58.5 -12.5q164 0 164 306 q-3 113 -7.5 158t-15 74.5t-27.5 58t-45 42.5t-65 14q-52 0 -88 -31t-51.5 -82.5t-21 -95t-5.5 -91.5zM378 0l779 1462h63l-779 -1462h-63zM856 339q0 73 25 141.5t71.5 124t119 89.5t159.5 34q88 0 158 -32.5t112.5 -86.5t65 -118.5t22.5 -132.5q0 -103 -47.5 -193.5 t-130.5 -145t-182 -54.5q-171 0 -272 109.5t-101 264.5zM1059 372q1 -94 4.5 -134.5t9.5 -67.5t18 -58t28.5 -49t42.5 -30.5t59 -12.5q163 0 163 305q-1 97 -4.5 136.5t-9.5 66.5t-18 56.5t-28.5 47.5t-41.5 29.5t-57 11.5q-43 0 -75 -22t-48.5 -53.5t-27 -76t-15.5 -149.5z " />
<glyph unicode="&#x26;" horiz-adv-x="1499" d="M140 387q0 170 118.5 289.5t327.5 137.5v2q-54 1 -103.5 10t-100.5 30.5t-88.5 53.5t-61 84t-23.5 118q0 45 13 90.5t45 93t79.5 84t124 59.5t171.5 23q92 0 162.5 -24t107.5 -57t59.5 -73.5t28.5 -65.5t6 -52q0 -59 -38 -102t-108 -43q-57 0 -94.5 39.5t-37.5 103.5 q0 55 36 92t99 40l-1 4q-19 37 -67.5 59t-109.5 22q-113 0 -169 -71.5t-56 -197.5q0 -143 70 -220t193 -77h14v-55h-18q-65 0 -116.5 -17t-84 -47t-55.5 -65.5t-34.5 -78.5t-16 -79.5t-4.5 -75.5q0 -189 79 -289.5t232 -100.5q41 0 86 9.5t100 38.5t97 74t71 124t29 180 l-1 55l-41 -1h-201q-50 0 -86 -7t-55 -16t-29.5 -23.5t-13 -24.5t-2.5 -23q0 -32 21 -44h3q13 22 39 34t48 12q45 0 76.5 -27t31.5 -77q0 -48 -33.5 -78.5t-79.5 -30.5q-63 0 -110 44.5t-47 144.5q0 21 2 41t11.5 52.5t25.5 59t47.5 56t74 49.5t109 33.5t148.5 13.5h201 q50 0 86 7t55 16t29.5 23.5t13 24.5t2.5 23q0 32 -21 44h-3q-13 -22 -39 -34t-48 -12q-45 0 -76.5 27t-31.5 77q0 48 33.5 78.5t79.5 30.5q63 0 110 -44.5t47 -144.5q0 -23 -3 -44.5t-12 -56t-31.5 -64t-56 -58t-91 -49t-130.5 -28.5q3 -33 3 -63q0 -106 -28.5 -193 t-86 -154t-153.5 -104t-222 -37q-144 0 -249.5 33.5t-164.5 93.5t-86 133t-27 162z" />
<glyph unicode="'" horiz-adv-x="360" d="M86 1329q0 133 96 133q92 0 92 -133q0 -30 -10 -83.5t-28.5 -140.5t-30.5 -159h-49q-12 71 -31 158.5t-29 140.5t-10 84z" />
<glyph unicode="(" horiz-adv-x="552" d="M64 481q0 271 119 535.5t297 445.5l39 -37q-229 -322 -229 -944q0 -617 229 -940l-39 -36q-178 181 -297 443.5t-119 532.5z" />
<glyph unicode=")" horiz-adv-x="552" d="M33 -459q229 323 229 940q0 622 -229 944l39 37q178 -181 297 -445.5t119 -535.5q0 -270 -119 -532.5t-297 -443.5z" />
<glyph unicode="*" horiz-adv-x="933" d="M52 1130q0 19 7 39q15 43 44 60t60 17q29 0 51 -9.5t42 -25t38 -35.5t38 -39.5t46.5 -37.5t61.5 -30q0 49 -14 85.5t-31 67.5t-31 61t-14 62q0 23 7.5 44t22.5 37.5t36.5 26t50.5 9.5q28 0 49.5 -9.5t35 -25.5t20.5 -37t7 -45q0 -34 -14 -62.5t-31.5 -59.5t-31 -68.5 t-13.5 -83.5q52 17 85 44.5t60 58t55.5 52t70.5 22.5q21 0 42 -7t38.5 -21t28 -36t10.5 -53q0 -26 -11 -47t-30 -36t-43 -23t-51 -8q-16 0 -126 18q-7 1 -36 1.5t-74 -12.5q22 -36 55.5 -58.5t69 -39t64.5 -33.5t44 -39q11 -16 17.5 -34.5t6.5 -39.5q0 -18 -8 -38t-23 -36.5 t-36.5 -27.5t-48.5 -11q-30 0 -53.5 15t-38.5 37q-18 21 -26 53.5t-12 70.5t-15.5 77.5t-36.5 72.5q-29 -39 -39.5 -76.5t-14.5 -72.5t-10 -66t-26 -61q-16 -21 -41.5 -36t-54.5 -15q-26 0 -47.5 11t-37 27.5t-23 33t-8.5 40.5q1 27 13.5 53t36 46t48.5 31.5t54 26 t57.5 35.5t51.5 52q-33 12 -83 13q-45 -1 -88 -10.5t-66 -9.5q-25 -1 -49.5 6t-44 22t-31.5 36.5t-12 50.5z" />
<glyph unicode="+" horiz-adv-x="1146" d="M117 592v110h401v398h110v-398h401v-110h-401v-398h-110v398h-401z" />
<glyph unicode="," horiz-adv-x="459" d="M92 103q0 50 33 93.5t100 43.5q71 0 107.5 -53t36.5 -127q0 -63 -18 -121t-71.5 -121.5t-140.5 -106.5l-16 51q86 41 123 103.5t37 117.5h-4q-28 -18 -62 -18q-53 0 -89 39t-36 99z" />
<glyph unicode="-" horiz-adv-x="746" d="M117 592v110h512v-110h-512z" />
<glyph unicode="." horiz-adv-x="464" d="M94 100q0 63 38.5 101.5t99.5 38.5q63 0 100.5 -38.5t37.5 -101.5q0 -61 -37.5 -98t-100.5 -37q-61 0 -99.5 37.5t-38.5 97.5z" />
<glyph unicode="/" horiz-adv-x="850" d="M-56 -495l841 1957h123l-842 -1957h-122z" />
<glyph unicode="0" horiz-adv-x="1279" d="M97 693q0 124 21 237t64.5 210.5t106.5 169t152.5 112t195.5 40.5q262 0 403.5 -193.5t141.5 -523.5q0 -121 -17 -230t-57 -211t-100.5 -176t-154 -118.5t-210.5 -44.5q-184 0 -308 91.5t-181 252t-57 384.5zM369 728q0 -212 28.5 -368.5t89.5 -248t150 -91.5 q132 0 202.5 184.5t70.5 525.5q0 677 -267 677q-43 0 -82 -21.5t-74.5 -72t-61 -126.5t-41 -193.5t-15.5 -265.5z" />
<glyph unicode="1" horiz-adv-x="736" d="M28 1341l439 121h55v-1407l154 -10v-45h-553v45l153 10v1289l-233 -56z" />
<glyph unicode="2" horiz-adv-x="1071" d="M79 1110q0 42 13 87t45 93.5t80.5 85.5t126.5 61.5t175 24.5q193 0 310 -93t117 -250q0 -139 -74.5 -262t-268.5 -308q-340 -328 -384 -366l403 5q71 1 113.5 5t80 14.5t56.5 31t31 52t16 80.5h55l-10 -371h-871v143q106 94 219.5 216.5t188.5 226.5q57 79 94 155 t53 145.5t20.5 118t4.5 110.5q0 145 -61 216t-166 71q-50 0 -94.5 -15.5t-73.5 -39.5t-47.5 -48t-25.5 -46v-4q8 1 24 1q65 0 105 -40.5t40 -105.5q0 -62 -40 -103t-105 -41q-70 0 -110 43.5t-40 106.5z" />
<glyph unicode="3" horiz-adv-x="1099" d="M90 1144q0 29 10.5 65.5t39.5 82t72.5 82.5t119 62.5t169.5 25.5q196 0 311 -94t115 -263q0 -129 -90 -212t-273 -104v-2q445 -44 445 -433q0 -75 -30 -142.5t-88.5 -123.5t-158 -89.5t-227.5 -33.5q-211 0 -312.5 73t-101.5 193q0 62 41 108.5t109 46.5q65 0 105 -40.5 t40 -102.5q0 -67 -41 -102t-108 -35v-4l14 -16q4 -5 24 -20t41.5 -22.5t60.5 -14.5t87 -7q127 0 201.5 86.5t74.5 243.5q0 40 -1 68t-7.5 73t-18 77t-34.5 68t-55 59t-81.5 38t-111.5 15h-68v55h64q68 0 117.5 24.5t76.5 67.5t39.5 94.5t12.5 113.5q0 137 -58 217t-176 80 q-87 0 -151.5 -46t-80.5 -90v-4q68 10 111 -28t43 -104q0 -59 -36.5 -95.5t-97.5 -36.5q-65 0 -101 40t-36 106z" />
<glyph unicode="4" horiz-adv-x="1112" d="M10 330v47l762 1085h55v-1078l256 3v-57h-256v-275l154 -10v-45h-553v45l153 10v275h-571zM84 377l497 5v709h-3l-494 -711v-3z" />
<glyph unicode="5" horiz-adv-x="1029" d="M86 231q0 62 41 108.5t108 46.5q66 0 106 -38.5t40 -100.5q0 -67 -41.5 -104.5t-108.5 -37.5v-4q67 -79 219 -79q120 0 181 102.5t61 270.5q-1 71 -3.5 108.5t-7 61.5t-14 59t-23 57.5t-34.5 48t-48 40.5t-64.5 25t-82.5 10q-63 0 -122 -27.5t-95 -66.5l-45 26l-4 690 h393q49 0 74 0.5t57 2.5t46 5.5t32.5 10.5t25.5 16.5t15.5 25.5t12 35t6.5 46h55l-10 -330l-653 6v-459q118 79 268 79q109 0 194.5 -26.5t140 -70.5t90 -105.5t50 -126.5t14.5 -139q0 -75 -29 -149t-85 -138.5t-150.5 -104.5t-212.5 -40q-185 0 -291 75t-106 191z" />
<glyph unicode="6" horiz-adv-x="1123" d="M103 621q0 416 131.5 628.5t387.5 212.5q87 0 154 -20.5t104 -50.5t60 -69t30 -69.5t7 -59.5q0 -61 -35 -105.5t-106 -44.5q-57 0 -95 37.5t-38 97.5q0 58 37 96.5t96 43.5v4q-15 34 -63.5 59.5t-122.5 25.5q-285 0 -285 -377q0 -34 -3 -122.5t-1 -152.5h2q39 60 107 95 t155 35q108 0 189.5 -37t128.5 -101.5t69.5 -144.5t22.5 -174q0 -61 -14.5 -122t-50 -123.5t-87.5 -110t-134 -77.5t-183 -30q-89 0 -160.5 23t-119 59t-82.5 91t-54 109.5t-30 125t-14 125.5t-3 123zM360 569q0 -162 15 -273.5t43.5 -169.5t61 -82t75.5 -24q109 0 162 108 t53 280q0 61 -2 103t-8 93.5t-19 85.5t-34 64.5t-54.5 45.5t-78.5 15q-71 0 -134 -49.5t-79 -124.5q-1 -25 -1 -72z" />
<glyph unicode="7" horiz-adv-x="865" d="M52 1057l10 370h789v-143q-111 -146 -186 -304t-111.5 -312.5t-50.5 -284.5t-14 -274q0 -63 -28 -111t-93 -48q-110 0 -110 157q0 82 33.5 195.5t64 186t114.5 256.5q81 180 157.5 312t121.5 185v2l-363 -5q-71 -1 -112 -5t-75.5 -14t-51 -31t-26.5 -51.5t-14 -80.5h-55z " />
<glyph unicode="8" horiz-adv-x="1135" d="M117 309q0 62 24 119t67.5 104.5t89 83.5t104.5 72q-135 99 -203 208.5t-68 201.5q0 157 125 260.5t315 103.5q155 0 270 -87.5t115 -211.5q0 -62 -19.5 -115t-58 -96t-79 -75t-99.5 -69q44 -31 57 -39.5t53.5 -38.5t87.5 -73t82 -94.5t43.5 -79.5t16 -63t7.5 -72 q0 -74 -28.5 -141t-83 -122t-145 -87.5t-204.5 -32.5q-222 0 -345.5 89.5t-123.5 254.5zM285 319q0 -49 15 -97.5t47 -95.5t94 -76.5t145 -29.5q113 0 193 61.5t80 168.5q0 38 -13 70t-36 62t-76.5 72.5t-111.5 83.5l-164 112q-82 -67 -127.5 -145.5t-45.5 -185.5zM332 1225 q0 -33 11 -66t24.5 -58.5t43.5 -58.5t48.5 -51.5t60.5 -51t58 -43.5l78 -58q156 122 156 307q0 129 -69.5 195.5t-185.5 66.5q-92 0 -158.5 -51t-66.5 -131z" />
<glyph unicode="9" horiz-adv-x="1122" d="M86 999q0 61 14.5 122t50 123.5t87.5 110t134 77.5t183 30q89 0 160.5 -23t119 -59t82.5 -91t54 -109.5t30 -125t14 -125.5t3 -123q0 -421 -124.5 -631t-384.5 -210q-87 0 -154.5 20.5t-104 50.5t-60 69t-30.5 69.5t-7 59.5q0 60 36.5 105.5t108.5 45.5q56 0 93 -37.5 t37 -98.5q0 -58 -37 -96.5t-96 -43.5v-4q14 -33 67.5 -59t128.5 -26q49 0 88 11.5t66.5 40t47.5 57t32.5 82t19.5 93.5t10.5 114.5t4 121t0.5 135.5q-39 -61 -107.5 -97t-156.5 -36q-108 0 -189.5 37t-128.5 101.5t-69.5 144.5t-22.5 174zM351 1019q0 -61 2 -103t8 -93.5 t19 -85.5t34 -64.5t54.5 -45.5t78.5 -15q71 0 134 49.5t79 124.5q0 13 0.5 37t0.5 35q0 161 -15.5 273t-43.5 170t-61 82t-75 24q-109 0 -162 -108t-53 -280z" />
<glyph unicode=":" horiz-adv-x="510" d="M117 100q0 63 38.5 101.5t99.5 38.5q63 0 100.5 -38.5t37.5 -101.5q0 -61 -37.5 -98t-100.5 -37q-61 0 -99.5 37.5t-38.5 97.5zM117 894q0 63 38.5 101.5t99.5 38.5q63 0 100.5 -38.5t37.5 -101.5q0 -61 -37.5 -98t-100.5 -37q-61 0 -99.5 37.5t-38.5 97.5z" />
<glyph unicode=";" horiz-adv-x="518" d="M117 894q0 63 38.5 101.5t99.5 38.5q63 0 100.5 -38.5t37.5 -101.5q0 -61 -37.5 -98t-100.5 -37q-61 0 -99.5 37.5t-38.5 97.5zM123 103q0 50 33 93.5t100 43.5q71 0 107.5 -53t36.5 -127q0 -63 -18 -121t-71.5 -121.5t-140.5 -106.5l-16 51q86 41 123 103.5t37 117.5h-4 q-28 -18 -62 -18q-53 0 -89 39t-36 99z" />
<glyph unicode="&#x3c;" horiz-adv-x="1018" d="M16 611v58l912 445v-122l-747 -347v-2l747 -346v-123z" />
<glyph unicode="=" horiz-adv-x="1146" d="M117 398v110h912v-110h-912zM117 798v110h912v-110h-912z" />
<glyph unicode="&#x3e;" horiz-adv-x="1018" d="M90 174v122l747 347v2l-747 346v123l912 -437v-58z" />
<glyph unicode="?" horiz-adv-x="847" d="M18 1158q0 50 22.5 100.5t68.5 97.5t129.5 76.5t191.5 29.5q93 0 167.5 -27.5t120.5 -75t70.5 -108t24.5 -128.5q0 -58 -21.5 -114.5t-56 -104.5t-160.5 -177q-42 -42 -76.5 -83t-56 -86.5t-21.5 -90.5q0 -31 10 -61h-54q-20 44 -20 92q0 51 23.5 111t56.5 118 q99 171 123 252.5t24 156.5q0 134 -58 201t-164 67q-84 0 -149 -43t-76 -85v-6h14q128 0 128 -122q0 -55 -35.5 -91t-94.5 -36q-60 0 -95.5 40t-35.5 97zM294 85q0 57 34.5 91.5t88.5 34.5q56 0 90 -34.5t34 -91.5q0 -54 -34 -87t-90 -33q-54 0 -88.5 33t-34.5 87z" />
<glyph unicode="@" horiz-adv-x="1508" d="M78 546q0 159 50 299t141.5 244t230 164.5t305.5 60.5q186 0 334.5 -86.5t231 -238t82.5 -339.5q0 -124 -33 -223.5t-86.5 -158.5t-116.5 -90t-128 -31q-74 0 -127.5 29t-71.5 88q-44 -57 -104 -81.5t-115 -24.5q-124 0 -198.5 87t-74.5 243q0 73 10.5 143t36.5 141 t66 124.5t104 87t144 33.5q110 0 187 -67l6 50l148 -15q-6 -52 -28.5 -234t-33.5 -285t-11 -153q0 -63 21.5 -87.5t65.5 -24.5q105 0 188 128.5t83 303.5q0 183 -72 323.5t-211 221t-327 80.5q-137 0 -257 -58t-201 -154t-127.5 -222t-46.5 -261q0 -113 23.5 -215t75 -191.5 t126 -155t182.5 -103.5t239 -38q311 0 498 206l37 -34q-211 -227 -532 -227q-169 0 -305.5 55.5t-225 155t-136 234.5t-47.5 296zM551 477q0 -110 44 -177t125 -67q86 0 162 90q0 27 3.5 71.5t26.5 250.5t27 245q-61 70 -160 70q-62 0 -108 -42t-71 -113t-37 -153t-12 -175z " />
<glyph unicode="A" horiz-adv-x="1237" d="M-6 0v45l121 10l473 1413h45l489 -1413l132 -10v-45h-535v45l135 10l-118 359h-448l-116 -359l135 -10v-45h-313zM306 474l408 8l-200 614h-4z" />
<glyph unicode="B" horiz-adv-x="1282" d="M73 0v45l154 10v1317l-154 10v45h535q86 0 156.5 -8t139.5 -29.5t115.5 -56.5t75 -92.5t28.5 -134.5q0 -61 -27 -112.5t-68.5 -85.5t-96.5 -60.5t-106 -40.5t-102 -21v-4q101 0 186 -23.5t148.5 -69.5t99.5 -120.5t36 -169.5q0 -86 -31 -154.5t-83 -113.5t-122.5 -75 t-146.5 -43t-159 -13h-578zM483 65q54 -10 104 -10q159 0 249.5 92t90.5 250q0 169 -93.5 258.5t-258.5 89.5q-47 0 -92 -7v-673zM483 806q42 -6 77 -6q303 0 303 300q0 128 -68 200t-208 72q-50 0 -104 -10v-556z" />
<glyph unicode="C" horiz-adv-x="1253" d="M98 688q0 111 24 219t76.5 209t128.5 177.5t188 122.5t246 46q156 0 275 -85.5t119 -202.5q0 -59 -37.5 -101t-102.5 -42q-62 0 -101 38.5t-39 97.5q0 58 37 97.5t92 39.5q11 0 16 -1v4q-15 28 -81 63t-159 35q-182 0 -299 -189t-117 -499q0 -133 23 -251.5t68.5 -215.5 t122.5 -154.5t176 -57.5q142 0 247.5 84.5t163.5 216.5l47 -22q-143 -352 -481 -352q-147 0 -260 41t-182.5 108.5t-113.5 163.5t-60.5 195t-16.5 215z" />
<glyph unicode="D" horiz-adv-x="1418" d="M73 0v45l154 10v1317l-154 10v45h504q203 0 348 -51t229.5 -148t123 -225t38.5 -296q0 -121 -25 -225.5t-79.5 -194t-136 -153t-200 -99t-265.5 -35.5h-537zM483 65q54 -10 98 -10q102 0 181.5 33t133 91.5t88.5 143t50.5 183.5t15.5 217q0 116 -11 207t-41.5 177 t-80.5 142t-132 89.5t-192 33.5q-56 0 -110 -10v-1297z" />
<glyph unicode="E" horiz-adv-x="1210" d="M73 0v45l154 10v1317l-154 10v45h985l10 -407h-42q-12 68 -25.5 115.5t-38.5 95.5t-58.5 76.5t-86 46.5t-121.5 18q-85 0 -213 -10v-594q30 -3 109 -3q105 0 150 51.5t45 187.5h55v-537h-55q0 136 -45.5 189.5t-149.5 53.5q-77 0 -109 -3v-642q128 -10 254 -10 q59 0 104 9.5t78 31.5t56 49.5t40.5 70.5t28.5 86t23 106h43l-11 -408h-1026z" />
<glyph unicode="F" horiz-adv-x="1080" d="M73 0v45l154 10v1317l-154 10v45h945l10 -407h-56q-7 84 -24 143.5t-51.5 109t-94.5 74.5t-146 25q-115 0 -173 -10v-616q25 -1 29 -1q71 0 112 7.5t74 32t46 72.5t13 128h55v-537h-55q0 137 -45 190t-150 53l-79 -1v-635l194 -10v-45h-604z" />
<glyph unicode="G" horiz-adv-x="1407" d="M98 684q0 105 23.5 211.5t76 209t127 181.5t186.5 127.5t246 48.5q202 0 334.5 -86t132.5 -203q0 -63 -40 -107t-110 -44q-65 0 -106 40.5t-41 102.5q0 68 43 106.5t110 38.5v4q-22 26 -93.5 57t-169.5 31q-141 0 -244 -87.5t-156 -241.5t-53 -356q0 -69 4.5 -133 t17.5 -135t33.5 -131t54.5 -115.5t79 -94.5t109 -62t141 -23q87 0 186 30v545l-148 11v45h524v-45l-147 -11v-530q-84 -49 -211 -76t-259 -27q-650 0 -650 719z" />
<glyph unicode="H" horiz-adv-x="1504" d="M73 0v45l154 10v1317l-154 10v45h564v-45l-154 -10v-610l538 8v602l-154 10v45h564v-45l-154 -10v-1317l154 -10v-45h-564v45l154 10v647h-538v-647l154 -10v-45h-564z" />
<glyph unicode="I" horiz-adv-x="710" d="M73 0v45l154 10v1317l-154 10v45h564v-45l-154 -10v-1317l154 -10v-45h-564z" />
<glyph unicode="J" horiz-adv-x="821" d="M-59 -113q0 60 40 104t103 44q67 0 104 -40t37 -97q0 -33 -20.5 -71t-55.5 -56l3 -4q13 -19 59 -19q16 0 27.5 2t29.5 9t30.5 24t24.5 44.5t18.5 73.5t6.5 107v1364l-194 10v45h604v-45l-154 -10v-1151q0 -134 -30.5 -234.5t-74.5 -154.5t-103.5 -87.5t-106 -42.5 t-94.5 -9q-107 0 -180.5 51t-73.5 143z" />
<glyph unicode="K" horiz-adv-x="1381" d="M73 0v45l154 10v1317l-154 10v45h564v-45l-154 -10v-608h2l567 608l-129 10v45h324v-45l-117 -10l-465 -491l635 -826l108 -10v-45h-571v45l129 10l-481 657h-2v-657l154 -10v-45h-564z" />
<glyph unicode="L" horiz-adv-x="1166" d="M73 0v45l154 10v1317l-154 10v45h564v-45l-154 -10v-1307q163 -11 223 -11q55 0 96.5 3t76 13t58 21t44.5 34.5t34 46t34 88t37 148.5h34v-408h-1047z" />
<glyph unicode="M" horiz-adv-x="1795" d="M73 0v45l154 10v1317l-154 10v45h428l417 -1064h2l392 1064h410v-45l-154 -10v-1317l154 -10v-45h-564v45l154 10l2 1223h-2l-475 -1298h-37l-528 1345h-2l15 -1270l151 -10v-45h-363z" />
<glyph unicode="N" horiz-adv-x="1414" d="M69 1382v45h214l858 -1040h2l-14 985l-153 10v45h370v-45l-154 -10l11 -1392h-61l-858 1043h-2l14 -968l153 -10v-45h-370v45l154 10l-11 1317z" />
<glyph unicode="O" d="M96 709q0 206 74 376t217.5 273.5t330.5 103.5q282 0 454.5 -199t172.5 -522q0 -118 -23.5 -229t-73.5 -210.5t-121.5 -174t-175.5 -118.5t-227 -44q-293 0 -460.5 204t-167.5 540zM364 731q0 -197 39 -355.5t120.5 -257t194.5 -98.5q168 0 263.5 195t95.5 518 q0 336 -93.5 505t-259.5 169q-58 0 -110.5 -24t-98.5 -77t-79 -130.5t-52.5 -191.5t-19.5 -253z" />
<glyph unicode="P" horiz-adv-x="1207" d="M73 0v45l154 10v1317l-154 10v45h543q110 0 203.5 -23.5t168.5 -71t117.5 -127t42.5 -183.5q0 -96 -32.5 -173t-87.5 -129t-132.5 -86.5t-164 -50t-183.5 -15.5q-21 0 -65 2v-515l154 -10v-45h-564zM483 627q35 -3 71 -3q328 0 328 400q0 97 -22 165.5t-63.5 106t-92 54 t-115.5 16.5q-49 0 -106 -8v-731z" />
<glyph unicode="Q" d="M96 709q0 206 74 376t217.5 273.5t330.5 103.5q282 0 454.5 -199t172.5 -522q0 -118 -23.5 -229t-73.5 -210.5t-121.5 -174t-175.5 -118.5t-227 -44q-293 0 -460.5 204t-167.5 540zM364 731q0 -197 39 -355.5t120.5 -257t194.5 -98.5q168 0 263.5 195t95.5 518 q0 336 -93.5 505t-259.5 169q-58 0 -110.5 -24t-98.5 -77t-79 -130.5t-52.5 -191.5t-19.5 -253zM404 -173q122 100 252 100q63 0 122 -20t99 -45q183 -118 237 -148q69 -39 120 -39q50 0 75 30t25 69q0 2 -0.5 7t-0.5 7l-3 -1q-21 -36 -66 -36q-48 0 -77 29.5t-29 73.5 q0 48 30.5 77.5t76.5 29.5q61 0 94.5 -46.5t33.5 -114.5q0 -39 -17.5 -82t-49.5 -81t-84.5 -63t-114.5 -25q-43 0 -70 4.5t-81.5 27.5t-134.5 70l-179 112q-30 18 -66.5 33t-63.5 15q-60 0 -108 -24z" />
<glyph unicode="R" horiz-adv-x="1289" d="M73 0v45l154 10v1317l-154 10v45h533q111 0 200.5 -19t160 -60t109 -110.5t38.5 -164.5q0 -171 -115 -266.5t-311 -123.5v-2q84 -1 145.5 -27t98 -66.5t69.5 -104.5q22 -44 62.5 -134.5t80.5 -160.5q32 -57 67 -88t59 -38t55 -7v-55h-166q-76 0 -120 9.5t-87.5 45.5 t-77.5 99.5t-116 265.5q-12 30 -34.5 77.5t-39 72t-39 51.5t-46 38.5t-49.5 11.5q-44 0 -67 -1v-615l154 -10v-45h-564zM483 727q11 -1 41 -1q178 0 250.5 86.5t72.5 258.5q0 86 -20.5 146t-58.5 93t-84 47t-105 14q-39 0 -96 -8v-636z" />
<glyph unicode="S" horiz-adv-x="1120" d="M104 241q0 33 10 61.5t29.5 50t48 34t64.5 12.5q33 0 60 -11.5t45.5 -31t29 -46t10.5 -57.5q0 -71 -41 -107t-106 -36v-4q7 -8 27.5 -22t57 -28t90 -24.5t126.5 -10.5q60 0 119.5 16t106 46t75.5 73t29 97q0 46 -17 86t-64 81.5t-130.5 89t-217.5 107.5 q-99 42 -162.5 92.5t-100 107t-50.5 118t-14 126.5q0 82 30 155t87 127.5t140.5 86.5t190.5 32q103 0 179.5 -24t126.5 -63.5t75 -92t25 -109.5q0 -30 -10 -57.5t-29 -48t-47 -33t-64 -12.5q-33 0 -60 11t-46.5 30t-30 45t-10.5 57q0 35 12 62.5t32.5 46t48.5 28t60 9.5v4 q-6 7 -24 22.5t-50 31t-79 27t-111 11.5q-72 0 -126.5 -17t-91.5 -48t-55.5 -74.5t-18.5 -95.5q0 -37 10 -73t43 -73.5t95.5 -77.5t168.5 -86q122 -56 206.5 -105t137.5 -104t76.5 -123.5t23.5 -163.5q0 -72 -29 -144t-87.5 -129t-147 -92.5t-207.5 -35.5q-132 0 -222 24.5 t-144.5 63.5t-78.5 88.5t-24 99.5z" />
<glyph unicode="T" horiz-adv-x="1232" d="M60 937l10 490h1092l10 -489h-55q-14 77 -24.5 124t-25.5 99t-31 81t-39 58t-52.5 42.5t-68.5 22t-90 8.5q-4 0 -16.5 -0.5t-22.5 -0.5v-1317l155 -10v-45h-564v45l153 10l-6 1316q-10 0 -22.5 0.5t-16.5 0.5q-45 0 -80 -5t-63.5 -19t-49.5 -30t-39 -46t-30.5 -58 t-26 -76.5t-42.5 -200.5h-55z" />
<glyph unicode="U" horiz-adv-x="1431" d="M49 1382v45h564v-45l-155 -10v-934q0 -41 2 -73t9.5 -76.5t21.5 -77.5t40 -68t62 -57.5t90.5 -37t122.5 -14.5q82 0 145.5 25.5t103 66.5t65 100t35.5 120t10 132v894l-153 10v45h370v-45l-153 -10v-916q0 -72 -11.5 -136.5t-42.5 -131.5t-80 -114.5t-131.5 -78 t-189.5 -30.5q-111 0 -198.5 16t-147 42t-102 67t-66.5 82t-37.5 97.5t-17 102.5t-3.5 107v893z" />
<glyph unicode="V" horiz-adv-x="1314" d="M-39 1382v45h555v-45l-136 -10l398 -1014h4l348 1014l-135 10v45h319v-45l-121 -10l-475 -1392h-45l-561 1392z" />
<glyph unicode="W" horiz-adv-x="1844" d="M-27 1382v45h555v-45l-136 -10l266 -999h4l309 1075h45l360 -1071h4l286 995l-135 10v45h317v-45l-121 -10l-406 -1392h-45l-368 1043h-2l-306 -1043h-45l-431 1392z" />
<glyph unicode="X" horiz-adv-x="1345" d="M-11 1382v45h560v-45l-150 -10l314 -510h2l307 510l-129 10v45h331v-45l-131 -10l-341 -570l464 -747l154 -10v-45h-625v45l174 10l-324 532h-2l-319 -532l150 -10v-45h-355v45l131 10l356 592l-444 725z" />
<glyph unicode="Y" horiz-adv-x="1219" d="M-37 1382v45h587v-45l-155 -10l337 -607h5l282 607l-141 10v45h333v-45l-124 -10l-312 -669v-648l154 -10v-45h-563v45l153 10v589l-421 728z" />
<glyph unicode="Z" horiz-adv-x="1187" d="M95 958l31 469h928v-53l-691 -1323l381 -6h4q58 1 106 27q49 28 81.5 71.5t57 110t38 131t23.5 145.5h45l-31 -530h-970v55l727 1323l-337 -6q-158 -3 -237 -102.5t-111 -311.5h-45z" />
<glyph unicode="[" horiz-adv-x="547" d="M152 -495l1 1957h353v-60l-159 -1v-1835l163 -1v-60h-358z" />
<glyph unicode="\" horiz-adv-x="850" d="M-58 1462h123l841 -1957h-122z" />
<glyph unicode="]" horiz-adv-x="547" d="M37 -435l163 1v1835l-159 1v60h353l1 -1957h-358v60z" />
<glyph unicode="^" horiz-adv-x="1299" d="M80 950l554 512h38l547 -512h-129l-441 404h-2l-440 -404h-127z" />
<glyph unicode="_" horiz-adv-x="1091" d="M66 -111h959v-86h-959v86z" />
<glyph unicode="`" horiz-adv-x="488" d="M85 1489q0 39 25.5 66t63.5 27q31 0 56 -19.5t34 -49.5l111 -318l-37 -26l-223 240q-30 31 -30 80z" />
<glyph unicode="a" horiz-adv-x="1005" d="M72 217q0 49 15.5 94.5t50.5 87.5t86 73t126.5 49.5t167.5 18.5q49 0 93 -4v138q0 66 -2.5 107t-12.5 84.5t-28.5 67t-52 39t-81.5 15.5q-146 0 -213 -115v-4q17 3 31 3q52 0 82 -32t30 -92q0 -52 -36 -87.5t-90 -35.5q-59 0 -93 40t-34 94q0 118 108.5 197t249.5 79 q100 0 170.5 -21t112.5 -55.5t65.5 -94t31 -121.5t7.5 -152v-539l103 -10v-41h-318l-28 158h-2q-49 -95 -118.5 -141.5t-168.5 -46.5q-122 0 -187 73t-65 174zM314 238q0 -80 30 -129.5t88 -49.5q68 0 123.5 85t55.5 208v138q-40 5 -65 5q-52 0 -92.5 -14t-64.5 -38 t-40 -50.5t-23 -58.5t-9.5 -53t-2.5 -43z" />
<glyph unicode="b" horiz-adv-x="1089" d="M24 1348v41l209 22l141 37l18 -29v-554h4q57 96 121.5 132.5t155.5 36.5q27 0 54 -5t61 -19.5t63.5 -37.5t58.5 -64t49.5 -94t33 -131.5t12.5 -172.5q0 -112 -24 -207.5t-71.5 -171t-125 -118.5t-177.5 -43q-56 0 -115 25.5t-100 82.5l-204 -88h-41v1358h-123zM392 215 q0 -71 49 -128t113 -57q39 0 70 18t51.5 45.5t34.5 71.5t21.5 82.5t11.5 94t5 91.5t1 87q0 167 -22.5 265.5t-58.5 133.5t-93 35q-73 0 -128 -80.5t-55 -178.5v-480z" />
<glyph unicode="c" horiz-adv-x="946" d="M81 496q0 74 17 148t54.5 144.5t91 125t132.5 87.5t172 33q139 0 230.5 -78t91.5 -186q0 -54 -34 -91.5t-93 -37.5q-55 0 -90 35t-35 88q0 50 32.5 86t83.5 36q7 0 25 -2v5q-12 20 -28.5 37.5t-56.5 37.5t-89 20q-88 0 -145 -66t-80 -170.5t-23 -247.5q0 -461 246 -461 q32 0 59.5 5.5t65 21.5t74.5 54t71 96l39 -23q-123 -223 -352 -223q-459 0 -459 526z" />
<glyph unicode="d" horiz-adv-x="1106" d="M82 477q0 87 16 167t51 151.5t86 124t125.5 83.5t164.5 31q38 0 89.5 -12.5t82.5 -38.5v365h-123v41l209 22l141 37l19 -29v-1368l102 -10v-41h-334l-13 142h-2q-58 -99 -121 -135.5t-151 -36.5q-23 0 -49 5t-60 19.5t-65.5 37t-62.5 62.5t-54 91t-37 126.5t-14 165.5z M338 487q0 -433 179 -433q71 0 125.5 85t54.5 182v613q-57 43 -127 43q-46 0 -82.5 -19t-60.5 -48t-41 -73.5t-26 -85.5t-14.5 -94t-6.5 -89t-1 -81z" />
<glyph unicode="e" horiz-adv-x="982" d="M81 502q0 78 15 152.5t49 143.5t83 121t121.5 83.5t160.5 31.5q83 0 149 -23.5t110 -65.5t73 -102.5t41.5 -131t12.5 -154.5l-27 -25h-532v-61q0 -436 248 -436q176 0 281 176l39 -24q-129 -217 -367 -217q-230 0 -343.5 142t-113.5 390zM337 577l323 13q3 51 3 98 q0 145 -34.5 223t-114.5 78q-48 0 -82.5 -31.5t-53.5 -90.5t-28.5 -128.5t-12.5 -161.5z" />
<glyph unicode="f" horiz-adv-x="680" d="M36 961v43h147q1 88 16 159t37 116.5t54.5 79t61.5 50t65 26t58 11.5t48 2q107 0 166 -47.5t59 -120.5q0 -49 -31.5 -84t-84.5 -35q-52 0 -82.5 35t-30.5 80q0 28 11.5 56.5t31.5 41.5v4q-3 10 -17.5 17.5t-33.5 7.5q-28 0 -45.5 -15t-25 -43t-9.5 -51t-2 -57v-233h241 v-43l-241 -10v-900l143 -10v-41h-491v41l102 10v900z" />
<glyph unicode="g" horiz-adv-x="1121" d="M66 -256q0 55 25.5 98t63.5 65.5t72.5 34t61.5 11.5v2q-186 56 -186 201q0 87 62.5 150t134.5 84v2q-91 42 -138 119.5t-47 173.5q0 149 119.5 249t294.5 100q166 0 276 -87q81 153 195 153q58 0 90.5 -33t32.5 -84q0 -45 -26.5 -75.5t-67.5 -30.5q-46 0 -74.5 25.5 t-28.5 70.5q0 31 11 49v4q-26 -5 -51.5 -36.5t-43.5 -76.5q91 -97 91 -226q0 -150 -115 -245t-291 -95q-98 0 -176 25q-60 -21 -94 -52.5t-34 -65.5q0 -92 332 -92q137 0 224 -14.5t143 -50t78.5 -92.5t22.5 -146q0 -48 -15.5 -96t-52 -95t-90.5 -83t-137.5 -58t-186.5 -22 q-62 0 -120.5 5t-125.5 21t-115.5 41t-81 69.5t-32.5 102.5zM244 -225q0 -62 29.5 -106.5t80 -67.5t105.5 -33.5t119 -10.5q154 0 244 60t90 156q0 62 -35 97t-100.5 46.5t-132.5 13.5l-160 3q-93 2 -154 12l-1 -1q-85 -61 -85 -169zM361 691q0 -145 41.5 -222t122.5 -77 q162 0 162 293q0 158 -37 231t-121 73q-81 0 -124.5 -78t-43.5 -220z" />
<glyph unicode="h" horiz-adv-x="1149" d="M41 1348v41l209 22l141 37l14 -29v-559h4q119 174 308 174q36 0 69 -6t73 -27t69 -55t49 -97t20 -147v-651l102 -10v-41h-450v41l102 10v680q0 213 -137 213q-90 0 -147.5 -82t-57.5 -215v-596l103 -10v-41h-451v41l103 10v1297h-123z" />
<glyph unicode="i" horiz-adv-x="586" d="M57 924v41l209 22l141 37l18 -29v-944l103 -10v-41h-451v41l103 10v873h-123zM166 1379q0 28 10.5 52t28.5 42t42 28t51 10t51 -10.5t42.5 -28.5t29 -42t10.5 -51t-10.5 -51t-28.5 -42.5t-42 -29t-52 -10.5t-52 10.5t-42 28.5t-28 42t-10 52z" />
<glyph unicode="j" horiz-adv-x="561" d="M-160 -333q0 25 9 47.5t25 40t38 27.5t48 10q27 0 48.5 -9.5t36.5 -25.5t22.5 -38t7.5 -46q0 -12 -3.5 -26t-10 -27t-16 -24.5t-21.5 -18.5v-4q14 -23 49 -23q17 0 34 7t31 28.5t22.5 62t8.5 107.5v1169h-123v41l209 22l142 37l18 -29v-1040q0 -111 -21.5 -187t-56 -126 t-76.5 -77.5t-83 -41t-75.5 -16t-54.5 -2.5q-57 0 -96.5 13t-64 35t-36 51.5t-11.5 62.5zM156 1379q0 28 10.5 52t28.5 42t42 28t51 10t51 -10.5t42.5 -28.5t29 -42t10.5 -51t-10.5 -51t-28.5 -42.5t-42 -29t-52 -10.5t-52 10.5t-42 28.5t-28 42t-10 52z" />
<glyph unicode="k" horiz-adv-x="1080" d="M41 1389l209 22l141 37l18 -29v-1368l103 -10v-41h-451v41l103 10v1299l-121 -2zM409 522v25l389 405l-112 11v41h299v-41l-113 -11l-287 -305l402 -596l104 -10v-41h-458v41l81 10z" />
<glyph unicode="l" horiz-adv-x="572" d="M41 1348v41l209 22l141 37l18 -29v-1368l103 -10v-41h-451v41l103 10v1297h-123z" />
<glyph unicode="m" horiz-adv-x="1700" d="M57 924v41l209 22l141 37l14 -29v-135h4q119 174 287 174q35 0 68 -7.5t69.5 -26t66.5 -58t47 -95.5h2q134 187 312 187q35 0 68 -6.5t71.5 -28.5t66.5 -57t47 -98.5t19 -147.5v-645l103 -10v-41h-451v41l102 10v680q0 59 -10.5 101.5t-24 63.5t-33.5 32.5t-32 13.5 t-27 2q-67 0 -130.5 -74t-63.5 -203v-616l103 -10v-41h-451v41l102 10v680q0 59 -10 101.5t-23.5 63.5t-33 32.5t-31.5 13.5t-27 2q-64 0 -125 -86t-61 -211v-596l103 -10v-41h-451v41l103 10v873h-123z" />
<glyph unicode="n" horiz-adv-x="1164" d="M56 965l209 22l141 37l18 -29l-4 -135h4q119 174 308 174q36 0 69 -6t73 -27t69 -55t49 -97t20 -147v-651l102 -10v-41h-450v41l102 10v680q0 213 -137 213q-90 0 -147.5 -82t-57.5 -215v-596l103 -10v-41h-451v41l103 10v875l-121 -2z" />
<glyph unicode="o" horiz-adv-x="1071" d="M80 496q0 151 58.5 274t164 193.5t238.5 70.5q110 0 198.5 -45.5t142 -121.5t82 -169.5t28.5 -195.5q0 -147 -56 -268t-160.5 -192.5t-236.5 -71.5q-117 0 -206.5 41.5t-144 115t-81.5 166.5t-27 203zM336 508q0 -111 11 -198.5t34 -155t62 -103.5t92 -36q201 0 201 481 q0 121 -9.5 208t-32 153.5t-62.5 99t-97 32.5q-53 0 -92 -36t-62 -102t-34 -151t-11 -192z" />
<glyph unicode="p" horiz-adv-x="1114" d="M46 924v41l209 22l141 37l14 -29v-130h4q57 97 120 133t151 36q23 0 49 -5t60.5 -19.5t66.5 -37.5t63.5 -64t54.5 -93.5t37.5 -130.5t14.5 -172q0 -113 -28 -209.5t-82 -171.5t-142 -118t-201 -43q-99 0 -164 51v-445l103 -10v-41h-451v41l103 10v1348h-123zM414 74 q57 -51 123 -51q48 0 85.5 19t62 47t42.5 73.5t27 86t14 96.5t6 93t1 88q0 162 -23 259.5t-60 133t-93 35.5q-78 0 -131.5 -82t-53.5 -184v-614z" />
<glyph unicode="q" horiz-adv-x="1100" d="M84 481q0 111 26 209.5t75 176t128 122.5t179 45q56 0 115.5 -26t99.5 -83l205 79h41v-1428l102 -10v-41h-450v41l102 10v566h-4q-57 -97 -121 -134.5t-151 -37.5q-24 0 -49.5 4t-60.5 17.5t-66.5 35.5t-63.5 61.5t-55 91.5t-37.5 129.5t-14.5 171.5zM340 471 q0 -123 16 -210.5t43 -130.5t56 -61t62 -18q74 0 132 83.5t58 183.5v473q-6 73 -52.5 128t-109.5 55q-41 0 -73.5 -19t-53.5 -47t-36.5 -73.5t-23.5 -86t-12 -96.5t-5 -93t-1 -88z" />
<glyph unicode="r" horiz-adv-x="868" d="M57 924v41l209 22l141 37l14 -29v-172h4q20 40 49 78t63.5 67.5t73.5 47.5t79 18q78 0 120.5 -41.5t42.5 -110.5q0 -29 -9 -53.5t-25.5 -42.5t-40 -28.5t-51.5 -10.5q-30 0 -54 10t-40.5 27t-25.5 39.5t-9 48.5q0 53 22 78v6q-36 -8 -70.5 -38t-62.5 -81.5t-45 -124 t-17 -163.5v-498l103 -10v-41h-451v41l103 10v873h-123z" />
<glyph unicode="s" horiz-adv-x="912" d="M87 212q0 28 9 54t25.5 46.5t40.5 32.5t55 12q27 0 48 -9.5t35.5 -25t22.5 -36.5t9 -45q0 -28 -10 -49.5t-26 -35.5t-36.5 -21.5t-40.5 -7.5h-8.5t-8.5 1v-2q9 -20 27 -39t45.5 -34t64 -24.5t80.5 -9.5q114 0 168.5 42t54.5 105q0 33 -10.5 58.5t-34 49t-62 48 t-95.5 55.5q-50 29 -106 60.5t-103.5 73t-79 96.5t-31.5 132q0 68 26 123t72.5 93.5t111 59.5t141.5 21q58 0 116.5 -14.5t105.5 -43.5t76 -72t29 -100q0 -22 -7.5 -43t-22.5 -38t-36.5 -27.5t-49.5 -10.5q-58 0 -87 32t-29 78q0 29 8 49.5t21.5 34t31 20t35.5 6.5h9v2 q-10 16 -29 30.5t-45 26t-58 18.5t-68 7q-53 0 -90 -14t-60.5 -35.5t-34.5 -47.5t-11 -50q0 -29 9 -50t31.5 -42.5t62 -46.5t99.5 -60q58 -30 122.5 -64t118.5 -78.5t89.5 -102t35.5 -134.5q0 -65 -24.5 -119t-76 -93t-131 -60.5t-188.5 -21.5q-52 0 -111 13t-109 41.5 t-83 74t-33 111.5z" />
<glyph unicode="t" horiz-adv-x="753" d="M5 961v43h170v221l86 9l141 37l19 -29v-238h219v-43l-219 -9v-704q0 -61 14.5 -101.5t38 -55.5t38 -19t30.5 -4q31 0 59.5 13.5t52 39.5t38.5 47.5t34 52.5l43 -26q-53 -88 -92 -128q-95 -97 -219 -97q-47 0 -83.5 6.5t-75.5 27.5t-65 56.5t-42.5 98t-16.5 146.5v647z " />
<glyph unicode="u" horiz-adv-x="1142" d="M35 924v41l209 22l141 37l19 -29v-722q0 -59 12.5 -101t28 -62.5t39 -32t36.5 -13t29 -1.5q70 0 128.5 88.5t58.5 217.5v555h-123v41l209 22l141 37l18 -29v-944l103 -10v-41h-314l-30 154h-4q-26 -38 -49 -64.5t-58 -57t-80.5 -46.5t-97.5 -16q-36 0 -70 6t-76.5 26.5 t-73 55t-52 97t-21.5 146.5v623h-123z" />
<glyph unicode="v" horiz-adv-x="963" d="M-12 963v41h473v-41l-108 -11l236 -630h4l216 630l-110 11v41h274v-41l-104 -11l-335 -962h-46l-401 962z" />
<glyph unicode="w" horiz-adv-x="1476" d="M-12 963v41h465v-41l-100 -11l205 -624h4l155 436l-71 188l-90 11v41h447v-41l-109 -11l212 -633h4l215 633l-115 11v41h276v-41l-104 -11l-329 -962h-45l-263 700l-242 -700h-46l-371 962z" />
<glyph unicode="x" horiz-adv-x="1034" d="M3 963v41h477v-41l-108 -11l205 -327l208 327l-111 11v41h281v-41l-105 -11l-241 -377l330 -524l98 -10v-41h-481v41l109 10l-211 337l-222 -337l111 -10v-41h-281v41l105 10l254 389l-320 512z" />
<glyph unicode="y" horiz-adv-x="965" d="M-12 963v41h473v-41l-108 -11l260 -652l196 652l-110 11v41h272v-41l-104 -11l-332 -1124q-35 -102 -72 -170t-74.5 -99.5t-69.5 -42.5t-71 -11q-75 0 -121.5 42t-46.5 106q0 59 35.5 99t89.5 40q58 0 87.5 -36t29.5 -89q0 -20 -12.5 -48t-32.5 -42v-4q35 1 66 24.5 t56 67.5t38 74t30 75l45 152l-425 986z" />
<glyph unicode="z" horiz-adv-x="961" d="M57 29l542 923l-243 9h-10q-43 0 -78 -16q-38 -19 -60.5 -48t-36.5 -70t-19 -78.5t-5 -78.5h-41v334h767l19 -29l-563 -923l285 -9h10q46 1 82 17q40 18 61.5 47t35.5 70.5t18 78t4 78.5h41v-334h-791z" />
<glyph unicode="{" horiz-adv-x="684" d="M-9 454v60h47q194 0 194 236q0 45 -5.5 143t-5.5 145q0 211 95.5 317.5t302.5 106.5h57v-54h-12q-133 0 -188.5 -72t-55.5 -215q0 -15 9.5 -125t9.5 -229t-82 -188.5t-218 -92.5v-4q136 -23 218 -92.5t82 -188.5t-9.5 -230t-9.5 -125q0 -143 55.5 -215t188.5 -72h12v-54 h-57q-206 0 -302 107t-96 318q0 47 5.5 145t5.5 143q0 236 -194 236h-47z" />
<glyph unicode="|" horiz-adv-x="426" d="M152 -495v1957h122v-1957h-122z" />
<glyph unicode="}" horiz-adv-x="685" d="M9 -441h12q133 0 188.5 72t55.5 215q0 15 -9.5 125t-9.5 229t82 188.5t218 92.5v4q-136 23 -218 92.5t-82 188.5t9.5 230t9.5 125q0 143 -55.5 215t-188.5 72h-12v54h57q206 0 302 -107t96 -318q0 -47 -5.5 -145t-5.5 -143q0 -236 194 -236h47v-60h-47q-194 0 -194 -236 q0 -45 5.5 -143t5.5 -145q0 -211 -95.5 -317.5t-302.5 -106.5h-57v54z" />
<glyph unicode="~" horiz-adv-x="1101" d="M94 449q18 62 42.5 117.5t60.5 98.5t86.5 68.5t119.5 27.5q56 0 100.5 -19.5t88.5 -43t93 -43t114 -19.5q108 0 155 123h57q-73 -322 -280 -322q-63 0 -123.5 20.5t-116 45t-106 45t-92.5 20.5q-32 0 -53 -6.5t-36.5 -21t-27.5 -37t-25 -54.5h-57z" />
<glyph unicode="&#xa1;" horiz-adv-x="538" d="M124 8q0 28 6 80.5t20 124t29.5 157.5t29.5 180t24 192t13 194h46q3 -96 12.5 -194t24 -192t30 -180t29.5 -157.5t20.5 -124t6.5 -80.5q0 -32 -10.5 -62.5t-30 -54t-47.5 -37.5t-62 -14t-60.5 14t-44.5 37.5t-27 53.5t-9 63zM131 1187q0 61 39 98t102 37q61 0 98 -37 t37 -98q0 -63 -37 -101.5t-98 -38.5q-63 0 -102 38.5t-39 101.5z" />
<glyph unicode="&#xa2;" horiz-adv-x="982" d="M100 496q0 69 15 138.5t48 136.5t79.5 121t115 91t150.5 47v132h82v-129q130 -7 214.5 -83.5t84.5 -179.5q0 -54 -34 -91.5t-93 -37.5q-55 0 -90 35t-35 88q0 50 32.5 86t83.5 36q7 0 25 -2v5q-12 20 -28.5 37.5t-56.5 37.5t-89 20q-10 0 -14 -1v-944h12q32 0 59.5 5.5 t65 21.5t74.5 54t71 96l39 -23q-114 -208 -321 -222v-166h-82v167q-408 29 -408 524zM356 500q0 -361 152 -440v899q-152 -87 -152 -459z" />
<glyph unicode="&#xa3;" horiz-adv-x="1117" d="M31 719v40h187v112q0 291 114.5 434t325.5 143q74 0 132.5 -16t99 -44t62 -66t21.5 -82q0 -25 -8 -47t-22.5 -38t-35.5 -25.5t-47 -9.5q-57 0 -86.5 27.5t-29.5 78.5q0 96 94 118v4q-53 57 -162 57q-212 0 -212 -448v-198h345v-40l-345 -13v-494q23 -3 76.5 -17 t138.5 -39q168 -49 253 -49q52 0 77 26t25 61q0 15 -5 33l-3 -2q-6 -20 -27.5 -33t-50.5 -13q-39 0 -63.5 26t-24.5 68t27 69.5t69 27.5q28 0 51.5 -13t40.5 -34.5t26 -50t9 -59.5q0 -41 -15.5 -84t-47.5 -78t-81.5 -58t-117.5 -23q-20 0 -50 3t-65.5 9t-73.5 15t-72 21 q-192 66 -283 66q-26 0 -51 -10t-48.5 -26t-43.5 -36.5t-35 -41.5l-47 37q73 109 166 147v552z" />
<glyph unicode="&#xa4;" horiz-adv-x="1166" d="M100 276l154 153q-95 116 -95 271q0 157 96 273l-155 155l56 56l155 -155q116 95 272 95q153 0 272 -95l155 155l56 -56l-156 -156q97 -115 97 -272q0 -155 -95 -271l154 -153l-56 -56l-153 153q-115 -97 -274 -97q-161 0 -274 97l-153 -153zM259 700q0 -72 23.5 -135 t66 -109.5t102 -73t132.5 -26.5t133 27t102.5 73.5t65.5 109.5t23 134t-23 134t-65.5 109.5t-102.5 73.5t-133 27q-145 0 -235 -99q-89 -100 -89 -245z" />
<glyph unicode="&#xa5;" horiz-adv-x="1206" d="M-34 1382v45h587v-45l-155 -10l337 -607h5l282 607l-141 10v45h333v-45l-124 -10l-296 -634h262v-108h-278v-142h278v-108h-278v-325l154 -10v-45h-564v45l154 10v325h-278v108h278v142h-278v108h223l-366 634z" />
<glyph unicode="&#xa6;" horiz-adv-x="458" d="M168 222h122v-717h-122v717zM168 745v717h122v-717h-122z" />
<glyph unicode="&#xa7;" horiz-adv-x="990" d="M84 577q0 70 23 149t79 139q-72 97 -72 244q0 46 11.5 92t41 94t73.5 84.5t115.5 59.5t159.5 23q79 0 142 -19.5t100.5 -48t62 -66t33.5 -70t9 -62.5q0 -62 -37 -105t-104 -43q-61 0 -98 37.5t-37 96.5q0 64 37.5 99.5t99.5 35.5v4q-24 36 -84.5 61.5t-136.5 25.5 q-116 0 -180 -53.5t-64 -151.5q0 -90 52 -147.5t196 -118.5q119 -50 191.5 -91.5t123.5 -93.5t71.5 -113.5t20.5 -147.5q0 -71 -23.5 -151t-83.5 -143q77 -104 77 -248q0 -46 -12 -91t-42 -91.5t-75.5 -81.5t-119 -57t-164.5 -22q-82 0 -147 19t-104 48t-65.5 66t-36 70 t-9.5 63q0 63 37.5 108.5t103.5 45.5q61 0 98 -37.5t37 -96.5q0 -64 -37.5 -99.5t-99.5 -35.5v-4q25 -36 88.5 -64.5t138.5 -28.5q120 0 192.5 49.5t72.5 145.5q0 89 -57 152t-201 124q-231 97 -314 188t-83 258zM182 706q0 -44 20.5 -84t67.5 -84.5t131.5 -92.5t205.5 -99 q103 -44 170 -114q38 52 38 130q0 88 -98.5 174t-336.5 186q-101 42 -165 108q-14 -18 -23.5 -57t-9.5 -67z" />
<glyph unicode="&#xa8;" horiz-adv-x="736" d="M80 1379q0 57 32 94.5t84 37.5q54 0 85.5 -38t31.5 -94q0 -58 -31.5 -95.5t-85.5 -37.5t-85 36.5t-31 96.5zM423 1379q0 57 32 94.5t84 37.5q53 0 85 -38.5t32 -93.5q0 -58 -31.5 -95.5t-85.5 -37.5t-85 36.5t-31 96.5z" />
<glyph unicode="&#xa9;" horiz-adv-x="1494" d="M81 560q0 92 22.5 177.5t65 159.5t102 135t133.5 104t160.5 67t181.5 24q140 0 262 -51.5t212 -141t141.5 -211.5t51.5 -263q0 -88 -22 -171.5t-63 -157.5t-100 -135.5t-133.5 -106t-162 -69.5t-186.5 -25q-140 0 -261 51t-211 140t-141.5 211t-51.5 263zM152 560 q0 -122 42 -233t119.5 -195t187.5 -133.5t245 -49.5q130 0 239.5 47t189 129.5t124 194t44.5 240.5q0 123 -42.5 234t-121 195t-188.5 134t-245 50q-128 0 -236.5 -47t-188 -129.5t-124.5 -194.5t-45 -242zM387 561q0 52 10.5 107t31.5 107t53.5 98.5t77 81t101.5 54.5 t127 20q60 0 111.5 -18.5t89 -49.5t59 -73t21.5 -88q0 -24 -7.5 -44.5t-22 -36t-35 -24.5t-46.5 -9q-48 0 -77.5 30t-29.5 78q0 43 26.5 74.5t71.5 31.5h12t12 -2v5q-15 22 -55.5 42.5t-95.5 20.5q-212 0 -212 -401q0 -382 227 -382q28 0 58.5 7.5t60.5 24t59 43t53 63.5 l37 -25q-109 -193 -306 -193q-105 0 -182.5 31.5t-128.5 90.5t-76 144t-25 192z" />
<glyph unicode="&#xaa;" horiz-adv-x="819" d="M86 867q0 97 82 167.5t242 70.5q32 0 68 -3v94q0 39 -1 61t-4.5 50t-11.5 43.5t-21 30.5t-34.5 21t-50.5 6q-107 0 -146 -74v-3q14 2 20 2q33 0 54.5 -22t21.5 -58q0 -39 -24.5 -64.5t-66.5 -25.5t-67 29.5t-25 68.5q0 88 76.5 144.5t186.5 56.5q73 0 124 -15.5t81 -40.5 t46.5 -68.5t21.5 -88t5 -110.5v-392l75 -8v-30h-238l-19 118h-2q-70 -139 -210 -139q-89 0 -136 53t-47 126zM262 883q0 -55 21 -80.5t65 -25.5q49 0 89.5 60t40.5 148v67q-25 4 -51 4q-44 0 -76 -14t-48.5 -32.5t-26.5 -45t-12 -44.5t-2 -37z" />
<glyph unicode="&#xab;" horiz-adv-x="901" d="M80 479v37l357 323l36 -37l-222 -304v-1l222 -304l-36 -37zM420 479v37l357 353l36 -37l-222 -334v-1l222 -334l-36 -37z" />
<glyph unicode="&#xac;" horiz-adv-x="1146" d="M117 592v110h912v-352h-110v242h-802z" />
<glyph unicode="&#xad;" horiz-adv-x="746" d="M117 592v110h512v-110h-512z" />
<glyph unicode="&#xae;" horiz-adv-x="1016" d="M69 997q0 92 33.5 172.5t93 140t139.5 93.5t173 34t173.5 -34.5t139.5 -94t93 -140t34 -171.5t-33.5 -171t-93 -139.5t-140 -94t-173.5 -34.5t-173 34.5t-139.5 93.5t-93 139t-33.5 172zM139 997q0 -81 24.5 -152t72 -124t116 -83.5t156.5 -30.5q87 0 155.5 30.5 t116.5 83.5t73.5 124t25.5 152q0 80 -25.5 150.5t-73.5 123.5t-117 84t-155 31t-154.5 -30.5t-116 -83t-73 -123.5t-25.5 -152zM292 747v29l46 5v473l-46 4v30h207q45 0 83 -8t65 -24.5t42.5 -42t15.5 -59.5q0 -120 -165 -142v-2q43 -4 69.5 -19.5t45 -40.5t33.5 -58.5 t36 -73.5q13 -25 23 -33t25 -8v-30h-64q-26 0 -44 4t-33 17.5t-29 38t-30 65.5q-53 129 -95 129h-24v-220l49 -5v-29h-210zM453 1028h15q66 0 94.5 32t28.5 93q0 58 -27 81t-75 23q-21 0 -36 -3v-226z" />
<glyph unicode="&#xaf;" horiz-adv-x="959" d="M0 1341v86h959v-86h-959z" />
<glyph unicode="&#xb0;" horiz-adv-x="788" d="M73 1140q0 67 25 126t68 102.5t101.5 68.5t126.5 25q67 0 126 -25t102 -68.5t68 -102.5t25 -126q0 -66 -24.5 -124.5t-67.5 -102t-102 -68.5t-127 -25q-69 0 -127.5 25t-101.5 68.5t-67.5 102t-24.5 124.5zM181 1140q0 -48 15 -91t43 -74.5t67.5 -50t87.5 -18.5 t87.5 18.5t67.5 50t43.5 74.5t15.5 91q0 49 -15.5 92t-44 75t-67.5 50.5t-87 18.5t-87.5 -18.5t-67 -50.5t-43 -75t-15.5 -92z" />
<glyph unicode="&#xb1;" horiz-adv-x="1146" d="M117 0v110h912v-110h-912zM117 592v110h401v328h110v-328h401v-110h-401v-328h-110v328h-401z" />
<glyph unicode="&#xb2;" horiz-adv-x="716" d="M103 1279q0 34 16 66.5t46 58.5t74 42t101 16q61 0 107 -15.5t77 -42t46 -62.5t15 -76q0 -109 -96.5 -212t-282.5 -209v-2l218 4q45 1 74.5 4.5t47.5 13.5t26 28t10 48h23l-5 -231h-480v114q90 54 146 105t87 106t42 115.5t11 132.5q0 141 -108 141q-50 0 -84 -22.5 t-42 -51.5v-2q7 4 23 4q42 0 62.5 -23t20.5 -62t-24 -63.5t-63 -24.5q-42 0 -65 27.5t-23 72.5z" />
<glyph unicode="&#xb3;" horiz-adv-x="689" d="M95 855q0 49 23 77t65 28q39 0 63 -24.5t24 -61.5q0 -43 -27 -67.5t-76 -18.5v-3q33 -52 121 -52q69 0 107.5 40.5t38.5 116.5q0 99 -36 147t-122 48h-30v31h29q42 0 70.5 12.5t42.5 37t19 52t5 65.5q0 142 -112 142q-51 0 -86.5 -22.5t-43.5 -49.5v-2q47 6 73 -17 t26 -65q0 -35 -22 -57.5t-59 -22.5q-41 0 -64 26t-23 72q0 65 60.5 120t166.5 55q111 0 175.5 -45t64.5 -132q0 -68 -51.5 -115.5t-150.5 -65.5v-2q103 -8 170.5 -54.5t67.5 -143.5q0 -103 -73 -155t-206 -52q-107 0 -168.5 45t-61.5 113z" />
<glyph unicode="&#xb4;" horiz-adv-x="488" d="M121 1182l111 318q9 30 34 49.5t56 19.5q38 0 64 -27t26 -66q0 -48 -31 -80l-223 -240z" />
<glyph unicode="&#xb5;" horiz-adv-x="1127" d="M147 -119v1123h246v-702q0 -213 137 -213q68 0 127 62.5t78 144.5v708h245v-1004h-227l-18 29l4 144h-4q-119 -174 -308 -174q-58 0 -104 16v-213q0 -121 33.5 -167t103.5 -46v-40h-103q-111 0 -160.5 78t-49.5 254z" />
<glyph unicode="&#xb6;" horiz-adv-x="1135" d="M34 1005q0 105 38.5 186.5t106.5 132.5t156 77t191 26h192v-1372h118v1372h253v-45l-154 -10v-1317l154 -10v-45h-624v45l154 10v514h-25q-132 0 -231.5 22.5t-175 72t-114.5 135.5t-39 206zM300 1014q0 -216 68.5 -303t219.5 -87h31v738q-36 4 -66 4 q-110 0 -181.5 -83.5t-71.5 -268.5z" />
<glyph unicode="&#xb7;" horiz-adv-x="484" d="M104 700q0 63 38.5 101.5t99.5 38.5q63 0 100.5 -38.5t37.5 -101.5q0 -61 -37.5 -98t-100.5 -37q-61 0 -99.5 37.5t-38.5 97.5z" />
<glyph unicode="&#xb8;" horiz-adv-x="564" d="M80 -461q102 18 169 74.5t67 117.5q0 32 -18.5 51.5t-46.5 19.5q-50 0 -93 -30l-29 34l59 210h68l-56 -171q63 39 147 39q63 0 100 -36t37 -99q0 -59 -40.5 -107.5t-104.5 -79.5t-125.5 -49t-121.5 -27z" />
<glyph unicode="&#xb9;" horiz-adv-x="571" d="M83 1377v41l199 22l91 37l18 -29v-687l103 -10v-41h-391v41l103 10v616h-123z" />
<glyph unicode="&#xba;" horiz-adv-x="877" d="M72 1074q0 97 42 184t129 145.5t202 58.5q88 0 158.5 -32.5t113.5 -86t65.5 -118t22.5 -133.5q0 -159 -105.5 -276t-255.5 -117q-114 0 -200.5 53t-129 137.5t-42.5 184.5zM274 1107q0 -40 0.5 -67.5t4 -67.5t9.5 -67.5t18 -58t29 -49t42.5 -31t58.5 -12.5q164 0 164 306 q0 48 -1.5 80.5t-6 77.5t-15 74.5t-27.5 58t-45 42.5t-65 14q-52 0 -88 -31t-51.5 -82.5t-21 -95t-5.5 -91.5z" />
<glyph unicode="&#xbb;" horiz-adv-x="901" d="M87 163l222 334v1l-222 334l36 37l357 -353v-37l-357 -353zM427 193l222 304v1l-222 304l36 37l357 -323v-37l-357 -323z" />
<glyph unicode="&#xbc;" horiz-adv-x="1197" d="M38 1377v41l199 22l91 37l18 -29v-687l103 -10v-41h-391v41l103 10v616h-123zM205 0l779 1462h63l-779 -1462h-63zM582 162v49l383 554h87v-550l104 1v-54h-104v-100l103 -10v-41h-391v41l103 10v100h-285zM633 210l234 1v326h-2l-232 -325v-2z" />
<glyph unicode="&#xbd;" horiz-adv-x="1277" d="M38 1377v41l199 22l91 37l18 -29v-687l103 -10v-41h-391v41l103 10v616h-123zM205 0l779 1462h63l-779 -1462h-63zM722 570q0 34 16 66.5t46 58.5t74 42t101 16q61 0 107 -15.5t77 -42t46 -62.5t15 -76q0 -109 -96.5 -212t-282.5 -209v-2l218 4q45 1 74.5 4.5t47.5 13.5 t26 28t10 48h23l-5 -231h-480v114q90 54 146 105t87 106t42 115.5t11 132.5q0 141 -108 141q-50 0 -84 -22.5t-42 -51.5v-2q7 4 23 4q42 0 62.5 -23t20.5 -62t-24 -63.5t-63 -24.5q-42 0 -65 27.5t-23 72.5z" />
<glyph unicode="&#xbe;" horiz-adv-x="1273" d="M52 855q0 49 23 77t65 28q39 0 63 -24.5t24 -61.5q0 -43 -27 -67.5t-76 -18.5v-3q33 -52 121 -52q69 0 107.5 40.5t38.5 116.5q0 99 -36 147t-122 48h-30v31h29q42 0 70.5 12.5t42.5 37t19 52t5 65.5q0 142 -112 142q-51 0 -86.5 -22.5t-43.5 -49.5v-2q47 6 73 -17 t26 -65q0 -35 -22 -57.5t-59 -22.5q-41 0 -64 26t-23 72q0 65 60.5 120t166.5 55q111 0 175.5 -45t64.5 -132q0 -68 -51.5 -115.5t-150.5 -65.5v-2q103 -8 170.5 -54.5t67.5 -143.5q0 -103 -73 -155t-206 -52q-107 0 -168.5 45t-61.5 113zM257 0l779 1462h63l-779 -1462h-63 zM257 0l779 1462h63l-779 -1462h-63zM664 152v49l383 554h87v-550l104 1v-54h-104v-100l103 -10v-41h-391v41l103 10v100h-285zM715 200l234 1v326h-2l-232 -325v-2z" />
<glyph unicode="&#xbf;" horiz-adv-x="847" d="M34 204q0 58 21.5 114.5t56 104.5t160.5 177q42 42 76.5 83t56 86.5t21.5 90.5q0 31 -10 61h54q20 -44 20 -92q0 -51 -23.5 -111t-56.5 -118q-99 -171 -123 -252.5t-24 -156.5q0 -134 58 -201t164 -67q84 0 149 43t76 85v6h-14q-128 0 -128 122q0 55 35.5 91t94.5 36 q60 0 95.5 -40t35.5 -97q0 -50 -22.5 -100.5t-68.5 -97.5t-129.5 -76.5t-191.5 -29.5q-93 0 -167.5 27.5t-120.5 75t-70.5 108t-24.5 128.5zM306 1242q0 54 34 87t90 33q54 0 88.5 -33t34.5 -87q0 -57 -34.5 -91.5t-88.5 -34.5q-56 0 -90 34.5t-34 91.5z" />
<glyph unicode="&#xc0;" horiz-adv-x="1237" d="M-6 0v45l121 10l473 1413h45l489 -1413l132 -10v-45h-535v45l135 10l-118 359h-448l-116 -359l135 -10v-45h-313zM286 1720q0 41 28 63t63 22q32 0 74 -33l242 -191l-15 -38l-301 80q-38 8 -64.5 33t-26.5 64zM306 474l408 8l-200 614h-4z" />
<glyph unicode="&#xc1;" horiz-adv-x="1237" d="M-6 0v45l121 10l473 1413h45l489 -1413l132 -10v-45h-535v45l135 10l-118 359h-448l-116 -359l135 -10v-45h-313zM306 474l408 8l-200 614h-4zM497 1574l242 191q44 35 78 35q33 0 59.5 -22.5t26.5 -64.5q0 -35 -27 -62t-63 -35l-301 -80z" />
<glyph unicode="&#xc2;" horiz-adv-x="1237" d="M-6 0v45l121 10l473 1413h45l489 -1413l132 -10v-45h-535v45l135 10l-118 359h-448l-116 -359l135 -10v-45h-313zM306 474l408 8l-200 614h-4zM320 1576l297 279h4l295 -275l-62 -47l-241 161h-4l-234 -164z" />
<glyph unicode="&#xc3;" horiz-adv-x="1237" d="M-6 0v45l121 10l473 1413h45l489 -1413l132 -10v-45h-535v45l135 10l-118 359h-448l-116 -359l135 -10v-45h-313zM289 1627q11 39 30.5 75t47.5 63.5t63 44t77 16.5q46 0 74.5 -13t51.5 -29t47 -29t62 -13q93 0 155 92l39 -13q-10 -54 -30 -95.5t-47 -69t-60 -42 t-69 -14.5q-46 0 -76.5 14t-55.5 31.5t-50 31.5t-61 14q-97 0 -162 -80zM306 474l408 8l-200 614h-4z" />
<glyph unicode="&#xc4;" horiz-adv-x="1237" d="M-6 0v45l121 10l473 1413h45l489 -1413l132 -10v-45h-535v45l135 10l-118 359h-448l-116 -359l135 -10v-45h-313zM305 1708q0 28 9 52.5t25 42.5t38.5 28.5t49.5 10.5t50 -10.5t39 -28.5t25 -42.5t9 -52.5q0 -29 -9 -53.5t-25 -42.5t-39 -28.5t-50 -10.5 q-55 0 -88.5 38.5t-33.5 96.5zM306 474l408 8l-200 614h-4zM665 1708q0 28 9 52.5t25 42.5t38.5 28.5t49.5 10.5t50 -10.5t39 -28.5t25 -42.5t9 -52.5q0 -29 -9 -53.5t-25 -42.5t-39 -28.5t-50 -10.5q-55 0 -88.5 38.5t-33.5 96.5z" />
<glyph unicode="&#xc5;" horiz-adv-x="1237" d="M-6 0v45l121 10l473 1413h45l489 -1413l132 -10v-45h-535v45l135 10l-118 359h-448l-116 -359l135 -10v-45h-313zM306 474l408 8l-200 614h-4zM362 1693q0 88 65.5 135t180.5 47q121 0 185.5 -46t64.5 -136t-64.5 -134t-185.5 -44q-246 0 -246 178zM501 1693 q0 -122 107 -122q110 0 110 122q0 126 -110 126q-107 0 -107 -126z" />
<glyph unicode="&#xc6;" horiz-adv-x="1854" d="M-34 0v45l121 10l549 965q102 180 102 257q0 53 -40.5 79t-133.5 26v45h1150v-407h-55q-7 66 -18.5 115t-34.5 96t-56.5 76.5t-86 47t-121.5 17.5q-85 0 -213 -10v-594q30 -3 109 -3q105 0 150 51.5t45 187.5h55v-537h-55q0 136 -45.5 189.5t-149.5 53.5q-77 0 -109 -3 v-642q128 -10 254 -10q86 0 147.5 25.5t98 75.5t56 110t28.5 142h32v-408h-1026v45l154 10v359h-519l-204 -359l135 -10v-45h-319zM379 468h494v860z" />
<glyph unicode="&#xc7;" horiz-adv-x="1253" d="M98 688q0 111 24 219t76.5 209t128.5 177.5t188 122.5t246 46q156 0 275 -85.5t119 -202.5q0 -59 -37.5 -101t-102.5 -42q-62 0 -101 38.5t-39 97.5q0 58 37 97.5t92 39.5q11 0 16 -1v4q-15 28 -81 63t-159 35q-182 0 -299 -189t-117 -499q0 -133 23 -251.5t68.5 -215.5 t122.5 -154.5t176 -57.5q142 0 247.5 84.5t163.5 216.5l47 -22q-143 -352 -481 -352q-77 0 -145 12l-48 -148q65 35 156 35q64 0 104.5 -36.5t40.5 -98.5q0 -47 -28.5 -91.5t-72.5 -76.5t-98.5 -58t-106 -41.5t-95.5 -21.5l-8 50q105 15 169 84.5t64 136.5q0 73 -65 73 q-50 0 -93 -30l-34 28l52 208q-27 7 -52 16q-113 41 -182.5 108.5t-113.5 163.5t-60.5 195t-16.5 215z" />
<glyph unicode="&#xc8;" horiz-adv-x="1210" d="M73 0v45l154 10v1317l-154 10v45h985l10 -407h-42q-12 68 -25.5 115.5t-38.5 95.5t-58.5 76.5t-86 46.5t-121.5 18q-85 0 -213 -10v-594q30 -3 109 -3q105 0 150 51.5t45 187.5h55v-537h-55q0 136 -45.5 189.5t-149.5 53.5q-77 0 -109 -3v-642q128 -10 254 -10 q59 0 104 9.5t78 31.5t56 49.5t40.5 70.5t28.5 86t23 106h43l-11 -408h-1026zM387 1720q0 41 28 63t63 22q32 0 74 -33l242 -191l-15 -38l-301 80q-38 8 -64.5 33t-26.5 64z" />
<glyph unicode="&#xc9;" horiz-adv-x="1210" d="M73 0v45l154 10v1317l-154 10v45h985l10 -407h-42q-12 68 -25.5 115.5t-38.5 95.5t-58.5 76.5t-86 46.5t-121.5 18q-85 0 -213 -10v-594q30 -3 109 -3q105 0 150 51.5t45 187.5h55v-537h-55q0 136 -45.5 189.5t-149.5 53.5q-77 0 -109 -3v-642q128 -10 254 -10 q59 0 104 9.5t78 31.5t56 49.5t40.5 70.5t28.5 86t23 106h43l-11 -408h-1026zM558 1574l242 191q44 35 78 35q33 0 59.5 -22.5t26.5 -64.5q0 -35 -27 -62t-63 -35l-301 -80z" />
<glyph unicode="&#xca;" horiz-adv-x="1210" d="M73 0v45l154 10v1317l-154 10v45h985l10 -407h-42q-12 68 -25.5 115.5t-38.5 95.5t-58.5 76.5t-86 46.5t-121.5 18q-85 0 -213 -10v-594q30 -3 109 -3q105 0 150 51.5t45 187.5h55v-537h-55q0 136 -45.5 189.5t-149.5 53.5q-77 0 -109 -3v-642q128 -10 254 -10 q59 0 104 9.5t78 31.5t56 49.5t40.5 70.5t28.5 86t23 106h43l-11 -408h-1026zM361 1576l297 279h4l295 -275l-62 -47l-241 161h-4l-234 -164z" />
<glyph unicode="&#xcb;" horiz-adv-x="1210" d="M73 0v45l154 10v1317l-154 10v45h985l10 -407h-42q-12 68 -25.5 115.5t-38.5 95.5t-58.5 76.5t-86 46.5t-121.5 18q-85 0 -213 -10v-594q30 -3 109 -3q105 0 150 51.5t45 187.5h55v-537h-55q0 136 -45.5 189.5t-149.5 53.5q-77 0 -109 -3v-642q128 -10 254 -10 q59 0 104 9.5t78 31.5t56 49.5t40.5 70.5t28.5 86t23 106h43l-11 -408h-1026zM326 1708q0 28 9 52.5t25 42.5t38.5 28.5t49.5 10.5t50 -10.5t39 -28.5t25 -42.5t9 -52.5q0 -29 -9 -53.5t-25 -42.5t-39 -28.5t-50 -10.5q-55 0 -88.5 38.5t-33.5 96.5zM686 1708q0 28 9 52.5 t25 42.5t38.5 28.5t49.5 10.5t50 -10.5t39 -28.5t25 -42.5t9 -52.5q0 -29 -9 -53.5t-25 -42.5t-39 -28.5t-50 -10.5q-55 0 -88.5 38.5t-33.5 96.5z" />
<glyph unicode="&#xcc;" horiz-adv-x="710" d="M57 1720q0 41 28 63t63 22q32 0 74 -33l242 -191l-15 -38l-301 80q-38 8 -64.5 33t-26.5 64zM73 0v45l154 10v1317l-154 10v45h564v-45l-154 -10v-1317l154 -10v-45h-564z" />
<glyph unicode="&#xcd;" horiz-adv-x="710" d="M73 0v45l154 10v1317l-154 10v45h564v-45l-154 -10v-1317l154 -10v-45h-564zM227 1574l242 191q44 35 78 35q33 0 59.5 -22.5t26.5 -64.5q0 -35 -27 -62t-63 -35l-301 -80z" />
<glyph unicode="&#xce;" horiz-adv-x="710" d="M61 1576l297 279h4l295 -275l-62 -47l-241 161h-4l-234 -164zM73 0v45l154 10v1317l-154 10v45h564v-45l-154 -10v-1317l154 -10v-45h-564z" />
<glyph unicode="&#xcf;" horiz-adv-x="710" d="M46 1708q0 28 9 52.5t25 42.5t38.5 28.5t49.5 10.5t50 -10.5t39 -28.5t25 -42.5t9 -52.5q0 -29 -9 -53.5t-25 -42.5t-39 -28.5t-50 -10.5q-55 0 -88.5 38.5t-33.5 96.5zM73 0v45l154 10v1317l-154 10v45h564v-45l-154 -10v-1317l154 -10v-45h-564zM406 1708q0 28 9 52.5 t25 42.5t38.5 28.5t49.5 10.5t50 -10.5t39 -28.5t25 -42.5t9 -52.5q0 -29 -9 -53.5t-25 -42.5t-39 -28.5t-50 -10.5q-55 0 -88.5 38.5t-33.5 96.5z" />
<glyph unicode="&#xd0;" horiz-adv-x="1418" d="M48 692v63h179v617l-154 10v45h504q203 0 348 -51t229.5 -148t123 -225t38.5 -296q0 -121 -25 -225.5t-79.5 -194t-136 -153t-200 -99t-265.5 -35.5h-537v45l154 10v637h-179zM483 65q54 -10 98 -10q102 0 181.5 33t133 91.5t88.5 143t50.5 183.5t15.5 217q0 116 -11 207 t-41.5 177t-80.5 142t-132 89.5t-192 33.5q-56 0 -110 -10v-600h207v-70h-207v-627z" />
<glyph unicode="&#xd1;" horiz-adv-x="1414" d="M69 1382v45h214l858 -1040h2l-14 985l-153 10v45h370v-45l-154 -10l11 -1392h-61l-858 1043h-2l14 -968l153 -10v-45h-370v45l154 10l-11 1317zM381 1627q11 39 30.5 75t47.5 63.5t63 44t77 16.5q46 0 74.5 -13t51.5 -29t47 -29t62 -13q93 0 155 92l39 -13 q-10 -54 -30 -95.5t-47 -69t-60 -42t-69 -14.5q-46 0 -76.5 14t-55.5 31.5t-50 31.5t-61 14q-97 0 -162 -80z" />
<glyph unicode="&#xd2;" d="M96 709q0 206 74 376t217.5 273.5t330.5 103.5q282 0 454.5 -199t172.5 -522q0 -118 -23.5 -229t-73.5 -210.5t-121.5 -174t-175.5 -118.5t-227 -44q-293 0 -460.5 204t-167.5 540zM364 731q0 -197 39 -355.5t120.5 -257t194.5 -98.5q168 0 263.5 195t95.5 518 q0 336 -93.5 505t-259.5 169q-58 0 -110.5 -24t-98.5 -77t-79 -130.5t-52.5 -191.5t-19.5 -253zM432 1720q0 41 28 63t63 22q32 0 74 -33l242 -191l-15 -38l-301 80q-38 8 -64.5 33t-26.5 64z" />
<glyph unicode="&#xd3;" d="M96 709q0 206 74 376t217.5 273.5t330.5 103.5q282 0 454.5 -199t172.5 -522q0 -118 -23.5 -229t-73.5 -210.5t-121.5 -174t-175.5 -118.5t-227 -44q-293 0 -460.5 204t-167.5 540zM364 731q0 -197 39 -355.5t120.5 -257t194.5 -98.5q168 0 263.5 195t95.5 518 q0 336 -93.5 505t-259.5 169q-58 0 -110.5 -24t-98.5 -77t-79 -130.5t-52.5 -191.5t-19.5 -253zM603 1574l242 191q44 35 78 35q33 0 59.5 -22.5t26.5 -64.5q0 -35 -27 -62t-63 -35l-301 -80z" />
<glyph unicode="&#xd4;" d="M96 709q0 206 74 376t217.5 273.5t330.5 103.5q282 0 454.5 -199t172.5 -522q0 -118 -23.5 -229t-73.5 -210.5t-121.5 -174t-175.5 -118.5t-227 -44q-293 0 -460.5 204t-167.5 540zM364 731q0 -197 39 -355.5t120.5 -257t194.5 -98.5q168 0 263.5 195t95.5 518 q0 336 -93.5 505t-259.5 169q-58 0 -110.5 -24t-98.5 -77t-79 -130.5t-52.5 -191.5t-19.5 -253zM426 1576l297 279h4l295 -275l-62 -47l-241 161h-4l-234 -164z" />
<glyph unicode="&#xd5;" d="M96 709q0 206 74 376t217.5 273.5t330.5 103.5q282 0 454.5 -199t172.5 -522q0 -118 -23.5 -229t-73.5 -210.5t-121.5 -174t-175.5 -118.5t-227 -44q-293 0 -460.5 204t-167.5 540zM364 731q0 -197 39 -355.5t120.5 -257t194.5 -98.5q168 0 263.5 195t95.5 518 q0 336 -93.5 505t-259.5 169q-58 0 -110.5 -24t-98.5 -77t-79 -130.5t-52.5 -191.5t-19.5 -253zM395 1627q11 39 30.5 75t47.5 63.5t63 44t77 16.5q46 0 74.5 -13t51.5 -29t47 -29t62 -13q93 0 155 92l39 -13q-10 -54 -30 -95.5t-47 -69t-60 -42t-69 -14.5q-46 0 -76.5 14 t-55.5 31.5t-50 31.5t-61 14q-97 0 -162 -80z" />
<glyph unicode="&#xd6;" d="M96 709q0 206 74 376t217.5 273.5t330.5 103.5q282 0 454.5 -199t172.5 -522q0 -118 -23.5 -229t-73.5 -210.5t-121.5 -174t-175.5 -118.5t-227 -44q-293 0 -460.5 204t-167.5 540zM364 731q0 -197 39 -355.5t120.5 -257t194.5 -98.5q168 0 263.5 195t95.5 518 q0 336 -93.5 505t-259.5 169q-58 0 -110.5 -24t-98.5 -77t-79 -130.5t-52.5 -191.5t-19.5 -253zM411 1708q0 28 9 52.5t25 42.5t38.5 28.5t49.5 10.5t50 -10.5t39 -28.5t25 -42.5t9 -52.5q0 -29 -9 -53.5t-25 -42.5t-39 -28.5t-50 -10.5q-55 0 -88.5 38.5t-33.5 96.5z M771 1708q0 28 9 52.5t25 42.5t38.5 28.5t49.5 10.5t50 -10.5t39 -28.5t25 -42.5t9 -52.5q0 -29 -9 -53.5t-25 -42.5t-39 -28.5t-50 -10.5q-55 0 -88.5 38.5t-33.5 96.5z" />
<glyph unicode="&#xd7;" horiz-adv-x="1146" d="M117 302l376 345l-376 355l73 79l384 -360l390 359l65 -78l-379 -352l379 -355l-75 -83l-385 363l-378 -351z" />
<glyph unicode="&#xd8;" d="M96 -57l169 223q-169 200 -169 543q0 99 18.5 193t54.5 177.5t89 154t122 121t153.5 79t182.5 28.5q256 0 424 -168l117 154h123l-175 -231q136 -191 136 -476q0 -93 -15.5 -186t-48.5 -179.5t-83 -161.5t-118.5 -130t-157 -87t-196.5 -32q-230 0 -387 131l-116 -153 h-123zM347 731q0 -235 51 -403l633 836q-89 243 -309 243q-73 0 -141 -33t-120 -111.5t-83 -208.5t-31 -323zM439 221q97 -201 277 -201q90 0 159.5 48.5t117 140t72.5 224t25 300.5q0 90 -6.5 167.5t-19.5 143.5z" />
<glyph unicode="&#xd9;" horiz-adv-x="1431" d="M49 1382v45h564v-45l-155 -10v-934q0 -41 2 -73t9.5 -76.5t21.5 -77.5t40 -68t62 -57.5t90.5 -37t122.5 -14.5q82 0 145.5 25.5t103 66.5t65 100t35.5 120t10 132v894l-153 10v45h370v-45l-153 -10v-916q0 -72 -11.5 -136.5t-42.5 -131.5t-80 -114.5t-131.5 -78 t-189.5 -30.5q-111 0 -198.5 16t-147 42t-102 67t-66.5 82t-37.5 97.5t-17 102.5t-3.5 107v893zM504 1720q0 41 28 63t63 22q32 0 74 -33l242 -191l-15 -38l-301 80q-38 8 -64.5 33t-26.5 64z" />
<glyph unicode="&#xda;" horiz-adv-x="1431" d="M49 1382v45h564v-45l-155 -10v-934q0 -41 2 -73t9.5 -76.5t21.5 -77.5t40 -68t62 -57.5t90.5 -37t122.5 -14.5q82 0 145.5 25.5t103 66.5t65 100t35.5 120t10 132v894l-153 10v45h370v-45l-153 -10v-916q0 -72 -11.5 -136.5t-42.5 -131.5t-80 -114.5t-131.5 -78 t-189.5 -30.5q-111 0 -198.5 16t-147 42t-102 67t-66.5 82t-37.5 97.5t-17 102.5t-3.5 107v893zM675 1574l242 191q44 35 78 35q33 0 59.5 -22.5t26.5 -64.5q0 -35 -27 -62t-63 -35l-301 -80z" />
<glyph unicode="&#xdb;" horiz-adv-x="1431" d="M49 1382v45h564v-45l-155 -10v-934q0 -41 2 -73t9.5 -76.5t21.5 -77.5t40 -68t62 -57.5t90.5 -37t122.5 -14.5q82 0 145.5 25.5t103 66.5t65 100t35.5 120t10 132v894l-153 10v45h370v-45l-153 -10v-916q0 -72 -11.5 -136.5t-42.5 -131.5t-80 -114.5t-131.5 -78 t-189.5 -30.5q-111 0 -198.5 16t-147 42t-102 67t-66.5 82t-37.5 97.5t-17 102.5t-3.5 107v893zM508 1576l297 279h4l295 -275l-62 -47l-241 161h-4l-234 -164z" />
<glyph unicode="&#xdc;" horiz-adv-x="1431" d="M49 1382v45h564v-45l-155 -10v-934q0 -41 2 -73t9.5 -76.5t21.5 -77.5t40 -68t62 -57.5t90.5 -37t122.5 -14.5q82 0 145.5 25.5t103 66.5t65 100t35.5 120t10 132v894l-153 10v45h370v-45l-153 -10v-916q0 -72 -11.5 -136.5t-42.5 -131.5t-80 -114.5t-131.5 -78 t-189.5 -30.5q-111 0 -198.5 16t-147 42t-102 67t-66.5 82t-37.5 97.5t-17 102.5t-3.5 107v893zM493 1707q0 28 9 52.5t25 42.5t38.5 28.5t49.5 10.5t50 -10.5t39 -28.5t25 -42.5t9 -52.5q0 -29 -9 -53.5t-25 -42.5t-39 -28.5t-50 -10.5q-55 0 -88.5 38.5t-33.5 96.5z M853 1707q0 28 9 52.5t25 42.5t38.5 28.5t49.5 10.5t50 -10.5t39 -28.5t25 -42.5t9 -52.5q0 -29 -9 -53.5t-25 -42.5t-39 -28.5t-50 -10.5q-55 0 -88.5 38.5t-33.5 96.5z" />
<glyph unicode="&#xdd;" horiz-adv-x="1219" d="M-37 1382v45h587v-45l-155 -10l337 -607h5l282 607l-141 10v45h333v-45l-124 -10l-312 -669v-648l154 -10v-45h-563v45l153 10v589l-421 728zM584 1574l242 191q44 35 78 35q33 0 59.5 -22.5t26.5 -64.5q0 -35 -27 -62t-63 -35l-301 -80z" />
<glyph unicode="&#xde;" horiz-adv-x="1209" d="M73 0v45l154 10v1317l-154 10v45h564v-45l-154 -10v-212h132q108 0 205 -23.5t169.5 -73t115 -126t42.5 -182.5q0 -123 -49.5 -209t-132 -140.5t-191.5 -79t-227 -24.5q-10 0 -26 0.5t-38 1.5v-249l154 -10v-45h-564zM483 360q34 -3 70 -3q328 0 328 400q0 98 -22 163.5 t-61 105.5t-93 56.5t-117 16.5q-25 0 -51 -2t-54 -6v-731z" />
<glyph unicode="&#xdf;" horiz-adv-x="1246" d="M61 0v41l102 10v940q0 111 27 188.5t70 128t96 79t104.5 42t96 16.5t70.5 3q43 0 92.5 -5t98.5 -18.5t94.5 -37.5t80 -61.5t55.5 -91t21 -125.5q0 -236 -399 -309v-2q6 0 19 0.5t20 0.5q81 0 163 -18.5t148.5 -67t108 -132.5t41.5 -215q0 -39 -7.5 -83.5t-25 -88.5 t-47.5 -84.5t-74.5 -71.5t-105 -49.5t-140.5 -18.5q-56 0 -108 12t-92 39t-64 71.5t-24 109.5q0 30 9 57t26.5 47t41.5 31.5t54 11.5q54 0 85.5 -33t33.5 -84q0 -54 -32 -86.5t-86 -32.5q-19 0 -32 4v-2q5 -21 19.5 -39t36 -31t48.5 -20.5t57 -7.5q44 0 77 21t55 59t33 91 t11 117q0 112 -13 190t-35.5 129.5t-52.5 80t-65 42.5t-73 17t-75 3h-46v49h45q28 0 67.5 15.5t76 50t62 89.5t25.5 135q0 92 -18 150t-47.5 90.5t-66.5 44.5t-76 12q-65 0 -107 -23.5t-66.5 -60.5t-34.5 -82.5t-10 -89.5l-1 -1147h-347z" />
<glyph unicode="&#xe0;" horiz-adv-x="1005" d="M72 217q0 49 15.5 94.5t50.5 87.5t86 73t126.5 49.5t167.5 18.5q49 0 93 -4v138q0 66 -2.5 107t-12.5 84.5t-28.5 67t-52 39t-81.5 15.5q-146 0 -213 -115v-4q17 3 31 3q52 0 82 -32t30 -92q0 -52 -36 -87.5t-90 -35.5q-59 0 -93 40t-34 94q0 118 108.5 197t249.5 79 q100 0 170.5 -21t112.5 -55.5t65.5 -94t31 -121.5t7.5 -152v-539l103 -10v-41h-318l-28 158h-2q-49 -95 -118.5 -141.5t-168.5 -46.5q-122 0 -187 73t-65 174zM269 1489q0 39 25.5 66t63.5 27q31 0 56 -19.5t34 -49.5l111 -318l-37 -26l-223 240q-30 31 -30 80zM314 238 q0 -80 30 -129.5t88 -49.5q68 0 123.5 85t55.5 208v138q-40 5 -65 5q-52 0 -92.5 -14t-64.5 -38t-40 -50.5t-23 -58.5t-9.5 -53t-2.5 -43z" />
<glyph unicode="&#xe1;" horiz-adv-x="1005" d="M72 217q0 49 15.5 94.5t50.5 87.5t86 73t126.5 49.5t167.5 18.5q49 0 93 -4v138q0 66 -2.5 107t-12.5 84.5t-28.5 67t-52 39t-81.5 15.5q-146 0 -213 -115v-4q17 3 31 3q52 0 82 -32t30 -92q0 -52 -36 -87.5t-90 -35.5q-59 0 -93 40t-34 94q0 118 108.5 197t249.5 79 q100 0 170.5 -21t112.5 -55.5t65.5 -94t31 -121.5t7.5 -152v-539l103 -10v-41h-318l-28 158h-2q-49 -95 -118.5 -141.5t-168.5 -46.5q-122 0 -187 73t-65 174zM314 238q0 -80 30 -129.5t88 -49.5q68 0 123.5 85t55.5 208v138q-40 5 -65 5q-52 0 -92.5 -14t-64.5 -38 t-40 -50.5t-23 -58.5t-9.5 -53t-2.5 -43zM416 1182l111 318q9 30 34 49.5t56 19.5q38 0 64 -27t26 -66q0 -48 -31 -80l-223 -240z" />
<glyph unicode="&#xe2;" horiz-adv-x="1005" d="M72 217q0 49 15.5 94.5t50.5 87.5t86 73t126.5 49.5t167.5 18.5q49 0 93 -4v138q0 66 -2.5 107t-12.5 84.5t-28.5 67t-52 39t-81.5 15.5q-146 0 -213 -115v-4q17 3 31 3q52 0 82 -32t30 -92q0 -52 -36 -87.5t-90 -35.5q-59 0 -93 40t-34 94q0 118 108.5 197t249.5 79 q100 0 170.5 -21t112.5 -55.5t65.5 -94t31 -121.5t7.5 -152v-539l103 -10v-41h-318l-28 158h-2q-49 -95 -118.5 -141.5t-168.5 -46.5q-122 0 -187 73t-65 174zM226 1209l266 376h5l234 -372l-81 -46l-166 212h-4l-178 -211zM314 238q0 -80 30 -129.5t88 -49.5q68 0 123.5 85 t55.5 208v138q-40 5 -65 5q-52 0 -92.5 -14t-64.5 -38t-40 -50.5t-23 -58.5t-9.5 -53t-2.5 -43z" />
<glyph unicode="&#xe3;" horiz-adv-x="1005" d="M72 217q0 49 15.5 94.5t50.5 87.5t86 73t126.5 49.5t167.5 18.5q49 0 93 -4v138q0 66 -2.5 107t-12.5 84.5t-28.5 67t-52 39t-81.5 15.5q-146 0 -213 -115v-4q17 3 31 3q52 0 82 -32t30 -92q0 -52 -36 -87.5t-90 -35.5q-59 0 -93 40t-34 94q0 118 108.5 197t249.5 79 q100 0 170.5 -21t112.5 -55.5t65.5 -94t31 -121.5t7.5 -152v-539l103 -10v-41h-318l-28 158h-2q-49 -95 -118.5 -141.5t-168.5 -46.5q-122 0 -187 73t-65 174zM160 1291q11 39 30.5 75t47.5 63.5t63 44t77 16.5q46 0 74.5 -13t51.5 -29t47 -29t62 -13q93 0 155 92l39 -13 q-10 -54 -30 -95.5t-47 -69t-60 -42t-69 -14.5q-46 0 -76.5 14t-55.5 31.5t-50 31.5t-61 14q-97 0 -162 -80zM314 238q0 -80 30 -129.5t88 -49.5q68 0 123.5 85t55.5 208v138q-40 5 -65 5q-52 0 -92.5 -14t-64.5 -38t-40 -50.5t-23 -58.5t-9.5 -53t-2.5 -43z" />
<glyph unicode="&#xe4;" horiz-adv-x="1005" d="M72 217q0 49 15.5 94.5t50.5 87.5t86 73t126.5 49.5t167.5 18.5q49 0 93 -4v138q0 66 -2.5 107t-12.5 84.5t-28.5 67t-52 39t-81.5 15.5q-146 0 -213 -115v-4q17 3 31 3q52 0 82 -32t30 -92q0 -52 -36 -87.5t-90 -35.5q-59 0 -93 40t-34 94q0 118 108.5 197t249.5 79 q100 0 170.5 -21t112.5 -55.5t65.5 -94t31 -121.5t7.5 -152v-539l103 -10v-41h-318l-28 158h-2q-49 -95 -118.5 -141.5t-168.5 -46.5q-122 0 -187 73t-65 174zM193 1379q0 57 32 94.5t84 37.5q54 0 85.5 -38t31.5 -94q0 -58 -31.5 -95.5t-85.5 -37.5t-85 36.5t-31 96.5z M314 238q0 -80 30 -129.5t88 -49.5q68 0 123.5 85t55.5 208v138q-40 5 -65 5q-52 0 -92.5 -14t-64.5 -38t-40 -50.5t-23 -58.5t-9.5 -53t-2.5 -43zM536 1379q0 57 32 94.5t84 37.5q53 0 85 -38.5t32 -93.5q0 -58 -31.5 -95.5t-85.5 -37.5t-85 36.5t-31 96.5z" />
<glyph unicode="&#xe5;" horiz-adv-x="1005" d="M72 217q0 49 15.5 94.5t50.5 87.5t86 73t126.5 49.5t167.5 18.5q49 0 93 -4v138q0 66 -2.5 107t-12.5 84.5t-28.5 67t-52 39t-81.5 15.5q-146 0 -213 -115v-4q17 3 31 3q52 0 82 -32t30 -92q0 -52 -36 -87.5t-90 -35.5q-59 0 -93 40t-34 94q0 118 108.5 197t249.5 79 q100 0 170.5 -21t112.5 -55.5t65.5 -94t31 -121.5t7.5 -152v-539l103 -10v-41h-318l-28 158h-2q-49 -95 -118.5 -141.5t-168.5 -46.5q-122 0 -187 73t-65 174zM249 1379q0 45 18.5 82.5t50 65.5t74 43.5t90.5 15.5q51 0 94.5 -16t75 -43.5t49.5 -65.5t18 -82 q0 -45 -17.5 -82t-49 -64t-75 -42t-95.5 -15q-53 0 -95.5 15t-73.5 41.5t-47.5 64t-16.5 82.5zM314 238q0 -80 30 -129.5t88 -49.5q68 0 123.5 85t55.5 208v138q-40 5 -65 5q-52 0 -92.5 -14t-64.5 -38t-40 -50.5t-23 -58.5t-9.5 -53t-2.5 -43zM398 1379q0 -152 84 -152 q46 0 66.5 42.5t20.5 109.5q0 34 -5 62.5t-16 49.5t-27.5 32.5t-38.5 11.5q-45 0 -64.5 -43.5t-19.5 -112.5z" />
<glyph unicode="&#xe6;" horiz-adv-x="1486" d="M74 217q0 62 29.5 120.5t88 103.5t145.5 72t203 27q25 0 48 -1t45 -3v138q0 76 -9 134t-31 98t-60.5 60.5t-96.5 20.5q-43 0 -78.5 -10t-63.5 -26t-48.5 -37t-32.5 -42v-4q16 3 31 3q51 0 81.5 -32.5t30.5 -92.5q0 -26 -9.5 -48t-26.5 -38.5t-40 -26t-50 -9.5 q-30 0 -53.5 11t-40 29.5t-25 42.5t-8.5 51q0 63 33.5 114t86 87t118 55.5t130.5 19.5q103 0 175 -33.5t108 -119.5h2q63 87 133.5 120t154.5 33q347 0 347 -477l-27 -25h-496v-118q0 -379 235 -379q172 0 277 176l39 -24q-34 -56 -76 -97t-89 -67.5t-97 -39.5t-101 -13 q-283 0 -380 255h-2q-35 -78 -75 -127.5t-83.5 -78t-91 -39t-98.5 -10.5q-62 0 -109 20t-78.5 54t-48 78.5t-16.5 94.5zM316 238q0 -39 9 -71.5t25.5 -56t40 -36.5t53.5 -13q34 0 68 23t61 63t43.5 92.5t16.5 112.5v138q-20 2 -36.5 3.5t-29.5 1.5q-53 0 -92 -13.5t-67 -36 t-46 -50.5t-28 -56.5t-14 -55t-4 -45.5zM868 577l307 13q1 14 2 82q0 74 -8.5 132.5t-26 99.5t-44 63t-62.5 22q-42 0 -72 -27.5t-50.5 -80t-31.5 -129t-14 -175.5z" />
<glyph unicode="&#xe7;" horiz-adv-x="946" d="M81 496q0 74 17 148t54.5 144.5t91 125t132.5 87.5t172 33q139 0 230.5 -78t91.5 -186q0 -54 -34 -91.5t-93 -37.5q-55 0 -90 35t-35 88q0 50 32.5 86t83.5 36q7 0 25 -2v5q-12 20 -28.5 37.5t-56.5 37.5t-89 20q-88 0 -145 -66t-80 -170.5t-23 -247.5q0 -461 246 -461 q32 0 59.5 5.5t65 21.5t74.5 54t71 96l39 -23q-123 -223 -352 -223q-55 0 -103 8l-43 -133q63 39 147 39q63 0 100 -36t37 -99q0 -59 -40.5 -107.5t-104.5 -79.5t-125.5 -49t-121.5 -27l-12 53q102 18 169 74.5t67 117.5q0 32 -18.5 51.5t-46.5 19.5q-50 0 -93 -30l-29 34 l52 185q-294 84 -294 505z" />
<glyph unicode="&#xe8;" horiz-adv-x="982" d="M81 502q0 78 15 152.5t49 143.5t83 121t121.5 83.5t160.5 31.5q83 0 149 -23.5t110 -65.5t73 -102.5t41.5 -131t12.5 -154.5l-27 -25h-532v-61q0 -436 248 -436q176 0 281 176l39 -24q-129 -217 -367 -217q-230 0 -343.5 142t-113.5 390zM315 1489q0 39 25.5 66t63.5 27 q31 0 56 -19.5t34 -49.5l111 -318l-37 -26l-223 240q-30 31 -30 80zM337 577l323 13q3 51 3 98q0 145 -34.5 223t-114.5 78q-48 0 -82.5 -31.5t-53.5 -90.5t-28.5 -128.5t-12.5 -161.5z" />
<glyph unicode="&#xe9;" horiz-adv-x="982" d="M81 502q0 78 15 152.5t49 143.5t83 121t121.5 83.5t160.5 31.5q83 0 149 -23.5t110 -65.5t73 -102.5t41.5 -131t12.5 -154.5l-27 -25h-532v-61q0 -436 248 -436q176 0 281 176l39 -24q-129 -217 -367 -217q-230 0 -343.5 142t-113.5 390zM337 577l323 13q3 51 3 98 q0 145 -34.5 223t-114.5 78q-48 0 -82.5 -31.5t-53.5 -90.5t-28.5 -128.5t-12.5 -161.5zM452 1182l111 318q9 30 34 49.5t56 19.5q38 0 64 -27t26 -66q0 -48 -31 -80l-223 -240z" />
<glyph unicode="&#xea;" horiz-adv-x="982" d="M81 502q0 78 15 152.5t49 143.5t83 121t121.5 83.5t160.5 31.5q83 0 149 -23.5t110 -65.5t73 -102.5t41.5 -131t12.5 -154.5l-27 -25h-532v-61q0 -436 248 -436q176 0 281 176l39 -24q-129 -217 -367 -217q-230 0 -343.5 142t-113.5 390zM242 1209l266 376h5l234 -372 l-81 -46l-166 212h-4l-178 -211zM337 577l323 13q3 51 3 98q0 145 -34.5 223t-114.5 78q-48 0 -82.5 -31.5t-53.5 -90.5t-28.5 -128.5t-12.5 -161.5z" />
<glyph unicode="&#xeb;" horiz-adv-x="982" d="M81 502q0 78 15 152.5t49 143.5t83 121t121.5 83.5t160.5 31.5q83 0 149 -23.5t110 -65.5t73 -102.5t41.5 -131t12.5 -154.5l-27 -25h-532v-61q0 -436 248 -436q176 0 281 176l39 -24q-129 -217 -367 -217q-230 0 -343.5 142t-113.5 390zM209 1379q0 57 32 94.5t84 37.5 q54 0 85.5 -38t31.5 -94q0 -58 -31.5 -95.5t-85.5 -37.5t-85 36.5t-31 96.5zM337 577l323 13q3 51 3 98q0 145 -34.5 223t-114.5 78q-48 0 -82.5 -31.5t-53.5 -90.5t-28.5 -128.5t-12.5 -161.5zM552 1379q0 57 32 94.5t84 37.5q53 0 85 -38.5t32 -93.5q0 -58 -31.5 -95.5 t-85.5 -37.5t-85 36.5t-31 96.5z" />
<glyph unicode="&#xec;" horiz-adv-x="585" d="M57 965l209 22l141 37l18 -29v-944l103 -10v-41h-451v41l103 10v875l-121 -2zM58 1489q0 39 25.5 66t63.5 27q31 0 56 -19.5t34 -49.5l111 -318l-37 -26l-223 240q-30 31 -30 80z" />
<glyph unicode="&#xed;" horiz-adv-x="585" d="M57 965l209 22l141 37l18 -29v-944l103 -10v-41h-451v41l103 10v875l-121 -2zM204 1182l111 318q9 30 34 49.5t56 19.5q38 0 64 -27t26 -66q0 -48 -31 -80l-223 -240z" />
<glyph unicode="&#xee;" horiz-adv-x="585" d="M5 1209l266 376h5l234 -372l-81 -46l-166 212h-4l-178 -211zM57 965l209 22l141 37l18 -29v-944l103 -10v-41h-451v41l103 10v875l-121 -2z" />
<glyph unicode="&#xef;" horiz-adv-x="585" d="M-28 1379q0 57 32 94.5t84 37.5q54 0 85.5 -38t31.5 -94q0 -58 -31.5 -95.5t-85.5 -37.5t-85 36.5t-31 96.5zM57 965l209 22l141 37l18 -29v-944l103 -10v-41h-451v41l103 10v875l-121 -2zM315 1379q0 57 32 94.5t84 37.5q53 0 85 -38.5t32 -93.5q0 -58 -31.5 -95.5 t-85.5 -37.5t-85 36.5t-31 96.5z" />
<glyph unicode="&#xf0;" horiz-adv-x="1102" d="M80 496q0 146 56 267t157 191t226 70q99 0 171 -35q-67 243 -226 341l-115 -144l-36 31l101 140q-93 40 -206 40l1 50l37 1q105 0 210 -34l102 141l51 -42l-96 -121q147 -66 257 -200t165.5 -298.5t55.5 -336.5q0 -286 -123 -436.5t-333 -150.5q-116 0 -205.5 43 t-143 117.5t-80 167t-26.5 198.5zM336 508q0 -493 195 -493q107 0 157.5 130t50.5 351q0 267 -33 426q-58 49 -134 49q-70 0 -117 -31t-72.5 -94t-36 -143.5t-10.5 -194.5z" />
<glyph unicode="&#xf1;" horiz-adv-x="1164" d="M56 965l209 22l141 37l18 -29l-4 -135h4q119 174 308 174q36 0 69 -6t73 -27t69 -55t49 -97t20 -147v-651l102 -10v-41h-450v41l102 10v680q0 213 -137 213q-90 0 -147.5 -82t-57.5 -215v-596l103 -10v-41h-451v41l103 10v875l-121 -2zM261 1291q11 39 30.5 75t47.5 63.5 t63 44t77 16.5q46 0 74.5 -13t51.5 -29t47 -29t62 -13q93 0 155 92l39 -13q-10 -54 -30 -95.5t-47 -69t-60 -42t-69 -14.5q-46 0 -76.5 14t-55.5 31.5t-50 31.5t-61 14q-97 0 -162 -80z" />
<glyph unicode="&#xf2;" horiz-adv-x="1071" d="M80 496q0 151 58.5 274t164 193.5t238.5 70.5q110 0 198.5 -45.5t142 -121.5t82 -169.5t28.5 -195.5q0 -147 -56 -268t-160.5 -192.5t-236.5 -71.5q-117 0 -206.5 41.5t-144 115t-81.5 166.5t-27 203zM336 508q0 -111 11 -198.5t34 -155t62 -103.5t92 -36q201 0 201 481 q0 121 -9.5 208t-32 153.5t-62.5 99t-97 32.5q-53 0 -92 -36t-62 -102t-34 -151t-11 -192zM337 1489q0 39 25.5 66t63.5 27q31 0 56 -19.5t34 -49.5l111 -318l-37 -26l-223 240q-30 31 -30 80z" />
<glyph unicode="&#xf3;" horiz-adv-x="1071" d="M80 496q0 151 58.5 274t164 193.5t238.5 70.5q110 0 198.5 -45.5t142 -121.5t82 -169.5t28.5 -195.5q0 -147 -56 -268t-160.5 -192.5t-236.5 -71.5q-117 0 -206.5 41.5t-144 115t-81.5 166.5t-27 203zM336 508q0 -111 11 -198.5t34 -155t62 -103.5t92 -36q201 0 201 481 q0 121 -9.5 208t-32 153.5t-62.5 99t-97 32.5q-53 0 -92 -36t-62 -102t-34 -151t-11 -192zM454 1182l111 318q9 30 34 49.5t56 19.5q38 0 64 -27t26 -66q0 -48 -31 -80l-223 -240z" />
<glyph unicode="&#xf4;" horiz-adv-x="1071" d="M80 496q0 151 58.5 274t164 193.5t238.5 70.5q110 0 198.5 -45.5t142 -121.5t82 -169.5t28.5 -195.5q0 -147 -56 -268t-160.5 -192.5t-236.5 -71.5q-117 0 -206.5 41.5t-144 115t-81.5 166.5t-27 203zM284 1209l266 376h5l234 -372l-81 -46l-166 212h-4l-178 -211z M336 508q0 -111 11 -198.5t34 -155t62 -103.5t92 -36q201 0 201 481q0 121 -9.5 208t-32 153.5t-62.5 99t-97 32.5q-53 0 -92 -36t-62 -102t-34 -151t-11 -192z" />
<glyph unicode="&#xf5;" horiz-adv-x="1071" d="M80 496q0 151 58.5 274t164 193.5t238.5 70.5q110 0 198.5 -45.5t142 -121.5t82 -169.5t28.5 -195.5q0 -147 -56 -268t-160.5 -192.5t-236.5 -71.5q-117 0 -206.5 41.5t-144 115t-81.5 166.5t-27 203zM218 1291q11 39 30.5 75t47.5 63.5t63 44t77 16.5q46 0 74.5 -13 t51.5 -29t47 -29t62 -13q93 0 155 92l39 -13q-10 -54 -30 -95.5t-47 -69t-60 -42t-69 -14.5q-46 0 -76.5 14t-55.5 31.5t-50 31.5t-61 14q-97 0 -162 -80zM336 508q0 -111 11 -198.5t34 -155t62 -103.5t92 -36q201 0 201 481q0 121 -9.5 208t-32 153.5t-62.5 99t-97 32.5 q-53 0 -92 -36t-62 -102t-34 -151t-11 -192z" />
<glyph unicode="&#xf6;" horiz-adv-x="1071" d="M80 496q0 151 58.5 274t164 193.5t238.5 70.5q110 0 198.5 -45.5t142 -121.5t82 -169.5t28.5 -195.5q0 -147 -56 -268t-160.5 -192.5t-236.5 -71.5q-117 0 -206.5 41.5t-144 115t-81.5 166.5t-27 203zM261 1379q0 57 32 94.5t84 37.5q54 0 85.5 -38t31.5 -94 q0 -58 -31.5 -95.5t-85.5 -37.5t-85 36.5t-31 96.5zM336 508q0 -111 11 -198.5t34 -155t62 -103.5t92 -36q201 0 201 481q0 121 -9.5 208t-32 153.5t-62.5 99t-97 32.5q-53 0 -92 -36t-62 -102t-34 -151t-11 -192zM604 1379q0 57 32 94.5t84 37.5q53 0 85 -38.5t32 -93.5 q0 -58 -31.5 -95.5t-85.5 -37.5t-85 36.5t-31 96.5z" />
<glyph unicode="&#xf7;" horiz-adv-x="1146" d="M117 586v110h912v-110h-912zM435 228q0 63 38.5 101.5t99.5 38.5q63 0 100.5 -38.5t37.5 -101.5q0 -61 -37.5 -98t-100.5 -37q-61 0 -99.5 37.5t-38.5 97.5zM435 1022q0 63 38.5 101.5t99.5 38.5q63 0 100.5 -38.5t37.5 -101.5q0 -61 -37.5 -98t-100.5 -37 q-61 0 -99.5 37.5t-38.5 97.5z" />
<glyph unicode="&#xf8;" horiz-adv-x="1071" d="M53 -55l140 179q-113 145 -113 372q0 108 33 205.5t94 171.5t145.5 117.5t188.5 43.5q175 0 294 -114l89 114h110l-142 -182q53 -76 76.5 -166t23.5 -197q0 -108 -34 -203t-94.5 -165t-143.5 -110.5t-181 -40.5q-169 0 -285 92l-92 -117h-109zM321 508q0 -119 15 -213 l387 494q-48 200 -188 200q-54 0 -94 -36.5t-67 -100.5t-40 -152.5t-13 -191.5zM361 188q56 -173 174 -173q57 0 97.5 36t67 100.5t39 152.5t12.5 192q0 46 -2 90t-6 87z" />
<glyph unicode="&#xf9;" horiz-adv-x="1142" d="M35 924v41l209 22l141 37l19 -29v-722q0 -59 12.5 -101t28 -62.5t39 -32t36.5 -13t29 -1.5q70 0 128.5 88.5t58.5 217.5v555h-123v41l209 22l141 37l18 -29v-944l103 -10v-41h-314l-30 154h-4q-26 -38 -49 -64.5t-58 -57t-80.5 -46.5t-97.5 -16q-36 0 -70 6t-76.5 26.5 t-73 55t-52 97t-21.5 146.5v623h-123zM340 1489q0 39 25.5 66t63.5 27q31 0 56 -19.5t34 -49.5l111 -318l-37 -26l-223 240q-30 31 -30 80z" />
<glyph unicode="&#xfa;" horiz-adv-x="1142" d="M35 924v41l209 22l141 37l19 -29v-722q0 -59 12.5 -101t28 -62.5t39 -32t36.5 -13t29 -1.5q70 0 128.5 88.5t58.5 217.5v555h-123v41l209 22l141 37l18 -29v-944l103 -10v-41h-314l-30 154h-4q-26 -38 -49 -64.5t-58 -57t-80.5 -46.5t-97.5 -16q-36 0 -70 6t-76.5 26.5 t-73 55t-52 97t-21.5 146.5v623h-123zM477 1182l111 318q9 30 34 49.5t56 19.5q38 0 64 -27t26 -66q0 -48 -31 -80l-223 -240z" />
<glyph unicode="&#xfb;" horiz-adv-x="1142" d="M35 924v41l209 22l141 37l19 -29v-722q0 -59 12.5 -101t28 -62.5t39 -32t36.5 -13t29 -1.5q70 0 128.5 88.5t58.5 217.5v555h-123v41l209 22l141 37l18 -29v-944l103 -10v-41h-314l-30 154h-4q-26 -38 -49 -64.5t-58 -57t-80.5 -46.5t-97.5 -16q-36 0 -70 6t-76.5 26.5 t-73 55t-52 97t-21.5 146.5v623h-123zM307 1209l266 376h5l234 -372l-81 -46l-166 212h-4l-178 -211z" />
<glyph unicode="&#xfc;" horiz-adv-x="1142" d="M35 924v41l209 22l141 37l19 -29v-722q0 -59 12.5 -101t28 -62.5t39 -32t36.5 -13t29 -1.5q70 0 128.5 88.5t58.5 217.5v555h-123v41l209 22l141 37l18 -29v-944l103 -10v-41h-314l-30 154h-4q-26 -38 -49 -64.5t-58 -57t-80.5 -46.5t-97.5 -16q-36 0 -70 6t-76.5 26.5 t-73 55t-52 97t-21.5 146.5v623h-123zM254 1379q0 57 32 94.5t84 37.5q54 0 85.5 -38t31.5 -94q0 -58 -31.5 -95.5t-85.5 -37.5t-85 36.5t-31 96.5zM597 1379q0 57 32 94.5t84 37.5q53 0 85 -38.5t32 -93.5q0 -58 -31.5 -95.5t-85.5 -37.5t-85 36.5t-31 96.5z" />
<glyph unicode="&#xfd;" horiz-adv-x="965" d="M-12 963v41h473v-41l-108 -11l260 -652l196 652l-110 11v41h272v-41l-104 -11l-332 -1124q-35 -102 -72 -170t-74.5 -99.5t-69.5 -42.5t-71 -11q-75 0 -121.5 42t-46.5 106q0 59 35.5 99t89.5 40q58 0 87.5 -36t29.5 -89q0 -20 -12.5 -48t-32.5 -42v-4q35 1 66 24.5 t56 67.5t38 74t30 75l45 152l-425 986zM480 1182l111 318q9 30 34 49.5t56 19.5q38 0 64 -27t26 -66q0 -48 -31 -80l-223 -240z" />
<glyph unicode="&#xfe;" horiz-adv-x="1092" d="M24 1348v41l209 22l141 37l18 -29v-554h4q54 93 117.5 131t149.5 38q27 0 58.5 -8.5t72.5 -28t77.5 -58.5t68.5 -93.5t50.5 -141t18.5 -192.5q0 -113 -28 -209.5t-82 -171.5t-142 -118t-201 -43q-99 0 -164 51v-445l103 -10v-41h-451v41l103 10v1772h-123zM392 74 q57 -51 123 -51q48 0 85.5 19t62 47t42.5 73.5t27 86t14 96.5t6 93t1 88q0 162 -23 259.5t-60 133t-93 35.5q-74 0 -129.5 -79t-55.5 -177v-624z" />
<glyph unicode="&#xff;" horiz-adv-x="965" d="M-12 963v41h473v-41l-108 -11l260 -652l196 652l-110 11v41h272v-41l-104 -11l-332 -1124q-35 -102 -72 -170t-74.5 -99.5t-69.5 -42.5t-71 -11q-75 0 -121.5 42t-46.5 106q0 59 35.5 99t89.5 40q58 0 87.5 -36t29.5 -89q0 -20 -12.5 -48t-32.5 -42v-4q35 1 66 24.5 t56 67.5t38 74t30 75l45 152l-425 986zM277 1379q0 57 32 94.5t84 37.5q54 0 85.5 -38t31.5 -94q0 -58 -31.5 -95.5t-85.5 -37.5t-85 36.5t-31 96.5zM620 1379q0 57 32 94.5t84 37.5q53 0 85 -38.5t32 -93.5q0 -58 -31.5 -95.5t-85.5 -37.5t-85 36.5t-31 96.5z" />
<glyph unicode="&#x152;" horiz-adv-x="2013" d="M97 689q0 106 22 211.5t72 208t122.5 180t182.5 125.5t244 48q98 0 289 -35h844v-407h-55q-7 66 -18.5 115t-34.5 96t-56.5 76.5t-86 47t-121.5 17.5q-88 0 -216 -10v-594q31 -3 112 -3q105 0 150 51.5t45 187.5h55v-537h-55q0 136 -45.5 189.5t-149.5 53.5 q-80 0 -112 -3v-642q128 -10 257 -10q86 0 147.5 25.5t98 75.5t56 110t28.5 142h32v-408h-875q-121 -35 -267 -35q-152 0 -269.5 41t-191 108t-120.5 162.5t-65.5 196t-18.5 216.5zM363 716q0 -315 116 -502t331 -187q70 0 116 7.5t103 29.5v1294q-77 40 -225 40 q-140 0 -241 -89.5t-150.5 -242t-49.5 -350.5z" />
<glyph unicode="&#x153;" horiz-adv-x="1620" d="M80 496q0 151 58.5 274t164 193.5t238.5 70.5q200 0 303 -166h2q104 166 303 166q202 0 294 -125.5t92 -343.5l-27 -25h-532v-61q0 -436 248 -436q176 0 281 176l39 -24q-129 -217 -367 -217q-120 0 -197 34.5t-132 126.5h-2q-55 -93 -130.5 -131t-176.5 -38 q-117 0 -206.5 41.5t-144 115t-81.5 166.5t-27 203zM336 508q0 -111 11 -198.5t34 -155t62 -103.5t92 -36q201 0 201 481q0 121 -9.5 208t-32 153.5t-62.5 99t-97 32.5q-53 0 -92 -36t-62 -102t-34 -151t-11 -192zM976 585l323 13q3 51 3 98q0 143 -34 218t-115 75 q-48 0 -82.5 -30t-53.5 -88t-28.5 -126.5t-12.5 -159.5z" />
<glyph unicode="&#x2c6;" horiz-adv-x="695" d="M90 1209l266 376h5l234 -372l-81 -46l-166 212h-4l-178 -211z" />
<glyph unicode="&#x2dc;" horiz-adv-x="807" d="M90 1291q11 39 30.5 75t47.5 63.5t63 44t77 16.5q46 0 74.5 -13t51.5 -29t47 -29t62 -13q93 0 155 92l39 -13q-10 -54 -30 -95.5t-47 -69t-60 -42t-69 -14.5q-46 0 -76.5 14t-55.5 31.5t-50 31.5t-61 14q-97 0 -162 -80z" />
<glyph unicode="&#x2000;" horiz-adv-x="937" />
<glyph unicode="&#x2001;" horiz-adv-x="1875" />
<glyph unicode="&#x2002;" horiz-adv-x="937" />
<glyph unicode="&#x2003;" horiz-adv-x="1875" />
<glyph unicode="&#x2004;" horiz-adv-x="625" />
<glyph unicode="&#x2005;" horiz-adv-x="468" />
<glyph unicode="&#x2006;" horiz-adv-x="312" />
<glyph unicode="&#x2007;" horiz-adv-x="312" />
<glyph unicode="&#x2008;" horiz-adv-x="234" />
<glyph unicode="&#x2009;" horiz-adv-x="375" />
<glyph unicode="&#x200a;" horiz-adv-x="104" />
<glyph unicode="&#x2010;" horiz-adv-x="746" d="M117 592v110h512v-110h-512z" />
<glyph unicode="&#x2011;" horiz-adv-x="746" d="M117 592v110h512v-110h-512z" />
<glyph unicode="&#x2012;" horiz-adv-x="746" d="M117 592v110h512v-110h-512z" />
<glyph unicode="&#x2013;" horiz-adv-x="1067" d="M117 592v110h833v-110h-833z" />
<glyph unicode="&#x2014;" horiz-adv-x="1445" d="M156 592v110h1133v-110h-1133z" />
<glyph unicode="&#x2018;" horiz-adv-x="421" d="M84 1098q0 63 16.5 121t66 121.5t128.5 106.5l15 -51q-79 -41 -113 -103.5t-34 -117.5h4q26 18 57 18q49 0 81.5 -39t32.5 -99q0 -50 -30.5 -93.5t-91.5 -43.5q-65 0 -98.5 53t-33.5 127z" />
<glyph unicode="&#x2019;" horiz-adv-x="417" d="M92 1310q0 50 30.5 93.5t91.5 43.5q65 0 98.5 -53t33.5 -127q0 -63 -16.5 -121t-66 -121.5t-128.5 -106.5l-15 51q79 41 113 103.5t34 117.5h-4q-26 -18 -57 -18q-49 0 -81.5 39t-32.5 99z" />
<glyph unicode="&#x201a;" horiz-adv-x="459" d="M92 103q0 50 30.5 93.5t91.5 43.5q65 0 98.5 -53t33.5 -127q0 -63 -16.5 -121t-66 -121.5t-128.5 -106.5l-15 51q79 41 113 103.5t34 117.5h-4q-26 -18 -57 -18q-49 0 -81.5 39t-32.5 99z" />
<glyph unicode="&#x201c;" horiz-adv-x="752" d="M84 1098q0 63 16.5 121t66 121.5t128.5 106.5l15 -51q-79 -41 -113 -103.5t-34 -117.5h4q26 18 57 18q49 0 81.5 -39t32.5 -99q0 -50 -30.5 -93.5t-91.5 -43.5q-65 0 -98.5 53t-33.5 127zM414 1098q0 63 16.5 121t66 121.5t128.5 106.5l15 -51q-79 -41 -113 -103.5 t-34 -117.5h4q26 18 57 18q49 0 81.5 -39t32.5 -99q0 -50 -30.5 -93.5t-91.5 -43.5q-65 0 -98.5 53t-33.5 127z" />
<glyph unicode="&#x201d;" horiz-adv-x="747" d="M92 1310q0 50 30.5 93.5t91.5 43.5q65 0 98.5 -53t33.5 -127q0 -63 -16.5 -121t-66 -121.5t-128.5 -106.5l-15 51q79 41 113 103.5t34 117.5h-4q-26 -18 -57 -18q-49 0 -81.5 39t-32.5 99zM422 1310q0 50 30.5 93.5t91.5 43.5q65 0 98.5 -53t33.5 -127q0 -63 -16.5 -121 t-66 -121.5t-128.5 -106.5l-15 51q79 41 113 103.5t34 117.5h-4q-26 -18 -57 -18q-49 0 -81.5 39t-32.5 99z" />
<glyph unicode="&#x201e;" horiz-adv-x="770" d="M94 103q0 50 30.5 93.5t91.5 43.5q65 0 98.5 -53t33.5 -127q0 -63 -16.5 -121t-66 -121.5t-128.5 -106.5l-15 51q79 41 113 103.5t34 117.5h-4q-26 -18 -57 -18q-49 0 -81.5 39t-32.5 99zM424 103q0 50 30.5 93.5t91.5 43.5q65 0 98.5 -53t33.5 -127q0 -63 -16.5 -121 t-66 -121.5t-128.5 -106.5l-15 51q79 41 113 103.5t34 117.5h-4q-26 -18 -57 -18q-49 0 -81.5 39t-32.5 99z" />
<glyph unicode="&#x2022;" horiz-adv-x="613" d="M89 698q0 100 61.5 165.5t156.5 65.5q98 0 157.5 -65t59.5 -166q0 -97 -59.5 -159.5t-157.5 -62.5q-95 0 -156.5 63t-61.5 159z" />
<glyph unicode="&#x202f;" horiz-adv-x="375" />
<glyph unicode="&#x2039;" horiz-adv-x="595" d="M47 625v44l429 388l43 -45l-267 -364v-2l267 -364l-43 -45z" />
<glyph unicode="&#x203a;" horiz-adv-x="595" d="M76 282l267 364v2l-267 364l43 45l429 -388v-44l-429 -388z" />
<glyph unicode="&#x205f;" horiz-adv-x="468" />
<glyph unicode="&#x20ac;" horiz-adv-x="1331" d="M32 548l34 110h110v30q0 70 9 140h-153l34 110h139q27 109 74 200t118.5 165.5t176.5 116.5t235 42q152 0 266.5 -77t168.5 -226l-50 -19q-60 138 -150 198t-216 60q-139 0 -234.5 -125.5t-132.5 -334.5h521l-34 -110h-502q-4 -48 -4 -111q0 -39 1 -59h461l-34 -110h-417 q13 -103 42 -191t74.5 -161.5t114 -115.5t153.5 -42q142 0 247.5 84.5t163.5 216.5l47 -22q-143 -352 -485 -352q-151 0 -266.5 43t-189 123t-115.5 183t-56 234h-151z" />
<glyph unicode="&#x25fc;" horiz-adv-x="1004" d="M0 0v1005h1005v-1005h-1005z" />
<glyph unicode="&#xfb01;" horiz-adv-x="1251" d="M36 961v43l147 -1q1 69 15 128t36 101.5t55 76.5t65.5 56t74 38.5t75 24.5t74 13t65.5 6t55 1q76 0 139 -9t117 -29.5t84.5 -58.5t30.5 -91q0 -50 -30.5 -85t-83.5 -35q-54 0 -86 32.5t-32 81.5q0 25 12.5 56.5t32.5 43.5v4q-2 7 -21 16.5t-60.5 18.5t-93.5 9 q-278 0 -278 -265v-136l502 -4l141 27l18 -29v-944l103 -10v-41h-451v41l103 10v906l-416 -8v-898l143 -10v-41h-491v41l102 10v904z" />
<glyph unicode="&#xfb02;" horiz-adv-x="1263" d="M36 961v43h147q1 71 10.5 130t23.5 101.5t36.5 76.5t43.5 56t50 38t51.5 24t53.5 12t49.5 5t45.5 1q106 0 283 -59l111 22l141 37l18 -29v-1368l103 -10v-41h-451v41l103 10v1057q0 156 -67.5 220.5t-202.5 64.5q-82 0 -119 -58t-37 -154v-177h241v-43l-241 -10v-900 l143 -10v-41h-491v41l102 10v904z" />
</font>
</defs>
</svg>
