<?xml version="1.0" encoding="UTF-8"?>
<!DOCTYPE svg  PUBLIC '-//W3C//DTD SVG 1.1//EN'  'http://www.w3.org/Graphics/SVG/1.1/DTD/svg11.dtd'>
<svg version="1.1" xmlns="http://www.w3.org/2000/svg">
<defs>
<font id="TrajanPro-Regular" horiz-adv-x="571">
<font-face font-family="Trajan Pro" font-weight="400" ascent="750" bbox="-70 -252 1517 965" cap-height="753" descent="-250" panose-1="2 2 5 2 5 5 6 2 3 1" underline-position="-100" underline-thickness="50" unicode-range="U+0020-00FE" units-per-em="1000" x-height="640"/>
<missing-glyph/>
<glyph glyph-name="space" horiz-adv-x="325" unicode=" "/>
<glyph d="M143 206l-16 266q0 2 -1 16q-7 146 -14 173q-4 16 -4 19q1 7 5 14q22 37 65 63q5 3 9 5q10 5 15 5q6 -2 6 -10q0 -2 -2 -17q-9 -63 -13 -115q0 -4 -4 -70q-17 -350 -19 -369q-3 -31 -12 -32q-12 0 -14 41q-1 6 -1 11zM160 -17q-38 0 -48 36q-2 8 -2 15q0 31 26 45 q12 6 25 6q37 0 48 -31q3 -8 3 -17q0 -37 -32 -50q-10 -4 -20 -4z" glyph-name="exclam" horiz-adv-x="320" unicode="!"/>
<glyph d="M100 755q38 0 41 -10q1 -2 1 -4q0 -5 -5 -26q-20 -76 -26 -150q-4 -45 -11 -45t-11 42v3q-6 68 -28 161q-3 11 -3 15q0 14 32 14h10zM225 755q38 0 41 -10q1 -2 1 -4q0 -5 -5 -26q-20 -76 -26 -150q-4 -45 -11 -45t-11 42v3q-6 68 -28 161q-3 11 -3 15q0 14 32 14h10z " glyph-name="quotedbl" horiz-adv-x="325" unicode='"'/>
<glyph d="M539 460h-120l-24 -164h114v-56h-123l-36 -240h-35l37 240h-163l-38 -240h-35l38 240h-122v56h131l25 164h-124v56h132l33 238h36l-33 -238h160l32 238h35l-32 -238h112v-56zM384 460h-160l-25 -164h161z" glyph-name="numbersign" unicode="#"/>
<glyph d="M280 0l-7 -81q-3 -6 -10 -8l-19 -6q-7 -1 -7 6v4l8 85q-66 0 -122 20q-5 2 -9 4q-24 10 -27 21q-1 6 -1 15q0 73 11 118q4 18 11 19q6 0 5 -20v-2q-2 -58 23 -89q2 -3 3 -4q38 -44 109 -44l29 320q-108 76 -141 126q-28 44 -28 95q0 98 93 150q55 30 114 30l7 80q0 7 6 9 l23 7q7 0 8 -5l-9 -91q76 0 112 -14q8 -6 8 -15q0 -81 -4 -117q-2 -9 -8 -10q-8 2 -8 15q-1 52 -29 79q-33 25 -75 29l-29 -298q97 -63 131 -105q44 -55 44 -124q0 -117 -107 -172q-53 -27 -105 -27zM285 453l26 273q-56 0 -96 -33q-39 -33 -40 -88q0 -65 71 -123 q17 -14 39 -29zM310 335l-26 -297q92 4 124 76q12 29 12 63q0 82 -95 148q-8 5 -15 10z" glyph-name="dollar" unicode="$"/>
<glyph d="M647 0q-99 0 -144 86q-22 43 -22 90q0 98 61 152q45 39 112 39q97 0 143 -84q23 -44 23 -92q0 -93 -59 -148q-46 -43 -114 -43zM651 28q81 0 102 94q5 26 5 55q0 84 -44 132q-28 30 -65 30q-80 0 -101 -93q-5 -26 -5 -56q0 -89 45 -135q27 -27 63 -27zM300 -4l-46 -8 q-11 -2 -12 6q0 3 1 5q28 63 69.5 159l83 192t76.5 179t61 144l26 61q-30 -1 -127 -9q-99 -7 -109 -7v-2q49 -34 62 -108q3 -18 3 -35q0 -92 -58 -147q-46 -44 -114 -44q-99 0 -144 86q-22 43 -22 90q0 92 60 148q48 44 118 44q108 0 355 21q19 2 25 2q6 -1 7 -4 q-1 -3 -11 -29l-294 -732q-6 -11 -10 -12zM220 410q82 0 101 97q5 24 5 52q0 85 -44 133q-28 30 -64 30q-80 0 -100 -93q-6 -27 -6 -57q0 -89 45 -135q27 -27 63 -27z" glyph-name="percent" horiz-adv-x="870" unicode="%"/>
<glyph d="M293 -17q-139 0 -207 104q-36 56 -36 117q0 144 141 234q7 4 12 7q-49 69 -49 138q0 65 57 121q65 63 158 63q76 0 121 -25q13 -9 13 -25q0 -78 -7 -115q-4 -17 -10 -17q-6 2 -6 19q-1 53 -31 85q-43 43 -100 44q-70 0 -105 -52q-22 -33 -22 -79q0 -67 69 -154 q29 -36 89 -102q52 -56 171 -163q12 -11 18 -16q42 57 50 142q1 13 1 24q-1 30 -19 49q-17 16 -49 16q-11 1 -12 7q1 7 16 7q55 0 120 -7q17 -4 18 -20q0 -89 -72 -199q-14 -21 -27 -37q73 -62 138 -99q66 -38 119 -39q13 -1 14 -7q-2 -6 -17 -7h-98q-63 0 -101 19 q-36 19 -107 75q-73 -73 -158 -96q-45 -12 -92 -12zM328 36q117 1 189 74q-81 66 -172 159q-6 6 -9 10q-84 91 -118 140q-89 -60 -90 -168q0 -108 76 -171q54 -44 124 -44z" glyph-name="ampersand" horiz-adv-x="775" unicode="&amp;"/>
<glyph d="M100 755q38 0 41 -10q1 -2 1 -4q0 -5 -5 -26q-20 -76 -26 -150q-4 -45 -11 -45t-11 42v3q-6 68 -28 161q-3 11 -3 15q0 14 32 14h10z" glyph-name="quotesingle" horiz-adv-x="200" unicode="'"/>
<glyph d="M137 319q0 -224 104 -374q17 -25 38 -50q7 -9 7 -12q-2 -6 -7 -7q-3 1 -9 5q-84 63 -143 173q-65 121 -65 252q0 174 117 336q48 66 90 96q8 6 11 6q6 -1 7 -8q-1 -5 -7 -11q-56 -56 -98 -166q-45 -118 -45 -240z" glyph-name="parenleft" horiz-adv-x="360" unicode="("/>
<glyph d="M223 301q0 224 -104 374q-17 25 -38 50q-7 9 -7 12q2 6 7 7q3 -1 9 -5q84 -62 143 -172q65 -121 65 -251q0 -176 -117 -337q-48 -67 -90 -97q-8 -6 -11 -6q-6 1 -7 8q1 5 7 11q56 56 98 166q45 117 45 240z" glyph-name="parenright" horiz-adv-x="360" unicode=")"/>
<glyph d="M207 797q0 -42 -27 -127q-1 -4 0 -7q3 -1 5 0q51 13 91 52l3 3q9 7 10 7q8 0 22 -36q6 -17 6 -27q0 -6 -10 -8q-1 -1 -2 -1q-2 0 -115 -4q-2 0 -5 -1l-1 -1q-1 -3 1 -7q13 -22 66 -59q13 -9 18 -11q11 -5 11 -9q0 -17 -30 -40q-13 -9 -21 -10q-7 2 -14 14q-24 43 -43 103 l-4 6q-3 -2 -4 -3l-38 -82v-1q-6 -22 -6 -23q-2 -5 -12 -5q-55 2 -63 13q1 8 7 16q13 17 100 91q3 3 3 6q-1 2 -4 3q-27 7 -95 7q-4 0 -8 -2l-4 -1q-10 2 -11 67q2 7 10 8q32 0 110 -62q2 -1 3 -2q4 -2 8 -1q1 3 1 7q1 19 -23 91q-2 5 -3 7q-4 8 -4 11q0 11 40 24q15 5 24 5 q7 -2 8 -11z" glyph-name="asterisk" horiz-adv-x="350" unicode="*"/>
<glyph d="M468 243h-186v-187h-52v187h-188v51h187v187h52v-187h187v-51z" glyph-name="plus" horiz-adv-x="510" unicode="+"/>
<glyph d="M111 -2q0 30 -26 59q-7 8 -8 12q0 28 34 46q15 8 28 8q6 0 16 -17q2 -1 2 -2q17 -26 17 -43q0 -14 -10 -39q-31 -70 -64 -107q-7 -8 -13 -9q-5 2 -7 7q0 2 7 14q24 41 24 71z" glyph-name="comma" horiz-adv-x="250" unicode=","/>
<glyph d="M73 310h252q29 -1 30 -10q0 -11 -31 -16q-3 -1 -4 -1q-223 -33 -238 -37q-10 -3 -28 -10q-11 -5 -13 -5q-7 2 -5 15l15 56q4 8 22 8z" glyph-name="hyphen" horiz-adv-x="390" unicode="-"/>
<glyph d="M124 0q-41 0 -52 38q-2 9 -2 17q0 34 28 49q13 6 27 6q40 0 52 -33q3 -9 3 -19q0 -40 -34 -54q-11 -4 -22 -4z" glyph-name="period" horiz-adv-x="250" unicode="."/>
<glyph d="M55 -15l-32 21q-5 5 1 15l461 739q7 7 14 4l30 -18q5 -5 2 -10l-464 -746q-6 -8 -12 -5z" glyph-name="slash" horiz-adv-x="552" unicode="/"/>
<glyph d="M42 352q0 216 88 331q66 83 163 84q134 0 198 -161q38 -97 38 -208q0 -210 -86 -326q-67 -88 -166 -89q-117 0 -183 131q-52 103 -52 238zM123 393q0 -184 59 -290q46 -82 115 -83q73 0 115 107q36 92 36 228q0 181 -61 291q-47 83 -114 84q-80 0 -120 -120 q-30 -88 -30 -217z" glyph-name="zero" unicode="0"/>
<glyph d="M341 486l-1 -185q-2 -171 5 -230q5 -36 20 -46q8 -4 20 -7q29 -6 66 -6q7 -1 9 -8q-2 -7 -17 -7q-33 0 -67.5 0.5t-55.5 1.5l-21 1h-14q-89 -3 -139 -3q-16 1 -17 7q1 6 8 8q46 0 80 7q33 6 40 33q1 8 2 19q3 45 3 230v175v152q-4 29 -18 31q-15 0 -114 -48q-7 -4 -12 -4 q-5 1 -7 9q1 5 7 10l193 129q18 12 24 12q10 -1 11 -21v-16q-4 -123 -5 -244z" glyph-name="one" unicode="1"/>
<glyph d="M428 0h-379q-12 2 -14 14q1 9 18 24q168 149 232 227q117 142 117 281q0 130 -93 171q-32 14 -66 14q-67 -1 -107 -38q-35 -34 -35 -97q-1 -14 -9 -15q-6 2 -8 13q-6 53 -6 123q2 9 10 15q77 35 176 35q135 0 195 -92q31 -49 31 -110q0 -182 -241 -404q-34 -31 -107 -94 q-5 -6 2 -7h73q125 0 171 5q97 11 117 96q5 14 12 15q6 -1 6 -15q0 -29 -30 -131q-7 -25 -32 -28q-12 -2 -33 -2z" glyph-name="two" unicode="2"/>
<glyph d="M420 203q0 123 -126 176q-29 12 -59 18q-25 6 -26 13q2 8 23 12q65 12 112 60t47 114q0 59 -41 98q-39 37 -103 37q-85 0 -114 -62q-12 -25 -12 -56q-1 -11 -7 -12q-5 0 -7 9v2q-7 56 -7 100q2 13 13 21q71 34 162 34q142 0 185 -93q13 -29 13 -57q0 -88 -95 -157 q-22 -15 -39 -23v-5q74 -18 122 -75q43 -52 43 -117q0 -111 -88 -185q-85 -72 -211 -72q-63 0 -113 20q-5 2 -9 4q-16 11 -16 28q0 73 7 125q2 14 8 15q6 0 7 -12v-2q14 -134 150 -135q108 0 155 76q26 43 26 101z" glyph-name="three" unicode="3"/>
<glyph d="M416 600v-321h76q16 0 39 10q1 1 2 1q5 -1 5 -12q0 -13 -9 -40q-8 -13 -21 -13h-92q0 -132 2 -154q4 -39 29 -50q7 -3 14 -5q19 -4 44 -4q8 -1 9 -8q-2 -7 -16 -7q-41 0 -110 2q-14 1 -16 1t-14 -1q-62 -2 -102 -2q-15 1 -16 7q2 7 8 8q23 0 47 3q34 5 41 41q1 7 2 15 q2 24 2 154h-305q-20 1 -21 12q1 10 9 21l363 491q14 17 21 18q9 -2 10 -17v-35q-1 -79 -1 -115zM340 279v354h-2q-23 -39 -243 -339q-8 -11 -11 -15h256z" glyph-name="four" unicode="4"/>
<glyph d="M190 687l-14 -154q143 -21 230 -98q81 -73 82 -176q0 -107 -74 -186q-85 -90 -226 -90q-60 0 -92 18q-19 11 -19 28q0 100 4 126q4 17 9 18q8 -2 8 -17q0 -113 101 -127q17 -2 36 -2q87 0 137 64q39 52 39 130q0 118 -116 193q-73 46 -138 50q-27 3 -26 18l23 255 q3 13 19 13h235q34 0 58 4q7 1 16 2q4 1 5 1q6 -2 7 -10q0 -32 -13 -126q-3 -10 -8 -11q-5 2 -6 13q0 42 -27 54q-21 10 -61 10h-189z" glyph-name="five" unicode="5"/>
<glyph d="M446 195q0 116 -73 178q-39 32 -78 32q-48 0 -75 -13q-12 -4 -13 -4q-4 2 -4 8q1 7 9 12q51 35 116 35q115 0 170 -93q31 -52 31 -110q0 -118 -70 -188l-2 -2q-71 -67 -173 -67q-127 0 -191 105q-44 74 -44 183q0 153 110 299q99 130 236 190q16 7 21 7q7 -2 8 -9 q-2 -8 -19 -18q-124 -69 -198 -198q-71 -124 -71 -271q0 -119 55 -192q46 -57 112 -58q79 0 118 70q25 44 25 104z" glyph-name="six" unicode="6"/>
<glyph d="M202 750h324q17 -1 18 -10q-1 -10 -6 -19q-69 -102 -167 -346q-84 -209 -94 -296v-35q0 -17 -55 -45q-30 -16 -43 -16q-8 2 -9 10q0 16 6 34q58 196 196 469q50 100 102 191h-246q-63 -1 -93 -25q-32 -27 -38 -77q-2 -13 -9 -14q-6 2 -6 16q0 5 14 150q1 7 1 9 q1 13 10 14q1 0 7 -1q39 -9 88 -9z" glyph-name="seven" unicode="7"/>
<glyph d="M53 177q0 117 116 191q29 19 62 32q-103 61 -129 126q-11 30 -11 62q0 69 55 121q61 58 158 58q109 0 157 -68q26 -36 26 -85q0 -117 -134 -188q-5 -3 -9 -5q112 -58 150 -125q24 -43 24 -93q0 -97 -74 -161q-68 -59 -164 -59q-116 0 -181 71q-46 52 -46 123zM288 21 q85 0 128 68q25 40 25 91q0 93 -93 156q-28 19 -83 48q-134 -67 -135 -197q0 -81 59 -131q43 -35 99 -35zM292 733q-81 0 -116 -68q-14 -28 -14 -58q0 -75 80 -130q25 -17 68 -40q63 37 86 78q21 39 21 87q0 80 -59 114q-29 17 -66 17z" glyph-name="eight" unicode="8"/>
<glyph d="M288 767q117 0 181 -98q48 -73 48 -174q0 -229 -187 -404q-76 -69 -159 -111q-8 -4 -16 -4q-7 2 -8 10q1 9 10 14q109 60 184 175q88 135 88 291q0 165 -81 232q-38 32 -84 32q-83 0 -120 -74q-17 -36 -17 -79q0 -131 94 -182q32 -17 56 -17q51 0 80 18q9 6 13 6 q4 -1 5 -7q-1 -5 -4 -8q-38 -41 -109 -46h-11q-119 0 -174 92q-28 48 -28 101q0 118 86 184q65 49 153 49z" glyph-name="nine" unicode="9"/>
<glyph d="M124 30q-41 0 -52 38q-2 9 -2 17q0 34 28 49q13 6 27 6q40 0 52 -33q3 -9 3 -19q0 -40 -34 -54q-11 -4 -22 -4zM124 368q-41 0 -52 38q-2 9 -2 17q0 34 28 49q13 6 27 6q40 0 52 -33q3 -9 3 -19q0 -40 -34 -54q-11 -4 -22 -4z" glyph-name="colon" horiz-adv-x="250" unicode=":"/>
<glyph d="M116 -2q0 30 -26 59q-7 8 -8 12q0 28 34 46q15 8 28 8q6 0 16 -17q2 -1 2 -2q17 -26 17 -43q0 -14 -10 -39q-31 -70 -64 -107q-7 -8 -13 -9q-5 2 -7 7q0 2 7 14q24 41 24 71zM124 368q-41 0 -52 38q-2 9 -2 17q0 34 28 49q13 6 27 6q40 0 52 -33q3 -9 3 -19 q0 -40 -34 -54q-11 -4 -22 -4z" glyph-name="semicolon" horiz-adv-x="250" unicode=";"/>
<glyph d="M25 237v53l426 196v-53l-371 -170l371 -171v-53z" glyph-name="less" horiz-adv-x="510" unicode="&lt;"/>
<glyph d="M468 329h-426v51h426v-51zM468 153h-426v51h426v-51z" glyph-name="equal" horiz-adv-x="510" unicode="="/>
<glyph d="M468 237l-426 -198v53l372 171l-372 170v53l426 -196v-53z" glyph-name="greater" horiz-adv-x="510" unicode="&gt;"/>
<glyph d="M223 733q-67 -1 -98 -39q-30 -37 -35 -93q-2 -16 -8 -17q-6 2 -8 10q-4 19 -4 117q2 10 11 16q67 40 166 40q122 0 165 -86q16 -33 16 -70q0 -78 -56 -151q-5 -6 -83 -97q-19 -21 -33 -39q-41 -53 -41 -80q1 -26 19 -51q9 -12 9 -17q-2 -6 -11 -9q-14 1 -42 35 q-29 37 -29 59q1 23 22 50q12 16 37 45q22 25 32 38q77 98 86 177q2 16 2 33q0 67 -43 104q-30 25 -74 25zM224 -17q-38 0 -48 36q-2 8 -2 15q0 31 26 45q12 6 25 6q37 0 48 -31q3 -8 3 -17q0 -37 -32 -50q-10 -4 -20 -4z" glyph-name="question" horiz-adv-x="488" unicode="?"/>
<glyph d="M840 391q0 -129 -90 -217q-21 -20 -44 -35q-63 -42 -125 -42q-43 0 -64 36q-4 8 -6 15q-10 37 -6 100l-3 1q-70 -105 -145 -139q-21 -9 -37 -9q-29 0 -45 44q-8 24 -8 51q0 145 114 234q3 2 5 4q75 51 129 56q29 0 55 -12h1q19 24 48 39q6 3 10 4q7 2 8 -6v-5 q-26 -42 -37 -80q-19 -65 -26 -153q-8 -99 22 -125q16 -13 41 -13q66 0 112 73q45 71 45 176q0 132 -94 204q-75 57 -191 57q-178 0 -283 -130q-93 -117 -93 -292q0 -164 109 -244q73 -54 177 -54q130 0 217 57q21 14 46 34q3 3 6.5 5t6 3t4.5 1.5t3.5 0.5h3t2.5 -1t1 -2 q2 -9 -16 -27q-68 -66 -184 -95q-56 -13 -112 -13q-164 0 -255 102q-76 86 -76 225q0 162 110 291q105 125 257 156q42 8 83 8q208 0 286 -132q38 -64 38 -151zM545 437q-30 17 -61 18q-74 -2 -114 -92q-30 -71 -30 -144q0 -45 17 -58q4 -3 7 -3q35 0 101 80q27 32 44 61 q18 85 36 138z" glyph-name="at" horiz-adv-x="906" unicode="@"/>
<glyph d="M95 107l227 621q14 39 22 39t20 -31q1 -3 2 -5q4 -11 42 -110q147 -384 191 -493q41 -97 86 -111q18 -6 40 -6q9 -1 10 -6q-2 -8 -20 -8q-88 0 -157 2q-29 2 -30 7q2 5 7 7q13 6 6 27l-93 246q-4 6 -9 6h-215q-7 -1 -10 -8l-60 -177q-14 -39 -14 -67q0 -23 28 -28 q6 -1 10 -1h10q9 -1 10 -6q-2 -8 -15 -8q-14 0 -52 2q-21 1 -26 1q-4 0 -23 -1q-59 -2 -90 -2q-18 1 -19 8q2 5 9 6q13 0 29 2q47 6 73 67q6 12 11 27zM235 328h191q5 2 4 7l-95 270q-7 23 -15 0l-88 -270q-1 -6 3 -7z" glyph-name="A" horiz-adv-x="700" unicode="A"/>
<glyph d="M178 287v176q0 184 -2 216q-2 40 -25 51q-8 4 -18 6q-12 3 -34 3q-7 1 -8 6q2 8 16 8q34 0 100 -3h13q10 0 38 1q45 2 71 2q142 0 186 -93q14 -28 14 -57q0 -75 -63 -147q-11 -12 -31 -33q85 -26 135 -94q38 -54 38 -117q0 -95 -72 -157q-71 -61 -183 -61q-6 0 -32 1 q-27 2 -40 2q-42 3 -61 3q-20 0 -40 -1q-11 0 -33 -1q-18 -1 -25 -1q-15 1 -16 8q2 5 8 6q13 0 30 4q21 4 28 49q1 3 1 6q5 43 5 217zM258 709v-268q1 -8 7 -11q25 -4 61 -4q58 0 75 11q8 6 16 15q36 42 36 101q0 100 -57 146q-33 26 -78 26q-28 0 -48 -5q-11 -4 -12 -11z M258 392v-57q0 -200 1 -216q3 -50 12 -62q8 -9 22 -16q31 -15 88 -15q72 0 112 49q29 37 29 93q0 112 -72 180q-12 11 -25 20q-34 23 -83 29q-14 2 -78 2q-5 -2 -6 -7z" glyph-name="B" horiz-adv-x="687" unicode="B"/>
<glyph d="M515 -17q-208 0 -328 106l-2 2q-121 109 -121 296q0 114 64 213q21 33 48 60q108 107 305 107q80 0 145 -12q71 -13 102 -15q12 -2 13 -11q0 -3 -1 -12q-3 -23 -4 -44q-1 -19 -2 -68q-1 -29 -1 -35q-2 -20 -9 -21q-8 2 -8 21q0 61 -37 97l-5 5q-50 43 -152 54 q-25 3 -48 3q-155 0 -230 -73q-83 -80 -89 -229q-1 -16 -1 -32q0 -141 92 -246q99 -112 250 -120h19q117 0 166 43q5 4 8 7q26 28 37 82v2q4 14 10 15q7 -2 7 -15q0 -27 -16 -105q-4 -14 -6 -23q-6 -19 -17 -25q-4 -2 -9 -4q-58 -23 -180 -23z" glyph-name="C" horiz-adv-x="805" unicode="C"/>
<glyph d="M178 287v176q0 184 -2 216q-2 40 -25 51q-8 4 -18 6q-12 3 -34 3q-7 1 -8 6q2 8 16 8q34 0 100 -3h13q4 0 24 1q70 2 111 2q133 0 194 -11q130 -24 207 -103q97 -102 97 -254q0 -158 -97 -270q-6 -7 -11 -12q-111 -114 -303 -115q-54 0 -139 6q-22 2 -56 4q-24 2 -27 2 q-20 0 -40 -1q-11 0 -33 -1q-18 -1 -25 -1q-15 1 -16 8q2 5 8 6q13 0 30 4q21 4 28 49q1 3 1 6q5 43 5 217zM262 479v-124q0 -178 2 -217q3 -64 11 -76q29 -40 170 -40q137 0 229 84l9 9q64 63 77 190q3 25 3 49q0 151 -96 252q-93 97 -250 110q-34 3 -77 3q-50 0 -65 -7 q-12 -7 -12 -20q-1 -35 -1 -213z" glyph-name="D" horiz-adv-x="917" unicode="D"/>
<glyph d="M178 287v176q0 184 -2 216q-2 40 -25 51q-8 4 -18 6q-12 3 -34 3q-7 1 -8 6q2 8 16 8q50 0 72 -1l41 -2q205 0 229 1q29 2 43 5q2 0 6 2q6 3 8 3q4 -2 4 -9q0 -3 -2 -12q-4 -19 -6 -35q0 -4 -1 -21q-3 -37 -4 -45q-3 -10 -7 -11q-8 2 -8 13q0 22 -6 36q-9 22 -41 29 q-13 3 -30 5q-25 3 -137 3q-5 -2 -6 -10v-276q1 -9 6 -10q135 0 159 2q37 4 47 14q12 12 15 13q4 -2 5 -8q0 -2 -2 -12q-4 -24 -6 -44q-4 -38 -4 -64q-1 -18 -7 -19q-6 2 -7 9q0 21 -4 33q-9 30 -50 35h-2q-44 5 -143 5q-6 -2 -7 -7v-88v-171q2 -54 24 -68q23 -14 92 -14 q70 0 96 11q33 14 43 64l2 8q4 14 9 15q6 -1 6 -15q0 -30 -12 -91q0 -4 -1 -6q-6 -21 -20 -24q-9 -2 -34 -2q-53 0 -169 3q-58 3 -78 3t-40 -1q-11 0 -33 -1q-18 -1 -25 -1q-15 1 -16 8q2 5 8 6q13 0 30 4q21 4 28 49q1 3 1 6q5 43 5 217z" glyph-name="E" horiz-adv-x="610" unicode="E"/>
<glyph d="M178 287v176q0 184 -2 216q-2 40 -25 51q-8 4 -18 6q-12 3 -34 3q-7 1 -8 6q2 8 16 8q50 0 72 -1l41 -2l246 1q38 2 44 4q3 1 7 3q5 3 7 3q5 -2 6 -9q0 -3 -2 -12q-4 -19 -6 -35q0 -4 -1 -21q-3 -37 -4 -45q-3 -10 -8 -11q-6 2 -7 12q0 19 -9 38q-11 23 -50 30 q-9 2 -18 2l-154 3q-8 -2 -9 -11v-276q2 -8 7 -9l128 1q31 0 45 1q36 4 46 18q9 9 11 10q5 -2 5 -8q0 -2 -2 -12q-4 -24 -6 -44q-4 -38 -4 -67q-1 -18 -7 -19q-6 2 -7 9q-3 26 -6 36q-12 30 -52 36q-25 3 -151 3q-6 -2 -7 -9v-85q0 -175 5 -217q5 -44 29 -53l10 -2 q27 -4 45 -4q7 -1 8 -6q-2 -7 -16 -8q-42 0 -111 3h-11.5t-17.5 -1q-60 -2 -81 -2q-15 1 -16 8q2 5 8 6q13 0 30 4q21 4 28 49q1 3 1 6q5 43 5 217z" glyph-name="F" horiz-adv-x="592" unicode="F"/>
<glyph d="M653 82v170q0 71 -13 87q-9 10 -32 16q-12 3 -34 3q-7 1 -8 6q2 8 16 8q34 0 100 -3h13q1 0 17 1q60 2 81 2q15 -1 16 -8q-1 -5 -8 -6q-8 0 -25 -3q-30 -6 -35 -40q-1 -8 -2 -17q-2 -33 -2 -104v-112q0 -44 -7 -50l-6 -4q-86 -44 -212 -45q-207 1 -329 107 q-73 64 -104 177q-15 54 -15 108q0 172 109 282q27 27 58 47q102 63 266 63q72 0 153 -17q34 -8 81 -10q11 -2 12 -9q0 -4 -1 -16q-6 -54 -6 -126q-1 -20 -9 -21q-5 2 -7 15q-3 37 -21 66q-31 47 -124 69q-52 12 -111 12q-115 0 -191 -49q-12 -8 -23 -17q-77 -61 -95 -192 q-4 -31 -4 -62q0 -138 80 -246q14 -19 26 -31q110 -107 262 -107q77 0 114 21q19 12 20 35z" glyph-name="G" horiz-adv-x="862" unicode="G"/>
<glyph d="M782 463v-176q0 -175 5 -217q5 -44 29 -53l10 -2q27 -4 45 -4q7 -1 8 -6q-2 -7 -16 -8q-42 0 -111 3h-11.5t-17.5 -1q-60 -2 -81 -2q-15 1 -16 8q2 5 8 6q13 0 30 4q21 4 28 49q1 3 1 6q5 43 5 217v105q-1 5 -6 6h-424q-5 -2 -6 -6v-105q0 -175 5 -217q5 -44 29 -53 l10 -2q27 -4 45 -4q7 -1 8 -6q-2 -7 -16 -8q-42 0 -111 3h-11.5t-17.5 -1q-60 -2 -81 -2q-15 1 -16 8q2 5 8 6q13 0 30 4q21 4 28 49q1 3 1 6q5 43 5 217v176q0 184 -2 216q-2 40 -25 51q-8 4 -18 6q-12 3 -34 3q-7 1 -8 6q2 8 16 8q34 0 100 -3h13q1 0 17 1q60 2 81 2 q15 -1 16 -8q-1 -5 -8 -6q-8 0 -25 -3q-30 -6 -35 -40q-1 -8 -2 -17q-2 -34 -2 -216v-21q1 -5 6 -6h424q5 2 6 6v21q0 184 -2 216q-2 40 -25 51q-8 4 -18 6q-12 3 -34 3q-7 1 -8 6q2 8 16 8q34 0 100 -3h13q1 0 17 1q60 2 81 2q15 -1 16 -8q-1 -5 -8 -6q-8 0 -25 -3 q-30 -6 -35 -40q-1 -8 -2 -17q-2 -34 -2 -216z" glyph-name="H" horiz-adv-x="960" unicode="H"/>
<glyph d="M262 463v-176q0 -175 5 -217q5 -44 29 -53l10 -2q27 -4 45 -4q7 -1 8 -6q-2 -7 -16 -8q-42 0 -111 3h-11.5t-17.5 -1q-60 -2 -81 -2q-15 1 -16 8q2 5 8 6q13 0 30 4q21 4 28 49q1 3 1 6q5 43 5 217v176q0 184 -2 216q-4 48 -34 56q-15 4 -31 4q-7 1 -8 6q2 8 16 8 q24 0 85 -2q14 -1 16 -1q1 0 17 1q60 2 81 2q15 -1 16 -8q-1 -5 -8 -6q-8 0 -25 -3q-30 -6 -35 -40q-1 -8 -2 -17q-2 -34 -2 -216z" glyph-name="I" horiz-adv-x="440" unicode="I"/>
<glyph d="M262 463v-240q0 -179 -11 -232q-6 -33 -19 -63q-32 -74 -146 -153q-29 -20 -39 -25q-5 -2 -7 -2q-6 2 -7 6q0 6 13 14l1 1q17 10 35 28q52 53 70 109q26 81 26 268v289q0 184 -2 216q-2 40 -25 51q-8 4 -18 6q-12 3 -34 3q-7 1 -8 6q2 8 16 8q34 0 100 -3h13q1 0 17 1 q60 2 81 2q15 -1 16 -8q-1 -5 -8 -6q-8 0 -25 -3q-30 -6 -35 -40q-1 -8 -2 -17q-2 -34 -2 -216z" glyph-name="J" horiz-adv-x="414" unicode="J"/>
<glyph d="M178 287v176q0 184 -2 216q-2 40 -25 51q-8 4 -18 6q-12 3 -34 3q-7 1 -8 6q2 8 16 8q33 0 95 -2q13 -1 15 -1q3 0 25 1q53 2 72 2q15 -1 16 -8q-1 -5 -8 -6q-8 0 -25 -3q-30 -6 -35 -40q-1 -8 -2 -17q-2 -34 -2 -216v-60h4q8 9 99 102q115 119 135 140q50 52 53 68 q1 2 1 4q-1 16 -13 21q-8 4 -9 8q2 6 12 7q10 0 34 -1q29 -2 41 -2q2 0 19 1q59 2 77 2q14 -1 15 -7q-2 -7 -10 -7q-25 0 -56 -14q-35 -15 -83 -62q-23 -22 -25 -24q-162 -155 -216 -214q-3 -3 -4 -5q59 -66 233 -240q30 -31 42 -42q86 -80 113 -96q16 -9 36 -18 q30 -13 62 -13q12 -1 13 -6q-2 -8 -22 -8h-51q-47 0 -69 2q-48 5 -95 41q-6 4 -26 20q-51 42 -233 243q-52 57 -72 82h-5v-98q0 -175 5 -217q5 -44 29 -53l10 -2q28 -4 39 -4q7 -1 8 -6q-2 -7 -16 -8q-35 0 -97 2q-15 1 -18 1t-22 -1q-54 -2 -74 -2q-15 1 -16 8q2 5 8 6 q13 0 30 4q21 4 28 49q1 3 1 6q5 43 5 217z" glyph-name="K" horiz-adv-x="752" unicode="K"/>
<glyph d="M262 463v-178q0 -191 17 -222q3 -5 5 -7q21 -21 102 -23h18q80 0 107 17q8 6 14 13q20 26 26 60q3 12 9 13q6 -2 6 -15q0 -36 -13 -92q-1 -5 -2 -8q-6 -19 -17 -23q-12 -4 -46 -4q-42 0 -166 3q-63 3 -102 3h-7q-21 -1 -34 -1q-40 -2 -57 -2q-15 1 -16 8q2 5 8 6 q13 0 30 4q21 4 28 49q1 3 1 6q5 43 5 217v176q0 184 -2 216q-2 40 -25 51q-8 4 -18 6q-12 3 -34 3q-7 1 -8 6q2 8 16 8q34 0 100 -3h13q1 0 19 1q67 2 89 2q15 -1 16 -8q-1 -5 -8 -6q-15 0 -33 -3q-31 -5 -37 -37q-1 -9 -2 -20q-2 -34 -2 -216z" glyph-name="L" horiz-adv-x="592" unicode="L"/>
<glyph d="M855 740l67 -614q9 -81 43 -101q6 -3 11 -5q29 -9 65 -9q7 -1 8 -5q-2 -9 -21 -9q-92 0 -167 6q-27 3 -28 10q2 5 7 7q7 3 4 36l-48 516h-3l-245 -520q-23 -49 -28 -52q-3 -1 -5 -1q-7 0 -22 29q-3 5 -9 17q-19 35 -117 232l-132 285h-4l-40 -464q-1 -17 -1 -51 q0 -22 22 -30q2 -1 4 -1q21 -5 38 -5q7 -1 8 -5q-2 -9 -18 -9q-22 0 -58 1l-35 2q-3 0 -23 -1q-44 -2 -61 -2q-16 1 -17 9q1 4 10 5q16 0 30 3q30 5 37 60q1 7 3 23l72 652q3 17 11 18q8 0 14 -13q1 -1 1 -2l306 -629l294 628q8 15 15 16q9 0 12 -25v-2z" glyph-name="M" horiz-adv-x="1050" unicode="M"/>
<glyph d="M192 612l13 -479q2 -92 26 -110q6 -4 13 -6q23 -6 50 -6q7 -1 8 -6q-2 -8 -18 -8q-41 0 -91 2q-12 1 -15 1t-17 -1q-48 -2 -79 -2q-15 1 -16 8q2 5 8 6q23 0 41 6q23 6 28 53q2 25 2 74l1 573q0 49 11 50q5 0 31 -28l4 -4q38 -43 318 -343q52 -56 152 -166q73 -79 88 -95 l-11 508q-1 70 -20 86q-8 6 -19 9q-22 5 -49 5q-8 1 -8 7q2 7 20 7q30 0 82 -2q18 -1 22 -1t18 1q40 2 67 2q17 -1 18 -7q-2 -6 -11 -7q-13 0 -24 -3q-28 -6 -34 -36q-3 -17 -3 -53l-2 -586q-2 -69 -9 -71q-9 0 -59 50l-14 14q-38 35 -217 224q-24 26 -44 47 q-139 150 -261 287z" glyph-name="N" horiz-adv-x="947" unicode="N"/>
<glyph d="M64 376q0 124 74 231q102 146 288 159q16 1 32 1q181 0 291 -110q102 -103 102 -265q0 -168 -105 -284q-118 -122 -294 -125q-205 0 -312 149q-76 106 -76 244zM159 404q0 -186 107 -294q88 -89 213 -89q104 0 178 68q98 91 98 275q0 192 -113 295q-82 74 -191 74 q-153 0 -232 -111q-60 -85 -60 -218z" glyph-name="O" horiz-adv-x="915" unicode="O"/>
<glyph d="M178 287v176q0 184 -2 216q-2 40 -25 51q-8 4 -18 6q-12 3 -34 3q-7 1 -8 6q2 8 16 8q32 0 94 -2q16 -1 19 -1q9 0 42 1q57 2 84 2q125 0 186 -57q42 -40 49 -101q1 -9 1 -18q0 -121 -89 -189q-66 -49 -157 -49q-16 0 -21 1q-10 1 -11 7q8 9 27 9q87 0 138 64 q35 44 35 99q-1 97 -56 154q-52 51 -137 50q-29 0 -43 -6q-8 -4 -8 -19v-411q0 -175 5 -217q5 -44 29 -53l10 -2q27 -4 45 -4q7 -1 8 -6q-2 -7 -16 -8q-42 0 -111 3h-12h-11q-62 -3 -85 -3q-15 1 -16 8q2 5 8 6q13 0 30 4q21 4 28 49q1 3 1 6q5 43 5 217z" glyph-name="P" horiz-adv-x="642" unicode="P"/>
<glyph d="M780 -76l-168 93q-56 -29 -141 -34h-16q-208 0 -315 150q-76 106 -76 243q0 124 74 231q102 146 288 159q16 1 32 1q180 0 290 -109q103 -103 103 -266q0 -162 -114 -283q-32 -32 -63 -53l205 -106q229 -118 421 -118q101 0 197 39q12 4 14 4q5 -1 6 -6q-2 -6 -8 -10 q-152 -69 -317 -69q-172 1 -412 134zM159 404q0 -186 107 -294q88 -89 213 -89q104 0 178 68q98 91 98 275q0 192 -113 295q-82 74 -191 74q-153 0 -232 -111q-60 -85 -60 -218z" glyph-name="Q" horiz-adv-x="920" unicode="Q"/>
<glyph d="M178 287v176q0 184 -2 216q-2 40 -25 51q-8 4 -18 6q-12 3 -34 3q-7 1 -8 6q2 8 16 8q34 0 100 -3h13q4 0 34 1q64 2 84 2q122 -1 183 -44q46 -33 63 -91q6 -23 6 -45q-1 -120 -121 -231q157 -201 205 -253l3 -3q59 -62 122 -72q19 -3 39 -3q8 -1 9 -6q-2 -8 -24 -8h-71 q-72 0 -107 19q-38 20 -96 95q-5 7 -39 52q-24 32 -71 97q-30 40 -38 51q-7 6 -13 6l-123 2q-6 -2 -7 -8v-24q0 -175 5 -217q5 -44 29 -53l10 -2q27 -4 45 -4q7 -1 8 -6q-2 -7 -16 -8q-42 0 -111 3h-12h-5q-63 -3 -89 -3q-15 1 -16 8q2 5 8 6q13 0 30 4q21 4 28 49q1 3 1 6 q5 43 5 217zM258 703v-327q1 -8 7 -12q28 -16 105 -16q48 1 75 19q54 37 60 134q1 10 1 20q0 131 -86 179q-38 21 -87 21q-46 0 -67 -6q-7 -4 -8 -12z" glyph-name="R" horiz-adv-x="754" unicode="R"/>
<glyph d="M248 -17q-79 0 -134 27q-13 7 -14 20q-1 6 -1 18q0 29 5 106q2 15 8 16q7 -2 7 -11q0 -23 3 -37q16 -81 106 -98q21 -4 42 -4q89 0 126 68q17 31 17 65q0 64 -46 116q-24 27 -69 64l-45 37q-111 91 -127 176q-3 20 -3 41q0 101 83 150q52 30 124 30q52 0 93 -10 q24 -5 35 -5q9 -1 10 -7v-7q-4 -46 -4 -99q-1 -22 -7 -23q-6 2 -8 13q-3 30 -13 50q-27 50 -114 53h-11q-75 0 -107 -55q-16 -27 -16 -61q0 -53 44 -100q27 -28 78 -68l28 -22q114 -90 137 -168q9 -30 9 -67q0 -80 -53 -138q-15 -16 -32 -28q-61 -42 -151 -42z" glyph-name="S" horiz-adv-x="570" unicode="S"/>
<glyph d="M391 710v-423q0 -175 5 -217q5 -44 29 -53l10 -2q27 -4 45 -4q7 -1 8 -6q-2 -7 -16 -8q-42 0 -111 3h-11.5t-17.5 -1q-60 -2 -81 -2q-15 1 -16 8q2 5 8 6q13 0 30 4q21 4 28 49q1 3 1 6q5 43 5 217v423l-148 -2q-73 -1 -94 -22l-8 -10q-11 -18 -17 -31q-5 -9 -10 -10 q-4 2 -5 9q0 15 22 104q7 18 10 19q3 0 9 -3q19 -8 35 -9q48 -5 79 -5h375q44 0 71 5q8 1 19 4q7 1 9 1q5 -1 5 -12q0 -19 -2 -78q-1 -27 -1 -32q-1 -12 -7 -13q-7 0 -8 15v2l-1 11q-4 43 -80 52q-20 2 -43 3z" glyph-name="T" horiz-adv-x="691" unicode="T"/>
<glyph d="M120 317v146q0 184 -2 216q-2 40 -25 51q-8 4 -18 6q-12 3 -34 3q-7 1 -8 6q2 8 16 8q27 0 71 -1l44 -2q3 0 25 1q55 2 74 2q15 -1 16 -8q-1 -5 -8 -6q-8 0 -25 -3q-30 -4 -36 -42q-1 -7 -1 -15q-2 -34 -2 -216v-140q0 -166 65 -237l10 -10q55 -51 132 -55h19 q83 0 143 57q8 8 14 15q58 73 58 245v125q0 184 -2 216q-2 40 -25 51q-8 4 -18 6q-12 3 -34 3q-7 1 -8 6q2 8 16 8q33 0 92 -2q12 -1 14 -1t18 1q46 2 66 2q15 -1 16 -8q-1 -5 -8 -6q-8 0 -25 -3q-30 -7 -35 -39q-1 -8 -2 -18q-2 -34 -2 -216v-107q0 -192 -69 -275 q-11 -14 -23 -24q-84 -74 -206 -74q-131 1 -206 71q-79 76 -86 228q-1 17 -1 35z" glyph-name="U" horiz-adv-x="830" unicode="U"/>
<glyph d="M203 631l192 -512q84 195 189 482q19 52 25 73q9 27 9 38q-1 16 -13 23q-13 4 -38 4q-10 1 -11 6q2 8 22 8q26 0 74 -2q20 -1 24 -1q2 0 15 1q43 2 63 2q16 -1 17 -7q-2 -7 -12 -7q-29 -1 -48 -12q-24 -17 -54 -92q-1 -1 -1 -2q-7 -18 -112 -271q-107 -256 -129 -303 q-33 -70 -35 -73q-4 -3 -7 -3q-10 0 -21 25q-4 9 -15 37l-245 613q-21 54 -47 68q-10 5 -25 9t-38 4q-7 1 -8 7q2 7 26 7q32 0 92 -2q21 -1 25 -1q3 0 21 1q47 2 72 2q26 -1 27 -7q-2 -6 -10 -7q-26 0 -38 -5q-13 -7 -13 -20q1 -14 27 -83z" glyph-name="V" horiz-adv-x="742" unicode="V"/>
<glyph d="M599 702l199 -567h4q10 33 48 158q83 270 106 352q11 41 11 64q0 27 -46 30h-11q-8 1 -9 7q2 7 17 7q36 0 86 -2q13 -1 16 -1q2 0 16 1q44 2 65 2q13 -1 14 -6q-2 -7 -9 -8q-20 0 -34 -5q-30 -11 -56 -82q-4 -11 -9 -26q-22 -64 -95 -288q-70 -213 -89 -269 q-28 -80 -37 -85q-3 -1 -5 -1q-10 0 -23 34q-3 8 -7 18l-196 556h-2q-181 -482 -209 -555q-18 -48 -27 -52q-4 -1 -6 -1q-10 0 -20 30q-5 16 -15 49l-178 593q-17 57 -42 72q-6 3 -13 6q-16 6 -45 6q-8 2 -9 7q2 7 16 7q31 0 75 -1l43 -2q3 0 17 1q51 2 86 2q17 -1 18 -7 q-1 -7 -10 -7q-27 0 -39 -6q-12 -8 -13 -24q0 -10 19 -92q14 -62 134 -484h2l212 570q17 45 25 46q8 0 24 -45q1 -1 1 -2z" glyph-name="W" horiz-adv-x="1100" unicode="W"/>
<glyph d="M124 97l181 286l-160 269q-36 61 -69 76q-5 3 -9 4q-22 7 -42 7q-8 1 -9 7q2 7 17 7q18 0 87 -2q27 -1 30 -1t21 1q51 2 73 2q16 -1 17 -7q-2 -6 -9 -7q-19 0 -27 -3q-11 -5 -12 -17q1 -15 10 -33q70 -131 135 -239q56 81 135 214q9 16 12 21q10 22 10 36q-2 12 -17 18 q-11 3 -30 3q-8 2 -9 7q2 7 17 7q26 0 71 -2q15 -1 18 -1t19 1q43 2 65 2q15 -1 16 -7q-2 -6 -11 -7q-19 0 -33 -5q-27 -8 -61 -57q-5 -8 -16 -24l-161 -242q5 -8 40 -67q155 -261 171 -282q28 -35 59 -45q21 -6 35 -6q7 -1 8 -6q-2 -7 -14 -8q-109 0 -160 2q-31 2 -31 8 q1 6 6 8q13 5 8 22q-2 3 -3 6q-65 118 -172 298l-156 -265q-13 -23 -13 -44q1 -15 16 -19q12 -2 19 -2q7 -1 8 -7q-2 -6 -12 -7q-15 0 -67 2q-25 1 -29 1q-3 0 -21 -1q-48 -2 -70 -2q-9 1 -10 7q2 6 8 7q20 0 38 5q35 9 71 62q6 9 12 19z" glyph-name="X" horiz-adv-x="694" unicode="X"/>
<glyph d="M289 170v86q0 54 -23 105q-13 30 -145 240q-21 33 -31 48q-35 52 -68 74q-24 15 -43 16q-9 1 -10 7q2 6 13 7q13 0 75 -2q22 -1 24 -1t14 1q43 2 70 2q12 -1 13 -7q-2 -3 -15 -9q-12 -7 -13 -18q1 -16 13 -39l184 -316q27 60 161 285q3 6 5 9q17 28 17 51q-1 23 -16 28 q-14 6 -15 10q2 6 16 6q17 0 50 -2q13 -1 16 -1q2 0 27 1q57 2 70 2q12 -1 13 -6q-2 -7 -13 -8q-24 -1 -46 -14q-23 -15 -53 -51q-38 -47 -147 -236q-36 -63 -44 -82q-15 -37 -15 -100v-86q0 -58 3 -100q5 -49 41 -55q27 -4 45 -4q7 -1 8 -6q-2 -7 -16 -8q-42 0 -111 3 h-11.5t-17.5 -1q-60 -2 -81 -2q-15 1 -16 8q2 5 8 6q13 0 30 4q27 7 31 55q3 42 3 100z" glyph-name="Y" horiz-adv-x="654" unicode="Y"/>
<glyph d="M184 40h272q113 0 148 37l10 12q15 22 20 54q4 15 9 16q8 -2 8 -23q0 -32 -20 -115q-6 -22 -13 -25q-6 -1 -17 -1q-83 0 -249 2q-173 3 -261 3q-17 1 -18 8q1 9 14 28q322 486 433 666l6 10h-217q-106 0 -144 -20q-43 -23 -55 -70q-1 -5 -2 -9q-3 -17 -11 -18q-6 2 -6 13 q0 14 20 133q4 18 10 19q3 0 10 -2q16 -4 32 -5q73 -3 174 -3h279q19 -1 20 -8q-1 -7 -4 -12q-166 -264 -448 -690z" glyph-name="Z" horiz-adv-x="692" unicode="Z"/>
<glyph d="M97 -108v839q9 12 17 13h170q11 -1 12 -7q0 -6 -15 -8h-2q-80 -8 -109 -21q-7 -30 -7 -93v-610q0 -64 7 -93q29 -13 108 -21q16 -2 17 -8q-2 -7 -12 -7h-170q-14 0 -15 6q-1 4 -1 10z" glyph-name="bracketleft" horiz-adv-x="360" unicode="["/>
<glyph d="M503 6l-30 -20q-7 -1 -11 4l-441 709q-2 6 2 10l28 17q9 3 14 -4l438 -702q5 -10 0 -14z" glyph-name="backslash" horiz-adv-x="524" unicode="\"/>
<glyph d="M263 728v-839q-9 -12 -17 -13h-170q-11 1 -12 7q0 6 15 8h2q80 8 109 21q7 30 7 93v610q0 64 -7 93q-29 13 -108 21q-16 2 -17 8q2 7 12 7h170q14 0 15 -6q1 -4 1 -10z" glyph-name="bracketright" horiz-adv-x="360" unicode="]"/>
<glyph d="M229 751h52l199 -426h-54l-171 371l-171 -371h-54z" glyph-name="asciicircum" horiz-adv-x="510" unicode="^"/>
<glyph d="M0 -75h500v-50h-500v50z" glyph-name="underscore" horiz-adv-x="500" unicode="_"/>
<glyph d="M506 830q-23 0 -181 59q-28 11 -29 17q0 5 10 8h1q45 13 60 19q14 5 16 5t10 -10q3 -4 5 -6q25 -25 89 -67q5 -4 9 -6t10 -6q8 -6 9 -8q-2 -4 -9 -5z" glyph-name="grave" horiz-adv-x="911" unicode="`"/>
<glyph d="M82 91l207 532q13 33 21 33q7 0 16 -21q3 -7 5 -10q8 -17 86 -210q97 -239 125 -306q33 -78 70 -91q3 -1 5 -2q17 -5 35 -5q10 -1 11 -7q-1 -7 -20 -7q-78 0 -139 2q-30 2 -31 6q2 4 6 6q13 7 8 23l-79 195q-4 5 -8 5h-203q-6 -2 -9 -7l-50 -136q-13 -34 -13 -57 q1 -22 30 -23h8q8 -1 9 -7q-2 -7 -13 -7q-12 0 -52 2q-23 1 -27 1q-3 0 -19 -1q-46 -2 -70 -2q-16 1 -17 7q1 6 8 7q12 0 26 2q40 5 64 55q5 10 10 23zM209 269h178q4 2 3 6l-87 233q-7 20 -15 0l-82 -233q-2 -6 3 -6z" glyph-name="a" horiz-adv-x="624" unicode="a"/>
<glyph d="M155 244v150q0 156 -2 183q-3 37 -21 45q-7 3 -15 4q-14 2 -30 2q-6 1 -7 5q2 7 14 7q30 0 89 -2h4.5h3.5h3h2q9 0 35 1q44 1 68 1q130 0 172 -81q13 -25 13 -49q0 -65 -65 -127q-10 -9 -24 -22q80 -24 124 -85q31 -43 31 -92q0 -90 -71 -144q-59 -45 -150 -45 q-34 0 -76 3q-56 2 -57 2h-4q-19 -1 -32 -1q-36 -2 -53 -2q-13 1 -14 7q2 4 7 5q5 0 17 2q7 2 10 2q16 3 21 35q0 2 2 12q5 36 5 184zM231 600v-224q1 -7 6 -9q21 -4 54 -4q59 0 76 13q6 4 10 9q34 38 34 91q0 76 -50 114q-31 23 -74 23q-26 0 -45 -4q-10 -4 -11 -9z M231 329v-47q0 -167 1 -181q3 -42 12 -52q6 -6 18 -12q27 -12 77 -12q120 0 128 114q1 9 1 17q0 76 -53 130q-14 14 -31 25q-22 14 -70 21q-6 0 -9 1q-12 2 -69 2q-4 -2 -5 -6z" glyph-name="b" horiz-adv-x="614" unicode="b"/>
<glyph d="M452 -14q-186 1 -290 91q-107 93 -107 252q0 100 61 187q17 25 38 45q96 91 268 91q67 0 128 -10q68 -12 90 -13q10 -1 11 -9q0 -3 -1 -12q-2 -19 -3 -36q0 -13 -1 -45q0 -35 -1 -42q-2 -17 -10 -18q-7 2 -7 18q0 53 -35 83l-2 2q-50 42 -154 47h-19q-135 0 -198 -59 q-74 -68 -79 -197v-25q0 -125 87 -215q93 -93 230 -93q89 0 126 24q10 8 19 16q25 26 34 71q4 11 9 12q7 -1 8 -12q0 -23 -17 -93q-2 -10 -4 -16q-5 -17 -16 -22q-3 -2 -6 -3q-50 -19 -159 -19z" glyph-name="c" horiz-adv-x="708" unicode="c"/>
<glyph d="M155 244v150q0 156 -2 183q-2 35 -21 43q-7 3 -15 4q-14 2 -30 2q-5 1 -7 7q2 7 14 7q30 0 89 -2h4.5h3.5h3h2h21q61 2 97 2q125 0 182 -11q107 -22 171 -86q86 -87 86 -216q0 -138 -90 -234l-5 -5q-97 -97 -267 -98q-29 0 -123 5q-62 5 -72 5h-4q-19 -1 -32 -1 q-36 -2 -53 -2q-13 1 -14 7q2 6 7 7q11 0 27 4t21 33q1 4 2 12q5 36 5 184zM235 586v-284q0 -168 1 -185q3 -51 10 -61q25 -34 146 -34q125 1 206 77q59 56 68 173q1 15 1 29q-1 130 -83 213t-219 93q-29 2 -66 2q-36 0 -53 -6q-11 -6 -11 -17z" glyph-name="d" horiz-adv-x="809" unicode="d"/>
<glyph d="M155 244v150q0 156 -2 183q-2 35 -21 43q-7 3 -15 4q-14 2 -30 2q-5 1 -7 7q2 7 14 7q30 0 89 -2h4.5h3.5h3h2h210q11 1 40 5q2 0 5 2q5 2 7 2q4 -1 4 -8q0 -2 -2 -9q-4 -17 -5 -31q0 -3 -1 -18q-3 -31 -4 -38q-3 -8 -8 -9q-6 2 -7 11q0 18 -5 30q-7 16 -35 22 q-12 2 -28 4q-22 3 -127 3q-5 -2 -5 -9v-231q1 -8 5 -9q126 0 147 2q34 4 43 12q11 11 13 11q4 -2 5 -7q0 -2 -1 -8q-5 -21 -6 -39q-4 -32 -4 -55q-1 -15 -8 -16q-5 2 -6 8q0 18 -4 28q-5 21 -43 26h-2q-32 4 -133 4q-5 -1 -6 -6v-71v-145q2 -46 25 -58q21 -10 80 -10 q65 0 88 9q32 14 39 54q1 3 1 5q4 12 9 13q6 -1 6 -13q0 -28 -11 -77q0 -3 -1 -5q-5 -18 -21 -21q-8 -1 -28 -1q-47 0 -153 3q-38 2 -73 2q-20 0 -38 -1q-34 -2 -51 -2q-13 1 -14 7q2 6 7 7q5 0 17 2q7 2 10 2q16 3 21 32q1 4 2 13q5 36 5 184z" glyph-name="e" horiz-adv-x="551" unicode="e"/>
<glyph d="M155 244v150q0 156 -2 183q-2 35 -21 43q-7 3 -15 4q-14 2 -30 2q-5 1 -7 7q2 7 14 7q30 0 87 -2h13h228q35 2 40 4q3 1 7 3t5 2q5 -1 6 -8q0 -3 -2 -11q-3 -16 -5 -29q0 -3 -1 -19q-2 -30 -3 -37q-3 -8 -8 -9q-6 2 -7 10q0 15 -8 32q-9 20 -47 24q-7 1 -13 1l-144 2 q-6 -2 -7 -9v-232q2 -7 6 -8l120 1q28 0 40 1q31 4 41 15q7 8 11 9q5 -2 5 -7q0 -2 -2 -8q-5 -21 -6 -39q-3 -24 -3 -57q-1 -16 -8 -17q-6 1 -6 8q-3 22 -6 31q-9 21 -45 27q-16 2 -141 2q-6 -2 -6 -8v-68q0 -151 4 -184q4 -36 23 -43q5 -1 9 -2q26 -4 40 -4q6 -1 7 -7 q-2 -6 -14 -7q-22 0 -48 0.5t-44 1.5l-18 1q-2 0 -16 -1q-52 -2 -71 -2q-13 1 -14 7q2 6 7 7q5 0 17 2q7 2 10 2q16 3 21 32q1 4 2 13q5 36 5 184z" glyph-name="f" horiz-adv-x="535" unicode="f"/>
<glyph d="M569 67v147q0 63 -10 74q-9 8 -28 12q-14 2 -30 2q-5 1 -7 7q2 7 14 7q30 0 90 -2h14h13q53 2 73 2q13 -1 14 -7q-1 -5 -7 -7q-13 0 -22 -2q-26 -4 -31 -30q-1 -8 -2 -17q-1 -28 -1 -88v-95q0 -38 -7 -43q-2 -1 -5 -3q-74 -38 -187 -38q-183 1 -290 91q-68 56 -94 157 q-11 43 -11 85q0 149 99 243q23 21 48 36q90 54 234 54q75 0 135 -14q41 -9 71 -9q10 -1 11 -8q0 -3 -1 -13q-4 -46 -4 -107q-1 -17 -10 -18q-6 2 -6 13q-4 32 -20 56q-31 46 -130 61q-35 5 -73 5q-101 0 -167 -43q-9 -6 -17 -12q-73 -55 -85 -174q-2 -20 -2 -40 q0 -120 72 -212q11 -14 21 -23q97 -89 225 -89q67 0 95 16q17 14 18 26z" glyph-name="g" horiz-adv-x="759" unicode="g"/>
<glyph d="M692 394v-150q0 -140 5 -184q4 -33 16 -40q7 -4 16 -5q23 -4 39 -4q7 -1 8 -7q-2 -6 -15 -7q-36 0 -97 3h-12q-1 0 -14 -1q-54 -2 -73 -2q-13 1 -14 7q2 6 7 7q11 0 26 4q18 4 23 37q0 4 1 9q4 36 4 181v85q-2 4 -5 5h-367q-4 -2 -5 -5v-85q0 -147 4 -182q4 -33 18 -41 q6 -3 14 -4q26 -4 40 -4q6 -1 7 -7q-2 -6 -14 -7q-22 0 -48 0.5t-44 1.5l-17 1q-2 0 -16 -1q-53 -2 -72 -2q-13 1 -14 7q2 6 7 7q11 0 27 4t21 33q1 4 2 12q5 36 5 184v150q0 156 -2 183q-2 35 -21 43q-7 3 -15 4q-14 2 -30 2q-5 1 -7 7q2 7 14 7q30 0 88 -2h4.5h3.5h4h1h14 q53 2 73 2q13 -1 14 -7q-1 -5 -7 -7q-13 0 -22 -2q-24 -5 -29 -27q-1 -9 -2 -20q-1 -29 -1 -185v-18q2 -5 5 -5h367q4 2 5 5v18q0 131 -2 184v1q-2 35 -18 42q-8 4 -17 5q-14 2 -30 2q-6 1 -7 7q2 7 14 7q30 0 89 -2h11.5h15.5q53 2 71 2q14 -1 15 -7q-1 -5 -8 -7 q-12 0 -22 -2q-23 -5 -28 -27q-1 -9 -2 -20q-2 -29 -2 -183z" glyph-name="h" horiz-adv-x="847" unicode="h"/>
<glyph d="M235 394v-150q0 -149 4 -184q4 -33 18 -41q6 -3 14 -4q26 -4 40 -4q6 -1 7 -7q-2 -6 -14 -7q-22 0 -48 0.5t-44 1.5l-18 1q-2 0 -16 -1q-52 -2 -71 -2q-13 1 -14 7q2 6 7 7q11 0 27 4q17 4 22 37q1 4 1 8q5 45 5 184v150q0 156 -2 183q-3 39 -26 45q-1 1 -2 1 q-15 3 -27 3q-6 1 -7 7q2 7 14 7q20 0 74 -2h15h14q54 2 74 2q13 -1 14 -7q-1 -5 -7 -7q-13 0 -22 -2q-24 -5 -29 -27q-1 -9 -2 -20q-1 -29 -1 -183z" glyph-name="i" horiz-adv-x="389" unicode="i"/>
<glyph d="M235 394v-204q0 -156 -15 -211q-6 -20 -14 -40q-29 -64 -129 -130q-18 -12 -36 -22h-1q-4 -1 -5 -1q-5 2 -6 5q2 8 11 14q13 7 31 23q47 47 63 97q21 69 21 223v246q0 156 -2 183q-2 35 -21 43q-7 3 -15 4q-14 2 -30 2q-5 1 -7 7q2 7 14 7q30 0 89 -2h4.5h3.5h3h2h13 q53 2 73 2q13 -1 14 -7q-1 -5 -7 -7q-13 0 -22 -2q-24 -5 -29 -27q-1 -9 -2 -20q-1 -29 -1 -183z" glyph-name="j" horiz-adv-x="369" unicode="j"/>
<glyph d="M155 244v150q0 156 -2 183q-2 35 -21 43q-7 3 -15 4q-14 2 -30 2q-5 1 -7 7q2 7 14 7q30 0 86 -2h13q3 0 22 1q48 1 65 1q13 -1 14 -7q-2 -5 -7 -7q-12 0 -22 -2q-24 -5 -29 -29q-1 -8 -2 -18q-2 -29 -2 -183v-51h4q8 9 116 116q74 74 88 89q45 48 48 61q-1 15 -11 17 q-7 2 -8 8q2 5 10 6q9 0 31 -1q24 -1 35 -1h18q52 2 67 2q12 -1 13 -6q-2 -6 -9 -7q-20 0 -49 -12q-31 -14 -75 -55l-17 -17q-71 -65 -177 -170q-10 -11 -14 -15q52 -57 213 -214q20 -19 29 -27q76 -68 95 -79q13 -8 31 -15q30 -12 54 -12q10 -1 11 -7q-2 -7 -19 -7h-45 q-41 0 -61 2q-43 4 -88 38q-5 3 -19 14q-46 35 -211 214q-40 43 -56 62h-4v-83q0 -149 4 -184q4 -34 20 -41q7 -3 14 -4q24 -4 34 -4q6 -1 7 -7q-2 -6 -14 -7q-31 0 -87 2q-14 1 -16 1t-20 -1q-49 -2 -67 -2q-13 1 -14 7q2 6 7 7q11 0 27 4t21 33q1 4 2 12q5 36 5 184z" glyph-name="k" horiz-adv-x="666" unicode="k"/>
<glyph d="M235 394v-152q0 -158 12 -183q3 -5 6 -8q22 -20 117 -20q74 0 97 18q6 4 9 8q16 19 21 48q3 10 9 11q6 -2 6 -13q0 -34 -12 -81q-1 -3 -1 -4q-5 -17 -16 -20t-40 -3q-92 0 -153 3q-80 2 -96 2q-20 0 -36 -1q-36 -2 -51 -2q-13 1 -14 7q2 6 7 7q11 0 27 4t21 33q1 4 2 12 q5 36 5 184v150q0 156 -2 183q-2 35 -21 43q-7 3 -15 4q-14 2 -30 2q-5 1 -7 7q2 7 14 7q30 0 87 -2h13h16q61 2 81 2q13 -1 14 -7q-1 -5 -7 -6q-10 0 -29 -2q-26 -5 -31 -29q-1 -8 -2 -19q-1 -29 -1 -183z" glyph-name="l" horiz-adv-x="535" unicode="l"/>
<glyph d="M754 629l60 -522q9 -75 45 -88q25 -8 57 -8q6 -2 7 -6q-2 -7 -18 -8q-96 0 -150 5q-24 3 -25 9q2 5 6 7q7 3 4 30l-42 430h-2l-212 -434q-23 -43 -31 -45q-8 0 -22 24q-3 7 -8 15q-69 126 -103 197q-8 17 -35 71q-66 136 -77 161h-4l-34 -384q-1 -14 -1 -43q2 -19 21 -24 t34 -5q5 -1 7 -6q-2 -8 -16 -8q-20 0 -51 1l-31 2q-3 0 -20 -1q-39 -2 -54 -2q-14 1 -15 8q2 5 9 6q8 0 26 3q25 4 31 46q0 1 3 22l64 555q3 14 10 15q12 -2 18 -13l266 -528l256 527q8 13 14 14q10 0 13 -21v-2z" glyph-name="m" horiz-adv-x="924" unicode="m"/>
<glyph d="M182 514l10 -401q2 -78 22 -92q6 -3 12 -5q20 -5 44 -5q6 -2 7 -7q-2 -7 -16 -7q-36 0 -80 2q-11 1 -13 1t-15 -1q-43 -2 -70 -2q-13 1 -14 7q2 6 7 7q20 0 36 5q20 5 23 44q2 20 2 62v487q0 42 12 43q3 0 6.5 -1.5t8 -5.5t6.5 -6t8 -7l5 -6q5 -5 47 -49 q140 -148 231 -241q57 -59 159 -167q40 -42 49 -52l-9 426q-1 61 -17 73q-7 4 -16 6q-21 4 -43 4q-6 1 -7 8q2 6 17 6q27 0 73 -1q15 -1 18.5 -1t17.5 1q35 1 58 1q15 -1 16 -6q-2 -7 -10 -8q-12 0 -21 -2q-24 -5 -29 -28q-2 -14 -2 -46l-2 -498q-1 -60 -7 -61q-10 0 -53 39 q-7 6 -14 13q-40 36 -196 196q-18 19 -33 34q-198 208 -228 241z" glyph-name="n" horiz-adv-x="833" unicode="n"/>
<glyph d="M55 320q0 108 69 199q103 131 280 133q165 0 263 -99q85 -87 85 -220q0 -146 -98 -245q-100 -102 -255 -102q-186 0 -281 133q-63 89 -63 201zM146 343q0 -167 101 -257q74 -65 177 -65q102 0 167 69q71 76 71 219q0 171 -106 256q-68 55 -157 55q-145 0 -211 -107 q-42 -69 -42 -170z" glyph-name="o" horiz-adv-x="808" unicode="o"/>
<glyph d="M155 244v150q0 156 -2 183q-2 35 -21 43q-7 3 -15 4q-14 2 -30 2q-5 1 -7 7q2 7 14 7q28 0 85 -2h17q8 0 42 1q59 1 83 1q113 0 168 -48q39 -35 44 -91v-11q0 -110 -87 -166q-59 -37 -140 -37q-19 0 -25 1q-7 1 -9 8q2 9 23 9q90 0 137 60q26 35 26 77q-1 80 -50 129 q-45 42 -119 41q-22 0 -49 -6q-7 -3 -7 -16v-346q0 -149 4 -184t24 -42q5 -2 11 -3q24 -4 39 -4q6 -1 7 -7q-2 -6 -14 -7q-21 0 -47.5 0.5t-44.5 1.5l-18 1h-11q-56 -3 -76 -3q-13 1 -14 7q2 6 7 7q11 0 27 4t21 33q1 4 2 12q5 36 5 184z" glyph-name="p" horiz-adv-x="586" unicode="p"/>
<glyph d="M684 -67l-146 79q-53 -25 -139 -26q-187 0 -282 133q-63 89 -63 201q0 108 69 199q103 131 280 133q164 0 262 -98q86 -88 86 -221q0 -139 -102 -242q-27 -27 -53 -43l180 -89q202 -100 369 -100q81 0 172 33q9 3 13 3q4 -1 5 -6q-2 -6 -7 -9q-135 -59 -280 -59 q-158 1 -364 112zM144 343q0 -164 99 -254q75 -68 179 -68q99 0 164 66q75 77 75 222q0 167 -103 253q-70 58 -161 58q-147 0 -212 -109q-41 -68 -41 -168z" glyph-name="q" horiz-adv-x="810" unicode="q"/>
<glyph d="M155 244v150q0 156 -2 183q-2 35 -21 43q-7 3 -15 4q-14 2 -30 2q-5 1 -7 7q2 7 14 7q30 0 90 -2h14q3 0 31 1q62 1 79 1q111 -1 164 -37q48 -35 59 -91q2 -13 2 -25q0 -101 -105 -192q-2 -1 -3 -2q137 -171 184 -220q52 -53 98 -59q17 -3 31 -3q7 -1 8 -7q-2 -7 -21 -7 h-55q-63 0 -94 17q-18 9 -38.5 28.5t-35.5 38t-46 58.5q-20 25 -59 77q-27 36 -36 47q-6 5 -12 5l-112 2q-5 -2 -6 -7v-20q0 -148 4 -183t24 -42q5 -2 11 -3q24 -4 39 -4q6 -1 7 -7q-2 -6 -14 -7q-21 0 -47 0.5t-43 1.5l-18 1h-5q-59 -3 -82 -3q-13 1 -14 7q2 6 7 7 q11 0 27 4t21 33q1 4 2 12q5 36 5 184zM231 595v-273q1 -7 6 -11q25 -13 97 -13q44 1 66 15q50 42 53 130q0 116 -83 153q-31 14 -69 14q-40 0 -63 -5q-6 -5 -7 -10z" glyph-name="r" horiz-adv-x="672" unicode="r"/>
<glyph d="M209 -14q-79 0 -128 23q-12 6 -13 18v14q0 23 5 90q1 13 7 14q7 -2 8 -10q0 -19 3 -31q15 -67 103 -81q18 -3 36 -3q94 0 123 66q9 22 9 47q0 52 -44 94q-21 20 -67 54l-40 30q-108 81 -123 151q-3 16 -3 31q0 96 86 138q47 22 109 22q49 0 91 -10q18 -4 31 -4q8 -2 9 -6 v-6q-4 -39 -4 -84q-1 -18 -7 -19q-7 2 -8 11q-3 22 -13 42q-18 29 -74 39q-19 3 -40 3q-76 0 -105 -48q-12 -20 -12 -44q0 -50 44 -91q24 -22 70 -53l25 -17q118 -80 138 -159q6 -22 6 -46q-1 -92 -82 -145q-47 -30 -140 -30z" glyph-name="s" horiz-adv-x="524" unicode="s"/>
<glyph d="M347 601v-357q0 -149 4 -184q4 -34 20 -41q7 -3 14 -4q23 -4 40 -4q6 -1 7 -7q-2 -6 -14 -7q-36 0 -97 3h-12q-1 0 -15 -1q-57 -2 -76 -2q-13 1 -14 7q2 5 7 6q11 0 26 4q21 6 26 46q4 36 4 184v357l-127 -2q-66 -1 -84 -20q-3 -4 -5 -7q-4 -7 -14 -27q-3 -8 -9 -8 q-5 2 -6 7q0 6 13 66q6 23 6 26q7 15 9 16q2 0 9 -2q16 -6 30 -8q33 -4 69 -4h332q35 0 63 4q5 1 14 2q9 2 11 2q4 -1 4 -10q0 -16 -2 -68q-1 -25 -1 -29q-1 -10 -8 -11q-5 0 -7 13v2l-1 9q-4 34 -55 43q-22 3 -51 4z" glyph-name="t" horiz-adv-x="610" unicode="t"/>
<glyph d="M110 269v125q0 156 -2 183q-3 35 -22 43q-7 3 -14 4q-14 2 -30 2q-5 1 -7 7q2 7 14 7q24 0 63 -1l38 -1q3 0 23 1q49 1 66 1q14 -1 15 -7q-1 -5 -8 -7q-12 0 -22 -2q-24 -4 -29 -34q0 -6 -1 -13q-2 -29 -2 -183v-119q0 -141 55 -199q5 -5 10 -9q48 -43 115 -46h16 q77 0 128 51q4 5 8 9q48 58 50 193v13v107q0 129 -2 183q-1 36 -22 44q-6 2 -13 3q-14 2 -30 2q-6 1 -7 7q2 7 14 7q29 0 83 -2h12h15q41 2 59 2q13 -1 14 -7q-2 -5 -7 -7q-12 0 -22 -2q-25 -5 -29 -32q-1 -7 -2 -15q-1 -16 -1 -183v-91q-1 -185 -82 -255q-73 -62 -184 -62 q-119 1 -183 60q-73 67 -77 204v19z" glyph-name="u" horiz-adv-x="732" unicode="u"/>
<glyph d="M182 536l166 -428q78 175 166 412q14 37 19 53q8 26 8 32q-1 14 -12 18q-11 3 -30 3q-9 1 -10 7q2 7 20 7q22 0 64 -1q18 -1 22 -1h12q39 2 57 2q13 -1 14 -6q-2 -7 -10 -8q-26 -1 -42 -10q-24 -16 -48 -76q-1 -1 -1 -2q-40 -95 -98 -230q-106 -242 -113 -258 q-28 -59 -34 -63q-2 -1 -4 -1q-10 0 -24 30q-4 9 -9 22l-216 521q-20 47 -42 58q-8 3 -19 6q-14 3 -34 3q-6 1 -7 8q2 6 23 6q28 0 80 -1q19 -1 23 -1q3 0 18 1q42 1 64 1q24 0 24 -6q-2 -7 -9 -8q-21 0 -32 -4q-10 -6 -10 -15q1 -10 24 -71z" glyph-name="v" horiz-adv-x="653" unicode="v"/>
<glyph d="M530 597l172 -474h4q117 372 132 425q10 36 10 53q0 19 -24 23q-10 2 -23 2q-7 1 -8 8q2 6 15 6q32 0 76 -2h14h14q39 2 57 2q11 -1 12 -5q-2 -8 -8 -9q-17 0 -30 -4q-26 -9 -50 -72q-3 -8 -7 -18q-19 -53 -79 -234q-64 -190 -82 -239q-25 -68 -34 -72q-2 -1 -4 -1 q-13 0 -28 42q-1 1 -1 2l-172 465q-15 -37 -88 -227q-77 -197 -93 -237q-20 -43 -31 -45q-11 0 -25 38q-4 13 -9 29l-156 504q-15 48 -34 58q-5 4 -12 6q-15 5 -40 5q-7 2 -8 8q2 6 14 6q32 0 86 -2h18h15q47 2 77 2q15 -1 16 -6q-1 -7 -9 -8q-21 0 -31 -5q-11 -5 -12 -18 q0 -16 17 -79l115 -401h2l184 475q15 39 24 39t23 -38q1 -1 1 -2z" glyph-name="w" horiz-adv-x="968" unicode="w"/>
<glyph d="M108 82l158 244l-140 228q-30 50 -57 62q-5 3 -10 4q-20 6 -37 6q-7 1 -8 8q2 6 15 6q16 0 77 -1q23 -1 26 -1t20 1q46 1 66 1q14 -1 15 -6q-2 -7 -8 -8q-17 0 -24 -2q-10 -3 -11 -13q1 -12 9 -28q76 -137 116 -201q64 90 119 184q6 10 8 14q9 16 9 30q-2 9 -15 14 q-10 2 -24 2q-7 1 -8 8q2 6 15 6q22 0 62 -1q13 -1 16 -1t17 1q37 1 57 1q13 -1 14 -6q-2 -7 -9 -8q-17 0 -30 -4q-25 -8 -56 -53q-5 -6 -10 -14l-141 -206q5 -8 46 -75q126 -204 140 -221q21 -27 43 -35q4 -1 7 -2q19 -5 30 -5q6 -2 7 -7q-2 -6 -12 -7q-96 0 -144 2 q-27 2 -27 7q1 5 5 7q10 2 8 14q-1 6 -3 10q-87 150 -149 251l-135 -223q-11 -19 -11 -38q2 -10 14 -14q10 -2 16 -2q7 -1 8 -8q-2 -5 -11 -6q-13 0 -61 2q-23 1 -26 1q-2 0 -17 -1q-44 -2 -63 -2q-7 1 -8 6q2 7 7 8q12 0 33 5q33 9 64 54z" glyph-name="x" horiz-adv-x="611" unicode="x"/>
<glyph d="M255 145v73q-1 53 -19 87l-154 243q-1 3 -2 4q-27 40 -58 62q-19 11 -37 12q-8 1 -9 8q2 6 11 6q10 0 49 -1l38 -1h12q40 2 64 2q11 -1 12 -6q-2 -4 -14 -9q-10 -6 -11 -14q1 -12 12 -33l160 -265q4 7 139 237q3 6 5 9q15 26 15 44q-1 17 -14 22q-12 4 -13 10q2 5 14 5 q15 0 46 -1q12 -1 15 -1q2 0 25 1q50 1 61 1q10 -1 11 -5q-2 -8 -11 -9q-22 -1 -41 -11q-19 -12 -44 -42q-36 -42 -143 -221q-21 -36 -28 -49q-12 -33 -11 -85v-73q0 -50 3 -85q3 -36 26 -43l8 -2q23 -4 40 -4q6 -1 7 -7q-2 -6 -14 -7q-37 0 -99 3h-12q-1 0 -14 -1 q-53 -2 -72 -2q-13 1 -14 7q2 6 7 7q11 0 26 4q23 7 26 45q2 35 2 85z" glyph-name="y" horiz-adv-x="576" unicode="y"/>
<glyph d="M172 37h234q96 0 127 29l10 10q10 12 18 46q4 12 10 13q7 -2 7 -19q0 -35 -18 -98q-4 -19 -11 -21q-5 -1 -15 -1q-73 0 -220 2q-152 2 -230 2q-15 1 -16 7q1 10 12 26q254 368 383 569h-186q-99 -1 -125 -14q-39 -20 -49 -61q-1 -4 -1 -6q-3 -14 -12 -15q-5 2 -5 11 q0 20 18 113q2 15 8 16q3 0 10 -2q14 -3 27 -4q58 -2 154 -2h246q17 -1 18 -7q-1 -9 -5 -15q-182 -278 -389 -579z" glyph-name="z" horiz-adv-x="609" unicode="z"/>
<glyph d="M134 349q38 -20 55 -70q2 -5 3 -9q10 -46 10 -150q0 -195 75 -226q22 -9 22 -13q-2 -5 -18 -5q-35 0 -76 37q-15 14 -27 30q-42 59 -49 167q-2 29 -2 61q0 15 3 51q4 39 4 56q0 21 -7 32q-9 16 -51 24h-4l-1 1h-1h-2q-12 3 -12 8q0 7 7 8q3 1 5 1q47 3 58 16q11 15 11 52 q0 7 -9 88q-1 12 -1 19q0 106 47 159q8 9 17 17q46 36 94 41q12 -1 13 -5q0 -4 -13 -8h-1l-2 -1q-41 -12 -64 -55q-16 -31 -16 -70q0 -134 -3 -156q-2 -13 -5 -24q-11 -43 -47 -69q-7 -5 -13 -7z" glyph-name="braceleft" horiz-adv-x="360" unicode="{"/>
<glyph d="M282 -250h-54v1000h54v-1000z" glyph-name="bar" horiz-adv-x="510" unicode="|"/>
<glyph d="M226 349q-27 10 -48 48q-8 15 -12 28q-9 33 -8 145v35q0 82 -63 117q-9 6 -17 8q-16 6 -16 8q2 6 13 6q39 0 82 -31q7 -5 12 -10q49 -45 59 -111q5 -29 5 -65q0 -12 -4 -46q-11 -96 5 -113q7 -6 16 -10t13.5 -4.5t16.5 -1.5h12q12 -2 12 -9q0 -5 -7 -7q-3 -1 -5 -1 q-45 -8 -55 -20q-2 -3 -4 -5q-11 -17 -3 -97q3 -29 3 -42q0 -152 -45 -220l-6 -8q-40 -55 -92 -66q-7 -1 -11 -1q-18 0 -18 4q0 6 20 13q1 1 2 1q75 29 75 226q0 104 6 132q2 10 4 18q15 53 55 77q2 1 3 2z" glyph-name="braceright" horiz-adv-x="360" unicode="}"/>
<glyph d="M110 201l-49 -1q-2 94 64 114q15 5 31 5q36 0 101 -30l8 -4q71 -32 93 -33q39 1 41 66h49q5 -107 -76 -118q-8 -1 -16 -1q-42 1 -110 34q-70 32 -92 34q-42 0 -44 -64v-2z" glyph-name="asciitilde" horiz-adv-x="510" unicode="~"/>
<glyph glyph-name="uni00A0" horiz-adv-x="325" unicode=" "/>
<glyph d="M162 767q38 0 48 -36q2 -8 2 -15q0 -31 -26 -45q-12 -6 -25 -6q-37 0 -48 31q-3 8 -3 17q0 37 32 50q10 4 20 4zM173 544l16 -266q0 -2 1 -16q7 -146 14 -173q4 -16 4 -19q-1 -7 -5 -14q-22 -37 -65 -63q-5 -3 -9 -5q-10 -5 -15 -5q-6 2 -6 10q0 2 2 17q9 63 13 115 q0 4 4 70q17 350 19 369q3 31 12 32q12 0 14 -41q1 -6 1 -11z" glyph-name="exclamdown" horiz-adv-x="320" unicode="¡"/>
<glyph d="M364 597l-45 -434q34 -2 49 -2q86 0 113 37q12 17 17 40q3 15 9 15q5 -2 6 -12l-13 -91v-1q-5 -15 -13 -17q-60 -16 -133 -16q-28 0 -43 1l-14 -135q-3 -9 -9 -11l-23 -5q-11 -3 -9 6l18 152q-119 22 -177 117q-36 61 -36 140q0 103 65 173q7 8 13 13q64 54 155 64 q19 2 39 3l11 100q1 6 8 8q1 1 2 1l20 4q10 0 10 -6l-13 -108q72 0 138 -25q7 -6 7 -14q0 -49 -6 -92q-2 -11 -8 -12q-5 2 -5 12q-5 36 -20 56q-24 28 -90 37q-12 1 -23 2zM281 174l45 424q-109 0 -161 -81q-30 -48 -30 -109q0 -150 107 -215q19 -12 39 -19z" glyph-name="cent" unicode="¢"/>
<glyph d="M251 0h-233q-28 1 -29 10q2 13 20 17q83 17 113 113q13 41 22 112l13 105h-75q-8 0 -16 -1q-4 -1 -5 -1q-5 2 -3 9l12 21q5 8 14 8h79l10 70q26 179 104 248q65 56 151 56q51 0 87 -12q23 -5 27 -5q6 -3 7 -12q0 -83 -5 -114q-3 -11 -8 -12q-7 2 -8 15q0 32 -21 63 q-2 3 -3 4q-30 38 -99 38q-87 0 -127 -100q-15 -39 -21 -88l-18 -151h109q11 0 47 5q7 -2 5 -10l-11 -24q-5 -8 -16 -8h-140l-5 -42q-24 -179 -111 -256l2 -2l312 3q64 1 84 49q6 14 9 33q2 9 8 10q7 -2 7 -15q0 -32 -16 -117q-1 -3 -1 -4q-3 -14 -13 -17q-11 -3 -48 -3 q-52 0 -101 3q-67 2 -109 2z" glyph-name="sterling" unicode="£"/>
<glyph d="M487 449l-68 -61q28 -44 28 -100q-2 -67 -29 -107l65 -62l-42 -43l-60 68q-41 -37 -98 -37q-55 -2 -94 31l-4 4l-59 -66l-40 43l63 61q-32 44 -32 102q0 60 33 106l-66 61l41 43l60 -66q40 35 99 35h1q59 -1 98 -34l62 65zM380 286q0 66 -44 98q-24 16 -53 16h-1 q-59 0 -85 -57q-12 -27 -12 -59q0 -77 57 -106q20 -10 40 -10q58 0 84 51q14 29 14 67z" glyph-name="currency" unicode="¤"/>
<glyph d="M323 306v-141v-98q1 -40 33 -49q7 -2 13 -3q21 -3 45 -3q7 -1 9 -8q-2 -7 -16 -7h-20.5t-20 0.5t-19.5 0.5t-18.5 0.5t-16 0.5t-13 0.5t-9.5 0.5h-3h-12q-68 -3 -108 -3q-16 1 -17 7q2 7 7 8q26 0 46 3q40 6 46 39q1 6 1 13q1 23 1 98v141h-162q-9 2 -7 11l7 21q4 6 11 6 h149q-45 67 -181 301l-3 6q-31 52 -62 74q-20 13 -44 13q-10 1 -11 7q2 7 10 8q12 0 71 -2q22 -1 24 -1t12 1q41 2 68 2q12 -1 13 -8q-1 -5 -14 -9q-13 -5 -14 -18q1 -14 13 -38q3 -6 23 -41q129 -230 147 -256q11 19 82 150q59 110 69 126q19 32 19 53q-2 16 -16 23 q-15 7 -16 11q2 7 16 7q16 0 48 -2q11 -1 14 -1q2 0 26 1q55 2 67 2q12 -1 13 -7q-2 -7 -12 -8q-21 0 -43 -12q-22 -11 -48 -45l-4 -6q-18 -23 -161 -277q-22 -38 -31 -54h162q9 0 10 -6q-1 -2 -1 -3l-6 -23q-4 -6 -14 -6h-152z" glyph-name="yen" unicode="¥"/>
<glyph d="M282 325h-54v350h54v-350zM282 -175h-54v350h54v-350z" glyph-name="brokenbar" horiz-adv-x="510" unicode="¦"/>
<glyph d="M408 93q52 -54 52 -124q0 -87 -74 -142q-5 -3 -9 -6q-54 -34 -133 -35q-96 0 -144 23q-12 6 -13 18v14q0 23 5 90q1 13 7 14q7 -2 8 -10q0 -19 3 -31q22 -83 144 -84q86 0 121 60q16 27 16 61q0 60 -59 113q-22 19 -72 55l-32 23q-92 66 -118 106q-25 38 -25 86 q0 81 78 133q19 11 37 19q-67 67 -68 128q0 98 94 140q49 22 109 22q54 0 95 -10q18 -4 31 -4q8 -2 9 -6v-6q-4 -39 -4 -84q-1 -18 -7 -19q-7 2 -8 11q-3 22 -13 42q-27 41 -119 42q-77 0 -109 -50q-15 -24 -15 -55q0 -50 59 -98q20 -16 80 -58l26 -18q104 -72 132 -122 q18 -34 18 -71q-1 -109 -102 -167zM383 116q48 27 64 83q5 16 5 30q0 51 -52 95q-15 13 -78 57l-42 30q-22 16 -53 41q-49 -15 -74 -62q-12 -22 -12 -44q0 -49 50 -91q22 -19 79 -57l28 -19q63 -42 85 -63z" glyph-name="section" horiz-adv-x="596" unicode="§"/>
<glyph d="M555 830q-33 0 -41 32q-1 6 -1 11q0 30 26 40q8 3 17 3q34 0 42 -29q1 -6 1 -11q0 -34 -29 -44q-8 -2 -15 -2zM354 830q-33 0 -41 32q-1 6 -1 11q0 30 26 40q8 3 17 3q34 0 42 -29q1 -6 1 -11q0 -34 -29 -44q-8 -2 -15 -2z" glyph-name="dieresis" horiz-adv-x="911" unicode="¨"/>
<glyph d="M454 -17q-155 0 -267 105q-111 102 -124 253q-1 17 -1 33q0 156 106 269q103 110 253 123q17 1 33 1q153 0 265 -105q111 -103 124 -254q1 -17 1 -34q0 -155 -105 -268q-103 -109 -252 -122q-17 -1 -33 -1zM454 27q142 0 238 103q94 102 95 245q0 144 -94 245 q-97 103 -239 103q-143 0 -239 -102t-96 -246q0 -143 93 -243q96 -104 237 -105h5zM477 150q-133 0 -203 87q-49 61 -49 147q0 97 68 162q62 60 171 60q36 0 82 -8q4 0 9.5 -1.5t12 -2.5t13.5 -2.5t12 -2.5t9 -2l4 -1q2 0 6 1h5q2 -2 2 -5q0 -59 -6 -97q-3 -8 -10 -8 q-8 2 -9 11q-3 33 -16 47q-23 27 -90 33q-16 2 -33 2q-122 0 -149 -107q-6 -26 -6 -56q0 -126 83 -184q46 -32 101 -32q64 0 89 25q15 15 23 47q4 9 11 10q9 -2 9 -9q0 -27 -10 -71q-5 -24 -13 -28q-4 -2 -9 -3q-44 -12 -107 -12z" glyph-name="copyright" horiz-adv-x="906" unicode="©"/>
<glyph d="M245 522h-120q-4 -2 -5 -5l-22 -60q-6 -18 -6 -26q1 -13 14 -14h5q5 -1 6 -4q-2 -5 -9 -5t-26 1q-15 1 -19 1t-18 -1q-29 -1 -45 -1q-9 1 -10 5q2 3 5 4q11 0 16 1q29 4 45 42l127 295q6 11 13 12q6 0 13 -14q1 -2 1 -3q2 -4 15 -34q85 -192 114 -247q25 -45 43 -50 q9 -2 22 -2q4 -2 5 -4q-2 -5 -11 -5q-49 0 -98 2q-16 0 -17 3q1 3 4 5q5 3 4 10l-40 90q-4 4 -6 4zM137 552h94q3 1 3 4l-46 112q-5 8 -10 0l-43 -112q0 -3 2 -4z" glyph-name="ordfeminine" horiz-adv-x="400" unicode="ª"/>
<glyph d="M481 140l-30 -33q-4 -4 -8 -5q-3 0 -21 20l-2 2q-90 102 -140 152q-18 18 -18 24q2 7 19 22q27 23 178 174q13 11 18 11q7 -1 9 -8q-1 -7 -6 -13q-1 -1 -9 -10q-116 -135 -142 -171q38 -46 118 -121q13 -13 24 -22q14 -13 14 -15q-1 -3 -4 -7zM294 140l-30 -33 q-4 -4 -8 -5q-3 0 -21 20l-2 2q-90 102 -140 152q-18 18 -18 24q2 7 19 22q27 23 178 174q13 11 18 11q7 -1 9 -8q-1 -7 -6 -13q-1 -1 -9 -10q-116 -135 -142 -171q38 -46 118 -121q13 -13 24 -22q14 -13 14 -15q-1 -3 -4 -7z" glyph-name="guillemotleft" horiz-adv-x="560" unicode="«"/>
<glyph d="M465 159h-52v161h-368v51h420v-212z" glyph-name="logicalnot" horiz-adv-x="510" unicode="¬"/>
<glyph d="M73 310h252q29 -1 30 -10q0 -11 -31 -16q-3 -1 -4 -1q-223 -33 -238 -37q-10 -3 -28 -10q-11 -5 -13 -5q-7 2 -5 15l15 56q4 8 22 8z" glyph-name="uni00AD" horiz-adv-x="390" unicode="­"/>
<glyph d="M103 592q-56 0 -81 45q-11 20 -11 42q0 54 47 78q21 10 45 10q56 0 81 -45q11 -20 11 -43q0 -52 -45 -76q-22 -11 -47 -11zM104 607q46 0 66 39q8 16 8 34q0 49 -43 66q-16 6 -32 6q-50 0 -69 -41q-6 -15 -6 -31q0 -47 41 -66q17 -7 35 -7zM69 672v22q0 10 -1 20v7 q-2 7 -11 7q-2 1 -3 2q2 2 5 3h5h5q6 -1 8 -1q5 0 11.5 0.5t9.5 0.5q41 -2 42 -27q-1 -16 -18 -30l17 -21q14 -17 19 -17q2 -1 3 -2q-2 -3 -7 -3q-18 0 -28 10q-4 5 -7 9l-14 19h-18v-9q0 -20 2 -22q4 -2 10 -2q3 -1 3 -2q-1 -2 -4 -3h-4h-5q-8 1 -11 1q-2 0 -9 -1h-6h-5 q-3 1 -4 2q1 2 4 3q9 0 9 3q1 2 1 3v6q1 13 1 22zM87 722v-40q5 -3 15 -3q6 1 10 3q8 7 9 18q-2 23 -25 24q-7 -1 -9 -2z" glyph-name="registered" horiz-adv-x="206" unicode="®"/>
<glyph d="M343 900h235q10 -1 8 -10l-8 -22q-2 -6 -9 -6h-235q-10 2 -10 7l8 25q3 6 11 6z" glyph-name="macron" horiz-adv-x="911" unicode="¯"/>
<glyph d="M253 595l-1 1q0 -61 -52 -91q-26 -15 -54 -15q-62 0 -91 50q-13 24 -13 51q0 59 49 89q26 16 56 16h2q64 0 92 -52q12 -23 12 -49zM206 595q0 41 -33 57q-13 6 -28 6q-39 0 -54 -39q-5 -13 -5 -26q0 -38 33 -55q13 -7 27 -7q38 0 54 36q6 14 6 28z" glyph-name="degree" horiz-adv-x="308" unicode="°"/>
<glyph d="M230 524h51v-187h187v-51h-186v-189h-52v189h-188v51h188v187zM468 50v-50h-426v50h426z" glyph-name="plusminus" horiz-adv-x="510" unicode="±"/>
<glyph d="M316 305h-253q-10 1 -11 8q1 5 12 16q115 93 158 143q69 81 69 156q0 83 -63 107q-17 6 -34 6q-45 -1 -70 -27q-22 -25 -22 -55q-1 -10 -8 -11q-4 2 -6 11q-4 20 -4 69q1 11 7 14q52 25 115 25q97 0 136 -64q15 -26 15 -55q0 -110 -154 -242q-27 -23 -68 -56v-1 q2 -3 3 -3h33q67 0 115 4q54 4 70 36q3 7 6 15q5 9 9 10q5 -2 5 -9q0 -24 -18 -68q-3 -8 -5 -12q-10 -17 -37 -17z" glyph-name="twosuperior" horiz-adv-x="444" unicode="²"/>
<glyph d="M158 301q-65 0 -88 13q-11 14 -11 27q0 44 3 64q2 8 6 9q4 0 6 -6v-2q10 -74 103 -75q68 0 96 54q12 24 12 55q0 66 -75 94q-21 8 -43 11q-19 3 -20 9q0 8 16 11h2q37 5 70 37q29 29 30 65q0 34 -29 57q-24 17 -58 17q-51 0 -76 -34q-11 -15 -11 -31q-1 -12 -5 -13 q-5 0 -7 9v2q-6 36 -6 59q2 11 9 15q45 19 113 19q102 0 126 -61q5 -13 5 -24q0 -57 -73 -99q-11 -6 -20 -10v-2q53 -9 90 -46q29 -31 29 -69q0 -70 -67 -117q-55 -38 -127 -38z" glyph-name="threesuperior" horiz-adv-x="413" unicode="³"/>
<glyph d="M583 933q5 -7 25 -44q5 -11 -4 -12h-30q-70 -7 -152 -42q-11 -5 -15 -5q-4 2 -5 6q2 5 7 8q56 39 136 85q22 13 28 13q5 -2 10 -9z" glyph-name="acute" horiz-adv-x="911" unicode="´"/>
<glyph d="M70 150v300h75v-225q1 -174 135 -175q129 2 130 150v250h75v-359q1 -55 32 -56q21 2 34 33l15 -7q-11 -62 -58 -74q-9 -2 -18 -2q-51 0 -66 55q-7 25 -9 60q-47 -101 -136 -113q-14 -2 -29 -2q-81 1 -115 55q9 -159 25 -240l-90 -50l-12 5q12 249 12 395z" glyph-name="mu" horiz-adv-x="576" unicode="µ"/>
<glyph d="M384 683q-1 39 -17 40q-45 0 -84 -37q-12 -12 -20 -24q-35 -55 -35 -143q0 -133 67 -186q4 -4 8 -6q7 -4 18 -8q10 -6 11 -11q-1 -6 -11 -7q-6 -1 -21 -1q-129 0 -198 81q-49 57 -49 138q0 92 65 156l3 3q80 75 229 75q9 0 50 -1q44 -2 56 -2q3 0 34 1q96 2 127 2 q15 -1 16 -8q-1 -5 -8 -6q-16 0 -28 -3q-30 -8 -35 -42q-1 -7 -1 -15q-2 -34 -2 -216v-393q0 -172 2 -200q-1 -7 -7 -14q-23 -20 -48 -21q-5 1 -6 5q0 2 1 8q3 17 4 30q5 56 5 192v614q-2 38 -39 39q-33 0 -37 -35v-2q-1 -22 -1 -223v-389q0 -210 3 -242q0 -7 -6 -13 q-23 -20 -50 -21q-7 2 -8 6q0 1 1 3q3 16 5 35q6 62 6 232v609z" glyph-name="paragraph" horiz-adv-x="712" unicode="¶"/>
<glyph d="M124 232q-41 0 -52 38q-2 9 -2 17q0 34 28 49q13 6 27 6q40 0 52 -33q3 -9 3 -19q0 -40 -34 -54q-11 -4 -22 -4z" glyph-name="periodcentered" horiz-adv-x="250" unicode="·"/>
<glyph d="M472 0h40q-17 -10 -70 -63l-5 -5q97 -13 100 -71q0 -47 -60 -77q-6 -3 -11 -5q-41 -18 -78 -18q-12 1 -13 8q2 9 20 11q51 6 68 39q6 11 6 22q0 51 -70 72q-1 1 -2 1q-14 5 -15 9q2 5 13 14z" glyph-name="cedilla" horiz-adv-x="911" unicode="¸"/>
<glyph d="M200 595v-110q0 -105 3 -131q3 -24 21 -30l8 -2q19 -5 46 -5q8 -1 9 -6q-2 -7 -12 -8q-24 0 -49 0.5t-40 0.5l-16 1h-10q-67 -2 -105 -2q-11 1 -12 7q2 6 8 7q33 0 57 5q25 5 29 25q1 3 1 7q3 27 3 131v110q0 66 -1 76q-5 15 -12 16q-15 0 -83 -30q-6 -3 -9 -3q-5 1 -6 6 q1 4 3 7q2 2 76 48q66 40 70 43q11 8 18 9q6 -2 6 -13v-8q-3 -72 -3 -151z" glyph-name="onesuperior" horiz-adv-x="330" unicode="¹"/>
<glyph d="M216 405q-125 0 -174 91q-22 41 -22 90q0 75 57 129q56 52 142 52q115 0 169 -74q30 -42 30 -99q0 -93 -72 -148q-54 -41 -130 -41zM230 432q57 0 90 47q27 39 27 102q0 92 -66 137q-34 23 -71 23q-60 0 -95 -53q-24 -38 -24 -91q0 -86 59 -135q37 -30 80 -30z" glyph-name="ordmasculine" horiz-adv-x="437" unicode="º"/>
<glyph d="M79 469l30 33q4 4 8 5q3 0 21 -20l2 -2q90 -102 140 -152q18 -18 18 -24q-2 -7 -19 -22q-27 -23 -178 -174q-13 -11 -18 -11q-7 1 -9 8q1 7 6 13q1 1 9 10q116 135 142 171q-38 46 -118 121q-13 13 -24 22q-14 13 -14 15q1 3 4 7zM266 469l30 33q4 4 8 5q3 0 21 -20l2 -2 q90 -102 140 -152q18 -18 18 -24q-2 -7 -19 -22q-27 -23 -178 -174q-13 -11 -18 -11q-7 1 -9 8q1 7 6 13q1 1 9 10q116 135 142 171q-38 46 -118 121q-13 13 -24 22q-14 13 -14 15q1 3 4 7z" glyph-name="guillemotright" horiz-adv-x="560" unicode="»"/>
<glyph d="M660 160h49q7 0 28 6q5 -1 6 -6q0 -8 -6 -28q-4 -8 -12 -8h-65q0 -66 1 -79q5 -28 27 -31q18 -2 27 -2q5 -1 6 -6q-2 -6 -9 -7q-25 0 -73 2h-13h-9q-41 -2 -66 -2q-7 1 -8 6q1 5 8 7q10 0 28 2q25 4 27 31q1 27 1 79h-209q-12 1 -13 8q1 8 9 16l244 281q10 10 16 11 q6 -2 6 -10v-270zM607 160v190h-1q-7 -7 -104 -120q-53 -62 -60 -70h165zM190 565v-104q0 -100 3 -125q3 -21 17 -27q5 -2 10 -3q18 -5 44 -5q8 -1 9 -6q-2 -7 -12 -7q-23 0 -46.5 0.5t-38.5 1.5h-15h-10q-63 -2 -99 -2q-10 1 -11 6q2 6 7 7q33 0 55 5q23 5 27 23q1 3 1 7 q3 26 3 125v104q0 62 -1 72q-3 15 -11 16q-17 0 -79 -29q-6 -3 -9 -3q-5 1 -6 6q1 4 3 7q2 2 72 45q63 38 67 41q11 8 17 9q6 -2 6 -13v-8q-3 -68 -3 -143zM161 -14l-20 17q-5 4 1 13l540 705q8 8 13 5l18 -14q5 -5 2 -10l-542 -713q-6 -7 -12 -3z" glyph-name="onequarter" horiz-adv-x="793" unicode="¼"/>
<glyph d="M190 565v-104q0 -100 3 -125q3 -21 17 -27q5 -2 10 -3q18 -5 44 -5q8 -1 9 -6q-2 -7 -12 -7q-23 0 -46.5 0.5t-38.5 1.5h-15h-10q-63 -2 -99 -2q-10 1 -11 6q2 6 7 7q33 0 55 5q23 5 27 23q1 3 1 7q3 26 3 125v104q0 62 -1 72q-3 15 -11 16q-17 0 -79 -29q-6 -3 -9 -3 q-5 1 -6 6q1 4 3 7q2 2 72 45q63 38 67 41q11 8 17 9q6 -2 6 -13v-8q-3 -68 -3 -143zM128 -14l-20 17q-4 4 2 13l540 705q8 8 13 5l18 -14q5 -5 2 -10l-542 -713q-6 -7 -13 -3zM743 0h-240q-10 1 -11 8q1 5 11 15q111 90 152 138q64 76 64 146q0 80 -62 102q-15 5 -30 5 q-44 -1 -67 -25q-20 -23 -20 -53q-1 -9 -8 -10q-4 2 -6 10q-4 19 -4 66q1 10 7 13q52 24 109 24q93 0 130 -61q14 -25 14 -52q0 -105 -148 -232q-25 -21 -63 -51v-1q2 -3 3 -3h31q65 0 109 4q54 5 68 36q3 6 5 12q5 10 8 10q5 -2 5 -9q0 -21 -17 -65q-3 -7 -5 -11 q-10 -16 -35 -16z" glyph-name="onehalf" horiz-adv-x="851" unicode="½"/>
<glyph d="M674 160h48q7 0 28 6q5 -1 6 -6q0 -8 -6 -28q-4 -8 -12 -8h-64v-79q5 -28 27 -31q18 -2 28 -2q4 -1 5 -6q-2 -6 -9 -7q-25 0 -73 2h-13h-9q-41 -2 -66 -2q-7 1 -7 6q2 5 7 7q10 0 28 2q25 4 27 31q1 27 1 79h-209q-12 1 -13 8q0 6 9 15l1 1l244 281q10 10 15 11 q7 -2 7 -10v-270zM620 160v190h-1q-7 -7 -104 -120q-53 -62 -60 -70h165zM221 544v-2q52 -9 87 -46q26 -28 26 -63q0 -68 -65 -112q-52 -35 -119 -35q-64 0 -84 12q-10 13 -10 26q0 42 3 61q2 8 6 8t5 -5v-2q10 -71 98 -72q64 0 91 51q12 24 12 53q0 64 -73 90q-19 7 -39 10 q-18 3 -19 8q0 8 15 11h2q37 5 68 36q26 28 27 61q0 32 -28 53q-22 17 -55 17q-50 0 -73 -33q-10 -14 -10 -29q-1 -12 -4 -12q-5 0 -7 8v2q-6 34 -6 56q2 11 9 15q41 18 107 18q98 0 121 -58q4 -12 4 -23q0 -54 -67 -93q-12 -7 -22 -11zM159 -14l-20 17q-4 4 2 13l539 705 q8 8 13 5l19 -14q4 -4 1 -10l-542 -713q-6 -7 -12 -3z" glyph-name="threequarters" horiz-adv-x="807" unicode="¾"/>
<glyph d="M265 17q67 1 98 39q30 37 35 93q2 16 8 17q6 -2 8 -10q4 -18 4 -117q-2 -10 -11 -16q-67 -40 -166 -40q-121 0 -164 86q-17 33 -17 70q0 78 57 152q4 4 83 97q18 21 32 38q41 53 41 80q-1 26 -19 51q-9 12 -9 17q2 6 11 9q14 -1 42 -35q29 -37 29 -59q-1 -23 -22 -50 q-12 -16 -37 -45q-22 -25 -32 -38q-74 -94 -85 -167q-3 -21 -3 -45q0 -63 41 -100q31 -27 76 -27zM263 767q38 0 48 -36q2 -8 2 -15q0 -31 -26 -45q-12 -6 -25 -6q-37 0 -48 31q-3 8 -3 17q0 37 32 50q10 4 20 4z" glyph-name="questiondown" horiz-adv-x="488" unicode="¿"/>
<glyph d="M95 107l227 621q14 39 22 39t20 -31q1 -3 2 -5q4 -11 42 -110q147 -384 191 -493q41 -97 86 -111q18 -6 40 -6q9 -1 10 -6q-2 -8 -20 -8q-88 0 -157 2q-29 2 -30 7q2 5 7 7q13 6 6 27l-93 246q-4 6 -9 6h-215q-7 -1 -10 -8l-60 -177q-14 -39 -14 -67q0 -23 28 -28 q6 -1 10 -1h10q9 -1 10 -6q-2 -8 -15 -8q-14 0 -52 2q-21 1 -26 1q-4 0 -23 -1q-59 -2 -90 -2q-18 1 -19 8q2 5 9 6q13 0 29 2q47 6 73 67q6 12 11 27zM235 328h191q5 2 4 7l-95 270q-7 23 -15 0l-88 -270q-1 -6 3 -7zM401 830q-23 0 -181 59q-28 11 -29 17q0 5 10 8h1 q45 13 60 19q14 5 16 5t10 -10q3 -4 5 -6q25 -25 89 -67q5 -4 9 -6t10 -6q8 -6 9 -8q-2 -4 -9 -5z" glyph-name="Agrave" horiz-adv-x="700" unicode="À"/>
<glyph d="M95 107l227 621q14 39 22 39t20 -31q1 -3 2 -5q4 -11 42 -110q147 -384 191 -493q41 -97 86 -111q18 -6 40 -6q9 -1 10 -6q-2 -8 -20 -8q-88 0 -157 2q-29 2 -30 7q2 5 7 7q13 6 6 27l-93 246q-4 6 -9 6h-215q-7 -1 -10 -8l-60 -177q-14 -39 -14 -67q0 -23 28 -28 q6 -1 10 -1h10q9 -1 10 -6q-2 -8 -15 -8q-14 0 -52 2q-21 1 -26 1q-4 0 -23 -1q-59 -2 -90 -2q-18 1 -19 8q2 5 9 6q13 0 29 2q47 6 73 67q6 12 11 27zM235 328h191q5 2 4 7l-95 270q-7 23 -15 0l-88 -270q-1 -6 3 -7zM478 933q5 -7 25 -44q5 -11 -4 -12h-30 q-70 -7 -152 -42q-11 -5 -15 -5q-4 2 -5 6q2 5 7 8q56 39 136 85q22 13 28 13q5 -2 10 -9z" glyph-name="Aacute" horiz-adv-x="700" unicode="Á"/>
<glyph d="M95 107l227 621q14 39 22 39t20 -31q1 -3 2 -5q4 -11 42 -110q147 -384 191 -493q41 -97 86 -111q18 -6 40 -6q9 -1 10 -6q-2 -8 -20 -8q-88 0 -157 2q-29 2 -30 7q2 5 7 7q13 6 6 27l-93 246q-4 6 -9 6h-215q-7 -1 -10 -8l-60 -177q-14 -39 -14 -67q0 -23 28 -28 q6 -1 10 -1h10q9 -1 10 -6q-2 -8 -15 -8q-14 0 -52 2q-21 1 -26 1q-4 0 -23 -1q-59 -2 -90 -2q-18 1 -19 8q2 5 9 6q13 0 29 2q47 6 73 67q6 12 11 27zM235 328h191q5 2 4 7l-95 270q-7 23 -15 0l-88 -270q-1 -6 3 -7zM477 845l-21 -22q-6 -6 -9 -6q-5 1 -8 5q-28 31 -79 66 q-3 2 -5 3q-8 4 -10 4q-7 -1 -16 -5q-26 -14 -85 -63q-11 -9 -18 -10q-6 1 -7 8q1 4 6 11q23 22 112 104q11 9 16 10q4 -1 16 -10q87 -65 101 -76q12 -8 12 -10q-1 -3 -5 -9z" glyph-name="Acircumflex" horiz-adv-x="700" unicode="Â"/>
<glyph d="M95 107l227 621q14 39 22 39t20 -31q1 -3 2 -5q4 -11 42 -110q147 -384 191 -493q41 -97 86 -111q18 -6 40 -6q9 -1 10 -6q-2 -8 -20 -8q-88 0 -157 2q-29 2 -30 7q2 5 7 7q13 6 6 27l-93 246q-4 6 -9 6h-215q-7 -1 -10 -8l-60 -177q-14 -39 -14 -67q0 -23 28 -28 q6 -1 10 -1h10q9 -1 10 -6q-2 -8 -15 -8q-14 0 -52 2q-21 1 -26 1q-4 0 -23 -1q-59 -2 -90 -2q-18 1 -19 8q2 5 9 6q13 0 29 2q47 6 73 67q6 12 11 27zM235 328h191q5 2 4 7l-95 270q-7 23 -15 0l-88 -270q-1 -6 3 -7zM421 830q-28 0 -79 26q-4 2 -13 6q-32 17 -55 17 q-7 0 -14 -1.5t-12.5 -4.5t-10 -5.5t-9 -7t-6.5 -7t-6 -6.5l-3 -4q-8 -8 -14 -9q-5 1 -6 6q1 6 7 15q29 45 63 64q13 7 23 7q20 0 81 -29q2 -1 3 -2q34 -16 58 -17q39 0 61 29q7 10 12 11q6 -1 7 -6q-1 -6 -4 -13q-12 -25 -44 -51q-23 -17 -39 -18z" glyph-name="Atilde" horiz-adv-x="700" unicode="Ã"/>
<glyph d="M95 107l227 621q14 39 22 39t20 -31q1 -3 2 -5q4 -11 42 -110q147 -384 191 -493q41 -97 86 -111q18 -6 40 -6q9 -1 10 -6q-2 -8 -20 -8q-88 0 -157 2q-29 2 -30 7q2 5 7 7q13 6 6 27l-93 246q-4 6 -9 6h-215q-7 -1 -10 -8l-60 -177q-14 -39 -14 -67q0 -23 28 -28 q6 -1 10 -1h10q9 -1 10 -6q-2 -8 -15 -8q-14 0 -52 2q-21 1 -26 1q-4 0 -23 -1q-59 -2 -90 -2q-18 1 -19 8q2 5 9 6q13 0 29 2q47 6 73 67q6 12 11 27zM235 328h191q5 2 4 7l-95 270q-7 23 -15 0l-88 -270q-1 -6 3 -7zM450 830q-33 0 -41 32q-1 6 -1 11q0 30 26 40q8 3 17 3 q34 0 42 -29q1 -6 1 -11q0 -34 -29 -44q-8 -2 -15 -2zM249 830q-33 0 -41 32q-1 6 -1 11q0 30 26 40q8 3 17 3q34 0 42 -29q1 -6 1 -11q0 -34 -29 -44q-8 -2 -15 -2z" glyph-name="Adieresis" horiz-adv-x="700" unicode="Ä"/>
<glyph d="M95 107l227 621q14 39 22 39t20 -31q1 -3 2 -5q4 -11 42 -110q147 -384 191 -493q41 -97 86 -111q18 -6 40 -6q9 -1 10 -6q-2 -8 -20 -8q-88 0 -157 2q-29 2 -30 7q2 5 7 7q13 6 6 27l-93 246q-4 6 -9 6h-215q-7 -1 -10 -8l-60 -177q-14 -39 -14 -67q0 -23 28 -28 q6 -1 10 -1h10q9 -1 10 -6q-2 -8 -15 -8q-14 0 -52 2q-21 1 -26 1q-4 0 -23 -1q-59 -2 -90 -2q-18 1 -19 8q2 5 9 6q13 0 29 2q47 6 73 67q6 12 11 27zM235 328h191q5 2 4 7l-95 270q-7 23 -15 0l-88 -270q-1 -6 3 -7zM329 820q-62 0 -75 42q-3 8 -3 17q0 44 48 69 q32 17 70 17q64 0 79 -40q3 -8 3 -17q1 -50 -59 -75q-30 -13 -63 -13zM345 844q39 0 54 31q5 10 5 20q0 36 -35 44q-9 2 -17 2q-34 0 -50 -25q-7 -11 -7 -24q0 -33 33 -45q9 -3 17 -3z" glyph-name="Aring" horiz-adv-x="700" unicode="Å"/>
<glyph d="M473 341h-176q-13 -1 -18 -7l-113 -184l-1 -1q-43 -71 -43 -101q1 -20 20 -29q21 -8 44 -8q11 -1 12 -7q-2 -6 -17 -7q-39 0 -104 2q-18 1 -21 1q-2 0 -18 -1q-61 -2 -95 -2q-12 1 -13 8q2 5 11 6q22 1 42 10q41 21 82 76q8 10 23 31q35 48 367 569q18 28 22 42 q5 13 13 14h6q6 -1 9 -1q10 -2 17 -2q205 0 229 1q29 2 43 5q2 0 6 2q6 3 8 3q4 -2 4 -9q0 -3 -2 -12q-4 -19 -6 -35q0 -4 -1 -21q-3 -37 -4 -45q-3 -10 -7 -11q-8 2 -8 13q0 22 -6 36q-9 22 -41 29q-13 3 -30 5q-25 3 -137 3q-5 -2 -6 -10v-317q1 -9 6 -10q135 0 159 2 q37 4 47 14q12 12 15 13q4 -2 5 -8q0 -2 -2 -12q-4 -24 -6 -44q-4 -39 -4 -57q-1 -15 -7 -16q-6 2 -8 11q0 14 -3 24q-8 29 -57 35h-2q-20 2 -136 2q-7 -2 -7 -9v-45v-172q2 -53 24 -67q23 -14 92 -14q70 0 96 11q33 14 43 60q1 5 2 11q4 14 9 15q6 -1 6 -15q0 -30 -12 -89 q0 -5 -1 -7q-6 -21 -20 -24q-9 -2 -34 -2q-53 0 -169 3q-58 3 -78 3h-9q-19 -1 -30 -1q-38 -2 -55 -2q-15 1 -16 8q2 5 8 6q11 0 28 4q21 4 28 49q1 3 1 6q5 43 5 217v46q-2 7 -9 8zM482 385v270q0 8 -6 3l-3 -3l-158 -258q-5 -8 -6 -11q-3 -8 4 -9h160q8 2 9 8z" glyph-name="AE" horiz-adv-x="912" unicode="Æ"/>
<glyph d="M154 395q0 -141 92 -246q99 -112 250 -120h19q117 0 166 43q5 4 8 7q26 28 37 82v2q4 14 10 15q7 -2 7 -15q0 -27 -16 -105q-4 -14 -6 -23q-6 -19 -17 -25q-4 -2 -9 -4q-58 -23 -180 -23q-15 0 -22 1q-22 -18 -56 -52q97 -13 100 -71q0 -47 -60 -77q-6 -3 -11 -5 q-41 -18 -78 -18q-12 1 -13 8q2 9 20 11q51 6 68 39q6 11 6 22q0 51 -70 72q-1 1 -2 1q-14 5 -15 9q2 5 13 14l59 49q-165 12 -269 105q-121 109 -121 296q0 114 64 213q21 33 48 60q108 107 305 107q80 0 145 -12q71 -13 102 -15q12 -2 13 -11q0 -3 -1 -12q-3 -23 -4 -44 q-1 -19 -2 -68q-1 -29 -1 -35q-2 -20 -9 -21q-8 2 -8 21q0 61 -37 97l-5 5q-50 43 -152 54q-25 3 -48 3q-155 0 -230 -73q-83 -80 -89 -229q-1 -16 -1 -32z" glyph-name="Ccedilla" horiz-adv-x="805" unicode="Ç"/>
<glyph d="M178 287v176q0 184 -2 216q-2 40 -25 51q-8 4 -18 6q-12 3 -34 3q-7 1 -8 6q2 8 16 8q50 0 72 -1l41 -2q205 0 229 1q29 2 43 5q2 0 6 2q6 3 8 3q4 -2 4 -9q0 -3 -2 -12q-4 -19 -6 -35q0 -4 -1 -21q-3 -37 -4 -45q-3 -10 -7 -11q-8 2 -8 13q0 22 -6 36q-9 22 -41 29 q-13 3 -30 5q-25 3 -137 3q-5 -2 -6 -10v-276q1 -9 6 -10q135 0 159 2q37 4 47 14q12 12 15 13q4 -2 5 -8q0 -2 -2 -12q-4 -24 -6 -44q-4 -38 -4 -64q-1 -18 -7 -19q-6 2 -7 9q0 21 -4 33q-9 30 -50 35h-2q-44 5 -143 5q-6 -2 -7 -7v-88v-171q2 -54 24 -68q23 -14 92 -14 q70 0 96 11q33 14 43 64l2 8q4 14 9 15q6 -1 6 -15q0 -30 -12 -91q0 -4 -1 -6q-6 -21 -20 -24q-9 -2 -34 -2q-53 0 -169 3q-58 3 -78 3t-40 -1q-11 0 -33 -1q-18 -1 -25 -1q-15 1 -16 8q2 5 8 6q13 0 30 4q21 4 28 49q1 3 1 6q5 43 5 217zM375 830q-23 0 -181 59 q-28 11 -29 17q0 5 10 8h1q45 13 60 19q14 5 16 5t10 -10q3 -4 5 -6q25 -25 89 -67q5 -4 9 -6t10 -6q8 -6 9 -8q-2 -4 -9 -5z" glyph-name="Egrave" horiz-adv-x="610" unicode="È"/>
<glyph d="M178 287v176q0 184 -2 216q-2 40 -25 51q-8 4 -18 6q-12 3 -34 3q-7 1 -8 6q2 8 16 8q50 0 72 -1l41 -2q205 0 229 1q29 2 43 5q2 0 6 2q6 3 8 3q4 -2 4 -9q0 -3 -2 -12q-4 -19 -6 -35q0 -4 -1 -21q-3 -37 -4 -45q-3 -10 -7 -11q-8 2 -8 13q0 22 -6 36q-9 22 -41 29 q-13 3 -30 5q-25 3 -137 3q-5 -2 -6 -10v-276q1 -9 6 -10q135 0 159 2q37 4 47 14q12 12 15 13q4 -2 5 -8q0 -2 -2 -12q-4 -24 -6 -44q-4 -38 -4 -64q-1 -18 -7 -19q-6 2 -7 9q0 21 -4 33q-9 30 -50 35h-2q-44 5 -143 5q-6 -2 -7 -7v-88v-171q2 -54 24 -68q23 -14 92 -14 q70 0 96 11q33 14 43 64l2 8q4 14 9 15q6 -1 6 -15q0 -30 -12 -91q0 -4 -1 -6q-6 -21 -20 -24q-9 -2 -34 -2q-53 0 -169 3q-58 3 -78 3t-40 -1q-11 0 -33 -1q-18 -1 -25 -1q-15 1 -16 8q2 5 8 6q13 0 30 4q21 4 28 49q1 3 1 6q5 43 5 217zM442 933q5 -7 25 -44q5 -11 -4 -12 h-30q-70 -7 -152 -42q-11 -5 -15 -5q-4 2 -5 6q2 5 7 8q56 39 136 85q22 13 28 13q5 -2 10 -9z" glyph-name="Eacute" horiz-adv-x="610" unicode="É"/>
<glyph d="M178 287v176q0 184 -2 216q-2 40 -25 51q-8 4 -18 6q-12 3 -34 3q-7 1 -8 6q2 8 16 8q50 0 72 -1l41 -2q205 0 229 1q29 2 43 5q2 0 6 2q6 3 8 3q4 -2 4 -9q0 -3 -2 -12q-4 -19 -6 -35q0 -4 -1 -21q-3 -37 -4 -45q-3 -10 -7 -11q-8 2 -8 13q0 22 -6 36q-9 22 -41 29 q-13 3 -30 5q-25 3 -137 3q-5 -2 -6 -10v-276q1 -9 6 -10q135 0 159 2q37 4 47 14q12 12 15 13q4 -2 5 -8q0 -2 -2 -12q-4 -24 -6 -44q-4 -38 -4 -64q-1 -18 -7 -19q-6 2 -7 9q0 21 -4 33q-9 30 -50 35h-2q-44 5 -143 5q-6 -2 -7 -7v-88v-171q2 -54 24 -68q23 -14 92 -14 q70 0 96 11q33 14 43 64l2 8q4 14 9 15q6 -1 6 -15q0 -30 -12 -91q0 -4 -1 -6q-6 -21 -20 -24q-9 -2 -34 -2q-53 0 -169 3q-58 3 -78 3t-40 -1q-11 0 -33 -1q-18 -1 -25 -1q-15 1 -16 8q2 5 8 6q13 0 30 4q21 4 28 49q1 3 1 6q5 43 5 217zM451 845l-21 -22q-6 -6 -9 -6 q-5 1 -8 5q-28 31 -79 66q-3 2 -5 3q-8 4 -10 4q-7 -1 -16 -5q-26 -14 -85 -63q-11 -9 -18 -10q-6 1 -7 8q1 4 6 11q23 22 112 104q11 9 16 10q4 -1 16 -10q87 -65 101 -76q12 -8 12 -10q-1 -3 -5 -9z" glyph-name="Ecircumflex" horiz-adv-x="610" unicode="Ê"/>
<glyph d="M178 287v176q0 184 -2 216q-2 40 -25 51q-8 4 -18 6q-12 3 -34 3q-7 1 -8 6q2 8 16 8q50 0 72 -1l41 -2q205 0 229 1q29 2 43 5q2 0 6 2q6 3 8 3q4 -2 4 -9q0 -3 -2 -12q-4 -19 -6 -35q0 -4 -1 -21q-3 -37 -4 -45q-3 -10 -7 -11q-8 2 -8 13q0 22 -6 36q-9 22 -41 29 q-13 3 -30 5q-25 3 -137 3q-5 -2 -6 -10v-276q1 -9 6 -10q135 0 159 2q37 4 47 14q12 12 15 13q4 -2 5 -8q0 -2 -2 -12q-4 -24 -6 -44q-4 -38 -4 -64q-1 -18 -7 -19q-6 2 -7 9q0 21 -4 33q-9 30 -50 35h-2q-44 5 -143 5q-6 -2 -7 -7v-88v-171q2 -54 24 -68q23 -14 92 -14 q70 0 96 11q33 14 43 64l2 8q4 14 9 15q6 -1 6 -15q0 -30 -12 -91q0 -4 -1 -6q-6 -21 -20 -24q-9 -2 -34 -2q-53 0 -169 3q-58 3 -78 3t-40 -1q-11 0 -33 -1q-18 -1 -25 -1q-15 1 -16 8q2 5 8 6q13 0 30 4q21 4 28 49q1 3 1 6q5 43 5 217zM424 830q-33 0 -41 32q-1 6 -1 11 q0 30 26 40q8 3 17 3q34 0 42 -29q1 -6 1 -11q0 -34 -29 -44q-8 -2 -15 -2zM223 830q-33 0 -41 32q-1 6 -1 11q0 30 26 40q8 3 17 3q34 0 42 -29q1 -6 1 -11q0 -34 -29 -44q-8 -2 -15 -2z" glyph-name="Edieresis" horiz-adv-x="610" unicode="Ë"/>
<glyph d="M262 463v-176q0 -175 5 -217q5 -44 29 -53l10 -2q27 -4 45 -4q7 -1 8 -6q-2 -7 -16 -8q-42 0 -111 3h-11.5t-17.5 -1q-60 -2 -81 -2q-15 1 -16 8q2 5 8 6q13 0 30 4q21 4 28 49q1 3 1 6q5 43 5 217v176q0 184 -2 216q-4 48 -34 56q-15 4 -31 4q-7 1 -8 6q2 8 16 8 q24 0 85 -2q14 -1 16 -1q1 0 17 1q60 2 81 2q15 -1 16 -8q-1 -5 -8 -6q-8 0 -25 -3q-30 -6 -35 -40q-1 -8 -2 -17q-2 -34 -2 -216zM271 830q-23 0 -181 59q-28 11 -29 17q0 5 10 8h1q45 13 60 19q14 5 16 5t10 -10q3 -4 5 -6q25 -25 89 -67q5 -4 9 -6t10 -6q8 -6 9 -8 q-2 -4 -9 -5z" glyph-name="Igrave" horiz-adv-x="440" unicode="Ì"/>
<glyph d="M262 463v-176q0 -175 5 -217q5 -44 29 -53l10 -2q27 -4 45 -4q7 -1 8 -6q-2 -7 -16 -8q-42 0 -111 3h-11.5t-17.5 -1q-60 -2 -81 -2q-15 1 -16 8q2 5 8 6q13 0 30 4q21 4 28 49q1 3 1 6q5 43 5 217v176q0 184 -2 216q-4 48 -34 56q-15 4 -31 4q-7 1 -8 6q2 8 16 8 q24 0 85 -2q14 -1 16 -1q1 0 17 1q60 2 81 2q15 -1 16 -8q-1 -5 -8 -6q-8 0 -25 -3q-30 -6 -35 -40q-1 -8 -2 -17q-2 -34 -2 -216zM348 933q5 -7 25 -44q5 -11 -4 -12h-30q-70 -7 -152 -42q-11 -5 -15 -5q-4 2 -5 6q2 5 7 8q56 39 136 85q22 13 28 13q5 -2 10 -9z" glyph-name="Iacute" horiz-adv-x="440" unicode="Í"/>
<glyph d="M262 463v-176q0 -175 5 -217q5 -44 29 -53l10 -2q27 -4 45 -4q7 -1 8 -6q-2 -7 -16 -8q-42 0 -111 3h-11.5t-17.5 -1q-60 -2 -81 -2q-15 1 -16 8q2 5 8 6q13 0 30 4q21 4 28 49q1 3 1 6q5 43 5 217v176q0 184 -2 216q-4 48 -34 56q-15 4 -31 4q-7 1 -8 6q2 8 16 8 q24 0 85 -2q14 -1 16 -1q1 0 17 1q60 2 81 2q15 -1 16 -8q-1 -5 -8 -6q-8 0 -25 -3q-30 -6 -35 -40q-1 -8 -2 -17q-2 -34 -2 -216zM347 845l-21 -22q-6 -6 -9 -6q-5 1 -8 5q-28 31 -79 66q-3 2 -5 3q-8 4 -10 4q-7 -1 -16 -5q-26 -14 -85 -63q-11 -9 -18 -10q-6 1 -7 8 q1 4 6 11q23 22 112 104q11 9 16 10q4 -1 16 -10q87 -65 101 -76q12 -8 12 -10q-1 -3 -5 -9z" glyph-name="Icircumflex" horiz-adv-x="440" unicode="Î"/>
<glyph d="M262 463v-176q0 -175 5 -217q5 -44 29 -53l10 -2q27 -4 45 -4q7 -1 8 -6q-2 -7 -16 -8q-42 0 -111 3h-11.5t-17.5 -1q-60 -2 -81 -2q-15 1 -16 8q2 5 8 6q13 0 30 4q21 4 28 49q1 3 1 6q5 43 5 217v176q0 184 -2 216q-4 48 -34 56q-15 4 -31 4q-7 1 -8 6q2 8 16 8 q24 0 85 -2q14 -1 16 -1q1 0 17 1q60 2 81 2q15 -1 16 -8q-1 -5 -8 -6q-8 0 -25 -3q-30 -6 -35 -40q-1 -8 -2 -17q-2 -34 -2 -216zM320 830q-33 0 -41 32q-1 6 -1 11q0 30 26 40q8 3 17 3q34 0 42 -29q1 -6 1 -11q0 -34 -29 -44q-8 -2 -15 -2zM119 830q-33 0 -41 32 q-1 6 -1 11q0 30 26 40q8 3 17 3q34 0 42 -29q1 -6 1 -11q0 -34 -29 -44q-8 -2 -15 -2z" glyph-name="Idieresis" horiz-adv-x="440" unicode="Ï"/>
<glyph d="M178 397v66q0 184 -2 216q-2 40 -25 51q-8 4 -18 6q-12 3 -34 3q-7 1 -8 6q2 8 16 8q34 0 100 -3h13q4 0 24 1q70 2 111 2q133 0 194 -11q130 -24 207 -103q97 -102 97 -254q0 -158 -97 -270q-6 -7 -11 -12q-111 -114 -303 -115q-54 0 -139 6q-22 2 -56 4q-24 2 -27 2 q-20 0 -40 -1q-11 0 -33 -1q-18 -1 -25 -1q-15 1 -16 8q2 5 8 6q13 0 30 4q21 4 28 49q1 3 1 6q5 43 5 217v74h-88q-8 2 -7 11l3 16q4 9 13 9h79zM262 360v-53q0 -136 2 -169q3 -64 11 -76q29 -40 170 -40q137 0 229 84l9 9q64 63 77 190q3 25 3 49q0 151 -96 252 q-92 97 -246 110q-36 3 -82 3q-49 0 -64 -7q-12 -7 -12 -20l-1 -294h205q8 -2 7 -11l-4 -19q-2 -8 -13 -8h-195z" glyph-name="Eth" horiz-adv-x="917" unicode="Ð"/>
<glyph d="M192 612l13 -479q2 -92 26 -110q6 -4 13 -6q23 -6 50 -6q7 -1 8 -6q-2 -8 -18 -8q-41 0 -91 2q-12 1 -15 1t-17 -1q-48 -2 -79 -2q-15 1 -16 8q2 5 8 6q23 0 41 6q23 6 28 53q2 25 2 74l1 573q0 49 11 50q5 0 31 -28l4 -4q38 -43 318 -343q52 -56 152 -166q73 -79 88 -95 l-11 508q-1 70 -20 86q-8 6 -19 9q-22 5 -49 5q-8 1 -8 7q2 7 20 7q30 0 82 -2q18 -1 22 -1t18 1q40 2 67 2q17 -1 18 -7q-2 -6 -11 -7q-13 0 -24 -3q-28 -6 -34 -36q-3 -17 -3 -53l-2 -586q-2 -69 -9 -71q-9 0 -59 50l-14 14q-38 35 -217 224q-24 26 -44 47 q-139 150 -261 287zM554 830q-28 0 -79 26q-4 2 -13 6q-32 17 -55 17q-7 0 -14 -1.5t-12.5 -4.5t-10 -5.5t-9 -7t-6.5 -7t-5 -6.5l-4 -4q-8 -8 -14 -9q-5 1 -6 6q1 6 7 15q29 45 63 64q13 7 23 7q20 0 81 -29q2 -1 3 -2q34 -16 58 -17q39 0 61 29q7 10 12 11q6 -1 7 -6 q-1 -6 -4 -13q-12 -25 -44 -51q-23 -17 -39 -18z" glyph-name="Ntilde" horiz-adv-x="947" unicode="Ñ"/>
<glyph d="M64 376q0 124 74 231q102 146 288 159q16 1 32 1q181 0 291 -110q102 -103 102 -265q0 -168 -105 -284q-118 -122 -294 -125q-205 0 -312 149q-76 106 -76 244zM159 404q0 -186 107 -294q88 -89 213 -89q104 0 178 68q98 91 98 275q0 192 -113 295q-82 74 -191 74 q-153 0 -232 -111q-60 -85 -60 -218zM508 830q-23 0 -181 59q-28 11 -29 17q0 5 10 8h1q45 13 60 19q14 5 16 5t10 -10q3 -4 5 -6q25 -25 89 -67q5 -4 9 -6t10 -6q8 -6 9 -8q-2 -4 -9 -5z" glyph-name="Ograve" horiz-adv-x="915" unicode="Ò"/>
<glyph d="M64 376q0 124 74 231q102 146 288 159q16 1 32 1q181 0 291 -110q102 -103 102 -265q0 -168 -105 -284q-118 -122 -294 -125q-205 0 -312 149q-76 106 -76 244zM159 404q0 -186 107 -294q88 -89 213 -89q104 0 178 68q98 91 98 275q0 192 -113 295q-82 74 -191 74 q-153 0 -232 -111q-60 -85 -60 -218zM585 933q5 -7 25 -44q5 -11 -4 -12h-30q-70 -7 -152 -42q-11 -5 -15 -5q-4 2 -5 6q2 5 7 8q56 39 136 85q22 13 28 13q5 -2 10 -9z" glyph-name="Oacute" horiz-adv-x="915" unicode="Ó"/>
<glyph d="M64 376q0 124 74 231q102 146 288 159q16 1 32 1q181 0 291 -110q102 -103 102 -265q0 -168 -105 -284q-118 -122 -294 -125q-205 0 -312 149q-76 106 -76 244zM159 404q0 -186 107 -294q88 -89 213 -89q104 0 178 68q98 91 98 275q0 192 -113 295q-82 74 -191 74 q-153 0 -232 -111q-60 -85 -60 -218zM584 845l-21 -22q-6 -6 -9 -6q-5 1 -8 5q-28 31 -79 66q-3 2 -5 3q-8 4 -10 4q-7 -1 -16 -5q-26 -14 -85 -63q-11 -9 -18 -10q-6 1 -7 8q1 4 6 11q23 22 112 104q11 9 16 10q4 -1 16 -10q87 -65 101 -76q12 -8 12 -10q-1 -3 -5 -9z" glyph-name="Ocircumflex" horiz-adv-x="915" unicode="Ô"/>
<glyph d="M64 376q0 124 74 231q102 146 288 159q16 1 32 1q181 0 291 -110q102 -103 102 -265q0 -168 -105 -284q-118 -122 -294 -125q-205 0 -312 149q-76 106 -76 244zM159 404q0 -186 107 -294q88 -89 213 -89q104 0 178 68q98 91 98 275q0 192 -113 295q-82 74 -191 74 q-153 0 -232 -111q-60 -85 -60 -218zM528 830q-28 0 -79 26q-4 2 -13 6q-32 17 -55 17q-7 0 -14 -1.5t-12.5 -4.5t-10 -5.5t-9 -7t-6.5 -7t-5 -6.5l-4 -4q-8 -8 -14 -9q-5 1 -6 6q1 6 7 15q29 45 63 64q13 7 23 7q20 0 81 -29q2 -1 3 -2q34 -16 58 -17q39 0 61 29 q7 10 12 11q6 -1 7 -6q-1 -6 -4 -13q-12 -25 -44 -51q-23 -17 -39 -18z" glyph-name="Otilde" horiz-adv-x="915" unicode="Õ"/>
<glyph d="M64 376q0 124 74 231q102 146 288 159q16 1 32 1q181 0 291 -110q102 -103 102 -265q0 -168 -105 -284q-118 -122 -294 -125q-205 0 -312 149q-76 106 -76 244zM159 404q0 -186 107 -294q88 -89 213 -89q104 0 178 68q98 91 98 275q0 192 -113 295q-82 74 -191 74 q-153 0 -232 -111q-60 -85 -60 -218zM557 830q-33 0 -41 32q-1 6 -1 11q0 30 26 40q8 3 17 3q34 0 42 -29q1 -6 1 -11q0 -34 -29 -44q-8 -2 -15 -2zM356 830q-33 0 -41 32q-1 6 -1 11q0 30 26 40q8 3 17 3q34 0 42 -29q1 -6 1 -11q0 -34 -29 -44q-8 -2 -15 -2z" glyph-name="Odieresis" horiz-adv-x="915" unicode="Ö"/>
<glyph d="M56 430l36 37l162 -167l163 167l38 -37l-163 -167l163 -166l-37 -37l-163 166l-162 -166l-38 37l163 166z" glyph-name="multiply" horiz-adv-x="510" unicode="×"/>
<glyph d="M202 66l-87 -93q-5 -4 -10 0l-20 19q-5 6 -2 10l87 94q-93 97 -105 245q-1 18 -1 35q0 124 74 231q102 146 288 159q16 1 32 1q155 -1 258 -82l82 88q6 4 14 -2l20 -16q5 -7 0 -13l-81 -87q100 -102 100 -263q0 -168 -105 -284q-118 -122 -294 -125q-151 1 -250 83z M695 595l-441 -473q91 -101 225 -101q104 0 178 68q98 91 98 275q0 137 -60 231zM227 157l440 475q-82 96 -207 101h-10q-153 0 -231 -111q-60 -85 -60 -218q1 -146 68 -247z" glyph-name="Oslash" horiz-adv-x="915" unicode="Ø"/>
<glyph d="M120 317v146q0 184 -2 216q-2 40 -25 51q-8 4 -18 6q-12 3 -34 3q-7 1 -8 6q2 8 16 8q27 0 71 -1l44 -2q3 0 25 1q55 2 74 2q15 -1 16 -8q-1 -5 -8 -6q-8 0 -25 -3q-30 -4 -36 -42q-1 -7 -1 -15q-2 -34 -2 -216v-140q0 -166 65 -237l10 -10q55 -51 132 -55h19 q83 0 143 57q8 8 14 15q58 73 58 245v125q0 184 -2 216q-2 40 -25 51q-8 4 -18 6q-12 3 -34 3q-7 1 -8 6q2 8 16 8q33 0 92 -2q12 -1 14 -1t18 1q46 2 66 2q15 -1 16 -8q-1 -5 -8 -6q-8 0 -25 -3q-30 -7 -35 -39q-1 -8 -2 -18q-2 -34 -2 -216v-107q0 -192 -69 -275 q-11 -14 -23 -24q-84 -74 -206 -74q-131 1 -206 71q-79 76 -86 228q-1 17 -1 35zM470 830q-23 0 -181 59q-28 11 -29 17q0 5 10 8h1q45 13 60 19q14 5 16 5t10 -10q3 -4 5 -6q25 -25 89 -67q5 -4 9 -6t10 -6q8 -6 9 -8q-2 -4 -9 -5z" glyph-name="Ugrave" horiz-adv-x="830" unicode="Ù"/>
<glyph d="M120 317v146q0 184 -2 216q-2 40 -25 51q-8 4 -18 6q-12 3 -34 3q-7 1 -8 6q2 8 16 8q27 0 71 -1l44 -2q3 0 25 1q55 2 74 2q15 -1 16 -8q-1 -5 -8 -6q-8 0 -25 -3q-30 -4 -36 -42q-1 -7 -1 -15q-2 -34 -2 -216v-140q0 -166 65 -237l10 -10q55 -51 132 -55h19 q83 0 143 57q8 8 14 15q58 73 58 245v125q0 184 -2 216q-2 40 -25 51q-8 4 -18 6q-12 3 -34 3q-7 1 -8 6q2 8 16 8q33 0 92 -2q12 -1 14 -1t18 1q46 2 66 2q15 -1 16 -8q-1 -5 -8 -6q-8 0 -25 -3q-30 -7 -35 -39q-1 -8 -2 -18q-2 -34 -2 -216v-107q0 -192 -69 -275 q-11 -14 -23 -24q-84 -74 -206 -74q-131 1 -206 71q-79 76 -86 228q-1 17 -1 35zM562 933q5 -7 25 -44q5 -11 -4 -12h-30q-70 -7 -152 -42q-11 -5 -15 -5q-4 2 -5 6q2 5 7 8q56 39 136 85q22 13 28 13q5 -2 10 -9z" glyph-name="Uacute" horiz-adv-x="830" unicode="Ú"/>
<glyph d="M120 317v146q0 184 -2 216q-2 40 -25 51q-8 4 -18 6q-12 3 -34 3q-7 1 -8 6q2 8 16 8q27 0 71 -1l44 -2q3 0 25 1q55 2 74 2q15 -1 16 -8q-1 -5 -8 -6q-8 0 -25 -3q-30 -4 -36 -42q-1 -7 -1 -15q-2 -34 -2 -216v-140q0 -166 65 -237l10 -10q55 -51 132 -55h19 q83 0 143 57q8 8 14 15q58 73 58 245v125q0 184 -2 216q-2 40 -25 51q-8 4 -18 6q-12 3 -34 3q-7 1 -8 6q2 8 16 8q33 0 92 -2q12 -1 14 -1t18 1q46 2 66 2q15 -1 16 -8q-1 -5 -8 -6q-8 0 -25 -3q-30 -7 -35 -39q-1 -8 -2 -18q-2 -34 -2 -216v-107q0 -192 -69 -275 q-11 -14 -23 -24q-84 -74 -206 -74q-131 1 -206 71q-79 76 -86 228q-1 17 -1 35zM556 845l-21 -22q-6 -6 -9 -6q-5 1 -8 5q-28 31 -79 66q-3 2 -5 3q-8 4 -10 4q-7 -1 -16 -5q-26 -14 -85 -63q-11 -9 -18 -10q-6 1 -7 8q1 4 6 11q23 22 112 104q11 9 16 10q4 -1 16 -10 q87 -65 101 -76q12 -8 12 -10q-1 -3 -5 -9z" glyph-name="Ucircumflex" horiz-adv-x="830" unicode="Û"/>
<glyph d="M120 317v146q0 184 -2 216q-2 40 -25 51q-8 4 -18 6q-12 3 -34 3q-7 1 -8 6q2 8 16 8q27 0 71 -1l44 -2q3 0 25 1q55 2 74 2q15 -1 16 -8q-1 -5 -8 -6q-8 0 -25 -3q-30 -4 -36 -42q-1 -7 -1 -15q-2 -34 -2 -216v-140q0 -166 65 -237l10 -10q55 -51 132 -55h19 q83 0 143 57q8 8 14 15q58 73 58 245v125q0 184 -2 216q-2 40 -25 51q-8 4 -18 6q-12 3 -34 3q-7 1 -8 6q2 8 16 8q33 0 92 -2q12 -1 14 -1t18 1q46 2 66 2q15 -1 16 -8q-1 -5 -8 -6q-8 0 -25 -3q-30 -7 -35 -39q-1 -8 -2 -18q-2 -34 -2 -216v-107q0 -192 -69 -275 q-11 -14 -23 -24q-84 -74 -206 -74q-131 1 -206 71q-79 76 -86 228q-1 17 -1 35zM534 830q-33 0 -41 32q-1 6 -1 11q0 30 26 40q8 3 17 3q34 0 42 -29q1 -6 1 -11q0 -34 -29 -44q-8 -2 -15 -2zM333 830q-33 0 -41 32q-1 6 -1 11q0 30 26 40q8 3 17 3q34 0 42 -29q1 -6 1 -11 q0 -34 -29 -44q-8 -2 -15 -2z" glyph-name="Udieresis" horiz-adv-x="830" unicode="Ü"/>
<glyph d="M289 170v86q0 54 -23 105q-13 30 -145 240q-21 33 -31 48q-35 52 -68 74q-24 15 -43 16q-9 1 -10 7q2 6 13 7q13 0 75 -2q22 -1 24 -1t14 1q43 2 70 2q12 -1 13 -7q-2 -3 -15 -9q-12 -7 -13 -18q1 -16 13 -39l184 -316q27 60 161 285q3 6 5 9q17 28 17 51q-1 23 -16 28 q-14 6 -15 10q2 6 16 6q17 0 50 -2q13 -1 16 -1q2 0 27 1q57 2 70 2q12 -1 13 -6q-2 -7 -13 -8q-24 -1 -46 -14q-23 -15 -53 -51q-38 -47 -147 -236q-36 -63 -44 -82q-15 -37 -15 -100v-86q0 -58 3 -100q5 -49 41 -55q27 -4 45 -4q7 -1 8 -6q-2 -7 -16 -8q-42 0 -111 3 h-11.5t-17.5 -1q-60 -2 -81 -2q-15 1 -16 8q2 5 8 6q13 0 30 4q27 7 31 55q3 42 3 100zM484 933q5 -7 25 -44q5 -11 -4 -12h-30q-70 -7 -152 -42q-11 -5 -15 -5q-4 2 -5 6q2 5 7 8q56 39 136 85q22 13 28 13q5 -2 10 -9z" glyph-name="Yacute" horiz-adv-x="654" unicode="Ý"/>
<glyph d="M178 287v176q0 184 -2 216q-2 40 -25 51q-8 4 -18 6q-12 3 -34 3q-7 1 -8 6q2 8 16 8q32 0 94 -2q16 -1 19 -1q2 0 15 1q67 2 103 2q15 -1 16 -7q-1 -6 -8 -7q-12 0 -39 -4q-43 -10 -45 -53q-2 -84 -2 -94q59 4 87 4q122 0 185 -56l1 -1q37 -32 47 -91q2 -14 2 -27 q0 -121 -89 -189q-66 -49 -157 -49q-16 0 -21 1q-10 1 -11 7q8 9 27 9q87 0 138 64q35 44 35 99q-1 97 -56 154q-52 51 -137 50q-29 0 -43 -6q-8 -4 -8 -19v-251q0 -175 5 -217q5 -44 29 -53l10 -2q27 -4 45 -4q7 -1 8 -6q-2 -7 -16 -8q-42 0 -111 3h-12h-11q-62 -3 -85 -3 q-15 1 -16 8q2 5 8 6q13 0 30 4q21 4 28 49q1 3 1 6q5 43 5 217z" glyph-name="Thorn" horiz-adv-x="647" unicode="Þ"/>
<glyph d="M209 -14q-79 0 -128 23q-12 6 -13 18v14q0 23 5 90q1 13 7 14q7 -2 8 -10q0 -19 3 -31q15 -67 103 -81q18 -3 36 -3q94 0 123 66q9 22 9 47q0 52 -44 94q-21 20 -67 54l-40 30q-108 81 -123 151q-3 16 -3 31q0 96 86 138q47 22 109 22q49 0 91 -10q18 -4 31 -4q8 -2 9 -6 v-6q-4 -39 -4 -84q-1 -18 -7 -19q-7 2 -8 11q-3 22 -13 42q-18 29 -74 39q-19 3 -40 3q-76 0 -105 -48q-12 -20 -12 -44q0 -50 44 -91q24 -22 70 -53l25 -17q118 -80 138 -159q6 -22 6 -46q-1 -92 -82 -145q-47 -30 -140 -30zM733 -14q-79 0 -128 23q-12 6 -13 18v14 q0 23 5 90q1 13 7 14q7 -2 8 -10q0 -19 3 -31q15 -67 103 -81q18 -3 36 -3q94 0 123 66q9 22 9 47q0 52 -44 94q-21 20 -67 54l-40 30q-108 81 -123 151q-3 16 -3 31q0 96 86 138q47 22 109 22q49 0 91 -10q18 -4 31 -4q8 -2 9 -6v-6q-4 -39 -4 -84q-1 -18 -7 -19 q-7 2 -8 11q-3 22 -13 42q-18 29 -74 39q-19 3 -40 3q-76 0 -105 -48q-12 -20 -12 -44q0 -50 44 -91q24 -22 70 -53l25 -17q118 -80 138 -159q6 -22 6 -46q-1 -92 -82 -145q-47 -30 -140 -30z" glyph-name="germandbls" horiz-adv-x="1048" unicode="ß"/>
<glyph d="M82 91l207 532q13 33 21 33q7 0 16 -21q3 -7 5 -10q8 -17 86 -210q97 -239 125 -306q33 -78 70 -91q3 -1 5 -2q17 -5 35 -5q10 -1 11 -7q-1 -7 -20 -7q-78 0 -139 2q-30 2 -31 6q2 4 6 6q13 7 8 23l-79 195q-4 5 -8 5h-203q-6 -2 -9 -7l-50 -136q-13 -34 -13 -57 q1 -22 30 -23h8q8 -1 9 -7q-2 -7 -13 -7q-12 0 -52 2q-23 1 -27 1q-3 0 -19 -1q-46 -2 -70 -2q-16 1 -17 7q1 6 8 7q12 0 26 2q40 5 64 55q5 10 10 23zM209 269h178q4 2 3 6l-87 233q-7 20 -15 0l-82 -233q-2 -6 3 -6zM363 715q-23 0 -181 59q-28 11 -29 17q0 5 10 8h1 q45 13 60 19q14 5 16 5t10 -10q3 -4 5 -6q25 -25 89 -67q5 -4 9 -6t10 -6q8 -6 9 -8q-2 -4 -9 -5z" glyph-name="agrave" horiz-adv-x="624" unicode="à"/>
<glyph d="M82 91l207 532q13 33 21 33q7 0 16 -21q3 -7 5 -10q8 -17 86 -210q97 -239 125 -306q33 -78 70 -91q3 -1 5 -2q17 -5 35 -5q10 -1 11 -7q-1 -7 -20 -7q-78 0 -139 2q-30 2 -31 6q2 4 6 6q13 7 8 23l-79 195q-4 5 -8 5h-203q-6 -2 -9 -7l-50 -136q-13 -34 -13 -57 q1 -22 30 -23h8q8 -1 9 -7q-2 -7 -13 -7q-12 0 -52 2q-23 1 -27 1q-3 0 -19 -1q-46 -2 -70 -2q-16 1 -17 7q1 6 8 7q12 0 26 2q40 5 64 55q5 10 10 23zM209 269h178q4 2 3 6l-87 233q-7 20 -15 0l-82 -233q-2 -6 3 -6zM440 818q5 -7 25 -44q5 -11 -4 -12h-30 q-70 -7 -152 -42q-11 -5 -15 -5q-4 2 -5 6q2 5 7 8q56 39 136 85q22 13 28 13q5 -2 10 -9z" glyph-name="aacute" horiz-adv-x="624" unicode="á"/>
<glyph d="M82 91l207 532q13 33 21 33q7 0 16 -21q3 -7 5 -10q8 -17 86 -210q97 -239 125 -306q33 -78 70 -91q3 -1 5 -2q17 -5 35 -5q10 -1 11 -7q-1 -7 -20 -7q-78 0 -139 2q-30 2 -31 6q2 4 6 6q13 7 8 23l-79 195q-4 5 -8 5h-203q-6 -2 -9 -7l-50 -136q-13 -34 -13 -57 q1 -22 30 -23h8q8 -1 9 -7q-2 -7 -13 -7q-12 0 -52 2q-23 1 -27 1q-3 0 -19 -1q-46 -2 -70 -2q-16 1 -17 7q1 6 8 7q12 0 26 2q40 5 64 55q5 10 10 23zM209 269h178q4 2 3 6l-87 233q-7 20 -15 0l-82 -233q-2 -6 3 -6zM439 730l-21 -22q-6 -6 -9 -6q-5 1 -8 5q-28 31 -79 66 q-3 2 -5 3q-8 4 -10 4q-7 -1 -16 -5q-26 -14 -85 -63q-11 -9 -18 -10q-6 1 -7 8q1 4 6 11q23 22 112 104q11 9 16 10q4 -1 16 -10q87 -65 101 -76q12 -8 12 -10t-3 -7q-1 0 -1 -1z" glyph-name="acircumflex" horiz-adv-x="624" unicode="â"/>
<glyph d="M82 91l207 532q13 33 21 33q7 0 16 -21q3 -7 5 -10q8 -17 86 -210q97 -239 125 -306q33 -78 70 -91q3 -1 5 -2q17 -5 35 -5q10 -1 11 -7q-1 -7 -20 -7q-78 0 -139 2q-30 2 -31 6q2 4 6 6q13 7 8 23l-79 195q-4 5 -8 5h-203q-6 -2 -9 -7l-50 -136q-13 -34 -13 -57 q1 -22 30 -23h8q8 -1 9 -7q-2 -7 -13 -7q-12 0 -52 2q-23 1 -27 1q-3 0 -19 -1q-46 -2 -70 -2q-16 1 -17 7q1 6 8 7q12 0 26 2q40 5 64 55q5 10 10 23zM209 269h178q4 2 3 6l-87 233q-7 20 -15 0l-82 -233q-2 -6 3 -6zM383 715q-28 0 -79 26q-4 2 -13 6q-32 17 -55 17 q-7 0 -14 -1.5t-12.5 -4.5t-10 -5.5t-9 -7t-6.5 -7t-6 -6.5l-3 -4q-8 -8 -14 -9q-5 1 -6 6q1 6 7 15q29 45 63 64q13 7 23 7q20 0 81 -29q2 -1 3 -2q34 -16 58 -17q39 0 61 29q7 10 12 11q6 -1 7 -6q-1 -6 -4 -13q-12 -25 -44 -51q-23 -17 -39 -18z" glyph-name="atilde" horiz-adv-x="624" unicode="ã"/>
<glyph d="M82 91l207 532q13 33 21 33q7 0 16 -21q3 -7 5 -10q8 -17 86 -210q97 -239 125 -306q33 -78 70 -91q3 -1 5 -2q17 -5 35 -5q10 -1 11 -7q-1 -7 -20 -7q-78 0 -139 2q-30 2 -31 6q2 4 6 6q13 7 8 23l-79 195q-4 5 -8 5h-203q-6 -2 -9 -7l-50 -136q-13 -34 -13 -57 q1 -22 30 -23h8q8 -1 9 -7q-2 -7 -13 -7q-12 0 -52 2q-23 1 -27 1q-3 0 -19 -1q-46 -2 -70 -2q-16 1 -17 7q1 6 8 7q12 0 26 2q40 5 64 55q5 10 10 23zM209 269h178q4 2 3 6l-87 233q-7 20 -15 0l-82 -233q-2 -6 3 -6zM412 715q-33 0 -41 32q-1 6 -1 11q0 30 26 40q8 3 17 3 q34 0 42 -29q1 -6 1 -11q0 -34 -29 -44q-8 -2 -15 -2zM211 715q-33 0 -41 32q-1 6 -1 11q0 30 26 40q8 3 17 3q34 0 42 -29q1 -6 1 -11q0 -34 -29 -44q-8 -2 -15 -2z" glyph-name="adieresis" horiz-adv-x="624" unicode="ä"/>
<glyph d="M82 91l207 532q13 33 21 33q7 0 16 -21q3 -7 5 -10q8 -17 86 -210q97 -239 125 -306q33 -78 70 -91q3 -1 5 -2q17 -5 35 -5q10 -1 11 -7q-1 -7 -20 -7q-78 0 -139 2q-30 2 -31 6q2 4 6 6q13 7 8 23l-79 195q-4 5 -8 5h-203q-6 -2 -9 -7l-50 -136q-13 -34 -13 -57 q1 -22 30 -23h8q8 -1 9 -7q-2 -7 -13 -7q-12 0 -52 2q-23 1 -27 1q-3 0 -19 -1q-46 -2 -70 -2q-16 1 -17 7q1 6 8 7q12 0 26 2q40 5 64 55q5 10 10 23zM209 269h178q4 2 3 6l-87 233q-7 20 -15 0l-82 -233q-2 -6 3 -6zM291 705q-62 0 -75 42q-3 8 -3 17q0 44 48 69 q32 17 70 17q64 0 79 -40q3 -8 3 -17q1 -50 -59 -75q-30 -13 -63 -13zM307 729q39 0 54 31q5 10 5 20q0 36 -35 44q-9 2 -17 2q-34 0 -50 -25q-7 -11 -7 -24q0 -33 33 -45q9 -3 17 -3z" glyph-name="aring" horiz-adv-x="624" unicode="å"/>
<glyph d="M419 286h-156q-11 -1 -15 -6q-18 -23 -99 -153q-39 -62 -39 -86q1 -17 17 -23q19 -7 38 -7q9 -1 10 -8q-2 -5 -15 -6q-34 0 -92 2q-16 1 -19 1q-2 0 -16 -1q-53 -2 -83 -2q-11 1 -12 7q2 5 10 5q19 1 37 9q34 17 72 65q4 5 11 14l9 12q20 26 323 483q16 24 20 36 q5 11 11 12q3 0 11 -1q12 -1 17 -1h212q21 0 38 5q2 0 6 2t6 2q4 -1 4 -8q0 -2 -2 -9q-4 -17 -5 -31q0 -3 -1 -18q-3 -31 -4 -38q-3 -8 -6 -9q-8 2 -9 11q0 18 -5 30q-8 15 -28 20q-13 3 -33 6q-22 3 -124 3q-6 0 -6 -9v-265q2 -8 6 -9q122 0 144 2q35 4 41 11q9 10 13 11 q4 -2 4 -7q0 -2 -1 -8q-5 -21 -6 -39q-3 -25 -3 -49q-1 -12 -6 -13q-8 2 -9 13q-1 8 -3 16q-6 23 -48 27h-2q-17 2 -124 2q-6 -2 -6 -8v-35v-149q2 -44 24 -54q19 -9 82 -9q62 0 85 9q26 11 33 40q2 8 4 18q3 11 10 12q6 -1 6 -12q0 -28 -10 -76q-1 -4 -2 -6q-5 -18 -18 -21 q-8 -1 -29 -1q-99 0 -154 3l-74 2h-7q-17 -1 -27 -1q-32 -2 -48 -2q-13 1 -14 7q2 6 7 7q5 0 17 2q7 2 10 2q21 5 26 45q4 36 4 184v35q-2 6 -8 7zM427 327v230q-1 6 -8 0l-144 -229q-3 -7 3 -8h141q7 1 8 7z" glyph-name="ae" horiz-adv-x="815" unicode="æ"/>
<glyph d="M418 -13q-39 -35 -59 -55q97 -13 100 -71q0 -47 -60 -77q-6 -3 -11 -5q-41 -18 -78 -18q-12 1 -13 8q2 9 20 11q51 6 68 39q6 11 6 22q0 51 -70 72q-1 1 -2 1q-14 5 -15 9q2 5 13 14l64 52q-133 15 -219 88q-107 93 -107 252q0 100 61 187q17 25 38 45q96 91 268 91 q73 0 128 -9q12 -2 34 -6q38 -7 56 -8q10 -1 11 -9q0 -3 -1 -12q-2 -19 -3 -36q0 -13 -1 -45q0 -35 -1 -42q-2 -17 -10 -18q-7 2 -7 18q0 53 -35 83l-2 2q-50 42 -154 47h-19q-135 0 -198 -59q-74 -68 -79 -197v-25q0 -125 87 -215q93 -93 230 -93q89 0 126 24q10 8 19 16 q25 26 34 71q4 11 9 12q7 -1 8 -12q0 -23 -17 -93q-2 -10 -4 -16q-5 -17 -16 -22q-3 -2 -6 -3q-50 -19 -159 -19q-23 0 -34 1z" glyph-name="ccedilla" horiz-adv-x="708" unicode="ç"/>
<glyph d="M155 244v150q0 156 -2 183q-2 35 -21 43q-7 3 -15 4q-14 2 -30 2q-5 1 -7 7q2 7 14 7q30 0 89 -2h4.5h3.5h3h2h210q11 1 40 5q2 0 5 2q5 2 7 2q4 -1 4 -8q0 -2 -2 -9q-4 -17 -5 -31q0 -3 -1 -18q-3 -31 -4 -38q-3 -8 -8 -9q-6 2 -7 11q0 18 -5 30q-7 16 -35 22 q-12 2 -28 4q-22 3 -127 3q-5 -2 -5 -9v-231q1 -8 5 -9q126 0 147 2q34 4 43 12q11 11 13 11q4 -2 5 -7q0 -2 -1 -8q-5 -21 -6 -39q-4 -32 -4 -55q-1 -15 -8 -16q-5 2 -6 8q0 18 -4 28q-5 21 -43 26h-2q-32 4 -133 4q-5 -1 -6 -6v-71v-145q2 -46 25 -58q21 -10 80 -10 q65 0 88 9q32 14 39 54q1 3 1 5q4 12 9 13q6 -1 6 -13q0 -28 -11 -77q0 -3 -1 -5q-5 -18 -21 -21q-8 -1 -28 -1q-47 0 -153 3q-38 2 -73 2q-20 0 -38 -1q-34 -2 -51 -2q-13 1 -14 7q2 6 7 7q5 0 17 2q7 2 10 2q16 3 21 32q1 4 2 13q5 36 5 184zM346 715q-23 0 -181 59 q-28 11 -29 17q0 5 10 8h1q45 13 60 19q14 5 16 5t10 -10q3 -4 5 -6q25 -25 89 -67q5 -4 9 -6t10 -6q8 -6 9 -8q-2 -4 -9 -5z" glyph-name="egrave" horiz-adv-x="551" unicode="è"/>
<glyph d="M155 244v150q0 156 -2 183q-2 35 -21 43q-7 3 -15 4q-14 2 -30 2q-5 1 -7 7q2 7 14 7q30 0 89 -2h4.5h3.5h3h2h210q11 1 40 5q2 0 5 2q5 2 7 2q4 -1 4 -8q0 -2 -2 -9q-4 -17 -5 -31q0 -3 -1 -18q-3 -31 -4 -38q-3 -8 -8 -9q-6 2 -7 11q0 18 -5 30q-7 16 -35 22 q-12 2 -28 4q-22 3 -127 3q-5 -2 -5 -9v-231q1 -8 5 -9q126 0 147 2q34 4 43 12q11 11 13 11q4 -2 5 -7q0 -2 -1 -8q-5 -21 -6 -39q-4 -32 -4 -55q-1 -15 -8 -16q-5 2 -6 8q0 18 -4 28q-5 21 -43 26h-2q-32 4 -133 4q-5 -1 -6 -6v-71v-145q2 -46 25 -58q21 -10 80 -10 q65 0 88 9q32 14 39 54q1 3 1 5q4 12 9 13q6 -1 6 -13q0 -28 -11 -77q0 -3 -1 -5q-5 -18 -21 -21q-8 -1 -28 -1q-47 0 -153 3q-38 2 -73 2q-20 0 -38 -1q-34 -2 -51 -2q-13 1 -14 7q2 6 7 7q5 0 17 2q7 2 10 2q16 3 21 32q1 4 2 13q5 36 5 184zM403 818q5 -7 25 -44 q5 -11 -4 -12h-30q-70 -7 -152 -42q-11 -5 -15 -5q-4 2 -5 6q2 5 7 8q56 39 136 85q22 13 28 13q5 -2 10 -9z" glyph-name="eacute" horiz-adv-x="551" unicode="é"/>
<glyph d="M155 244v150q0 156 -2 183q-2 35 -21 43q-7 3 -15 4q-14 2 -30 2q-5 1 -7 7q2 7 14 7q30 0 89 -2h4.5h3.5h3h2h210q11 1 40 5q2 0 5 2q5 2 7 2q4 -1 4 -8q0 -2 -2 -9q-4 -17 -5 -31q0 -3 -1 -18q-3 -31 -4 -38q-3 -8 -8 -9q-6 2 -7 11q0 18 -5 30q-7 16 -35 22 q-12 2 -28 4q-22 3 -127 3q-5 -2 -5 -9v-231q1 -8 5 -9q126 0 147 2q34 4 43 12q11 11 13 11q4 -2 5 -7q0 -2 -1 -8q-5 -21 -6 -39q-4 -32 -4 -55q-1 -15 -8 -16q-5 2 -6 8q0 18 -4 28q-5 21 -43 26h-2q-32 4 -133 4q-5 -1 -6 -6v-71v-145q2 -46 25 -58q21 -10 80 -10 q65 0 88 9q32 14 39 54q1 3 1 5q4 12 9 13q6 -1 6 -13q0 -28 -11 -77q0 -3 -1 -5q-5 -18 -21 -21q-8 -1 -28 -1q-47 0 -153 3q-38 2 -73 2q-20 0 -38 -1q-34 -2 -51 -2q-13 1 -14 7q2 6 7 7q5 0 17 2q7 2 10 2q16 3 21 32q1 4 2 13q5 36 5 184zM412 730l-21 -22q-6 -6 -9 -6 q-5 1 -8 5q-28 31 -79 66q-3 2 -5 3q-8 4 -10 4q-7 -1 -16 -5q-26 -14 -85 -63q-11 -9 -18 -10q-6 1 -7 8q1 4 6 11q23 22 112 104q11 9 16 10q4 -1 16 -10q87 -65 101 -76q12 -8 12 -10t-3 -7q-1 0 -2 -1v-1z" glyph-name="ecircumflex" horiz-adv-x="551" unicode="ê"/>
<glyph d="M155 244v150q0 156 -2 183q-2 35 -21 43q-7 3 -15 4q-14 2 -30 2q-5 1 -7 7q2 7 14 7q30 0 89 -2h4.5h3.5h3h2h210q11 1 40 5q2 0 5 2q5 2 7 2q4 -1 4 -8q0 -2 -2 -9q-4 -17 -5 -31q0 -3 -1 -18q-3 -31 -4 -38q-3 -8 -8 -9q-6 2 -7 11q0 18 -5 30q-7 16 -35 22 q-12 2 -28 4q-22 3 -127 3q-5 -2 -5 -9v-231q1 -8 5 -9q126 0 147 2q34 4 43 12q11 11 13 11q4 -2 5 -7q0 -2 -1 -8q-5 -21 -6 -39q-4 -32 -4 -55q-1 -15 -8 -16q-5 2 -6 8q0 18 -4 28q-5 21 -43 26h-2q-32 4 -133 4q-5 -1 -6 -6v-71v-145q2 -46 25 -58q21 -10 80 -10 q65 0 88 9q32 14 39 54q1 3 1 5q4 12 9 13q6 -1 6 -13q0 -28 -11 -77q0 -3 -1 -5q-5 -18 -21 -21q-8 -1 -28 -1q-47 0 -153 3q-38 2 -73 2q-20 0 -38 -1q-34 -2 -51 -2q-13 1 -14 7q2 6 7 7q5 0 17 2q7 2 10 2q16 3 21 32q1 4 2 13q5 36 5 184zM375 715q-33 0 -41 32 q-1 6 -1 11q0 30 26 40q8 3 17 3q34 0 42 -29q1 -6 1 -11q0 -34 -29 -44q-8 -2 -15 -2zM174 715q-33 0 -41 32q-1 6 -1 11q0 30 26 40q8 3 17 3q34 0 42 -29q1 -6 1 -11q0 -34 -29 -44q-8 -2 -15 -2z" glyph-name="edieresis" horiz-adv-x="551" unicode="ë"/>
<glyph d="M235 394v-150q0 -149 4 -184q4 -33 18 -41q6 -3 14 -4q26 -4 40 -4q6 -1 7 -7q-2 -6 -14 -7q-22 0 -48 0.5t-44 1.5l-18 1q-2 0 -16 -1q-52 -2 -71 -2q-13 1 -14 7q2 6 7 7q11 0 27 4q17 4 22 37q1 4 1 8q5 45 5 184v150q0 156 -2 183q-3 39 -26 45q-1 1 -2 1 q-15 3 -27 3q-6 1 -7 7q2 7 14 7q20 0 74 -2h15h14q54 2 74 2q13 -1 14 -7q-1 -5 -7 -7q-13 0 -22 -2q-24 -5 -29 -27q-1 -9 -2 -20q-1 -29 -1 -183zM245 715q-23 0 -181 59q-28 11 -29 17q0 5 10 8h1q45 13 60 19q14 5 16 5t10 -10q3 -4 5 -6q25 -25 89 -67q5 -4 9 -6 t10 -6q8 -6 9 -8q-2 -4 -9 -5z" glyph-name="igrave" horiz-adv-x="389" unicode="ì"/>
<glyph d="M235 394v-150q0 -149 4 -184q4 -33 18 -41q6 -3 14 -4q26 -4 40 -4q6 -1 7 -7q-2 -6 -14 -7q-22 0 -48 0.5t-44 1.5l-18 1q-2 0 -16 -1q-52 -2 -71 -2q-13 1 -14 7q2 6 7 7q11 0 27 4q17 4 22 37q1 4 1 8q5 45 5 184v150q0 156 -2 183q-3 39 -26 45q-1 1 -2 1 q-15 3 -27 3q-6 1 -7 7q2 7 14 7q20 0 74 -2h15h14q54 2 74 2q13 -1 14 -7q-1 -5 -7 -7q-13 0 -22 -2q-24 -5 -29 -27q-1 -9 -2 -20q-1 -29 -1 -183zM322 818q5 -7 25 -44q5 -11 -4 -12h-30q-70 -7 -152 -42q-11 -5 -15 -5q-4 2 -5 6q2 5 7 8q56 39 136 85q22 13 28 13 q5 -2 10 -9z" glyph-name="iacute" horiz-adv-x="389" unicode="í"/>
<glyph d="M235 394v-150q0 -149 4 -184q4 -33 18 -41q6 -3 14 -4q26 -4 40 -4q6 -1 7 -7q-2 -6 -14 -7q-22 0 -48 0.5t-44 1.5l-18 1q-2 0 -16 -1q-52 -2 -71 -2q-13 1 -14 7q2 6 7 7q11 0 27 4q17 4 22 37q1 4 1 8q5 45 5 184v150q0 156 -2 183q-3 39 -26 45q-1 1 -2 1 q-15 3 -27 3q-6 1 -7 7q2 7 14 7q20 0 74 -2h15h14q54 2 74 2q13 -1 14 -7q-1 -5 -7 -7q-13 0 -22 -2q-24 -5 -29 -27q-1 -9 -2 -20q-1 -29 -1 -183zM321 730l-21 -22q-6 -6 -9 -6q-5 1 -8 5q-28 31 -79 66q-3 2 -5 3q-8 4 -10 4q-7 -1 -16 -5q-26 -14 -85 -63 q-11 -9 -18 -10q-6 1 -7 8q1 4 6 11q23 22 112 104q11 9 16 10q4 -1 16 -10q87 -65 101 -76q12 -8 12 -10t-3 -7q-1 0 -1 -1z" glyph-name="icircumflex" horiz-adv-x="389" unicode="î"/>
<glyph d="M235 394v-150q0 -149 4 -184q4 -33 18 -41q6 -3 14 -4q26 -4 40 -4q6 -1 7 -7q-2 -6 -14 -7q-22 0 -48 0.5t-44 1.5l-18 1q-2 0 -16 -1q-52 -2 -71 -2q-13 1 -14 7q2 6 7 7q11 0 27 4q17 4 22 37q1 4 1 8q5 45 5 184v150q0 156 -2 183q-3 39 -26 45q-1 1 -2 1 q-15 3 -27 3q-6 1 -7 7q2 7 14 7q20 0 74 -2h15h14q54 2 74 2q13 -1 14 -7q-1 -5 -7 -7q-13 0 -22 -2q-24 -5 -29 -27q-1 -9 -2 -20q-1 -29 -1 -183zM294 715q-33 0 -41 32q-1 6 -1 11q0 30 26 40q8 3 17 3q34 0 42 -29q1 -6 1 -11q0 -34 -29 -44q-8 -2 -15 -2zM93 715 q-33 0 -41 32q-1 6 -1 11q0 30 26 40q8 3 17 3q34 0 42 -29q1 -6 1 -11q0 -34 -29 -44q-8 -2 -15 -2z" glyph-name="idieresis" horiz-adv-x="389" unicode="ï"/>
<glyph d="M155 338v56q0 156 -2 183q-2 35 -21 43q-7 3 -15 4q-14 2 -30 2q-5 1 -7 7q2 7 14 7q30 0 87 -2h13h21q63 2 99 2q125 0 182 -11q107 -22 171 -86q86 -87 86 -216q0 -138 -90 -234l-5 -5q-97 -97 -267 -98q-28 0 -124 5q-64 5 -73 5h-4q-18 -1 -31 -1q-36 -2 -52 -2 q-13 1 -14 7q2 6 7 7q11 0 27 4t21 33q1 4 2 12q5 36 5 184v61h-76q-7 2 -6 9l3 17q3 7 11 7h68zM235 304v-45q0 -128 1 -142q3 -51 10 -61q25 -34 146 -34q126 1 207 78q61 57 67 178q1 12 1 23q-1 130 -82 212q-82 83 -221 93q-29 2 -66 2q-43 0 -52 -6q-11 -6 -11 -17 v-246h178q9 0 6 -9l-3 -19q-2 -7 -12 -7h-169z" glyph-name="eth" horiz-adv-x="809" unicode="ð"/>
<glyph d="M182 514l10 -401q2 -78 22 -92q6 -3 12 -5q20 -5 44 -5q6 -2 7 -7q-2 -7 -16 -7q-36 0 -80 2q-11 1 -13 1t-15 -1q-43 -2 -70 -2q-13 1 -14 7q2 6 7 7q20 0 36 5q20 5 23 44q2 20 2 62v487q0 42 12 43q3 0 6.5 -1.5t8 -5.5t6.5 -6t8 -7l5 -6q5 -5 47 -49 q140 -148 231 -241q57 -59 159 -167q40 -42 49 -52l-9 426q-1 61 -17 73q-7 4 -16 6q-21 4 -43 4q-6 1 -7 8q2 6 17 6q27 0 73 -1q15 -1 18.5 -1t17.5 1q35 1 58 1q15 -1 16 -6q-2 -7 -10 -8q-12 0 -21 -2q-24 -5 -29 -28q-2 -14 -2 -46l-2 -498q-1 -60 -7 -61q-10 0 -53 39 q-7 6 -14 13q-40 36 -196 196q-18 19 -33 34q-198 208 -228 241zM487 715q-28 0 -79 26q-4 2 -13 6q-32 17 -55 17q-7 0 -14 -1.5t-12.5 -4.5t-10 -5.5t-9 -7t-6.5 -7t-6 -6.5l-3 -4q-8 -8 -14 -9q-5 1 -6 6q1 6 7 15q29 45 63 64q13 7 23 7q20 0 81 -29q2 -1 3 -2 q34 -16 58 -17q39 0 61 29q7 10 12 11q6 -1 7 -6q-1 -6 -4 -13q-12 -25 -44 -51q-23 -17 -39 -18z" glyph-name="ntilde" horiz-adv-x="833" unicode="ñ"/>
<glyph d="M55 320q0 108 69 199q103 131 280 133q165 0 263 -99q85 -87 85 -220q0 -146 -98 -245q-100 -102 -255 -102q-186 0 -281 133q-63 89 -63 201zM146 343q0 -167 101 -257q74 -65 177 -65q102 0 167 69q71 76 71 219q0 171 -106 256q-68 55 -157 55q-145 0 -211 -107 q-42 -69 -42 -170zM455 715q-23 0 -181 59q-28 11 -29 17q0 5 10 8h1q45 13 60 19q14 5 16 5t10 -10q3 -4 5 -6q25 -25 89 -67q5 -4 9 -6t10 -6q8 -6 9 -8q-2 -4 -9 -5z" glyph-name="ograve" horiz-adv-x="808" unicode="ò"/>
<glyph d="M55 320q0 108 69 199q103 131 280 133q165 0 263 -99q85 -87 85 -220q0 -146 -98 -245q-100 -102 -255 -102q-186 0 -281 133q-63 89 -63 201zM146 343q0 -167 101 -257q74 -65 177 -65q102 0 167 69q71 76 71 219q0 171 -106 256q-68 55 -157 55q-145 0 -211 -107 q-42 -69 -42 -170zM532 818q5 -7 25 -44q5 -11 -4 -12h-30q-70 -7 -152 -42q-11 -5 -15 -5q-4 2 -5 6q2 5 7 8q56 39 136 85q22 13 28 13q5 -2 10 -9z" glyph-name="oacute" horiz-adv-x="808" unicode="ó"/>
<glyph d="M55 320q0 108 69 199q103 131 280 133q165 0 263 -99q85 -87 85 -220q0 -146 -98 -245q-100 -102 -255 -102q-186 0 -281 133q-63 89 -63 201zM146 343q0 -167 101 -257q74 -65 177 -65q102 0 167 69q71 76 71 219q0 171 -106 256q-68 55 -157 55q-145 0 -211 -107 q-42 -69 -42 -170zM531 730l-21 -22q-6 -6 -9 -6q-5 1 -8 5q-28 31 -79 66q-3 2 -5 3q-8 4 -10 4q-7 -1 -16 -5q-26 -14 -85 -63q-11 -9 -18 -10q-6 1 -7 8q1 4 6 11q23 22 112 104q11 9 16 10q4 -1 16 -10q87 -65 101 -76q12 -8 12 -10t-3 -7q-1 0 -1 -1z" glyph-name="ocircumflex" horiz-adv-x="808" unicode="ô"/>
<glyph d="M55 320q0 108 69 199q103 131 280 133q165 0 263 -99q85 -87 85 -220q0 -146 -98 -245q-100 -102 -255 -102q-186 0 -281 133q-63 89 -63 201zM146 343q0 -167 101 -257q74 -65 177 -65q102 0 167 69q71 76 71 219q0 171 -106 256q-68 55 -157 55q-145 0 -211 -107 q-42 -69 -42 -170zM484 715q-28 0 -79 26q-4 2 -13 6q-32 17 -55 17q-7 0 -14 -1.5t-12.5 -4.5t-10 -5.5t-9 -7t-6.5 -7t-5 -6.5l-4 -4q-8 -8 -14 -9q-5 1 -6 6q1 6 7 15q29 45 63 64q13 7 23 7q20 0 81 -29q2 -1 3 -2q34 -16 58 -17q39 0 61 29q7 10 12 11q6 -1 7 -6 q-1 -6 -4 -13q-12 -25 -44 -51q-23 -17 -39 -18z" glyph-name="otilde" horiz-adv-x="808" unicode="õ"/>
<glyph d="M55 320q0 108 69 199q103 131 280 133q165 0 263 -99q85 -87 85 -220q0 -146 -98 -245q-100 -102 -255 -102q-186 0 -281 133q-63 89 -63 201zM146 343q0 -167 101 -257q74 -65 177 -65q102 0 167 69q71 76 71 219q0 171 -106 256q-68 55 -157 55q-145 0 -211 -107 q-42 -69 -42 -170zM504 715q-33 0 -41 32q-1 6 -1 11q0 30 26 40q8 3 17 3q34 0 42 -29q1 -6 1 -11q0 -34 -29 -44q-8 -2 -15 -2zM303 715q-33 0 -41 32q-1 6 -1 11q0 30 26 40q8 3 17 3q34 0 42 -29q1 -6 1 -11q0 -34 -29 -44q-8 -2 -15 -2z" glyph-name="odieresis" horiz-adv-x="808" unicode="ö"/>
<glyph d="M257 370l-1 -1q-33 0 -45 31q-3 10 -3 19q0 37 31 48q9 3 17 3q35 0 48 -31q3 -9 3 -18q1 -35 -30 -48q-10 -3 -20 -3zM468 294v-51h-426v51h426zM256 67v-1q-33 0 -45 31q-3 10 -3 19q0 37 31 48q9 3 17 3q35 0 48 -31q3 -9 3 -18q1 -36 -31 -48q-10 -3 -20 -3z" glyph-name="divide" horiz-adv-x="510" unicode="÷"/>
<glyph d="M179 56l-76 -80q-3 -4 -9 0l-20 17q-4 6 -2 9l77 79q-84 83 -93 214q-1 13 -1 25q0 108 69 200q101 131 279 132q136 -1 228 -70l73 78q6 5 13 -2l17 -17q4 -6 0 -11l-71 -73q89 -90 89 -224q0 -147 -98 -246q-100 -101 -254 -101q-135 1 -221 70zM611 505l-384 -400 q77 -84 196 -84q101 0 166 69q72 76 72 219q0 118 -50 196zM203 134l383 402q-74 84 -189 84q-142 0 -208 -105q-44 -69 -44 -172q1 -125 58 -209z" glyph-name="oslash" horiz-adv-x="808" unicode="ø"/>
<glyph d="M110 269v125q0 156 -2 183q-3 35 -22 43q-7 3 -14 4q-14 2 -30 2q-5 1 -7 7q2 7 14 7q24 0 63 -1l38 -1q3 0 23 1q49 1 66 1q14 -1 15 -7q-1 -5 -8 -7q-12 0 -22 -2q-24 -4 -29 -34q0 -6 -1 -13q-2 -29 -2 -183v-119q0 -141 55 -199q5 -5 10 -9q48 -43 115 -46h16 q77 0 128 51q4 5 8 9q48 58 50 193v13v107q0 129 -2 183q-1 36 -22 44q-6 2 -13 3q-14 2 -30 2q-6 1 -7 7q2 7 14 7q29 0 83 -2h12h15q41 2 59 2q13 -1 14 -7q-2 -5 -7 -7q-12 0 -22 -2q-25 -5 -29 -32q-1 -7 -2 -15q-1 -16 -1 -183v-91q-1 -185 -82 -255q-73 -62 -184 -62 q-119 1 -183 60q-73 67 -77 204v19zM436 715q-23 0 -181 59q-28 11 -29 17q0 5 10 8h1q45 13 60 19q14 5 16 5t10 -10q3 -4 5 -6q25 -25 89 -67q5 -4 9 -6t10 -6q8 -6 9 -8q-2 -4 -9 -5z" glyph-name="ugrave" horiz-adv-x="732" unicode="ù"/>
<glyph d="M110 269v125q0 156 -2 183q-3 35 -22 43q-7 3 -14 4q-14 2 -30 2q-5 1 -7 7q2 7 14 7q24 0 63 -1l38 -1q3 0 23 1q49 1 66 1q14 -1 15 -7q-1 -5 -8 -7q-12 0 -22 -2q-24 -4 -29 -34q0 -6 -1 -13q-2 -29 -2 -183v-119q0 -141 55 -199q5 -5 10 -9q48 -43 115 -46h16 q77 0 128 51q4 5 8 9q48 58 50 193v13v107q0 129 -2 183q-1 36 -22 44q-6 2 -13 3q-14 2 -30 2q-6 1 -7 7q2 7 14 7q29 0 83 -2h12h15q41 2 59 2q13 -1 14 -7q-2 -5 -7 -7q-12 0 -22 -2q-25 -5 -29 -32q-1 -7 -2 -15q-1 -16 -1 -183v-91q-1 -185 -82 -255q-73 -62 -184 -62 q-119 1 -183 60q-73 67 -77 204v19zM494 818q5 -7 25 -44q5 -11 -4 -12h-30q-70 -7 -152 -42q-11 -5 -15 -5q-4 2 -5 6q2 5 7 8q56 39 136 85q22 13 28 13q5 -2 10 -9z" glyph-name="uacute" horiz-adv-x="732" unicode="ú"/>
<glyph d="M110 269v125q0 156 -2 183q-3 35 -22 43q-7 3 -14 4q-14 2 -30 2q-5 1 -7 7q2 7 14 7q24 0 63 -1l38 -1q3 0 23 1q49 1 66 1q14 -1 15 -7q-1 -5 -8 -7q-12 0 -22 -2q-24 -4 -29 -34q0 -6 -1 -13q-2 -29 -2 -183v-119q0 -141 55 -199q5 -5 10 -9q48 -43 115 -46h16 q77 0 128 51q4 5 8 9q48 58 50 193v13v107q0 129 -2 183q-1 36 -22 44q-6 2 -13 3q-14 2 -30 2q-6 1 -7 7q2 7 14 7q29 0 83 -2h12h15q41 2 59 2q13 -1 14 -7q-2 -5 -7 -7q-12 0 -22 -2q-25 -5 -29 -32q-1 -7 -2 -15q-1 -16 -1 -183v-91q-1 -185 -82 -255q-73 -62 -184 -62 q-119 1 -183 60q-73 67 -77 204v19zM493 730l-21 -22q-6 -6 -9 -6q-5 1 -8 5q-28 31 -79 66q-3 2 -5 3q-8 4 -10 4q-7 -1 -16 -5q-26 -14 -85 -63q-11 -9 -18 -10q-6 1 -7 8q1 4 6 11q23 22 112 104q11 9 16 10q4 -1 16 -10q87 -65 101 -76q12 -8 12 -10t-3 -7q-1 0 -1 -1z " glyph-name="ucircumflex" horiz-adv-x="732" unicode="û"/>
<glyph d="M110 269v125q0 156 -2 183q-3 35 -22 43q-7 3 -14 4q-14 2 -30 2q-5 1 -7 7q2 7 14 7q24 0 63 -1l38 -1q3 0 23 1q49 1 66 1q14 -1 15 -7q-1 -5 -8 -7q-12 0 -22 -2q-24 -4 -29 -34q0 -6 -1 -13q-2 -29 -2 -183v-119q0 -141 55 -199q5 -5 10 -9q48 -43 115 -46h16 q77 0 128 51q4 5 8 9q48 58 50 193v13v107q0 129 -2 183q-1 36 -22 44q-6 2 -13 3q-14 2 -30 2q-6 1 -7 7q2 7 14 7q29 0 83 -2h12h15q41 2 59 2q13 -1 14 -7q-2 -5 -7 -7q-12 0 -22 -2q-25 -5 -29 -32q-1 -7 -2 -15q-1 -16 -1 -183v-91q-1 -185 -82 -255q-73 -62 -184 -62 q-119 1 -183 60q-73 67 -77 204v19zM485 715q-33 0 -41 32q-1 6 -1 11q0 30 26 40q8 3 17 3q34 0 42 -29q1 -6 1 -11q0 -34 -29 -44q-8 -2 -15 -2zM284 715q-33 0 -41 32q-1 6 -1 11q0 30 26 40q8 3 17 3q34 0 42 -29q1 -6 1 -11q0 -34 -29 -44q-8 -2 -15 -2z" glyph-name="udieresis" horiz-adv-x="732" unicode="ü"/>
<glyph d="M255 145v73q-1 53 -19 87l-154 243q-1 3 -2 4q-27 40 -58 62q-19 11 -37 12q-8 1 -9 8q2 6 11 6q10 0 49 -1l38 -1h12q40 2 64 2q11 -1 12 -6q-2 -4 -14 -9q-10 -6 -11 -14q1 -12 12 -33l160 -265q4 7 139 237q3 6 5 9q15 26 15 44q-1 17 -14 22q-12 4 -13 10q2 5 14 5 q15 0 46 -1q12 -1 15 -1q2 0 25 1q50 1 61 1q10 -1 11 -5q-2 -8 -11 -9q-22 -1 -41 -11q-19 -12 -44 -42q-36 -42 -143 -221q-21 -36 -28 -49q-12 -33 -11 -85v-73q0 -50 3 -85q3 -36 26 -43l8 -2q23 -4 40 -4q6 -1 7 -7q-2 -6 -14 -7q-37 0 -99 3h-12q-1 0 -14 -1 q-53 -2 -72 -2q-13 1 -14 7q2 6 7 7q11 0 26 4q23 7 26 45q2 35 2 85zM416 818q5 -7 25 -44q5 -11 -4 -12h-30q-70 -7 -152 -42q-11 -5 -15 -5q-4 2 -5 6q2 5 7 8q56 39 136 85q22 13 28 13q5 -2 10 -9z" glyph-name="yacute" horiz-adv-x="576" unicode="ý"/>
<glyph d="M155 244v150q0 156 -2 183q-2 36 -24 44q-6 2 -12 3q-14 2 -30 2q-5 1 -7 7q2 7 14 7q28 0 83 -2h17h13q60 2 92 2q15 0 15 -6q-1 -6 -8 -8q-16 0 -34 -3q-36 -7 -37 -43q-2 -72 -2 -80q35 3 76 3q118 0 175 -49q33 -28 43 -79q3 -13 3 -25q0 -101 -86 -158 q-63 -40 -144 -40q-16 0 -21 1q-8 1 -9 6q2 10 23 10q79 0 126 57q33 39 33 89q-1 73 -49 121q-6 6 -13.5 11.5t-14.5 9.5t-15.5 7t-14.5 5t-14.5 3.5t-13.5 2t-13 1t-11 0.5h-10h-7q-18 0 -36 -6q-7 -4 -7 -16v-210q0 -149 4 -184q4 -34 20 -41q7 -3 14 -4q24 -4 38 -4 q6 -1 7 -7q-2 -6 -14 -7q-21 0 -47.5 0.5t-44.5 1.5l-18 1h-11q-54 -3 -74 -3q-13 1 -14 7q2 6 7 7q11 0 26 4q17 4 22 35l2 10q5 36 5 184z" glyph-name="thorn" horiz-adv-x="586" unicode="þ"/>
</font>
</defs>
</svg>
